osu file format v14

[General]
AudioFilename: audio.mp3
AudioLeadIn: 0
PreviewTime: 144555
Countdown: 0
SampleSet: Soft
StackLeniency: 0.7
Mode: 0
LetterboxInBreaks: 0
WidescreenStoryboard: 0

[Editor]
Bookmarks: 66743,94633,144555,173383
DistanceSpacing: 0.2
BeatDivisor: 8
GridSize: 8
TimelineZoom: 2.1

[Metadata]
Title:Nouri Ue no Cracker
TitleUnicode:脳裏上のクラッカー
Artist:ZUTOMAYO
ArtistUnicode:ずっと真夜中でいいのに。
Creator:Woood13
Version:Journey
Source:
Tags:zuto jpop j-pop j pop shii shiitsuin japanese Zutto Mayonaka de Ii no ni. Hisohiso Banashi Tadashii Itsuwari Kara no Kisho 焦茶
BeatmapID:2947821
BeatmapSetID:1432232

[Difficulty]
HPDrainRate:5.5
CircleSize:4.3
OverallDifficulty:8.6
ApproachRate:9.3
SliderMultiplier:1.92
SliderTickRate:1

[Events]
//Background and Video events
0,0,"bg.jpg",0,0
//Break Periods
//Storyboard Layer 0 (Background)
//Storyboard Layer 1 (Fail)
//Storyboard Layer 2 (Pass)
//Storyboard Layer 3 (Foreground)
//Storyboard Layer 4 (Overlay)
//Storyboard Sound Samples

[TimingPoints]
2973,468.75,4,2,2,60,1,0
2973,-100,4,2,2,60,0,0
8598,-90.9090909090909,4,2,2,60,0,0
9066,-83.3333333333333,4,2,2,60,0,0
10473,-76.9230769230769,4,2,2,70,0,0
16098,-76.9230769230769,4,2,2,70,0,0
16322,468.75,4,2,2,70,1,0
16322,-76.9230769230769,4,2,2,70,0,0
16673,468.75,4,2,2,70,1,0
16673,-76.9230769230769,4,2,2,70,0,0
16907,468.75,4,2,2,70,1,0
16907,-142.857142857143,4,2,2,70,0,0
17993,468.75,4,2,2,45,1,0
17993,-90.9090909090909,4,2,2,45,0,0
31118,-125,4,2,2,45,0,0
32524,-333.333333333333,4,2,2,45,0,0
32993,-100,4,2,2,55,0,0
46118,-142.857142857143,4,2,2,60,0,0
47289,-142.857142857143,4,2,2,65,0,0
47993,-83.3333333333333,4,2,2,65,0,0
55493,-166.666666666667,4,2,2,40,0,0
65805,-111.111111111111,4,2,2,80,0,0
66215,-111.111111111111,4,2,2,5,0,0
66274,-166.666666666666,4,2,2,80,0,0
66684,-166.666666666666,4,2,2,5,0,0
66727,468.75,4,2,2,70,1,0
66727,-68.9655172413793,4,2,2,80,0,0
69070,-60.6060606060606,4,2,2,80,0,0
69539,-68.9655172413793,4,2,2,80,0,0
70008,-60.6060606060606,4,2,2,80,0,0
70477,-68.9655172413793,4,2,2,80,0,0
70945,-60.6060606060606,4,2,2,80,0,0
71414,-68.9655172413793,4,2,2,80,0,0
76570,-57.1428571428571,4,2,2,80,0,0
77039,-60.6060606060606,4,2,2,80,0,0
77977,-60.6060606060606,4,2,2,80,0,0
78914,-68.9655172413793,4,2,2,80,0,0
79852,-95.2380952380952,4,2,2,80,0,0
80086,-86.9565217391304,4,2,2,80,0,0
80320,-80,4,2,2,80,0,0
80555,-74.0740740740741,4,2,2,80,0,0
80789,-68.9655172413793,4,2,2,80,0,0
81023,-64.5161290322581,4,2,2,80,0,0
81258,-285.714285714286,4,2,2,80,0,0
81727,-68.9655172413793,4,2,2,80,0,0
82664,-60.6060606060606,4,2,2,80,0,0
83367,-133.333333333333,4,2,2,80,0,0
83836,-68.9655172413793,4,2,2,80,0,0
85945,-222.222222222222,4,2,2,80,0,0
86414,-68.9655172413793,4,2,2,80,0,0
88582,-68.9655172413793,4,2,2,5,0,0
88641,-68.9655172413793,4,2,2,80,0,0
94852,472.44094488189,4,2,2,80,1,0
95796,458.015267175573,4,2,2,80,1,0
96254,468.75,4,2,2,80,1,0
96743,468.75,4,2,2,70,1,0
96743,-76.9230769230769,4,2,2,70,0,0
111743,-142.857142857143,4,2,2,50,0,0
124868,-83.3333333333334,4,2,2,70,0,0
126743,-83.3333333333334,4,2,2,65,0,0
133774,-111.111111111111,4,2,2,60,0,0
134243,-166.666666666667,4,2,2,45,0,0
143383,-400,4,2,2,60,0,0
144555,-105.263157894737,4,2,2,80,0,0
144907,-105.263157894737,4,2,2,5,0,0
145024,-222.222222222222,4,2,2,80,0,0
145375,-222.222222222222,4,2,2,5,0,0
145493,-68.9655172413793,4,2,2,80,0,0
147836,-60.6060606060606,4,2,2,80,0,0
148305,-68.9655172413793,4,2,2,80,0,0
149243,-68.9655172413793,4,2,2,80,0,0
149711,-60.6060606060606,4,2,2,80,0,0
150180,-68.9655172413793,4,2,2,80,0,0
155336,-57.1428571428571,4,2,2,80,0,0
155805,-60.6060606060606,4,2,2,80,0,0
156743,-68.9655172413793,4,2,2,80,0,0
158618,-95.2380952380952,4,2,2,80,0,0
158852,-86.9565217391304,4,2,2,80,0,0
159086,-80,4,2,2,80,0,0
159321,-74.0740740740741,4,2,2,80,0,0
159555,-68.9655172413793,4,2,2,80,0,0
159789,-64.5161290322581,4,2,2,80,0,0
160024,-285.714285714286,4,2,2,80,0,0
160844,-68.9655172413793,4,2,2,80,0,0
161430,-60.6060606060606,4,2,2,80,0,0
162133,-133.333333333333,4,2,2,80,0,0
162602,-68.9655172413793,4,2,2,80,0,0
164711,-222.222222222222,4,2,2,80,0,0
165180,-68.9655172413793,4,2,2,80,0,0
175024,-181.818181818182,4,2,2,80,0,0
175493,-105.263157894737,4,2,2,65,0,0
188618,-68.9655172413794,4,2,2,75,0,0
190483,468.75,4,2,2,55,1,0
190483,-117.647058823529,4,2,2,55,0,0
196102,468.75,4,2,2,60,1,0
196102,-117.647058823529,4,2,2,60,0,0
197039,-117.647058823529,4,2,2,60,0,0
197214,-117.647058823529,4,2,2,5,0,0
197273,-105.263157894737,4,2,2,60,0,0
197448,-105.263157894737,4,2,2,5,0,0
197508,-95.2380952380952,4,2,2,60,0,0
197683,-95.2380952380952,4,2,2,5,0,0
197742,-86.9565217391304,4,2,2,60,0,0
197917,-86.9565217391304,4,2,2,5,0,0
197977,-86.9565217391304,4,2,2,40,0,0
198445,-95.2380952380952,4,2,2,45,0,0
198680,-86.9565217391304,4,2,2,50,0,0
198914,-80,4,2,2,55,0,0
199148,-74.0740740740741,4,2,2,60,0,0
199383,-68.9655172413793,4,2,2,60,0,0
199617,-64.5161290322581,4,2,2,60,0,0
199852,-64.5161290322581,4,2,2,40,0,0
200320,-95.2380952380952,4,2,2,45,0,0
200555,-86.9565217391304,4,2,2,50,0,0
200789,-80,4,2,2,55,0,0
201023,-74.0740740740741,4,2,2,60,0,0
201258,-68.9655172413793,4,2,2,60,0,0
201492,-64.5161290322581,4,2,2,60,0,0
201727,-60.6060606060606,4,2,2,60,0,0
205477,-80,4,2,2,60,0,0
207352,-131.578947368421,4,2,2,60,0,0
209227,-131.578947368421,4,2,2,65,0,0
210633,-263.157894736842,4,2,2,50,0,0
213211,-57.1428571428571,4,2,2,75,0,1
218602,-95.2380952380952,4,2,2,40,0,0
219305,-86.9565217391304,4,2,2,45,0,0
219539,-80,4,2,2,50,0,0
219773,-74.0740740740741,4,2,2,55,0,0
220008,-68.9655172413793,4,2,2,60,0,0
220242,-64.5161290322581,4,2,2,60,0,0
220477,-64.5161290322581,4,2,2,40,0,0
220945,-64.5161290322581,4,2,2,45,0,0
221180,-64.5161290322581,4,2,2,50,0,0
221414,-64.5161290322581,4,2,2,60,0,0
223992,-86.9565217391304,4,2,2,60,0,0
225633,-181.818181818182,4,2,2,60,0,0
226102,-66.6666666666667,4,2,2,70,0,0
228914,-55.5555555555556,4,2,2,75,0,0
229383,-62.5,4,2,2,75,0,0
229852,-55.5555555555556,4,2,2,80,0,0
230320,-58.8235294117647,4,2,2,85,0,0
231492,-83.3333333333333,4,2,2,60,0,0
231727,-58.8235294117647,4,2,2,70,0,0
233133,-83.3333333333333,4,2,2,70,0,0
233602,-58.8235294117647,4,2,2,70,0,0
235242,-58.8235294117647,4,2,2,80,0,0
237820,-181.818181818182,4,2,2,80,0,0
238113,-181.818181818182,4,2,2,5,0,0
238172,-181.818181818182,4,2,2,80,0,0
238289,-58.8235294117647,4,2,2,80,0,0
238465,-58.8235294117647,4,2,2,5,0,0
238523,-58.8235294117647,4,2,2,80,0,0
247898,-90.9090909090909,4,2,2,80,0,0
248133,-166.666666666667,4,2,2,80,0,0
248602,-76.923076923077,4,2,2,70,0,0
261727,-66.6666666666667,4,2,2,75,0,0
262430,-66.6666666666667,4,2,2,75,0,0
262547,-66.6666666666667,4,2,2,5,0,0
262664,-66.6666666666667,4,2,2,75,0,0
263484,-66.6666666666667,4,2,2,5,0,0
263602,-66.6666666666667,4,2,2,75,0,0
264480,-66.6666666666667,4,2,2,5,0,0
264539,-66.6666666666667,4,2,2,85,0,0
265242,-147.058823529412,4,2,2,85,0,0
265477,-147.058823529412,4,2,2,5,0,0

[Colours]
Combo1 : 255,130,142
Combo2 : 88,199,97
Combo3 : 214,214,214
Combo4 : 50,205,189

[HitObjects]
68,256,2973,6,0,P|80:307|95:351,1,96,2|0,2:0|2:0,2:0:0:0:
89,356,3324,1,2,2:0:0:0:
192,248,3558,1,2,2:0:0:0:
279,363,3793,1,2,2:0:0:0:
286,355,3910,6,0,P|314:361|344:367,1,48,2|0,2:0|2:0,2:0:0:0:
352,254,4144,2,0,P|380:248|410:242,1,48,2|0,2:0|2:0,2:0:0:0:
492,358,4379,1,2,2:0:0:0:
488,347,4496,1,2,2:0:0:0:
488,347,4848,6,0,P|492:321|500:283,1,48,2|0,2:0|2:0,2:0:0:0:
472,232,5082,2,0,L|462:181,2,32,2|2|2,2:0|2:0|2:0,2:0:0:0:
472,194,5316,1,2,2:0:0:0:
402,55,5551,2,0,B|385:72|385:72|385:117,1,48,2|0,2:0|2:0,2:0:0:0:
451,126,5785,6,0,B|468:109|468:109|468:64,1,48,2|0,2:0|2:0,2:0:0:0:
338,219,6019,1,2,2:0:0:0:
328,207,6137,2,0,P|301:214|246:232,1,48,2|0,2:0|2:0,2:0:0:0:
207,151,6371,2,0,P|203:187|195:261,1,96,2|0,2:0|2:0,2:0:0:0:
228,308,6723,6,0,P|184:281|139:297,1,96,2|0,2:0|2:0,2:0:0:0:
85,338,7074,1,2,2:0:0:0:
75,252,7308,1,2,2:0:0:0:
65,165,7543,1,2,2:0:0:0:
54,155,7660,6,0,L|-35:133,1,48,2|0,2:0|2:0,2:0:0:0:
57,55,7894,2,0,L|146:33,1,48,2|0,2:0|2:0,2:0:0:0:
216,143,8129,1,2,2:0:0:0:
196,138,8246,1,2,2:0:0:0:
196,138,8598,6,0,P|187:98|176:33,1,105.600003222656,2|0,2:0|2:0,2:0:0:0:
237,0,8949,1,0,2:0:0:0:
367,196,9066,6,0,P|375:152|388:81,1,115.199996484375,2|0,2:0|2:0,2:0:0:0:
341,31,9418,1,2,2:0:0:0:
196,138,9535,5,2,1:2:0:0:
210,150,9691,6,0,L|222:222,1,38.399998828125,0|0,2:0|2:0,2:0:0:0:
181,326,9887,1,8,3:0:0:0:
208,306,10004,1,10,2:0:0:0:
275,354,10121,1,0,3:0:0:0:
344,293,10238,1,2,2:0:0:0:
492,377,10473,5,6,1:2:0:0:
500,372,10707,2,0,P|505:343|523:255,1,62.3999971435548,2|0,2:0|1:2,2:0:0:0:
473,169,10941,1,10,2:0:0:0:
413,217,11058,2,0,P|418:247|424:278,1,62.3999971435548,2|0,1:2|2:0,2:0:0:0:
281,159,11293,1,8,2:0:0:0:
315,89,11410,6,0,P|358:73|428:135,1,124.79999428711,2|0,1:2|2:0,2:0:0:0:
344,293,11762,1,2,1:2:0:0:
281,243,11879,2,0,P|251:237|207:228,1,62.3999971435548,8|0,2:0|1:2,2:0:0:0:
315,89,12113,1,2,2:0:0:0:
252,139,12230,1,10,2:0:0:0:
177,47,12348,5,2,1:2:0:0:
170,42,12582,2,0,P|135:52|81:69,1,62.3999971435548,2|0,2:0|1:2,2:0:0:0:
21,196,12816,1,10,2:0:0:0:
12,119,12933,2,0,P|46:129|101:146,1,62.3999971435548,2|0,1:2|2:0,2:0:0:0:
219,230,13168,1,8,2:0:0:0:
157,285,13285,6,0,B|147:230|147:230|148:220|148:220|136:153,1,124.79999428711,2|0,1:2|2:0,2:0:0:0:
60,319,13637,1,0,1:2:0:0:
60,319,13754,2,0,P|65:289|71:255,1,62.3999971435548,8|0,2:0|2:0,2:0:0:0:
168,364,13988,1,10,2:0:0:0:
235,319,14105,1,10,2:0:0:0:
305,384,14223,5,6,1:2:0:0:
312,378,14457,2,0,P|342:372|401:361,1,62.3999971435548,2|0,2:0|1:2,2:0:0:0:
484,283,14691,1,10,2:0:0:0:
418,227,14808,2,0,P|413:257|407:316,1,62.3999971435548,2|0,1:2|2:0,2:0:0:0:
323,180,15043,1,8,2:0:0:0:
387,118,15160,6,0,B|436:113|436:113|463:126|463:126|521:121,1,124.79999428711,2|0,1:2|2:0,2:0:0:0:
353,0,15512,1,2,1:2:0:0:
353,0,15629,2,0,P|346:32|339:68,1,62.3999971435548,8|0,2:0|1:2,2:0:0:0:
219,230,15863,2,0,P|215:210|205:149,1,62.3999971435548,2|8,2:0|2:0,2:0:0:0:
346,252,16098,5,10,2:0:0:0:
239,308,16215,1,0,1:2:0:0:
323,180,16322,1,8,2:0:0:0:
396,322,16439,2,0,P|425:331|455:339,1,62.3999971435548,2|0,1:2|2:0,2:0:0:0:
316,351,16673,1,0,1:2:0:0:
428,224,16790,2,0,P|458:214|489:207,1,62.3999971435548,8|0,3:0|1:2,2:0:0:0:
316,351,17024,6,0,P|285:355|239:302,1,100.799996923828,10|0,2:0|2:0,2:0:0:0:
239,308,17492,1,2,2:0:0:0:
72,187,17993,5,2,2:0:0:0:
4,171,18344,1,2,2:0:0:0:
72,187,18696,1,2,2:0:0:0:
4,171,19047,1,2,2:0:0:0:
4,171,19282,6,0,P|1:159|-3:142,3,17.6000005371094,2|2|2|0,2:0|2:0|2:0|2:0,2:0:0:0:
171,324,19868,5,2,2:0:0:0:
239,308,20219,1,2,2:0:0:0:
171,324,20571,1,2,2:0:0:0:
239,308,20922,1,2,2:0:0:0:
239,308,21157,6,0,P|242:296|246:275,3,17.6000005371094,2|2|2|0,2:0|2:0|2:0|2:0,2:0:0:0:
306,150,21743,5,2,2:0:0:0:
290,218,22094,1,2,2:0:0:0:
306,150,22446,1,2,2:0:0:0:
290,218,22797,1,2,2:0:0:0:
290,218,23032,6,0,P|278:221|258:225,3,17.6000005371094,2|2|2|0,2:0|2:0|2:0|2:0,2:0:0:0:
148,150,23618,5,2,2:0:0:0:
156,128,23852,1,2,2:0:0:0:
189,109,24086,1,2,2:0:0:0:
227,112,24321,1,2,2:0:0:0:
306,150,24555,5,2,2:0:0:0:
268,153,24789,1,2,2:0:0:0:
235,134,25024,1,2,2:0:0:0:
227,112,25258,1,2,2:0:0:0:
295,34,25493,5,2,2:0:0:0:
363,18,25844,1,2,2:0:0:0:
295,34,26196,1,2,2:0:0:0:
363,18,26547,1,2,2:0:0:0:
363,18,26782,6,0,P|366:6|369:-12,3,17.6000005371094,2|2|2|0,2:0|2:0|2:0|2:0,2:0:0:0:
439,134,27368,5,2,2:0:0:0:
507,150,27719,1,2,2:0:0:0:
439,134,28071,1,2,2:0:0:0:
507,150,28422,1,2,2:0:0:0:
507,150,28657,6,0,P|510:162|515:181,3,17.6000005371094,2|2|2|0,2:0|2:0|2:0|2:0,2:0:0:0:
352,284,29243,5,2,2:0:0:0:
368,217,29594,1,2,2:0:0:0:
352,284,29946,1,2,2:0:0:0:
368,217,30297,1,2,2:0:0:0:
368,217,30532,6,0,P|359:212|349:207,3,17.6000005371094,2|2|2|0,2:0|2:0|2:0|2:0,2:0:0:0:
471,334,31118,6,0,B|504:321|533:335|533:335|497:294|455:317|457:322|459:328|421:367|381:347,1,230.4,2|0,2:0|2:0,2:0:0:0:
312,367,31938,2,0,P|313:357|316:346,2,12.8
306,373,32055,1,2,2:0:0:0:
237,361,32289,1,2,2:0:0:0:
168,349,32524,2,0,L|159:306,1,43.1999986816407,2|0,2:0|2:0,2:0:0:0:
120,246,32993,6,0,P|78:244|30:287,1,96,2|2,1:2|2:0,2:0:0:0:
0,198,33344,1,0,1:2:0:0:
0,198,33461,2,0,P|2:176|6:146,1,48,2|0,2:0|2:0,2:0:0:0:
67,92,33696,6,0,B|100:88|100:88|122:101|122:101|161:97,1,96,2|2,1:2|2:0,2:0:0:0:
220,47,34047,2,0,P|217:25|213:-3,1,48,0|2,2:0|1:2,2:0:0:0:
328,101,34282,2,0,P|283:97|249:135,1,96,2|2,2:0|1:2,2:0:0:0:
253,142,34633,1,0,2:0:0:0:
327,237,34868,6,0,P|374:243|427:253,1,96,2|2,1:2|2:0,2:0:0:0:
491,346,35219,1,0,1:2:0:0:
491,346,35336,2,0,P|488:323|481:290,1,48,2|0,2:0|2:0,2:0:0:0:
395,365,35571,6,0,B|337:373|337:373|353:366|366:350,1,96,2|2,1:2|2:0,2:0:0:0:
366,350,35922,1,2,2:0:0:0:
300,307,36039,2,0,P|262:299|214:291,1,72,0|0,1:2|2:0,2:0:0:0:
219,302,36274,2,0,P|191:306|165:312,3,48,2|0|2|2,2:0|1:2|2:0|2:0,2:0:0:0:
84,352,36743,6,0,P|68:314|92:269,1,96,2|0,1:2|2:0,2:0:0:0:
92,268,37094,1,0,1:2:0:0:
47,204,37211,1,2,2:0:0:0:
51,195,37446,2,0,P|85:184|117:176,1,48,0|0,1:2|2:0,2:0:0:0:
161,137,37680,6,0,P|124:106|71:111,1,96,2|2,2:0|1:2,2:0:0:0:
165,0,38032,1,0,2:0:0:0:
165,0,38149,2,0,P|171:25|182:64,1,48,2|0,2:0|1:2,2:0:0:0:
248,99,38383,2,0,P|254:73|265:34,1,48,2|0,2:0|2:0,2:0:0:0:
352,3,38618,6,0,P|380:29|365:98,1,96,2|2,1:2|2:0,2:0:0:0:
454,174,38969,1,0,1:2:0:0:
454,174,39086,2,0,P|428:167|388:158,1,48,2|0,2:0|2:0,2:0:0:0:
323,253,39321,2,0,P|346:247|369:241,1,48,2|0,1:2|2:0,2:0:0:0:
438,340,39555,6,0,P|466:300|436:247,1,96,2|0,2:0|1:2,2:0:0:0:
318,128,40024,2,0,P|322:153|328:182,1,48,2|0,1:2|2:0,2:0:0:0:
249,278,40258,1,2,1:2:0:0:
244,270,40375,2,0,P|246:254|249:237,1,24,0|0,2:0|2:0,2:0:0:0:
197,199,40493,6,0,B|142:208|142:208|147:249|152:297,1,144,2|2,1:2|1:2,2:0:0:0:
215,368,40961,1,2,2:0:0:0:
215,368,41196,2,0,P|260:375|295:338,1,96,0|0,1:2|2:0,2:0:0:0:
358,289,41547,1,0,2:0:0:0:
358,289,41664,2,0,P|364:318|371:353,1,48,2|2,1:2|2:0,2:0:0:0:
443,381,41899,2,0,P|449:352|456:317,1,48,0|0,2:0|1:2,2:0:0:0:
501,268,42133,1,0,2:0:0:0:
506,261,42368,6,0,B|493:196|493:196|498:190|498:190|486:110,1,144,2|2,1:2|1:2,2:0:0:0:
437,68,42836,1,2,2:0:0:0:
437,68,43071,2,0,P|395:50|344:74,1,96,2|0,1:2|2:0,2:0:0:0:
281,10,43422,5,0,2:0:0:0:
221,54,43539,2,0,P|181:49|133:42,1,72,2|0,1:2|2:0,2:0:0:0:
142,55,43774,2,0,P|113:59|81:64,3,48,2|0|2|0,2:0|1:2|2:0|2:0,2:0:0:0:
21,18,44243,6,0,P|-1:51|30:112,1,96,2|2,1:2|2:0,2:0:0:0:
50,181,44594,1,2,1:2:0:0:
112,135,44711,1,2,2:0:0:0:
112,135,44946,2,0,P|164:142|211:160,1,96,0|0,1:2|2:0,2:0:0:0:
282,81,45297,5,0,2:0:0:0:
291,89,45414,2,0,L|301:150,1,48,2|0,1:2|2:0,2:0:0:0:
392,70,45649,1,2,2:0:0:0:
354,9,45766,2,0,P|316:-10|251:10,1,96,2|0,1:2|2:0,2:0:0:0:
258,6,46118,6,0,P|224:13|211:17,1,33.5999989746094,0|0,1:2|2:0,2:0:0:0:
174,59,46352,1,0,2:0:0:0:
29,13,46586,2,0,P|45:79|53:152,1,134.399995898438,2|0,2:0|2:0,2:0:0:0:
227,224,47289,6,0,B|252:220|252:220|278:242,1,50.3999984619141,0|0,1:2|2:0,2:0:0:0:
163,285,47524,2,0,P|151:238|155:185,1,100.799996923828,10|0,2:0|2:0,2:0:0:0:
200,108,47993,6,0,P|259:101|304:154,1,115.199996484375,6|0,1:2|2:0,2:0:0:0:
408,238,48344,1,0,2:0:0:0:
470,174,48461,2,0,P|477:137|489:91,1,57.5999982421876,10|0,2:0|2:0,2:0:0:0:
407,99,48696,2,0,P|401:127|394:155,1,57.5999982421876,0|0,1:2|2:0,2:0:0:0:
302,272,48930,6,0,B|344:265|344:265|365:244|365:244|407:237,1,115.199996484375,2|0,1:2|2:0,2:0:0:0:
446,323,49282,1,0,2:0:0:0:
386,365,49399,2,0,P|357:369|332:357,1,57.5999982421876,10|0,2:0|2:0,2:0:0:0:
229,250,49633,2,0,P|182:251|142:288,1,86.3999973632813,2|0,1:2|2:0,2:0:0:0:
146,279,49868,6,0,P|141:252|127:197,1,57.5999982421876,2|0,0:0|0:0,0:0:0:0:
71,79,50102,2,0,P|39:73|3:67,1,57.5999982421876,2|0,1:2|2:0,2:0:0:0:
1,148,50336,2,0,P|32:153|69:160,1,57.5999982421876,10|0,2:0|2:0,2:0:0:0:
255,37,50571,1,2,1:2:0:0:
195,3,50688,1,8,2:0:0:0:
165,65,50805,6,0,L|192:180,1,115.199996484375,2|0,1:2|2:0,2:0:0:0:
191,177,51274,2,0,B|235:163|276:147|276:147|323:168|312:218,1,172.799994726563,8|0,2:0|2:0,2:0:0:0:
333,17,51743,6,0,P|340:53|350:98,1,57.5999982421876,2|0,1:2|2:0,2:0:0:0:
420,180,51977,1,2,2:0:0:0:
408,188,52094,2,0,P|415:152|425:107,1,57.5999982421876,2|8,2:0|2:0,2:0:0:0:
492,24,52328,1,2,2:0:0:0:
476,15,52446,2,0,P|483:51|493:96,1,57.5999982421876,2|0,1:2|2:0,2:0:0:0:
408,188,52680,6,0,P|362:226|303:203,1,115.199996484375,2|2,1:2|2:0,2:0:0:0:
132,253,53149,2,0,B|117:278|117:278|132:308,1,57.5999982421876,10|0,2:0|2:0,2:0:0:0:
199,331,53383,2,0,P|201:278|207:184,1,143.999995605469,2|0,1:2|2:0,2:0:0:0:
206,187,53735,5,8,2:0:0:0:
88,62,53852,2,0,P|92:96|97:131,1,57.5999982421876,2|0,1:2|2:0,2:0:0:0:
169,103,54086,2,0,P|164:68|160:34,1,57.5999982421876,10|0,2:0|2:0,2:0:0:0:
276,127,54321,1,2,1:2:0:0:
333,70,54438,1,8,2:0:0:0:
261,7,54555,5,2,1:2:0:0:
253,15,54672,1,0,2:0:0:0:
245,23,54789,2,8,P|248:48|252:62,2,28.7999991210938,8|8|8,3:0|3:0|3:0,3:0:0:0:
276,127,55023,5,0,1:2:0:0:
292,133,55141,1,8,3:0:0:0:
349,64,55258,5,8,3:0:0:0:
333,70,55375,1,8,3:0:0:0:
407,150,55493,5,0,0:0:0:0:
422,229,55844,1,0,1:2:0:0:
437,304,56196,1,2,1:2:0:0:
431,312,56430,6,0,P|391:332|346:315,1,86.3999973632813,2|2,1:2|1:2,2:0:0:0:
240,194,57133,1,2,1:2:0:0:
301,134,57368,5,2,1:2:0:0:
349,209,57719,1,0,1:2:0:0:
292,267,58071,1,2,1:2:0:0:
240,194,58305,6,0,P|199:196|168:232,1,86.3999973632813,2|0,1:2|1:2,2:0:0:0:
37,166,59008,1,2,1:2:0:0:
96,107,59243,5,2,1:2:0:0:
105,205,59594,1,2,1:2:0:0:
117,304,59946,1,0,1:2:0:0:
103,315,60180,6,0,P|60:304|15:298,1,86.3999973632813,2|0,1:2|1:2,2:0:0:0:
29,164,60883,1,2,1:2:0:0:
105,205,61118,6,0,P|109:230|115:254,2,38.399998828125,2|2|2,1:2|2:0|2:0,2:0:0:0:
150,139,61586,2,0,P|154:113|160:90,2,38.399998828125,2|2|2,2:0|2:0|2:0,2:0:0:0:
199,226,62055,2,0,P|237:230|281:183,1,76.7999976562501,2|2,2:0|2:0,2:0:0:0:
268,210,62524,1,2,2:0:0:0:
360,270,62836,1,0,2:0:0:0:
370,273,62993,1,2,2:0:0:0:
321,348,63461,5,2,2:0:0:0:
242,359,63930,1,2,2:0:0:0:
165,372,64399,2,0,B|147:381|147:381|124:378,1,43.1999986816407,2|0,2:0|2:0,2:0:0:0:
119,370,64633,5,2,2:0:0:0:
256,192,64750,12,0,65688,2:0:0:0:
268,137,65805,6,0,B|228:124|201:161|203:162|205:165|185:204|126:189,1,151.199995385742,2|0,2:0|2:0,2:0:0:0:
130,186,66274,2,0,B|159:184|177:201|166:207|186:224|223:226,1,100.799996923828,2|0,2:0|2:0,2:0:0:0:
325,272,66727,6,0,P|333:231|345:172,1,69.6000021240235,6|0,1:2|2:0,2:0:0:0:
434,64,66961,1,2,2:0:0:0:
461,168,67078,1,0,1:2:0:0:
364,127,67195,2,0,P|333:118|298:104,1,69.6000021240235,10|0,2:0|1:2,2:0:0:0:
428,262,67430,2,0,P|458:253|493:239,1,69.6000021240235,2|8,2:0|2:0,2:0:0:0:
356,375,67664,6,0,P|311:375|288:338,1,69.6000021240235,2|8,1:2|2:0,2:0:0:0:
294,359,67898,1,2,2:0:0:0:
191,224,68016,1,0,1:2:0:0:
184,311,68133,2,0,P|229:311|268:230,1,139.200004248047,10|2,2:0|2:0,2:0:0:0:
269,235,68484,1,0,2:0:0:0:
218,86,68602,6,0,P|154:78|77:68,1,139.200004248047,2|0,1:2|2:0,2:0:0:0:
130,170,68953,1,0,1:2:0:0:
285,0,69070,2,0,P|292:36|308:106,1,79.2000007553101,10|0,2:0|1:2,0:0:0:0:
335,187,69305,1,0,2:0:0:0:
261,152,69422,1,8,2:0:0:0:
409,38,69539,6,0,P|470:17|506:87,1,139.200004248047,2|0,1:2|2:0,2:0:0:0:
508,69,69891,1,0,1:2:0:0:
420,207,70008,2,0,B|413:175|413:175|416:161|416:161|408:128,1,79.2000007553101,10|0,2:0|2:0,2:0:0:0:
497,321,70242,1,0,1:2:0:0:
414,310,70359,1,8,2:0:0:0:
332,297,70477,6,0,P|271:307|176:325,1,139.200004248047,2|0,1:2|2:0,2:0:0:0:
124,384,70828,1,0,1:2:0:0:
22,286,70945,2,0,P|14:331|8:370,1,79.2000007553101,10|0,2:0|1:2,2:0:0:0:
134,253,71180,1,0,2:0:0:0:
50,202,71297,1,8,2:0:0:0:
163,77,71414,6,0,P|201:118|181:198,1,139.200004248047,2|0,1:2|2:0,2:0:0:0:
309,55,71766,1,0,1:2:0:0:
309,55,71883,2,0,P|335:32|369:33,1,69.6000021240235,10|0,2:0|1:2,2:0:0:0:
403,145,72117,2,0,P|377:167|343:166,1,69.6000021240235,2|8,2:0|2:0,2:0:0:0:
134,253,72352,5,2,1:2:0:0:
186,194,72469,2,0,P|236:204|279:214,1,69.6000021240235,8|2,2:0|2:0,2:0:0:0:
168,335,72703,1,0,1:2:0:0:
220,276,72820,2,0,P|270:286|313:296,1,69.6000021240235,10|0,2:0|1:2,2:0:0:0:
368,360,73055,1,2,2:0:0:0:
379,293,73172,1,8,2:0:0:0:
389,226,73289,5,2,1:2:0:0:
465,220,73406,1,0,1:2:0:0:
500,287,73523,1,10,1:2:0:0:
451,347,73641,1,8,1:2:0:0:
389,226,73758,5,10,2:0:0:0:
419,155,73875,1,0,2:0:0:0:
361,85,73992,1,2,1:2:0:0:
419,9,74109,1,0,1:2:0:0:
351,96,74227,6,0,P|294:109|212:130,1,139.200004248047,6|0,1:2|2:0,2:0:0:0:
185,195,74578,1,0,1:2:0:0:
81,61,74695,2,0,P|102:94|80:141,1,69.6000021240235,10|0,2:0|1:2,2:0:0:0:
0,234,74930,2,0,P|18:199|69:194,1,69.6000021240235,2|8,2:0|2:0,2:0:0:0:
158,303,75164,5,2,1:2:0:0:
185,195,75281,1,8,2:0:0:0:
166,316,75398,1,0,1:2:0:0:
166,316,75633,2,0,P|176:359|183:399,1,69.6000021240235,10|0,2:0|1:2,2:0:0:0:
287,247,75867,2,0,P|293:212|301:178,1,69.6000021240235,2|8,2:0|2:0,2:0:0:0:
408,356,76102,6,0,P|474:355|508:292,1,139.200004248047,2|0,1:2|2:0,2:0:0:0:
509,298,76453,1,0,1:2:0:0:
408,189,76570,2,0,B|449:145|455:75|455:75|449:147|472:199,1,252.000002403259,10|0,2:0|2:0,2:0:0:0:
284,277,77039,6,0,B|241:204|309:172|309:169|309:165|376:138|342:67,1,237.60000226593,2|2,1:2|1:2,2:0:0:0:
267,0,77508,6,0,B|232:69|299:97|299:100|299:104|367:136|324:208,1,237.60000226593,10|8,2:0|2:0,2:0:0:0:
251,348,77977,6,0,P|184:336|84:319,1,158.40000151062,6|0,1:2|2:0,2:0:0:0:
30,384,78328,1,0,1:2:0:0:
160,238,78445,2,0,P|145:202|43:209,1,158.40000151062,10|0,2:0|2:0,2:0:0:0:
41,220,78797,1,0,2:0:0:0:
49,225,78914,6,0,P|44:195|35:155,1,69.6000021240235,2|8,1:2|2:0,2:0:0:0:
92,57,79148,1,2,1:2:0:0:
151,0,79266,1,0,1:2:0:0:
218,47,79383,2,0,P|205:78|196:113,1,69.6000021240235,10|0,2:0|1:2,2:0:0:0:
275,141,79617,2,0,P|283:106|295:73,1,69.6000021240235,2|0,2:0|1:2,2:0:0:0:
488,357,79852,6,0,P|477:336|443:323,1,50.3999984619141,10|0,2:0|2:0,2:0:0:0:
429,254,80086,2,0,P|406:246|373:260,1,55.2000010528565,10|0,2:0|2:0,2:0:0:0:
314,222,80320,2,0,P|292:233|281:268,1,60,10|0,2:0|2:0,2:0:0:0:
210,280,80555,2,0,P|202:304|215:339,1,64.8000002471924,10|0,2:0|2:0,2:0:0:0:
339,378,80789,6,0,P|328:351|288:334,1,69.6000021240235,10|0,2:0|2:0,2:0:0:0:
210,280,81023,2,0,P|179:271|140:294,1,74.400000567627,2|0,1:2|1:2,2:0:0:0:
55,384,81258,6,0,P|73:377|86:357,1,41.9999987182618,10|0,2:0|2:0,2:0:0:0:
98,41,82078,6,0,P|115:44|134:46,1,34.8000010620118,0|0,1:2|2:0,2:0:0:0:
148,44,82195,2,0,B|170:86|137:113|137:116|137:119|113:142|145:199,1,139.200004248047,10|0,2:0|1:2,2:0:0:0:
135,177,82547,1,2,2:0:0:0:
135,177,82664,6,0,P|205:162|303:149,1,158.40000151062,10|0,2:0|2:0,2:0:0:0:
329,86,83016,6,0,P|316:24|314:87,1,158.40000151062,10|0,2:0|2:0,2:0:0:0:
409,146,83367,6,0,B|426:143|444:143|444:143|474:123|474:123|491:122|513:119,1,108.000004119873,14|0,2:0|2:0,2:0:0:0:
510,119,83836,1,2,1:2:0:0:
428,225,84070,2,0,P|394:233|344:241,1,69.6000021240235,8|0,2:0|2:0,2:0:0:0:
293,73,84305,1,2,1:2:0:0:
337,133,84422,1,8,2:0:0:0:
274,180,84539,6,0,P|239:174|205:167,1,69.6000021240235,2|8,1:2|2:0,2:0:0:0:
102,23,84773,1,2,2:0:0:0:
109,14,85008,6,0,P|115:48|122:82,1,69.6000021240235,10|0,2:0|2:0,2:0:0:0:
0,131,85242,1,2,2:0:0:0:
0,121,85477,6,0,P|88:148|139:251,1,208.800006372071,2|0,1:2|2:0,2:0:0:0:
128,254,85945,2,0,B|108:229|108:229|120:198,1,64.799998022461,10|8,2:0|2:0,2:0:0:0:
218,101,86414,6,0,P|226:138|237:184,1,69.6000021240235,2|8,1:2|2:0,2:0:0:0:
233,168,86648,1,0,2:0:0:0:
319,313,86766,1,2,2:0:0:0:
374,217,86883,1,8,2:0:0:0:
374,217,87117,2,0,P|339:225|279:239,1,69.6000021240235,2|8,1:2|2:0,2:0:0:0:
302,117,87352,5,0,1:2:0:0:
331,111,87469,1,8,2:0:0:0:
389,59,87586,1,10,2:0:0:0:
418,63,87703,1,0,1:2:0:0:
484,216,87820,5,10,2:0:0:0:
416,155,87937,1,0,2:0:0:0:
495,115,88055,1,2,2:0:0:0:
495,115,88289,6,0,B|501:205|458:149|463:250,1,139.200004248047,10|2,2:0|2:0,2:0:0:0:
458,253,88641,1,0,2:0:0:0:
477,369,88758,2,0,B|475:347|495:336|511:332|511:332|458:320|398:319|342:379,1,208.800006372071,10|0,2:0|2:0,2:0:0:0:
281,373,89227,6,0,P|251:366|196:351,1,69.6000021240235,2|0,1:2|2:0,2:0:0:0:
111,186,89461,1,2,2:0:0:0:
197,240,89578,1,0,2:0:0:0:
127,312,89695,2,0,P|120:341|105:397,1,69.6000021240235,10|2,2:0|2:0,2:0:0:0:
41,264,89930,1,2,2:0:0:0:
111,186,90047,1,2,1:2:0:0:
29,137,90164,5,2,1:2:0:0:
23,148,90281,2,0,P|30:177|45:233,1,69.6000021240235,10|2,2:0|2:0,2:0:0:0:
194,48,90516,1,2,1:2:0:0:
188,37,90633,2,0,P|155:27|114:18,1,69.6000021240235,10|2,2:0|2:0,2:0:0:0:
197,186,90867,1,2,1:2:0:0:
197,186,91102,5,0,1:2:0:0:
267,133,91219,1,8,2:0:0:0:
319,215,91336,2,0,L|301:288,1,69.6000021240235,2|0,1:2|2:0,2:0:0:0:
404,368,91570,1,10,2:0:0:0:
404,368,91805,1,2,1:2:0:0:
485,308,91922,1,0,2:0:0:0:
393,259,92039,5,2,1:2:0:0:
401,267,92156,2,0,L|419:340,1,69.6000021240235,10|2,2:0|2:0,2:0:0:0:
488,220,92391,1,2,2:0:0:0:
496,212,92508,2,0,L|514:139,1,69.6000021240235,10|0,2:0|2:0,2:0:0:0:
414,36,92742,1,2,2:0:0:0:
414,36,92977,6,0,B|381:25|381:25|366:56,1,69.6000021240235,2|0,1:2|2:0,2:0:0:0:
316,221,93211,1,2,2:0:0:0:
404,153,93328,1,2,2:0:0:0:
309,105,93445,1,10,2:0:0:0:
309,105,93680,2,0,P|275:100|229:95,1,69.6000021240235,2|8,2:0|2:0,2:0:0:0:
153,18,93914,6,0,B|107:31|107:31|127:111,1,104.400003186035,2|0,1:2|2:0,2:0:0:0:
120,85,94148,1,2,1:2:0:0:
174,186,94266,1,0,1:2:0:0:
239,96,94383,2,0,P|245:62|255:17,1,69.6000021240235,10|0,2:0|1:2,0:0:0:0:
228,104,94617,6,0,P|148:111|103:177,1,139.200004248047,10|0,2:0|2:0,2:0:0:0:
53,344,95796,1,8,3:0:0:0:
75,325,95910,1,2,1:0:0:0:
107,339,96025,1,8,3:0:0:0:
205,218,96139,1,8,3:0:0:0:
149,265,96254,6,0,P|176:316|182:380,1,120,10|0,2:0|2:0,2:0:0:0:
262,323,96743,5,6,1:2:0:0:
270,313,96977,2,0,P|302:321|349:333,1,62.3999971435548,2|0,2:0|1:2,2:0:0:0:
428,275,97211,1,10,2:0:0:0:
388,208,97328,2,0,P|357:215|327:223,1,62.3999971435548,2|0,1:2|2:0,2:0:0:0:
215,97,97563,1,8,2:0:0:0:
295,44,97680,6,0,B|290:102|290:102|283:107|283:107|277:170,1,124.79999428711,2|0,1:2|2:0,2:0:0:0:
171,288,98032,1,2,1:2:0:0:
148,208,98149,2,0,P|178:214|209:220,1,62.3999971435548,8|0,2:0|1:2,2:0:0:0:
92,73,98383,1,2,2:0:0:0:
78,159,98500,1,10,2:0:0:0:
159,125,98618,5,2,1:2:0:0:
169,118,98852,2,0,P|175:82|184:43,1,62.3999971435548,2|0,2:0|1:2,2:0:0:0:
69,238,99086,1,10,2:0:0:0:
11,190,99203,2,0,P|4:154|-4:115,1,62.3999971435548,2|0,1:2|2:0,2:0:0:0:
209,220,99438,1,8,2:0:0:0:
171,288,99555,6,0,P|114:303|81:235,1,124.79999428711,2|0,1:2|2:0,2:0:0:0:
198,158,99907,1,0,1:2:0:0:
198,158,100024,2,0,P|203:188|209:222,1,62.3999971435548,8|0,2:0|1:2,2:0:0:0:
314,353,100258,1,10,2:0:0:0:
241,315,100375,1,10,2:0:0:0:
344,183,100493,5,6,1:2:0:0:
353,194,100727,2,0,P|348:224|342:258,1,62.3999971435548,2|0,2:0|1:2,2:0:0:0:
198,158,100961,1,10,2:0:0:0:
239,94,101078,2,0,P|268:87|305:81,1,62.3999971435548,2|0,1:2|2:0,2:0:0:0:
417,241,101313,1,8,2:0:0:0:
353,194,101430,6,0,B|368:110|368:110|374:147|391:165,1,124.79999428711,2|0,1:2|2:0,2:0:0:0:
480,68,101782,1,2,1:2:0:0:
480,68,101899,2,0,P|487:100|494:136,1,62.3999971435548,8|0,2:0|1:2,2:0:0:0:
348,19,102133,1,2,2:0:0:0:
300,81,102250,1,8,2:0:0:0:
227,20,102368,6,0,P|196:25|165:32,1,62.3999971435548,4|0,1:2|2:0,2:0:0:0:
99,170,102602,1,2,2:0:0:0:
99,170,102719,1,0,1:2:0:0:
79,93,102836,2,0,P|109:97|140:104,1,62.3999971435548,10|2,2:0|2:0,2:0:0:0:
268,220,103071,1,0,1:2:0:0:
224,152,103188,1,8,2:0:0:0:
161,239,103305,6,0,P|166:272|173:305,1,62.3999971435548,2|8,1:2|2:0,2:0:0:0:
304,380,103539,1,2,1:2:0:0:
367,339,103657,1,2,1:2:0:0:
307,293,103774,2,0,P|274:298|241:305,1,62.3999971435548,10|0,2:0|2:0,2:0:0:0:
366,119,104008,1,2,1:2:0:0:
358,193,104125,1,10,2:0:0:0:
224,152,104243,5,6,1:2:0:0:
216,141,104477,2,0,P|211:112|193:24,1,62.3999971435548,2|0,2:0|1:2,2:0:0:0:
321,0,104711,1,10,2:0:0:0:
377,57,104828,2,0,P|371:87|365:118,1,62.3999971435548,2|0,1:2|2:0,2:0:0:0:
303,244,105063,1,8,2:0:0:0:
358,193,105180,6,0,P|411:203|491:221,1,124.79999428711,2|0,1:2|2:0,2:0:0:0:
370,377,105532,1,2,1:2:0:0:
316,327,105649,2,0,P|286:333|242:342,1,62.3999971435548,8|0,2:0|1:2,2:0:0:0:
157,295,105883,1,2,2:0:0:0:
223,231,106000,1,10,2:0:0:0:
180,379,106118,5,2,1:2:0:0:
174,371,106352,2,0,P|180:335|188:279,1,62.3999971435548,2|0,2:0|1:2,2:0:0:0:
64,229,106586,1,10,2:0:0:0:
131,159,106703,2,0,P|135:189|141:220,1,62.3999971435548,2|0,1:2|2:0,2:0:0:0:
28,378,106938,1,8,2:0:0:0:
3,311,107055,6,0,P|53:273|117:292,1,124.79999428711,2|0,1:2|2:0,2:0:0:0:
184,309,107407,1,0,1:2:0:0:
248,234,107524,2,0,P|253:204|259:170,1,62.3999971435548,8|0,2:0|2:0,2:0:0:0:
210,86,107758,1,10,2:0:0:0:
268,165,107875,1,10,2:0:0:0:
334,73,107993,5,6,1:2:0:0:
340,63,108227,2,0,P|370:57|429:46,1,62.3999971435548,2|0,2:0|1:2,2:0:0:0:
512,160,108461,1,10,2:0:0:0:
437,176,108578,2,0,P|443:146|454:87,1,62.3999971435548,2|0,1:2|2:0,2:0:0:0:
508,56,108813,1,8,2:0:0:0:
418,186,108930,6,0,B|394:185|379:192|379:192|339:170|339:170|321:177|287:178,1,124.79999428711,2|0,1:2|2:0,2:0:0:0:
210,86,109282,1,2,1:2:0:0:
281,27,109399,2,0,P|285:61|293:101,1,62.3999971435548,8|0,2:0|1:2,2:0:0:0:
183,221,109633,2,0,P|188:190|192:159,1,62.3999971435548,2|8,2:0|2:0,2:0:0:0:
74,44,109868,6,0,B|92:61|108:75|108:75|93:92|71:122,1,93.5999957153322,10|0,2:0|2:0,2:0:0:0:
79,112,110102,1,8,2:0:0:0:
7,220,110219,2,0,B|-21:188|14:156|45:176|34:215,1,93.5999957153322,0|0,1:2|2:0,2:0:0:0:
94,250,110453,2,0,P|136:257|205:266,1,93.5999957153322,2|0,2:0|2:0,2:0:0:0:
186,263,110688,2,0,P|190:292|194:308,1,31.1999985717774,0|0,1:2|2:0,2:0:0:0:
194,301,110805,1,10,2:0:0:0:
305,371,111743,5,2,1:2:0:0:
377,354,112094,1,0,1:2:0:0:
328,300,112446,1,0,1:2:0:0:
378,216,112680,6,0,P|421:209|480:273,1,134.399995898438,2|0,3:0|2:0,2:0:0:0:
469,272,113383,1,2,1:2:0:0:
453,194,113618,5,2,1:2:0:0:
444,124,113969,1,0,1:2:0:0:
435,54,114321,1,0,1:2:0:0:
358,0,114555,6,0,P|293:0|256:54,1,134.399995898438,2|2,3:0|2:0,2:0:0:0:
264,62,115258,1,2,1:2:0:0:
177,13,115493,1,2,1:2:0:0:
131,66,115844,1,0,1:2:0:0:
75,21,116196,1,0,1:2:0:0:
18,110,116430,6,0,P|29:165|42:237,1,117.599996411133,2|0,3:0|2:0,2:0:0:0:
40,225,116899,2,0,B|73:235|73:235|103:212,1,67.1999979492188,2|0,1:0|2:0,2:0:0:0:
245,293,117368,6,0,B|280:355|168:387|150:318|148:247|212:219,1,235.199992822266,2|0,1:2|2:0,2:0:0:0:
216,135,118305,2,0,P|234:199|216:222,1,100.799996923828,2|0,1:2|2:0,2:0:0:0:
201,225,118774,2,0,L|165:216,3,33.5999989746094,0|0|0|0,1:2|2:0|2:0|2:0,2:0:0:0:
216,135,119243,5,2,1:2:0:0:
276,98,119594,1,2,1:2:0:0:
323,150,119946,1,0,1:2:0:0:
377,81,120180,6,0,B|429:77|429:77|457:93|457:93|511:88,1,134.399995898438,2|0,3:0|2:0,2:0:0:0:
512,81,120883,1,0,1:2:0:0:
436,162,121118,5,2,1:2:0:0:
447,231,121469,1,2,1:2:0:0:
458,300,121821,1,2,1:2:0:0:
407,384,122055,6,0,B|429:374|457:373|457:373|368:356,1,134.399995898438,2|0,3:0|2:0,2:0:0:0:
368,350,122758,1,2,1:2:0:0:
271,384,122993,6,0,P|235:342|252:265,1,134.399995898438,2|2,1:2|2:0,2:0:0:0:
195,181,123813,1,2,2:0:0:0:
195,181,123930,2,0,P|161:174|116:162,1,67.1999979492188,2|2,3:0|2:0,2:0:0:0:
76,112,124399,2,0,P|42:118|-3:131,1,67.1999979492188,2|2,2:0|2:0,2:0:0:0:
104,277,124750,1,8,2:0:0:0:
104,277,124809,1,8,2:0:0:0:
104,277,124868,6,0,P|119:231|130:157,1,115.199996484375,6|0,1:2|2:0,2:0:0:0:
197,54,125219,1,8,2:0:0:0:
204,62,125336,1,10,2:0:0:0:
243,67,125453,1,8,2:0:0:0:
282,75,125571,1,8,2:0:0:0:
322,79,125688,1,8,2:0:0:0:
419,173,125805,5,2,1:2:0:0:
377,148,125922,1,8,2:0:0:0:
322,156,126039,1,8,2:0:0:0:
297,210,126157,1,8,2:0:0:0:
420,315,126274,5,2,1:2:0:0:
435,252,126391,1,8,2:0:0:0:
372,235,126508,1,10,2:0:0:0:
360,297,126625,1,8,2:0:0:0:
297,353,126743,6,0,P|234:360|177:365,1,115.199996484375,6|0,1:2|2:0,2:0:0:0:
177,373,127094,1,0,2:0:0:0:
62,261,127211,2,0,P|69:298|81:344,1,57.5999982421876,10|0,2:0|2:0,2:0:0:0:
146,298,127446,2,0,P|138:260|127:215,1,57.5999982421876,0|0,1:2|2:0,2:0:0:0:
225,163,127680,6,0,B|189:115|189:115|123:138,1,115.199996484375,2|0,1:2|2:0,2:0:0:0:
136,133,128032,1,0,2:0:0:0:
285,31,128149,2,0,P|280:68|277:95,1,57.5999982421876,10|0,2:0|2:0,2:0:0:0:
344,178,128383,2,0,P|352:107|359:66,1,86.3999973632813,2|0,1:2|2:0,2:0:0:0:
361,88,128618,6,0,P|356:123|355:147,1,57.5999982421876,2|0,0:0|0:0,0:0:0:0:
443,263,128852,2,0,P|444:291|448:320,1,57.5999982421876,0|0,1:2|0:0,0:0:0:0:
494,163,129086,2,0,P|467:148|441:149,1,57.5999982421876,8|0,2:0|0:0,0:0:0:0:
327,352,129321,1,2,1:2:0:0:
267,306,129438,1,8,2:0:0:0:
301,240,129555,6,0,P|341:282|324:349,1,115.199996484375,2|0,1:2|2:0,2:0:0:0:
334,335,130024,2,0,P|272:343|216:354,1,115.199996484375,8|0,2:0|2:0,2:0:0:0:
214,362,130375,1,0,2:0:0:0:
102,307,130493,6,0,P|94:285|74:230,1,57.5999982421876,2|0,1:2|2:0,2:0:0:0:
145,154,130727,1,2,2:0:0:0:
212,197,130844,2,0,P|202:224|192:251,1,57.5999982421876,2|8,2:0|2:0,2:0:0:0:
138,158,131078,1,2,2:0:0:0:
141,78,131196,2,0,P|169:73|197:67,1,57.5999982421876,2|0,1:2|2:0,2:0:0:0:
146,161,131430,6,0,P|86:175|13:195,1,115.199996484375,2|2,1:2|2:0,2:0:0:0:
283,75,131899,2,0,B|292:48|292:48|273:26,1,57.5999982421876,10|0,2:0|2:0,2:0:0:0:
268,148,132133,2,0,B|316:158|355:129|327:120|364:96|413:110,1,143.999995605469,2|0,1:2|2:0,2:0:0:0:
406,111,132485,5,8,2:0:0:0:
461,170,132602,2,0,P|465:204|470:239,1,57.5999982421876,2|0,1:2|2:0,2:0:0:0:
396,240,132836,2,0,P|391:205|387:171,1,57.5999982421876,10|0,2:0|2:0,2:0:0:0:
285,323,133071,1,2,1:2:0:0:
354,351,133188,1,8,2:0:0:0:
296,243,133305,6,0,P|269:252|227:264,1,57.5999982421876,2|0,1:2|1:2,2:0:0:0:
184,344,133539,1,10,0:0:0:0:
184,344,133774,2,0,P|119:333|56:322,1,129.599996044922,2|0,1:2|2:0,2:0:0:0:
48,329,134243,5,0,1:2:0:0:
3,268,134594,1,0,1:2:0:0:
48,207,134946,1,2,1:2:0:0:
7,125,135180,6,0,P|3:88|-1:31,1,86.3999973632813,2|2,1:2|1:2,2:0:0:0:
0,38,135883,1,2,1:2:0:0:
67,0,136118,5,2,1:2:0:0:
143,12,136469,1,0,1:2:0:0:
219,24,136821,1,2,1:2:0:0:
288,100,137055,6,0,P|329:98|360:62,1,86.3999973632813,2|0,1:2|1:2,2:0:0:0:
358,66,137758,1,2,1:2:0:0:
437,11,137993,5,2,1:2:0:0:
499,57,138344,1,2,1:2:0:0:
450,118,138696,1,0,1:2:0:0:
494,216,138930,6,0,B|459:210|459:210|445:216|445:216|406:209,1,86.3999973632813,2|0,1:2|1:2,2:0:0:0:
408,208,139633,1,2,1:2:0:0:
346,262,139868,6,0,L|293:273,2,38.399998828125,2|2|2,1:2|2:0|2:0,2:0:0:0:
248,314,140336,2,0,L|195:303,2,38.399998828125,2|2|2,2:0|2:0|2:0,2:0:0:0:
166,238,140805,2,0,B|115:248|115:248|124:301|127:322,2,115.199996484375,2|2|2,2:0|2:0|1:2,2:0:0:0:
266,171,142211,6,0,P|238:165|206:160,1,57.5999982421876,0|0,1:2|2:0,2:0:0:0:
223,81,142680,2,0,P|250:86|283:92,1,57.5999982421876,0|0,1:2|2:0,2:0:0:0:
332,30,143149,2,0,B|349:20|349:20|372:23,1,43.1999986816407,0|0,1:2|2:0,2:0:0:0:
379,31,143383,5,0,1:2:0:0:
256,192,143500,12,0,144438,2:0:0:0:
134,6,144555,6,0,P|60:19|-4:31,1,136.799996347046,2|0,2:0|2:0,2:0:0:0:
48,95,145024,2,0,P|79:89|111:83,1,64.799998022461,2|0,2:0|2:0,2:0:0:0:
239,240,145493,6,0,P|255:210|247:168,1,69.6000021240235,6|0,1:2|2:0,2:0:0:0:
111,82,145727,1,2,2:0:0:0:
179,197,145844,1,0,1:2:0:0:
244,82,145961,2,0,P|276:93|309:104,1,69.6000021240235,10|0,2:0|1:2,2:0:0:0:
360,228,146196,2,0,P|393:217|425:204,1,69.6000021240235,2|8,2:0|2:0,2:0:0:0:
428,60,146430,6,0,P|400:43|361:48,1,69.6000021240235,2|8,1:2|2:0,2:0:0:0:
364,46,146664,1,2,2:0:0:0:
512,234,146782,1,0,1:2:0:0:
510,128,146899,2,0,P|465:128|426:209,1,139.200004248047,10|2,2:0|2:0,2:0:0:0:
407,328,147250,1,0,2:0:0:0:
292,257,147368,6,0,B|243:267|243:267|222:290|222:290|161:303,1,139.200004248047,2|0,1:2|2:0,2:0:0:0:
51,232,147719,1,0,1:2:0:0:
160,69,147836,2,0,P|165:107|175:154,1,79.2000007553101,10|0,2:0|1:2,0:0:0:0:
261,182,148071,1,0,0:0:0:0:
179,150,148188,1,8,0:0:0:0:
287,33,148305,6,0,P|348:17|409:64,1,139.200004248047,2|0,1:2|2:0,2:0:0:0:
467,115,148657,1,0,1:2:0:0:
379,195,148774,2,0,P|374:165|357:118,1,69.6000021240235,10|0,2:0|2:0,2:0:0:0:
482,289,149008,1,0,1:2:0:0:
512,204,149125,1,8,2:0:0:0:
383,288,149243,6,0,P|339:269|270:329,1,139.200004248047,2|0,1:2|2:0,2:0:0:0:
207,370,149594,1,0,1:2:0:0:
126,276,149711,2,0,P|87:269|47:263,1,79.2000007553101,10|0,2:0|1:0,0:0:0:0:
128,130,149946,1,0,2:0:0:0:
192,189,150063,1,8,0:0:0:0:
259,52,150180,6,0,P|299:60|399:80,1,139.200004248047,2|0,1:2|2:0,2:0:0:0:
497,165,150532,1,0,1:2:0:0:
497,165,150649,2,0,L|510:237,1,69.6000021240235,10|0,2:0|1:2,2:0:0:0:
420,248,150883,2,0,L|407:179,1,69.6000021240235,2|8,2:0|2:0,2:0:0:0:
291,314,151118,5,2,1:2:0:0:
270,237,151235,2,0,P|303:244|339:252,1,69.6000021240235,8|2,2:0|2:0,2:0:0:0:
197,372,151469,1,0,1:2:0:0:
218,294,151586,2,0,P|183:301|150:309,1,69.6000021240235,10|0,2:0|1:2,2:0:0:0:
49,207,151821,1,2,2:0:0:0:
136,233,151938,1,8,2:0:0:0:
77,280,152055,5,2,1:2:0:0:
110,163,152172,1,0,1:2:0:0:
143,45,152289,1,10,1:2:0:0:
149,57,152407,1,8,1:2:0:0:
155,68,152524,5,10,2:0:0:0:
200,137,152641,1,0,2:0:0:0:
86,88,152758,1,2,1:2:0:0:
208,1,152875,1,0,1:2:0:0:
282,142,152993,6,0,P|348:153|385:71,1,139.200004248047,6|0,1:2|2:0,2:0:0:0:
344,45,153344,1,0,1:2:0:0:
425,193,153461,2,0,P|458:199|514:210,1,69.6000021240235,10|0,2:0|1:2,2:0:0:0:
456,88,153696,2,0,P|421:94|387:101,1,69.6000021240235,2|8,2:0|2:0,2:0:0:0:
286,282,153930,5,2,1:2:0:0:
187,221,154047,1,8,2:0:0:0:
282,142,154164,1,0,1:2:0:0:
282,142,154399,2,0,P|272:186|265:225,1,69.6000021240235,10|0,2:0|1:2,2:0:0:0:
153,351,154633,2,0,P|146:316|139:282,1,69.6000021240235,2|8,2:0|2:0,2:0:0:0:
215,85,154868,6,0,P|197:171|182:245,1,139.200004248047,2|0,1:2|2:0,2:0:0:0:
218,317,155219,1,0,1:2:0:0:
9,210,155336,2,0,B|0:142|68:94|136:118|136:118|106:125|86:162,1,252.000002403259,10|0,2:0|2:0,2:0:0:0:
186,221,155805,6,0,B|271:195|271:195|304:158|304:158|407:129,1,237.60000226593,2|2,1:2|1:2,2:0:0:0:
396,319,156274,6,0,B|311:293|311:293|278:256|278:256|175:227,1,237.60000226593,10|8,2:0|2:0,2:0:0:0:
133,380,156743,6,0,P|124:329|103:237,1,139.200004248047,6|0,1:2|2:0,2:0:0:0:
211,80,157094,1,0,1:2:0:0:
223,149,157211,2,0,P|170:161|114:96,1,139.200004248047,10|0,2:0|2:0,2:0:0:0:
290,0,157563,1,0,2:0:0:0:
300,13,157680,6,0,P|293:57|288:93,1,69.6000021240235,2|8,1:2|2:0,2:0:0:0:
414,218,157914,1,2,1:2:0:0:
308,157,158032,1,0,1:2:0:0:
406,53,158149,2,0,P|411:92|418:131,1,69.6000021240235,10|0,2:0|1:2,2:0:0:0:
223,149,158383,2,0,P|217:109|210:70,1,69.6000021240235,2|0,2:0|1:2,2:0:0:0:
49,261,158618,6,0,P|75:261|110:261,1,50.3999984619141,10|0,2:0|2:0,2:0:0:0:
45,269,158852,2,0,P|71:269|106:269,1,55.2000010528565,10|0,2:0|2:0,2:0:0:0:
223,149,159086,6,0,P|210:171|191:201,1,60,10|0,2:0|2:0,2:0:0:0:
218,141,159321,2,0,P|203:165|182:198,1,64.8000002471924,10|8,2:0|2:0,2:0:0:0:
254,384,159555,6,0,P|218:319|164:263,1,139.200004248047,10|2,2:0|2:0,2:0:0:0:
102,112,159907,1,0,1:2:0:0:
102,112,160024,6,0,B|81:141|81:141|94:169,1,67.1999979492188,10|0,2:0|2:0,2:0:0:0:
254,28,160844,6,0,P|276:29|300:34,1,34.8000010620118,0|0,1:2|2:0,2:0:0:0:
300,24,160961,2,0,P|346:73|319:133,1,139.200004248047,10|0,2:0|1:2,2:0:0:0:
265,198,161313,1,2,2:0:0:0:
327,312,161430,6,0,B|356:333|382:324|394:296|394:296|382:207,1,158.40000151062,10|0,2:0|2:0,2:0:0:0:
316,126,161782,6,0,P|226:109|158:98,1,158.40000151062,8|0,2:0|2:0,2:0:0:0:
159,98,162133,6,0,P|125:139|144:184,1,108.000004119873,6|0,1:2|2:0,2:0:0:0:
144,184,162602,1,2,1:2:0:0:
241,348,162836,2,0,P|252:315|263:282,1,69.6000021240235,8|0,2:0|2:0,2:0:0:0:
435,208,163071,1,2,1:2:0:0:
358,155,163188,1,8,2:0:0:0:
328,244,163305,6,0,P|338:277|350:309,1,69.6000021240235,2|8,1:2|2:0,2:0:0:0:
512,218,163539,1,2,2:0:0:0:
512,218,163774,2,0,P|500:251|488:283,1,69.6000021240235,10|0,2:0|2:0,2:0:0:0:
359,155,164008,1,2,2:0:0:0:
359,155,164243,6,0,P|327:60|412:16,1,208.800006372071,2|0,1:2|2:0,2:0:0:0:
465,57,164711,2,0,P|432:54|412:28,1,64.799998022461,10|8,2:0|2:0,2:0:0:0:
269,8,165180,6,0,P|232:16|186:27,1,69.6000021240235,2|8,1:2|2:0,2:0:0:0:
71,157,165414,1,0,2:0:0:0:
96,39,165532,1,2,2:0:0:0:
196,109,165649,1,8,2:0:0:0:
196,109,165883,2,0,P|188:144|174:204,1,69.6000021240235,2|8,1:2|2:0,2:0:0:0:
241,323,166118,5,0,1:2:0:0:
232,292,166235,1,8,2:0:0:0:
308,271,166352,1,10,2:0:0:0:
317,302,166469,1,0,1:2:0:0:
400,138,166586,5,10,2:0:0:0:
310,199,166703,1,0,2:0:0:0:
399,266,166821,1,2,1:2:0:0:
399,266,167055,6,0,B|390:205|390:205|396:197|396:197|380:106,1,139.200004248047,10|2,2:0|2:0,2:0:0:0:
444,65,167407,1,0,1:2:0:0:
356,5,167524,2,0,P|273:-17|221:77,1,208.800006372071,10|0,2:0|2:0,2:0:0:0:
249,173,167993,6,0,P|223:153|162:158,1,69.6000021240235,2|0,1:2|2:0,2:0:0:0:
109,332,168227,1,2,2:0:0:0:
195,265,168344,1,0,2:0:0:0:
96,178,168461,2,0,L|74:263,1,69.6000021240235,10|2,2:0|2:0,2:0:0:0:
196,376,168696,1,2,2:0:0:0:
265,307,168813,1,2,1:2:0:0:
334,379,168930,5,2,1:2:0:0:
342,384,169047,2,0,P|375:375|409:368,1,69.6000021240235,10|2,2:0|2:0,2:0:0:0:
470,270,169282,1,2,1:2:0:0:
464,276,169399,2,0,P|430:267|396:260,1,69.6000021240235,10|2,2:0|2:0,2:0:0:0:
313,120,169633,1,2,1:2:0:0:
313,120,169868,5,0,1:2:0:0:
373,174,169985,1,8,2:0:0:0:
316,226,170102,2,0,P|322:195|333:141,1,69.6000021240235,2|0,2:0|2:0,2:0:0:0:
217,20,170336,1,10,2:0:0:0:
217,20,170571,5,2,1:2:0:0:
157,74,170688,1,0,2:0:0:0:
223,135,170805,1,2,1:2:0:0:
214,126,170922,2,0,P|207:95|197:41,1,69.6000021240235,10|2,2:0|2:0,2:0:0:0:
85,226,171157,1,2,2:0:0:0:
94,217,171274,2,0,P|101:186|111:132,1,69.6000021240235,10|0,2:0|2:0,2:0:0:0:
236,274,171508,1,2,2:0:0:0:
236,274,171743,6,0,P|271:277|311:283,1,69.6000021240235,2|0,1:2|2:0,2:0:0:0:
407,381,171977,1,2,2:0:0:0:
469,324,172094,1,2,2:0:0:0:
393,241,172211,1,10,2:0:0:0:
393,241,172446,2,0,P|389:276|384:316,1,69.6000021240235,2|8,2:0|2:0,2:0:0:0:
493,220,172680,6,0,P|487:163|478:98,1,104.400003186035,2|0,1:2|2:0,2:0:0:0:
481,116,172914,1,2,1:2:0:0:
405,69,173032,1,0,1:2:0:0:
348,165,173149,2,0,P|379:156|435:134,1,69.6000021240235,10|0,0:0|1:2,0:0:0:0:
431,0,173383,6,0,P|384:-3|330:71,1,139.200004248047,10|0,2:0|2:0,2:0:0:0:
232,381,174789,1,2,1:2:0:0:
220,370,174907,1,0,1:2:0:0:
232,355,175024,2,0,P|237:323|246:265,1,79.2000024169923,10|0,2:0|2:0,2:0:0:0:
191,217,175493,6,0,P|115:219|76:271,1,136.799996347046,6|0,1:2|1:2,2:0:0:0:
84,275,175961,1,10,2:0:0:0:
15,148,176196,2,0,P|11:174|3:241,1,91.1999975646973,2|0,1:2|2:0,2:0:0:0:
100,149,176547,5,8,2:0:0:0:
100,149,176664,2,0,L|93:99,1,45.5999987823487,0|0,1:2|2:0,2:0:0:0:
46,29,176899,1,10,2:0:0:0:
46,29,177133,1,2,2:0:0:0:
110,2,177250,1,8,2:0:0:0:
158,59,177368,6,0,P|179:63|259:81,1,91.1999975646973,2|0,1:2|2:0,2:0:0:0:
379,132,177719,1,0,1:2:0:0:
313,164,177836,2,0,P|309:141|304:111,1,45.5999987823487,8|0,2:0|2:0,2:0:0:0:
349,20,178071,6,0,P|400:22|435:61,1,91.1999975646973,2|0,1:2|2:0,2:0:0:0:
500,183,178422,1,8,2:0:0:0:
512,111,178539,2,0,L|467:118,1,45.5999987823487,2|0,1:2|2:0,2:0:0:0:
383,210,178774,2,0,L|429:217,1,45.5999987823487,8|0,2:0|2:0,2:0:0:0:
512,310,179008,1,2,1:2:0:0:
398,376,179243,5,0,1:2:0:0:
398,376,179360,2,0,L|387:317,1,45.5999987823487,8|0,2:0|2:0,2:0:0:0:
308,225,179594,1,0,1:2:0:0:
252,274,179711,2,0,L|241:333,1,45.5999987823487,10|0,2:0|2:0,2:0:0:0:
162,376,179946,1,2,1:2:0:0:
113,234,180297,5,8,2:0:0:0:
161,179,180414,2,0,P|192:177|228:215,1,68.399998173523,0|0,1:2|2:0,2:0:0:0:
221,198,180649,1,10,2:0:0:0:
96,362,180883,2,0,L|91:330,1,22.7999993911743,2|0,1:2|2:0,2:0:0:0:
90,369,181000,6,0,P|86:345|81:310,1,45.5999987823487,8|0,2:0|1:2,2:0:0:0:
38,267,181235,1,8,2:0:0:0:
161,179,181469,1,0,1:2:0:0:
155,200,181586,1,8,2:0:0:0:
21,113,181821,1,2,1:2:0:0:
0,190,182055,5,8,2:0:0:0:
133,76,182289,1,2,1:2:0:0:
145,43,182407,1,0,1:2:0:0:
126,16,182524,2,0,P|76:24|27:30,1,91.1999975646973,10|2,2:0|1:2,2:0:0:0:
146,214,182993,6,0,P|188:220|243:229,1,91.1999975646973,2|0,1:2|2:0,2:0:0:0:
300,174,183344,1,0,1:2:0:0:
300,174,183461,1,10,2:0:0:0:
454,291,183696,1,2,1:2:0:0:
394,320,183813,1,8,2:0:0:0:
353,266,183930,2,0,P|358:229|363:202,1,45.5999987823487,2|8,2:0|2:0,2:0:0:0:
441,190,184164,1,0,1:2:0:0:
387,81,184399,6,0,P|390:103|394:126,1,45.5999987823487,10|0,2:0|2:0,2:0:0:0:
491,81,184633,1,2,1:2:0:0:
497,51,184750,1,8,2:0:0:0:
503,22,184868,6,0,B|470:-9|470:-9|413:4,1,91.1999975646973,0|2,1:2|2:0,2:0:0:0:
327,156,185219,1,0,1:2:0:0:
288,99,185336,2,0,P|291:76|295:53,1,45.5999987823487,10|0,2:0|2:0,2:0:0:0:
213,1,185571,1,2,1:2:0:0:
202,12,185688,1,8,2:0:0:0:
148,95,185922,5,8,2:0:0:0:
137,84,186039,1,0,1:2:0:0:
22,6,186274,2,0,P|36:32|39:89,1,68.399998173523,10|0,2:0|2:0,2:0:0:0:
29,78,186508,2,0,P|25:108|28:136,1,45.5999987823487,2|8,1:2|2:0,2:0:0:0:
122,209,186743,5,0,1:2:0:0:
133,175,186860,1,8,2:0:0:0:
25,225,187094,1,0,1:2:0:0:
40,251,187211,2,0,L|51:318,1,68.399998173523,8|0,2:0|2:0,2:0:0:0:
130,379,187446,6,0,B|182:371|182:371|210:380|210:380|264:372,1,136.799996347046,2|8,1:2|2:0,2:0:0:0:
321,319,187914,2,0,L|368:326,1,45.5999987823487,0|0,1:2|1:2,2:0:0:0:
366,325,188090,2,0,L|371:294,1,22.7999993911743,0|8,2:0|2:0,2:0:0:0:
320,142,188383,1,2,1:2:0:0:
265,195,188500,1,2,2:0:0:0:
329,235,188618,6,0,L|388:223,1,46.4000014160157,10|0,1:2|2:0,2:0:0:0:
380,217,188774,2,0,L|439:205,1,46.4000014160157,10|0,2:0|2:0,2:0:0:0:
431,199,188930,2,0,L|490:187,1,46.4000014160157,8|0,2:0|2:0,2:0:0:0:
320,142,189086,6,0,L|379:130,1,46.4000014160157,10|0,1:2|2:0,2:0:0:0:
371,124,189243,2,0,L|430:112,1,46.4000014160157,10|0,2:0|2:0,2:0:0:0:
422,106,189399,2,0,L|481:94,1,46.4000014160157,10|0,2:0|2:0,2:0:0:0:
311,49,189555,6,0,P|261:42|208:109,1,139.200004248047,2|2,1:2|2:0,2:0:0:0:
106,206,189907,1,2,1:2:0:0:
173,250,190024,2,0,P|178:221|186:169,1,69.6000021240235,10|0,2:0|2:0,2:0:0:0:
111,66,190258,2,0,P|116:95|124:147,1,69.6000021240235,2|0,2:0|2:0,2:0:0:0:
35,289,190483,6,0,P|99:303|156:323,2,122.400002334595,2|0|0,1:2|1:2|1:2,2:0:0:0:
35,289,191420,2,0,P|13:268|30:186,1,122.400002334595,8|8,2:0|2:0,2:0:0:0:
29,186,191889,1,0,2:0:0:0:
84,113,192123,1,10,2:0:0:0:
183,177,192358,6,0,P|247:163|304:143,2,122.400002334595,2|0|0,1:2|1:2|1:2,2:0:0:0:
298,65,193295,2,0,B|345:73|345:73|363:89|363:89|413:99,1,122.400002334595,8|8,2:0|2:0,2:0:0:0:
416,105,193764,1,0,2:0:0:0:
487,159,193998,1,10,2:0:0:0:
430,218,194233,6,0,P|411:287|442:323,2,122.400002334595,2|0|0,1:2|1:2|1:2,2:0:0:0:
434,225,195170,2,0,P|381:216|307:205,1,122.400002334595,10|8,2:0|2:0,2:0:0:0:
313,205,195639,1,0,2:0:0:0:
235,229,195873,1,8,2:0:0:0:
157,254,196102,6,0,B|82:235|82:235|104:233|135:217,2,122.400002334595,2|0|0,1:2|1:2|1:2,2:0:0:0:
276,311,197039,2,0,P|281:344|288:376,1,61.2000011672974,10|0,2:0|2:0,2:0:0:0:
215,384,197273,2,0,P|208:347|201:312,1,68.399998173523,8|0,3:0|2:0,2:0:0:0:
361,220,197508,2,0,P|353:260|346:297,1,75.5999976928712,8|0,3:0|2:0,2:0:0:0:
416,314,197742,2,0,P|423:271|431:231,1,82.8000015792847,2|0,1:2|2:0,2:0:0:0:
343,133,197977,5,14,0:0:0:0:
343,133,198211,1,0,1:2:0:0:
343,133,198445,2,0,L|412:122,1,50.3999984619141,8|0,1:2|2:0,2:0:0:0:
306,228,198680,2,0,L|385:216,1,55.2000010528565,8|0,2:0|2:0,2:0:0:0:
196,99,198914,2,0,L|265:88,1,60,8|0,1:2|2:0,2:0:0:0:
170,206,199148,2,0,L|239:195,1,64.8000002471924,8|0,2:0|2:0,2:0:0:0:
46,57,199383,2,0,L|121:44,1,69.6000021240235,8|0,1:2|2:0,2:0:0:0:
20,174,199617,2,0,L|95:161,1,74.400000567627,8|0,2:0|2:0,2:0:0:0:
308,160,199852,5,12,2:0:0:0:
308,160,200086,1,0,1:2:0:0:
308,160,200320,2,0,P|314:191|319:214,1,50.3999984619141,8|0,2:0|2:0,2:0:0:0:
181,231,200555,2,0,P|208:214|227:202,1,55.2000010528565,8|0,2:0|2:0,2:0:0:0:
325,318,200789,2,0,P|297:295|276:279,1,60,8|0,2:0|2:0,2:0:0:0:
453,232,201023,2,0,P|446:271|442:300,1,64.8000002471924,8|0,2:0|2:0,2:0:0:0:
308,160,201258,2,0,P|345:145|372:134,1,69.6000021240235,8|0,2:0|2:0,2:0:0:0:
322,338,201492,2,0,P|294:314|264:291,1,74.400000567627,8|0,2:0|2:0,2:0:0:0:
475,55,201727,6,0,P|431:37|399:24,1,79.2000007553101,10|0,2:0|2:0,2:0:0:0:
308,160,201961,1,10,2:0:0:0:
248,105,202078,2,0,P|284:90|321:75,1,79.2000007553101,2|8,2:0|1:2,2:0:0:0:
167,256,202312,1,2,2:0:0:0:
227,201,202430,2,0,P|190:186|153:171,1,79.2000007553101,10|0,2:0|2:0,2:0:0:0:
78,74,202664,5,10,1:2:0:0:
25,128,202781,2,0,P|-9:190|58:255,1,158.40000151062,2|0,2:0|2:0,2:0:0:0:
134,328,203133,2,0,P|140:252|153:169,1,158.40000151062,10|8,2:0|2:0,2:0:0:0:
145,158,203484,1,0,2:0:0:0:
265,286,203602,6,0,P|301:285|343:254,1,79.2000007553101,10|0,2:0|2:0,2:0:0:0:
296,126,203836,2,0,P|260:127|218:158,1,79.2000007553101,8|0,2:0|2:0,2:0:0:0:
382,332,204070,6,0,P|406:305|414:254,1,79.2000007553101,10|0,2:0|2:0,2:0:0:0:
179,73,204305,2,0,P|154:99|146:150,1,79.2000007553101,10|0,2:0|2:0,2:0:0:0:
481,312,204539,6,0,P|481:224|408:182,1,158.40000151062,10|8,1:2|2:0,2:0:0:0:
429,185,204891,1,0,2:0:0:0:
297,34,205008,2,0,P|291:80|285:129,1,79.2000007553101,8|0,2:0|2:0,2:0:0:0:
376,131,205242,2,0,P|381:84|388:36,1,79.2000007553101,8|0,2:0|2:0,2:0:0:0:
165,327,205477,6,0,B|117:323|114:276|114:276|138:282|162:253|210:265|241:313,1,210,10|0,2:0|2:0,2:0:0:0:
372,384,205945,2,0,L|383:319,1,60,0|0,1:2|2:0,2:0:0:0:
287,112,206180,2,0,P|298:192|315:292,1,180,10|0,2:0|2:0,2:0:0:0:
233,302,206648,2,0,P|222:222|205:122,1,180,10|0,2:0|1:2,2:0:0:0:
205,124,207117,1,0,2:0:0:0:
152,44,207352,6,0,B|158:34|172:27|172:27|131:-8|-9:-43|-30:131|-24:124|-24:124|15:35|92:47|82:46,1,437.75999465625,6|0,1:2|2:2,2:2:0:0:
82,46,209227,6,0,B|92:47|15:35|-24:124|-24:124|-30:131|-9:-43|131:-8|172:27|172:27|158:34|152:44,1,437.75999465625,6|0,1:2|2:2,2:2:0:0:
152,44,211102,5,2,0:0:0:0:
130,126,213211,6,0,P|140:195|152:303,1,168.000001602173,8|2,2:0|2:0,2:0:0:0:
382,258,213562,2,0,P|372:189|360:81,1,168.000001602173,8|0,2:0|2:0,2:0:0:0:
447,129,213914,2,0,P|453:170|458:216,1,84.0000008010864,10|0,2:0|2:0,2:0:0:0:
257,379,214148,5,10,2:0:0:0:
217,377,214266,1,0,2:0:0:0:
198,346,214383,1,8,2:0:0:0:
300,231,214500,1,8,2:0:0:0:
340,324,214617,2,0,P|293:310|239:298,1,84.0000008010864,10|0,2:0|2:0,2:0:0:0:
107,73,214852,6,0,P|148:39|229:80,1,126.00000120163,2|0,1:2|2:0,2:0:0:0:
214,57,215086,1,10,2:0:0:0:
224,151,215203,1,8,2:0:0:0:
228,238,215320,2,0,B|268:255|268:255|301:231,1,84.0000008010864,10|0,2:0|2:0,2:0:0:0:
463,79,215555,2,0,P|396:49|319:149,1,210.000002002716,2|0,1:2|2:0,2:0:0:0:
317,139,215906,5,8,2:0:0:0:
400,225,216023,2,0,P|441:218|504:208,1,84.0000008010864,10|0,2:0|2:0,2:0:0:0:
389,356,216258,2,0,P|348:349|285:339,1,84.0000008010864,8|0,2:0|2:0,2:0:0:0:
228,238,216492,1,2,1:2:0:0:
154,207,216609,1,8,2:0:0:0:
110,280,216727,6,0,P|70:271|13:260,1,84.0000008010864,2|0,1:2|2:0,2:0:0:0:
116,64,216961,2,0,P|157:55|198:46,1,84.0000008010864,10|0,1:2|2:0,2:0:0:0:
289,227,217195,1,2,1:2:0:0:
258,247,217312,1,8,3:0:0:0:
228,238,217430,1,2,2:0:0:0:
286,135,217547,1,0,1:2:0:0:
361,259,217664,6,0,P|439:254|496:169,1,168.000001602173,10|0,2:0|2:0,2:0:0:0:
419,0,218016,1,2,2:0:0:0:
419,0,218133,2,0,P|384:70|414:145,1,126.00000120163,8|0,2:0|2:0,2:0:0:0:
392,114,218367,1,2,1:2:0:0:
505,80,218602,5,8,2:0:0:0:
505,80,218836,1,0,1:2:0:0:
505,80,219070,6,0,P|464:70|450:67,1,50.3999984619141,10|0,2:0|2:0,2:0:0:0:
361,48,219305,2,0,P|334:42|308:36,1,55.2000010528565,10|0,2:0|2:0,2:0:0:0:
477,188,219539,6,0,P|428:176|412:172,1,60,10|0,2:0|2:0,2:0:0:0:
343,158,219773,2,0,P|311:150|279:143,1,64.8000002471924,10|0,2:0|2:0,2:0:0:0:
462,291,220008,6,0,P|406:277|387:273,1,69.6000021240235,10|0,2:0|2:0,2:0:0:0:
326,259,220242,2,0,P|289:250|253:241,1,74.400000567627,10|0,2:0|2:0,2:0:0:0:
53,61,220477,5,10,2:0:0:0:
53,61,220711,1,8,2:0:0:0:
53,61,220945,6,0,P|59:93|73:159,1,74.400000567627,10|0,2:0|2:0,2:0:0:0:
148,112,221180,2,0,P|142:80|128:14,1,74.400000567627,10|0,2:0|2:0,2:0:0:0:
253,241,221414,6,0,P|197:248|156:189,1,111.60000085144,8|0,2:0|2:0,2:0:0:0:
161,199,221648,2,0,P|181:232|165:271,1,74.400000567627,10|0,2:0|2:0,2:0:0:0:
12,277,221883,2,0,P|30:243|72:237,1,74.400000567627,10|0,2:0|2:0,2:0:0:0:
159,368,222117,2,0,P|120:368|94:335,1,74.400000567627,10|0,2:0|2:0,2:0:0:0:
279,143,222352,6,0,P|312:133|359:121,1,74.400000567627,10|0,2:0|2:0,2:0:0:0:
459,254,222586,2,0,B|420:241|420:241|404:220|404:220|362:203,1,111.60000085144,10|0,2:0|2:0,2:0:0:0:
363,203,222820,1,8,2:0:0:0:
493,25,223055,6,0,P|501:60|484:92,1,74.400000567627,10|0,2:0|2:0,2:0:0:0:
408,77,223289,2,0,P|399:41|416:9,1,74.400000567627,8|0,2:0|2:0,2:0:0:0:
459,254,223523,1,2,1:2:0:0:
469,244,223602,1,0,1:2:0:0:
462,227,223680,1,0,1:2:0:0:
468,204,223758,1,2,1:2:0:0:
337,313,223992,6,0,B|288:297|288:297|352:290,1,110.400002105713,10|2,2:0|2:0,2:0:0:0:
112,378,225164,6,0,P|102:333|90:278,1,82.8000015792847,0|0,2:0|2:0,2:0:0:0:
53,239,225398,1,2,1:2:0:0:
70,226,225516,1,0,1:2:0:0:
121,163,225633,6,0,P|157:158|200:192,1,92.4000028198243,10|0,2:0|2:0,2:0:0:0:
191,199,226102,6,0,P|183:146|171:57,1,144.000005493164,6|0,1:2|2:0,2:0:0:0:
235,0,226453,1,0,1:2:0:0:
314,65,226570,2,0,P|318:97|323:140,1,72.0000027465821,10|0,2:0|1:2,2:0:0:0:
395,125,226805,2,0,P|390:89|386:53,1,72.0000027465821,2|0,2:0|1:2,2:0:0:0:
484,164,227039,5,2,1:2:0:0:
494,242,227156,2,0,P|437:267|371:221,1,144.000005493164,8|0,2:0|1:2,2:0:0:0:
322,136,227508,2,0,L|223:145,1,72.0000027465821,10|0,2:0|1:2,2:0:0:0:
170,256,227742,1,2,2:0:0:0:
109,212,227859,1,8,2:0:0:0:
175,144,227977,5,2,1:2:0:0:
172,155,228094,2,0,P|179:193|186:231,1,72.0000027465821,8|0,2:0|2:0,2:0:0:0:
298,384,228328,1,0,1:2:0:0:
384,302,228445,2,0,P|304:286|217:269,1,144.000005493164,10|0,2:0|1:2,2:0:0:0:
104,355,228797,1,0,1:2:0:0:
93,363,228914,6,0,P|83:321|68:243,1,86.3999973632813,14|0,2:0|2:0,2:0:0:0:
231,171,229148,1,2,1:2:0:0:
93,85,229266,1,2,1:2:0:0:
139,229,229383,6,0,P|152:173|171:71,1,153.6,10|0,2:0|1:2,2:0:0:0:
56,165,229734,1,0,2:0:0:0:
80,0,229852,6,0,P|91:71|96:105,1,86.3999973632813,6|0,1:2|2:0,2:0:0:0:
259,44,230086,1,2,1:2:0:0:
175,3,230203,1,2,2:0:0:0:
225,170,230320,6,0,B|261:158|294:163|294:163|384:106|384:106|416:112|452:102,1,244.80000466919,10|0,2:0|2:0,2:0:0:0:
469,306,230789,2,0,P|484:273|498:211,1,81.6000015563965,14|0,2:0|2:0,2:0:0:0:
418,201,231023,2,0,P|407:240|391:277,1,81.6000015563965,2|0,1:2|2:0,2:0:0:0:
272,378,231258,1,10,2:0:0:0:
272,378,231492,2,0,P|269:357|262:307,1,57.5999982421876,2|0,1:2|2:0,2:0:0:0:
252,227,231727,5,10,2:0:0:0:
198,46,231961,1,2,1:2:0:0:
156,73,232078,1,0,1:2:0:0:
91,26,232195,1,2,1:2:0:0:
34,85,232312,1,0,1:2:0:0:
87,217,232430,5,10,2:0:0:0:
87,217,232664,2,0,P|99:155|107:114,1,81.6000015563965,2|0,1:2|2:0,2:0:0:0:
312,261,232898,1,2,2:0:0:0:
263,320,233016,1,0,1:2:0:0:
193,289,233133,2,0,P|176:204|166:151,1,115.199996484375,10|0,2:0|2:0,2:0:0:0:
296,24,233602,5,10,1:2:0:0:
323,18,233680,1,8,2:0:0:0:
344,33,233758,1,8,2:0:0:0:
429,171,233953,1,0,1:2:0:0:
429,171,234012,1,0,1:2:0:0:
429,171,234070,2,10,P|465:165|461:38,1,163.200003112793,10|0,2:0|1:2,2:0:0:0:
491,59,234422,1,0,2:0:0:0:
311,168,234539,6,0,P|321:213|330:258,1,81.6000015563965,10|0,2:0|2:0,2:0:0:0:
379,360,234773,1,0,2:0:0:0:
323,259,234891,1,2,1:2:0:0:
323,259,235242,6,0,P|243:256|206:331,1,163.200003112793,10|0,2:0|2:0,2:0:0:0:
70,208,235594,1,0,2:0:0:0:
141,123,235711,2,0,P|150:176|156:210,1,81.6000015563965,2|0,1:2|2:0,2:0:0:0:
235,186,235945,2,0,P|226:132|220:99,1,81.6000015563965,8|0,2:0|2:0,2:0:0:0:
367,4,236180,1,2,2:0:0:0:
429,58,236297,1,8,2:0:0:0:
384,125,236414,6,0,P|346:129|308:103,1,81.6000015563965,2|8,1:2|2:0,2:0:0:0:
223,6,236648,2,0,P|185:2|147:28,1,81.6000015563965,2|0,2:0|2:0,2:0:0:0:
66,215,236883,1,8,2:0:0:0:
66,215,237117,1,2,2:0:0:0:
0,153,237234,1,8,2:0:0:0:
84,50,237352,6,0,P|102:159|121:291,1,244.80000466919,2|0,1:2|2:0,2:0:0:0:
121,291,237820,2,0,B|155:300|155:300|178:280,1,66.0000020141602,10|0,2:0|2:0,2:0:0:0:
178,279,238172,5,0,2:0:0:0:
303,190,238289,2,0,P|240:178|176:167,1,122.400002334595,2|0,1:2|2:0,2:0:0:0:
182,168,238523,1,0,2:0:0:0:
251,256,238641,1,2,2:0:0:0:
310,117,238758,5,8,2:0:0:0:
462,283,238992,2,0,P|467:323|473:363,1,81.6000015563965,2|8,2:0|2:0,2:0:0:0:
395,236,239227,6,0,P|397:184|404:105,1,122.400002334595,0|0,1:2|2:0,2:0:0:0:
402,113,239461,2,0,B|440:101|440:101|498:142,1,81.6000015563965,2|8,1:2|2:0,2:0:0:0:
323,268,239695,2,0,B|285:280|285:280|227:239,1,81.6000015563965,10|0,2:0|2:0,2:0:0:0:
214,31,239930,1,2,2:0:0:0:
285,73,240047,1,0,1:2:0:0:
182,168,240164,6,0,P|140:177|76:189,1,81.6000015563965,10|0,2:0|2:0,2:0:0:0:
8,103,240398,1,2,1:2:0:0:
76,68,240516,1,0,2:0:0:0:
22,242,240633,2,0,B|80:255|80:255|113:286|113:286|173:293,1,163.200003112793,10|0,2:0|1:2,2:0:0:0:
312,354,241102,6,0,P|352:362|410:372,1,81.6000015563965,2|0,1:2|2:0,2:0:0:0:
260,192,241336,1,2,2:0:0:0:
245,200,241453,1,2,2:0:0:0:
323,268,241570,2,0,P|331:216|344:111,1,122.400002334595,10|0,2:0|2:0,2:0:0:0:
421,22,241805,1,2,2:0:0:0:
427,41,241922,1,10,2:0:0:0:
445,107,242039,5,2,1:2:0:0:
331,44,242156,1,10,2:0:0:0:
271,88,242391,1,2,2:0:0:0:
271,88,242508,2,0,P|228:94|171:103,1,81.6000015563965,10|0,2:0|2:0,2:0:0:0:
84,23,242742,2,0,P|46:57|68:136,1,122.400002334595,2|0,2:0|2:0,2:0:0:0:
60,131,242977,5,0,1:2:0:0:
124,218,243094,2,0,P|83:208|14:195,1,81.6000015563965,8|2,2:0|2:0,2:0:0:0:
7,328,243328,1,0,2:0:0:0:
7,328,243445,2,0,B|69:319|69:319|97:296|97:296|160:288,1,163.200003112793,10|2,2:0|2:0,2:0:0:0:
238,185,243797,1,8,2:0:0:0:
331,285,243914,6,0,P|338:326|348:381,1,81.6000015563965,2|8,1:2|2:0,2:0:0:0:
239,274,244148,1,0,2:0:0:0:
328,180,244266,1,2,2:0:0:0:
255,96,244383,2,0,P|213:107|170:121,1,81.6000015563965,10|2,2:0|2:0,2:0:0:0:
238,185,244617,1,2,2:0:0:0:
330,64,244734,1,8,2:0:0:0:
409,130,244852,6,0,P|451:138|509:147,1,81.6000015563965,0|0,1:2|2:0,2:0:0:0:
368,271,245086,1,2,1:2:0:0:
328,180,245203,1,2,2:0:0:0:
453,302,245320,2,0,B|483:274|483:274|465:227,1,81.6000015563965,10|0,2:0|2:0,2:0:0:0:
320,339,245555,1,2,1:2:0:0:
289,249,245672,1,0,1:2:0:0:
289,249,245789,6,0,P|328:260|367:270,1,81.6000015563965,10|0,2:0|1:2,2:0:0:0:
123,47,246023,5,2,1:2:0:0:
134,142,246141,1,0,1:2:0:0:
238,185,246258,5,0,1:2:0:0:
217,274,246375,1,2,3:2:0:0:
230,176,246492,1,10,2:0:0:0:
91,380,247898,6,0,P|88:367|85:354,1,26.4000008056641,2|0,1:2|2:0,2:0:0:0:
99,377,248016,2,0,P|96:364|93:351,1,26.4000008056641,2|0,1:2|2:0,2:0:0:0:
137,295,248133,2,0,P|165:286|213:316,1,86.3999973632813,0|0,1:2|2:0,2:0:0:0:
287,369,248602,5,6,1:2:0:0:
280,359,248836,2,0,P|285:330|303:242,1,62.3999971435548,2|0,2:0|1:2,2:0:0:0:
376,184,249070,1,10,2:0:0:0:
437,231,249187,2,0,P|442:261|448:292,1,62.3999971435548,2|0,1:2|2:0,2:0:0:0:
295,209,249422,1,8,2:0:0:0:
373,93,249539,6,0,B|409:97|409:97|449:134|449:134|487:139,1,124.79999428711,2|0,1:2|2:0,2:0:0:0:
354,267,249891,1,2,1:2:0:0:
295,209,250008,2,0,P|287:179|277:135,1,62.3999971435548,8|0,2:0|1:2,2:0:0:0:
213,21,250242,1,2,2:0:0:0:
298,67,250359,1,10,2:0:0:0:
203,134,250477,5,2,1:2:0:0:
195,142,250711,2,0,P|160:132|106:115,1,62.3999971435548,2|0,2:0|1:2,2:0:0:0:
56,257,250945,1,10,2:0:0:0:
6,197,251062,2,0,P|40:187|95:170,1,62.3999971435548,2|0,1:2|2:0,2:0:0:0:
214,248,251297,1,8,2:0:0:0:
172,312,251414,6,0,P|134:258|171:187,1,124.79999428711,2|0,1:2|2:0,2:0:0:0:
299,359,251766,1,0,1:2:0:0:
363,308,251883,2,0,P|368:278|374:244,1,62.3999971435548,8|0,2:0|2:0,2:0:0:0:
307,105,252117,1,10,2:0:0:0:
405,171,252234,1,10,2:0:0:0:
291,258,252352,5,6,1:2:0:0:
297,248,252586,2,0,P|292:218|286:184,1,62.3999971435548,2|0,2:0|1:2,2:0:0:0:
364,51,252820,1,10,2:0:0:0:
415,109,252937,2,0,P|409:139|404:170,1,62.3999971435548,2|0,1:2|2:0,2:0:0:0:
259,47,253172,1,8,2:0:0:0:
259,47,253289,6,0,B|175:64|175:64|199:70|235:94,1,124.79999428711,2|0,1:2|2:0,2:0:0:0:
137,206,253641,1,2,1:2:0:0:
72,161,253758,2,0,P|79:129|86:93,1,62.3999971435548,8|0,2:0|1:2,2:0:0:0:
212,235,253992,1,2,2:0:0:0:
160,296,254109,1,8,2:0:0:0:
160,296,254227,6,0,P|125:307|82:316,1,62.3999971435548,2|8,1:2|2:0,2:0:0:0:
190,148,254461,1,2,2:0:0:0:
298,303,254695,1,10,2:0:0:0:
303,297,254812,2,0,P|332:306|362:314,1,62.3999971435548,2|8,1:2|2:0,2:0:0:0:
456,266,255047,1,8,2:0:0:0:
359,170,255164,5,10,2:0:0:0:
369,184,255281,1,10,2:0:0:0:
388,187,255398,1,2,2:0:0:0:
404,181,255516,1,10,2:0:0:0:
446,100,255633,5,10,2:0:0:0:
372,82,255750,1,2,1:2:0:0:
297,65,255867,1,2,1:2:0:0:
223,48,255984,1,2,1:2:0:0:
160,140,256102,5,6,1:2:0:0:
152,135,256336,2,0,P|115:140|76:148,1,62.3999971435548,2|0,2:0|1:2,2:0:0:0:
0,70,256570,1,10,2:0:0:0:
73,0,256687,2,0,P|78:36|86:76,1,62.3999971435548,2|0,1:2|2:0,2:0:0:0:
0,258,256922,1,8,2:0:0:0:
20,187,257039,6,0,P|74:179|124:226,1,124.79999428711,2|0,1:2|2:0,2:0:0:0:
217,353,257391,1,2,1:2:0:0:
279,302,257508,2,0,P|283:271|290:227,1,62.3999971435548,8|0,2:0|1:2,2:0:0:0:
323,137,257742,1,2,2:0:0:0:
228,195,257859,1,10,2:0:0:0:
359,274,257977,5,2,1:2:0:0:
366,279,258211,2,0,P|401:269|455:252,1,62.3999971435548,2|0,2:0|1:2,2:0:0:0:
512,172,258445,1,10,2:0:0:0:
445,116,258562,2,0,P|439:151|430:207,1,62.3999971435548,2|0,1:2|2:0,2:0:0:0:
267,79,258797,1,8,2:0:0:0:
311,5,258914,6,0,B|361:-3|361:-3|376:72,1,124.79999428711,2|0,1:2|2:0,2:0:0:0:
228,195,259266,1,0,1:2:0:0:
168,144,259383,2,0,P|173:114|179:80,1,62.3999971435548,8|0,2:0|1:2,2:0:0:0:
85,0,259617,1,10,2:0:0:0:
20,49,259734,1,10,2:0:0:0:
76,159,259852,5,6,1:2:0:0:
83,168,260086,2,0,P|88:198|93:229,1,62.3999971435548,2|0,2:0|1:2,2:0:0:0:
192,283,260320,1,10,2:0:0:0:
170,357,260437,2,0,P|176:327|181:296,1,62.3999971435548,2|0,1:2|2:0,2:0:0:0:
299,166,260672,1,8,2:0:0:0:
359,228,260789,5,2,1:2:0:0:
285,292,260906,2,8,P|282:280|277:257,2,31.1999985717774,8|8|8,2:0|2:0|2:0,2:0:0:0:
328,73,261141,1,10,2:0:0:0:
396,102,261258,1,8,1:2:0:0:
411,175,261375,1,0,1:2:0:0:
359,228,261492,1,2,2:0:0:0:
73,36,261727,6,0,P|85:101|101:184,1,144.000005493164,10|0,2:0|2:0,2:0:0:0:
170,161,262078,2,0,P|157:95|142:13,1,144.000005493164,10|0,2:0|2:0,2:0:0:0:
214,1,262430,2,0,P|220:36|229:81,1,72.0000027465821,10|0,2:0|2:0,2:0:0:0:
429,244,262664,6,0,P|442:173|456:103,1,144.000005493164,10|0,2:0|2:0,2:0:0:0:
385,86,263016,2,0,P|372:157|358:228,1,144.000005493164,10|0,2:0|2:0,2:0:0:0:
289,211,263367,2,0,P|295:175|302:140,1,72.0000027465821,10|0,2:0|2:0,2:0:0:0:
83,366,263602,6,0,P|103:319|200:292,1,144.000005493164,10|0,2:0|2:0,2:0:0:0:
306,355,263953,2,0,P|255:361|183:290,1,144.000005493164,10|0,2:0|2:0,2:0:0:0:
273,114,264305,2,0,P|296:145|277:222,1,108.000004119873,10|0,2:0|2:0,2:0:0:0:
84,49,264539,6,0,B|164:23|164:23|134:36|120:79,1,144.000005493164,10|0,2:0|2:0,2:0:0:0:
273,114,264891,2,0,B|193:88|193:88|223:101|237:144,1,144.000005493164,10|0,2:0|2:0,2:0:0:0:
187,304,265242,2,0,P|182:277|177:237,1,65.2800003984375,10|0,2:0|2:0,2:0:0:0:
