osu file format v14

[General]
AudioFilename: audio.mp3
AudioLeadIn: 0
PreviewTime: 90160
Countdown: 0
SampleSet: Soft
StackLeniency: 0.4
Mode: 0
LetterboxInBreaks: 0
EpilepsyWarning: 1
WidescreenStoryboard: 1

[Editor]
DistanceSpacing: 0.4
BeatDivisor: 4
GridSize: 32
TimelineZoom: 6.199997

[Metadata]
Title:Minority Myakuraku
TitleUnicode:マイノリティ脈絡
Artist:ZUTOMAYO
ArtistUnicode:ずっと真夜中でいいのに。
Creator:0ugi
Version:Flake's Insane
Source:
Tags:zutto mayonaka de ii no ni. 今は今で誓いは笑みで ima wa ima de chikai wa emi de ha acane acaね japanese rock jrock flake tsukinyuni ohm002
BeatmapID:2452516
BeatmapSetID:1100001

[Difficulty]
HPDrainRate:5
CircleSize:4
OverallDifficulty:8
ApproachRate:9.2
SliderMultiplier:1.8
SliderTickRate:1

[Events]
//Background and Video events
0,0,"133dbe18-19ef-4811-9918-e678aaf92b1d.jpg",0,0
//Break Periods
2,224387,229538
//Storyboard Layer 0 (Background)
//Storyboard Layer 1 (Fail)
//Storyboard Layer 2 (Pass)
//Storyboard Layer 3 (Foreground)
Sprite,Foreground,Centre,"sb\particle.png",0,0 C,0,493,,255,2,129 M,1,493,993,529,388,579,388 F,0,993,1493,1,0
Sprite,Foreground,Centre,"sb\particle.png",0,0 C,0,493,,255,2,129 M,1,493,993,529,388,576.5529,403.4508 F,0,993,1493,1,0
Sprite,Foreground,Centre,"sb\particle.png",0,0 C,0,493,,255,2,129 M,1,493,993,529,388,569.4509,417.3893 F,0,993,1493,1,0
Sprite,Foreground,Centre,"sb\particle.png",0,0 C,0,493,,255,2,129 M,1,493,993,529,388,558.3893,428.4509 F,0,993,1493,1,0
Sprite,Foreground,Centre,"sb\particle.png",0,0 C,0,493,,255,2,129 M,1,493,993,529,388,544.4509,435.5528 F,0,993,1493,1,0
Sprite,Foreground,Centre,"sb\particle.png",0,0 C,0,493,,255,2,129 M,1,493,993,529,388,529,438 F,0,993,1493,1,0
Sprite,Foreground,Centre,"sb\particle.png",0,0 C,0,493,,255,2,129 M,1,493,993,529,388,513.5491,435.5528 F,0,993,1493,1,0
Sprite,Foreground,Centre,"sb\particle.png",0,0 C,0,493,,255,2,129 M,1,493,993,529,388,499.6107,428.4509 F,0,993,1493,1,0
Sprite,Foreground,Centre,"sb\particle.png",0,0 C,0,493,,255,2,129 M,1,493,993,529,388,488.5491,417.3893 F,0,993,1493,1,0
Sprite,Foreground,Centre,"sb\particle.png",0,0 C,0,493,,255,2,129 M,1,493,993,529,388,481.4472,403.4508 F,0,993,1493,1,0
Sprite,Foreground,Centre,"sb\particle.png",0,0 C,0,493,,255,2,129 M,1,493,993,529,388,479,388 F,0,993,1493,1,0
Sprite,Foreground,Centre,"sb\particle.png",0,0 C,0,493,,255,2,129 M,1,493,993,529,388,481.4472,372.5492 F,0,993,1493,1,0
Sprite,Foreground,Centre,"sb\particle.png",0,0 C,0,493,,255,2,129 M,1,493,993,529,388,488.5491,358.6107 F,0,993,1493,1,0
Sprite,Foreground,Centre,"sb\particle.png",0,0 C,0,493,,255,2,129 M,1,493,993,529,388,499.6107,347.5491 F,0,993,1493,1,0
Sprite,Foreground,Centre,"sb\particle.png",0,0 C,0,493,,255,2,129 M,1,493,993,529,388,513.5491,340.4472 F,0,993,1493,1,0
Sprite,Foreground,Centre,"sb\particle.png",0,0 C,0,493,,255,2,129 M,1,493,993,529,388,529,338 F,0,993,1493,1,0
Sprite,Foreground,Centre,"sb\particle.png",0,0 C,0,493,,255,2,129 M,1,493,993,529,388,544.4509,340.4472 F,0,993,1493,1,0
Sprite,Foreground,Centre,"sb\particle.png",0,0 C,0,493,,255,2,129 M,1,493,993,529,388,558.3893,347.5491 F,0,993,1493,1,0
Sprite,Foreground,Centre,"sb\particle.png",0,0 C,0,493,,255,2,129 M,1,493,993,529,388,569.4509,358.6107 F,0,993,1493,1,0
Sprite,Foreground,Centre,"sb\particle.png",0,0 C,0,493,,255,2,129 M,1,493,993,529,388,576.5529,372.5492 F,0,993,1493,1,0
Sprite,Foreground,Centre,"sb\particle.png",0,0 C,0,863,,255,2,129 M,1,863,1363,470,333,520,333 F,0,1363,1863,1,0
Sprite,Foreground,Centre,"sb\particle.png",0,0 C,0,863,,255,2,129 M,1,863,1363,470,333,517.5529,348.4508 F,0,1363,1863,1,0
Sprite,Foreground,Centre,"sb\particle.png",0,0 C,0,863,,255,2,129 M,1,863,1363,470,333,510.4509,362.3893 F,0,1363,1863,1,0
Sprite,Foreground,Centre,"sb\particle.png",0,0 C,0,863,,255,2,129 M,1,863,1363,470,333,499.3893,373.4509 F,0,1363,1863,1,0
Sprite,Foreground,Centre,"sb\particle.png",0,0 C,0,863,,255,2,129 M,1,863,1363,470,333,485.4508,380.5528 F,0,1363,1863,1,0
Sprite,Foreground,Centre,"sb\particle.png",0,0 C,0,863,,255,2,129 M,1,863,1363,470,333,470,383 F,0,1363,1863,1,0
Sprite,Foreground,Centre,"sb\particle.png",0,0 C,0,863,,255,2,129 M,1,863,1363,470,333,454.5492,380.5528 F,0,1363,1863,1,0
Sprite,Foreground,Centre,"sb\particle.png",0,0 C,0,863,,255,2,129 M,1,863,1363,470,333,440.6107,373.4509 F,0,1363,1863,1,0
Sprite,Foreground,Centre,"sb\particle.png",0,0 C,0,863,,255,2,129 M,1,863,1363,470,333,429.5491,362.3893 F,0,1363,1863,1,0
Sprite,Foreground,Centre,"sb\particle.png",0,0 C,0,863,,255,2,129 M,1,863,1363,470,333,422.4472,348.4508 F,0,1363,1863,1,0
Sprite,Foreground,Centre,"sb\particle.png",0,0 C,0,863,,255,2,129 M,1,863,1363,470,333,420,333 F,0,1363,1863,1,0
Sprite,Foreground,Centre,"sb\particle.png",0,0 C,0,863,,255,2,129 M,1,863,1363,470,333,422.4472,317.5492 F,0,1363,1863,1,0
Sprite,Foreground,Centre,"sb\particle.png",0,0 C,0,863,,255,2,129 M,1,863,1363,470,333,429.5491,303.6107 F,0,1363,1863,1,0
Sprite,Foreground,Centre,"sb\particle.png",0,0 C,0,863,,255,2,129 M,1,863,1363,470,333,440.6107,292.5491 F,0,1363,1863,1,0
Sprite,Foreground,Centre,"sb\particle.png",0,0 C,0,863,,255,2,129 M,1,863,1363,470,333,454.5492,285.4472 F,0,1363,1863,1,0
Sprite,Foreground,Centre,"sb\particle.png",0,0 C,0,863,,255,2,129 M,1,863,1363,470,333,470,283 F,0,1363,1863,1,0
Sprite,Foreground,Centre,"sb\particle.png",0,0 C,0,863,,255,2,129 M,1,863,1363,470,333,485.4508,285.4472 F,0,1363,1863,1,0
Sprite,Foreground,Centre,"sb\particle.png",0,0 C,0,863,,255,2,129 M,1,863,1363,470,333,499.3893,292.5491 F,0,1363,1863,1,0
Sprite,Foreground,Centre,"sb\particle.png",0,0 C,0,863,,255,2,129 M,1,863,1363,470,333,510.4509,303.6107 F,0,1363,1863,1,0
Sprite,Foreground,Centre,"sb\particle.png",0,0 C,0,863,,255,2,129 M,1,863,1363,470,333,517.5529,317.5492 F,0,1363,1863,1,0
Sprite,Foreground,Centre,"sb\particle.png",0,0 C,0,1604,,51,40,176 M,1,1604,2104,244,401,294,401 F,0,2104,2604,1,0
Sprite,Foreground,Centre,"sb\particle.png",0,0 C,0,1604,,51,40,176 M,1,1604,2104,244,401,291.5528,416.4508 F,0,2104,2604,1,0
Sprite,Foreground,Centre,"sb\particle.png",0,0 C,0,1604,,51,40,176 M,1,1604,2104,244,401,284.4509,430.3893 F,0,2104,2604,1,0
Sprite,Foreground,Centre,"sb\particle.png",0,0 C,0,1604,,51,40,176 M,1,1604,2104,244,401,273.3893,441.4509 F,0,2104,2604,1,0
Sprite,Foreground,Centre,"sb\particle.png",0,0 C,0,1604,,51,40,176 M,1,1604,2104,244,401,259.4508,448.5528 F,0,2104,2604,1,0
Sprite,Foreground,Centre,"sb\particle.png",0,0 C,0,1604,,51,40,176 M,1,1604,2104,244,401,244,451 F,0,2104,2604,1,0
Sprite,Foreground,Centre,"sb\particle.png",0,0 C,0,1604,,51,40,176 M,1,1604,2104,244,401,228.5491,448.5528 F,0,2104,2604,1,0
Sprite,Foreground,Centre,"sb\particle.png",0,0 C,0,1604,,51,40,176 M,1,1604,2104,244,401,214.6107,441.4509 F,0,2104,2604,1,0
Sprite,Foreground,Centre,"sb\particle.png",0,0 C,0,1604,,51,40,176 M,1,1604,2104,244,401,203.5491,430.3893 F,0,2104,2604,1,0
Sprite,Foreground,Centre,"sb\particle.png",0,0 C,0,1604,,51,40,176 M,1,1604,2104,244,401,196.4472,416.4508 F,0,2104,2604,1,0
Sprite,Foreground,Centre,"sb\particle.png",0,0 C,0,1604,,51,40,176 M,1,1604,2104,244,401,194,401 F,0,2104,2604,1,0
Sprite,Foreground,Centre,"sb\particle.png",0,0 C,0,1604,,51,40,176 M,1,1604,2104,244,401,196.4472,385.5492 F,0,2104,2604,1,0
Sprite,Foreground,Centre,"sb\particle.png",0,0 C,0,1604,,51,40,176 M,1,1604,2104,244,401,203.5491,371.6107 F,0,2104,2604,1,0
Sprite,Foreground,Centre,"sb\particle.png",0,0 C,0,1604,,51,40,176 M,1,1604,2104,244,401,214.6107,360.5491 F,0,2104,2604,1,0
Sprite,Foreground,Centre,"sb\particle.png",0,0 C,0,1604,,51,40,176 M,1,1604,2104,244,401,228.5491,353.4472 F,0,2104,2604,1,0
Sprite,Foreground,Centre,"sb\particle.png",0,0 C,0,1604,,51,40,176 M,1,1604,2104,244,401,244,351 F,0,2104,2604,1,0
Sprite,Foreground,Centre,"sb\particle.png",0,0 C,0,1604,,51,40,176 M,1,1604,2104,244,401,259.4508,353.4472 F,0,2104,2604,1,0
Sprite,Foreground,Centre,"sb\particle.png",0,0 C,0,1604,,51,40,176 M,1,1604,2104,244,401,273.3893,360.5491 F,0,2104,2604,1,0
Sprite,Foreground,Centre,"sb\particle.png",0,0 C,0,1604,,51,40,176 M,1,1604,2104,244,401,284.4509,371.6107 F,0,2104,2604,1,0
Sprite,Foreground,Centre,"sb\particle.png",0,0 C,0,1604,,51,40,176 M,1,1604,2104,244,401,291.5528,385.5492 F,0,2104,2604,1,0
Sprite,Foreground,Centre,"sb\particle.png",0,0 C,0,1974,,51,40,176 M,1,1974,2474,189,329,239,329 F,0,2474,2974,1,0
Sprite,Foreground,Centre,"sb\particle.png",0,0 C,0,1974,,51,40,176 M,1,1974,2474,189,329,236.5528,344.4508 F,0,2474,2974,1,0
Sprite,Foreground,Centre,"sb\particle.png",0,0 C,0,1974,,51,40,176 M,1,1974,2474,189,329,229.4509,358.3893 F,0,2474,2974,1,0
Sprite,Foreground,Centre,"sb\particle.png",0,0 C,0,1974,,51,40,176 M,1,1974,2474,189,329,218.3893,369.4509 F,0,2474,2974,1,0
Sprite,Foreground,Centre,"sb\particle.png",0,0 C,0,1974,,51,40,176 M,1,1974,2474,189,329,204.4509,376.5528 F,0,2474,2974,1,0
Sprite,Foreground,Centre,"sb\particle.png",0,0 C,0,1974,,51,40,176 M,1,1974,2474,189,329,189,379 F,0,2474,2974,1,0
Sprite,Foreground,Centre,"sb\particle.png",0,0 C,0,1974,,51,40,176 M,1,1974,2474,189,329,173.5491,376.5528 F,0,2474,2974,1,0
Sprite,Foreground,Centre,"sb\particle.png",0,0 C,0,1974,,51,40,176 M,1,1974,2474,189,329,159.6107,369.4509 F,0,2474,2974,1,0
Sprite,Foreground,Centre,"sb\particle.png",0,0 C,0,1974,,51,40,176 M,1,1974,2474,189,329,148.5491,358.3893 F,0,2474,2974,1,0
Sprite,Foreground,Centre,"sb\particle.png",0,0 C,0,1974,,51,40,176 M,1,1974,2474,189,329,141.4472,344.4508 F,0,2474,2974,1,0
Sprite,Foreground,Centre,"sb\particle.png",0,0 C,0,1974,,51,40,176 M,1,1974,2474,189,329,139,329 F,0,2474,2974,1,0
Sprite,Foreground,Centre,"sb\particle.png",0,0 C,0,1974,,51,40,176 M,1,1974,2474,189,329,141.4472,313.5492 F,0,2474,2974,1,0
Sprite,Foreground,Centre,"sb\particle.png",0,0 C,0,1974,,51,40,176 M,1,1974,2474,189,329,148.5491,299.6107 F,0,2474,2974,1,0
Sprite,Foreground,Centre,"sb\particle.png",0,0 C,0,1974,,51,40,176 M,1,1974,2474,189,329,159.6107,288.5491 F,0,2474,2974,1,0
Sprite,Foreground,Centre,"sb\particle.png",0,0 C,0,1974,,51,40,176 M,1,1974,2474,189,329,173.5491,281.4472 F,0,2474,2974,1,0
Sprite,Foreground,Centre,"sb\particle.png",0,0 C,0,1974,,51,40,176 M,1,1974,2474,189,329,189,279 F,0,2474,2974,1,0
Sprite,Foreground,Centre,"sb\particle.png",0,0 C,0,1974,,51,40,176 M,1,1974,2474,189,329,204.4509,281.4472 F,0,2474,2974,1,0
Sprite,Foreground,Centre,"sb\particle.png",0,0 C,0,1974,,51,40,176 M,1,1974,2474,189,329,218.3893,288.5491 F,0,2474,2974,1,0
Sprite,Foreground,Centre,"sb\particle.png",0,0 C,0,1974,,51,40,176 M,1,1974,2474,189,329,229.4509,299.6107 F,0,2474,2974,1,0
Sprite,Foreground,Centre,"sb\particle.png",0,0 C,0,1974,,51,40,176 M,1,1974,2474,189,329,236.5528,313.5492 F,0,2474,2974,1,0
Sprite,Foreground,Centre,"sb\particle.png",0,0 C,0,2344,,51,40,176 M,1,2344,2844,101,349,151,349 F,0,2844,3344,1,0
Sprite,Foreground,Centre,"sb\particle.png",0,0 C,0,2344,,51,40,176 M,1,2344,2844,101,349,148.5528,364.4508 F,0,2844,3344,1,0
Sprite,Foreground,Centre,"sb\particle.png",0,0 C,0,2344,,51,40,176 M,1,2344,2844,101,349,141.4509,378.3893 F,0,2844,3344,1,0
Sprite,Foreground,Centre,"sb\particle.png",0,0 C,0,2344,,51,40,176 M,1,2344,2844,101,349,130.3893,389.4509 F,0,2844,3344,1,0
Sprite,Foreground,Centre,"sb\particle.png",0,0 C,0,2344,,51,40,176 M,1,2344,2844,101,349,116.4509,396.5528 F,0,2844,3344,1,0
Sprite,Foreground,Centre,"sb\particle.png",0,0 C,0,2344,,51,40,176 M,1,2344,2844,101,349,101,399 F,0,2844,3344,1,0
Sprite,Foreground,Centre,"sb\particle.png",0,0 C,0,2344,,51,40,176 M,1,2344,2844,101,349,85.54915,396.5528 F,0,2844,3344,1,0
Sprite,Foreground,Centre,"sb\particle.png",0,0 C,0,2344,,51,40,176 M,1,2344,2844,101,349,71.61073,389.4509 F,0,2844,3344,1,0
Sprite,Foreground,Centre,"sb\particle.png",0,0 C,0,2344,,51,40,176 M,1,2344,2844,101,349,60.54915,378.3893 F,0,2844,3344,1,0
Sprite,Foreground,Centre,"sb\particle.png",0,0 C,0,2344,,51,40,176 M,1,2344,2844,101,349,53.44717,364.4508 F,0,2844,3344,1,0
Sprite,Foreground,Centre,"sb\particle.png",0,0 C,0,2344,,51,40,176 M,1,2344,2844,101,349,51,349 F,0,2844,3344,1,0
Sprite,Foreground,Centre,"sb\particle.png",0,0 C,0,2344,,51,40,176 M,1,2344,2844,101,349,53.44717,333.5492 F,0,2844,3344,1,0
Sprite,Foreground,Centre,"sb\particle.png",0,0 C,0,2344,,51,40,176 M,1,2344,2844,101,349,60.54915,319.6107 F,0,2844,3344,1,0
Sprite,Foreground,Centre,"sb\particle.png",0,0 C,0,2344,,51,40,176 M,1,2344,2844,101,349,71.61073,308.5491 F,0,2844,3344,1,0
Sprite,Foreground,Centre,"sb\particle.png",0,0 C,0,2344,,51,40,176 M,1,2344,2844,101,349,85.54915,301.4472 F,0,2844,3344,1,0
Sprite,Foreground,Centre,"sb\particle.png",0,0 C,0,2344,,51,40,176 M,1,2344,2844,101,349,101,299 F,0,2844,3344,1,0
Sprite,Foreground,Centre,"sb\particle.png",0,0 C,0,2344,,51,40,176 M,1,2344,2844,101,349,116.4509,301.4472 F,0,2844,3344,1,0
Sprite,Foreground,Centre,"sb\particle.png",0,0 C,0,2344,,51,40,176 M,1,2344,2844,101,349,130.3893,308.5491 F,0,2844,3344,1,0
Sprite,Foreground,Centre,"sb\particle.png",0,0 C,0,2344,,51,40,176 M,1,2344,2844,101,349,141.4509,319.6107 F,0,2844,3344,1,0
Sprite,Foreground,Centre,"sb\particle.png",0,0 C,0,2344,,51,40,176 M,1,2344,2844,101,349,148.5528,333.5492 F,0,2844,3344,1,0
Sprite,Foreground,Centre,"sb\particle.png",0,0 C,0,2715,,51,40,176 M,1,2715,3215,101,349,151,349 F,0,3215,3715,1,0
Sprite,Foreground,Centre,"sb\particle.png",0,0 C,0,2715,,51,40,176 M,1,2715,3215,101,349,148.5528,364.4508 F,0,3215,3715,1,0
Sprite,Foreground,Centre,"sb\particle.png",0,0 C,0,2715,,51,40,176 M,1,2715,3215,101,349,141.4509,378.3893 F,0,3215,3715,1,0
Sprite,Foreground,Centre,"sb\particle.png",0,0 C,0,2715,,51,40,176 M,1,2715,3215,101,349,130.3893,389.4509 F,0,3215,3715,1,0
Sprite,Foreground,Centre,"sb\particle.png",0,0 C,0,2715,,51,40,176 M,1,2715,3215,101,349,116.4509,396.5528 F,0,3215,3715,1,0
Sprite,Foreground,Centre,"sb\particle.png",0,0 C,0,2715,,51,40,176 M,1,2715,3215,101,349,101,399 F,0,3215,3715,1,0
Sprite,Foreground,Centre,"sb\particle.png",0,0 C,0,2715,,51,40,176 M,1,2715,3215,101,349,85.54915,396.5528 F,0,3215,3715,1,0
Sprite,Foreground,Centre,"sb\particle.png",0,0 C,0,2715,,51,40,176 M,1,2715,3215,101,349,71.61073,389.4509 F,0,3215,3715,1,0
Sprite,Foreground,Centre,"sb\particle.png",0,0 C,0,2715,,51,40,176 M,1,2715,3215,101,349,60.54915,378.3893 F,0,3215,3715,1,0
Sprite,Foreground,Centre,"sb\particle.png",0,0 C,0,2715,,51,40,176 M,1,2715,3215,101,349,53.44717,364.4508 F,0,3215,3715,1,0
Sprite,Foreground,Centre,"sb\particle.png",0,0 C,0,2715,,51,40,176 M,1,2715,3215,101,349,51,349 F,0,3215,3715,1,0
Sprite,Foreground,Centre,"sb\particle.png",0,0 C,0,2715,,51,40,176 M,1,2715,3215,101,349,53.44717,333.5492 F,0,3215,3715,1,0
Sprite,Foreground,Centre,"sb\particle.png",0,0 C,0,2715,,51,40,176 M,1,2715,3215,101,349,60.54915,319.6107 F,0,3215,3715,1,0
Sprite,Foreground,Centre,"sb\particle.png",0,0 C,0,2715,,51,40,176 M,1,2715,3215,101,349,71.61073,308.5491 F,0,3215,3715,1,0
Sprite,Foreground,Centre,"sb\particle.png",0,0 C,0,2715,,51,40,176 M,1,2715,3215,101,349,85.54915,301.4472 F,0,3215,3715,1,0
Sprite,Foreground,Centre,"sb\particle.png",0,0 C,0,2715,,51,40,176 M,1,2715,3215,101,349,101,299 F,0,3215,3715,1,0
Sprite,Foreground,Centre,"sb\particle.png",0,0 C,0,2715,,51,40,176 M,1,2715,3215,101,349,116.4509,301.4472 F,0,3215,3715,1,0
Sprite,Foreground,Centre,"sb\particle.png",0,0 C,0,2715,,51,40,176 M,1,2715,3215,101,349,130.3893,308.5491 F,0,3215,3715,1,0
Sprite,Foreground,Centre,"sb\particle.png",0,0 C,0,2715,,51,40,176 M,1,2715,3215,101,349,141.4509,319.6107 F,0,3215,3715,1,0
Sprite,Foreground,Centre,"sb\particle.png",0,0 C,0,2715,,51,40,176 M,1,2715,3215,101,349,148.5528,333.5492 F,0,3215,3715,1,0
Sprite,Foreground,Centre,"sb\particle.png",0,0 C,0,3085,,255,134,252 M,1,3085,3585,64,252,114,252 F,0,3585,4085,1,0
Sprite,Foreground,Centre,"sb\particle.png",0,0 C,0,3085,,255,134,252 M,1,3085,3585,64,252,111.5528,267.4508 F,0,3585,4085,1,0
Sprite,Foreground,Centre,"sb\particle.png",0,0 C,0,3085,,255,134,252 M,1,3085,3585,64,252,104.4509,281.3893 F,0,3585,4085,1,0
Sprite,Foreground,Centre,"sb\particle.png",0,0 C,0,3085,,255,134,252 M,1,3085,3585,64,252,93.38927,292.4509 F,0,3585,4085,1,0
Sprite,Foreground,Centre,"sb\particle.png",0,0 C,0,3085,,255,134,252 M,1,3085,3585,64,252,79.45085,299.5528 F,0,3585,4085,1,0
Sprite,Foreground,Centre,"sb\particle.png",0,0 C,0,3085,,255,134,252 M,1,3085,3585,64,252,64,302 F,0,3585,4085,1,0
Sprite,Foreground,Centre,"sb\particle.png",0,0 C,0,3085,,255,134,252 M,1,3085,3585,64,252,48.54915,299.5528 F,0,3585,4085,1,0
Sprite,Foreground,Centre,"sb\particle.png",0,0 C,0,3085,,255,134,252 M,1,3085,3585,64,252,34.61074,292.4509 F,0,3585,4085,1,0
Sprite,Foreground,Centre,"sb\particle.png",0,0 C,0,3085,,255,134,252 M,1,3085,3585,64,252,23.54915,281.3893 F,0,3585,4085,1,0
Sprite,Foreground,Centre,"sb\particle.png",0,0 C,0,3085,,255,134,252 M,1,3085,3585,64,252,16.44717,267.4508 F,0,3585,4085,1,0
Sprite,Foreground,Centre,"sb\particle.png",0,0 C,0,3085,,255,134,252 M,1,3085,3585,64,252,14,252 F,0,3585,4085,1,0
Sprite,Foreground,Centre,"sb\particle.png",0,0 C,0,3085,,255,134,252 M,1,3085,3585,64,252,16.44717,236.5491 F,0,3585,4085,1,0
Sprite,Foreground,Centre,"sb\particle.png",0,0 C,0,3085,,255,134,252 M,1,3085,3585,64,252,23.54915,222.6107 F,0,3585,4085,1,0
Sprite,Foreground,Centre,"sb\particle.png",0,0 C,0,3085,,255,134,252 M,1,3085,3585,64,252,34.61074,211.5491 F,0,3585,4085,1,0
Sprite,Foreground,Centre,"sb\particle.png",0,0 C,0,3085,,255,134,252 M,1,3085,3585,64,252,48.54915,204.4472 F,0,3585,4085,1,0
Sprite,Foreground,Centre,"sb\particle.png",0,0 C,0,3085,,255,134,252 M,1,3085,3585,64,252,64,202 F,0,3585,4085,1,0
Sprite,Foreground,Centre,"sb\particle.png",0,0 C,0,3085,,255,134,252 M,1,3085,3585,64,252,79.45085,204.4472 F,0,3585,4085,1,0
Sprite,Foreground,Centre,"sb\particle.png",0,0 C,0,3085,,255,134,252 M,1,3085,3585,64,252,93.38927,211.5491 F,0,3585,4085,1,0
Sprite,Foreground,Centre,"sb\particle.png",0,0 C,0,3085,,255,134,252 M,1,3085,3585,64,252,104.4509,222.6107 F,0,3585,4085,1,0
Sprite,Foreground,Centre,"sb\particle.png",0,0 C,0,3085,,255,134,252 M,1,3085,3585,64,252,111.5528,236.5491 F,0,3585,4085,1,0
Sprite,Foreground,Centre,"sb\particle.png",0,0 C,0,3270,,255,134,252 M,1,3270,3770,164,201,214,201 F,0,3770,4270,1,0
Sprite,Foreground,Centre,"sb\particle.png",0,0 C,0,3270,,255,134,252 M,1,3270,3770,164,201,211.5528,216.4509 F,0,3770,4270,1,0
Sprite,Foreground,Centre,"sb\particle.png",0,0 C,0,3270,,255,134,252 M,1,3270,3770,164,201,204.4509,230.3893 F,0,3770,4270,1,0
Sprite,Foreground,Centre,"sb\particle.png",0,0 C,0,3270,,255,134,252 M,1,3270,3770,164,201,193.3893,241.4509 F,0,3770,4270,1,0
Sprite,Foreground,Centre,"sb\particle.png",0,0 C,0,3270,,255,134,252 M,1,3270,3770,164,201,179.4509,248.5528 F,0,3770,4270,1,0
Sprite,Foreground,Centre,"sb\particle.png",0,0 C,0,3270,,255,134,252 M,1,3270,3770,164,201,164,251 F,0,3770,4270,1,0
Sprite,Foreground,Centre,"sb\particle.png",0,0 C,0,3270,,255,134,252 M,1,3270,3770,164,201,148.5491,248.5528 F,0,3770,4270,1,0
Sprite,Foreground,Centre,"sb\particle.png",0,0 C,0,3270,,255,134,252 M,1,3270,3770,164,201,134.6107,241.4509 F,0,3770,4270,1,0
Sprite,Foreground,Centre,"sb\particle.png",0,0 C,0,3270,,255,134,252 M,1,3270,3770,164,201,123.5491,230.3893 F,0,3770,4270,1,0
Sprite,Foreground,Centre,"sb\particle.png",0,0 C,0,3270,,255,134,252 M,1,3270,3770,164,201,116.4472,216.4509 F,0,3770,4270,1,0
Sprite,Foreground,Centre,"sb\particle.png",0,0 C,0,3270,,255,134,252 M,1,3270,3770,164,201,114,201 F,0,3770,4270,1,0
Sprite,Foreground,Centre,"sb\particle.png",0,0 C,0,3270,,255,134,252 M,1,3270,3770,164,201,116.4472,185.5491 F,0,3770,4270,1,0
Sprite,Foreground,Centre,"sb\particle.png",0,0 C,0,3270,,255,134,252 M,1,3270,3770,164,201,123.5491,171.6107 F,0,3770,4270,1,0
Sprite,Foreground,Centre,"sb\particle.png",0,0 C,0,3270,,255,134,252 M,1,3270,3770,164,201,134.6107,160.5491 F,0,3770,4270,1,0
Sprite,Foreground,Centre,"sb\particle.png",0,0 C,0,3270,,255,134,252 M,1,3270,3770,164,201,148.5491,153.4472 F,0,3770,4270,1,0
Sprite,Foreground,Centre,"sb\particle.png",0,0 C,0,3270,,255,134,252 M,1,3270,3770,164,201,164,151 F,0,3770,4270,1,0
Sprite,Foreground,Centre,"sb\particle.png",0,0 C,0,3270,,255,134,252 M,1,3270,3770,164,201,179.4509,153.4472 F,0,3770,4270,1,0
Sprite,Foreground,Centre,"sb\particle.png",0,0 C,0,3270,,255,134,252 M,1,3270,3770,164,201,193.3893,160.5491 F,0,3770,4270,1,0
Sprite,Foreground,Centre,"sb\particle.png",0,0 C,0,3270,,255,134,252 M,1,3270,3770,164,201,204.4509,171.6107 F,0,3770,4270,1,0
Sprite,Foreground,Centre,"sb\particle.png",0,0 C,0,3270,,255,134,252 M,1,3270,3770,164,201,211.5528,185.5491 F,0,3770,4270,1,0
Sprite,Foreground,Centre,"sb\particle.png",0,0 C,0,3455,,67,101,237 M,1,3455,3955,85,163,135,163 F,0,3955,4455,1,0
Sprite,Foreground,Centre,"sb\particle.png",0,0 C,0,3455,,67,101,237 M,1,3455,3955,85,163,132.5528,178.4509 F,0,3955,4455,1,0
Sprite,Foreground,Centre,"sb\particle.png",0,0 C,0,3455,,67,101,237 M,1,3455,3955,85,163,125.4509,192.3893 F,0,3955,4455,1,0
Sprite,Foreground,Centre,"sb\particle.png",0,0 C,0,3455,,67,101,237 M,1,3455,3955,85,163,114.3893,203.4509 F,0,3955,4455,1,0
Sprite,Foreground,Centre,"sb\particle.png",0,0 C,0,3455,,67,101,237 M,1,3455,3955,85,163,100.4509,210.5528 F,0,3955,4455,1,0
Sprite,Foreground,Centre,"sb\particle.png",0,0 C,0,3455,,67,101,237 M,1,3455,3955,85,163,85,213 F,0,3955,4455,1,0
Sprite,Foreground,Centre,"sb\particle.png",0,0 C,0,3455,,67,101,237 M,1,3455,3955,85,163,69.54915,210.5528 F,0,3955,4455,1,0
Sprite,Foreground,Centre,"sb\particle.png",0,0 C,0,3455,,67,101,237 M,1,3455,3955,85,163,55.61074,203.4509 F,0,3955,4455,1,0
Sprite,Foreground,Centre,"sb\particle.png",0,0 C,0,3455,,67,101,237 M,1,3455,3955,85,163,44.54915,192.3893 F,0,3955,4455,1,0
Sprite,Foreground,Centre,"sb\particle.png",0,0 C,0,3455,,67,101,237 M,1,3455,3955,85,163,37.44717,178.4509 F,0,3955,4455,1,0
Sprite,Foreground,Centre,"sb\particle.png",0,0 C,0,3455,,67,101,237 M,1,3455,3955,85,163,35,163 F,0,3955,4455,1,0
Sprite,Foreground,Centre,"sb\particle.png",0,0 C,0,3455,,67,101,237 M,1,3455,3955,85,163,37.44717,147.5491 F,0,3955,4455,1,0
Sprite,Foreground,Centre,"sb\particle.png",0,0 C,0,3455,,67,101,237 M,1,3455,3955,85,163,44.54915,133.6107 F,0,3955,4455,1,0
Sprite,Foreground,Centre,"sb\particle.png",0,0 C,0,3455,,67,101,237 M,1,3455,3955,85,163,55.61074,122.5491 F,0,3955,4455,1,0
Sprite,Foreground,Centre,"sb\particle.png",0,0 C,0,3455,,67,101,237 M,1,3455,3955,85,163,69.54915,115.4472 F,0,3955,4455,1,0
Sprite,Foreground,Centre,"sb\particle.png",0,0 C,0,3455,,67,101,237 M,1,3455,3955,85,163,85,113 F,0,3955,4455,1,0
Sprite,Foreground,Centre,"sb\particle.png",0,0 C,0,3455,,67,101,237 M,1,3455,3955,85,163,100.4509,115.4472 F,0,3955,4455,1,0
Sprite,Foreground,Centre,"sb\particle.png",0,0 C,0,3455,,67,101,237 M,1,3455,3955,85,163,114.3893,122.5491 F,0,3955,4455,1,0
Sprite,Foreground,Centre,"sb\particle.png",0,0 C,0,3455,,67,101,237 M,1,3455,3955,85,163,125.4509,133.6107 F,0,3955,4455,1,0
Sprite,Foreground,Centre,"sb\particle.png",0,0 C,0,3455,,67,101,237 M,1,3455,3955,85,163,132.5528,147.5491 F,0,3955,4455,1,0
Sprite,Foreground,Centre,"sb\particle.png",0,0 C,0,3826,,67,101,237 M,1,3826,4326,96,73,146,73 F,0,4326,4826,1,0
Sprite,Foreground,Centre,"sb\particle.png",0,0 C,0,3826,,67,101,237 M,1,3826,4326,96,73,143.5528,88.45085 F,0,4326,4826,1,0
Sprite,Foreground,Centre,"sb\particle.png",0,0 C,0,3826,,67,101,237 M,1,3826,4326,96,73,136.4509,102.3893 F,0,4326,4826,1,0
Sprite,Foreground,Centre,"sb\particle.png",0,0 C,0,3826,,67,101,237 M,1,3826,4326,96,73,125.3893,113.4509 F,0,4326,4826,1,0
Sprite,Foreground,Centre,"sb\particle.png",0,0 C,0,3826,,67,101,237 M,1,3826,4326,96,73,111.4509,120.5528 F,0,4326,4826,1,0
Sprite,Foreground,Centre,"sb\particle.png",0,0 C,0,3826,,67,101,237 M,1,3826,4326,96,73,96,123 F,0,4326,4826,1,0
Sprite,Foreground,Centre,"sb\particle.png",0,0 C,0,3826,,67,101,237 M,1,3826,4326,96,73,80.54915,120.5528 F,0,4326,4826,1,0
Sprite,Foreground,Centre,"sb\particle.png",0,0 C,0,3826,,67,101,237 M,1,3826,4326,96,73,66.61073,113.4509 F,0,4326,4826,1,0
Sprite,Foreground,Centre,"sb\particle.png",0,0 C,0,3826,,67,101,237 M,1,3826,4326,96,73,55.54915,102.3893 F,0,4326,4826,1,0
Sprite,Foreground,Centre,"sb\particle.png",0,0 C,0,3826,,67,101,237 M,1,3826,4326,96,73,48.44717,88.45085 F,0,4326,4826,1,0
Sprite,Foreground,Centre,"sb\particle.png",0,0 C,0,3826,,67,101,237 M,1,3826,4326,96,73,46,73 F,0,4326,4826,1,0
Sprite,Foreground,Centre,"sb\particle.png",0,0 C,0,3826,,67,101,237 M,1,3826,4326,96,73,48.44717,57.54915 F,0,4326,4826,1,0
Sprite,Foreground,Centre,"sb\particle.png",0,0 C,0,3826,,67,101,237 M,1,3826,4326,96,73,55.54915,43.61074 F,0,4326,4826,1,0
Sprite,Foreground,Centre,"sb\particle.png",0,0 C,0,3826,,67,101,237 M,1,3826,4326,96,73,66.61073,32.54915 F,0,4326,4826,1,0
Sprite,Foreground,Centre,"sb\particle.png",0,0 C,0,3826,,67,101,237 M,1,3826,4326,96,73,80.54915,25.44717 F,0,4326,4826,1,0
Sprite,Foreground,Centre,"sb\particle.png",0,0 C,0,3826,,67,101,237 M,1,3826,4326,96,73,96,23 F,0,4326,4826,1,0
Sprite,Foreground,Centre,"sb\particle.png",0,0 C,0,3826,,67,101,237 M,1,3826,4326,96,73,111.4509,25.44717 F,0,4326,4826,1,0
Sprite,Foreground,Centre,"sb\particle.png",0,0 C,0,3826,,67,101,237 M,1,3826,4326,96,73,125.3893,32.54915 F,0,4326,4826,1,0
Sprite,Foreground,Centre,"sb\particle.png",0,0 C,0,3826,,67,101,237 M,1,3826,4326,96,73,136.4509,43.61074 F,0,4326,4826,1,0
Sprite,Foreground,Centre,"sb\particle.png",0,0 C,0,3826,,67,101,237 M,1,3826,4326,96,73,143.5528,57.54915 F,0,4326,4826,1,0
Sprite,Foreground,Centre,"sb\particle.png",0,0 C,0,4196,,67,101,237 M,1,4196,4696,185,57,235,57 F,0,4696,5196,1,0
Sprite,Foreground,Centre,"sb\particle.png",0,0 C,0,4196,,67,101,237 M,1,4196,4696,185,57,232.5528,72.45085 F,0,4696,5196,1,0
Sprite,Foreground,Centre,"sb\particle.png",0,0 C,0,4196,,67,101,237 M,1,4196,4696,185,57,225.4509,86.38927 F,0,4696,5196,1,0
Sprite,Foreground,Centre,"sb\particle.png",0,0 C,0,4196,,67,101,237 M,1,4196,4696,185,57,214.3893,97.45085 F,0,4696,5196,1,0
Sprite,Foreground,Centre,"sb\particle.png",0,0 C,0,4196,,67,101,237 M,1,4196,4696,185,57,200.4509,104.5528 F,0,4696,5196,1,0
Sprite,Foreground,Centre,"sb\particle.png",0,0 C,0,4196,,67,101,237 M,1,4196,4696,185,57,185,107 F,0,4696,5196,1,0
Sprite,Foreground,Centre,"sb\particle.png",0,0 C,0,4196,,67,101,237 M,1,4196,4696,185,57,169.5491,104.5528 F,0,4696,5196,1,0
Sprite,Foreground,Centre,"sb\particle.png",0,0 C,0,4196,,67,101,237 M,1,4196,4696,185,57,155.6107,97.45085 F,0,4696,5196,1,0
Sprite,Foreground,Centre,"sb\particle.png",0,0 C,0,4196,,67,101,237 M,1,4196,4696,185,57,144.5491,86.38927 F,0,4696,5196,1,0
Sprite,Foreground,Centre,"sb\particle.png",0,0 C,0,4196,,67,101,237 M,1,4196,4696,185,57,137.4472,72.45085 F,0,4696,5196,1,0
Sprite,Foreground,Centre,"sb\particle.png",0,0 C,0,4196,,67,101,237 M,1,4196,4696,185,57,135,57 F,0,4696,5196,1,0
Sprite,Foreground,Centre,"sb\particle.png",0,0 C,0,4196,,67,101,237 M,1,4196,4696,185,57,137.4472,41.54915 F,0,4696,5196,1,0
Sprite,Foreground,Centre,"sb\particle.png",0,0 C,0,4196,,67,101,237 M,1,4196,4696,185,57,144.5491,27.61074 F,0,4696,5196,1,0
Sprite,Foreground,Centre,"sb\particle.png",0,0 C,0,4196,,67,101,237 M,1,4196,4696,185,57,155.6107,16.54915 F,0,4696,5196,1,0
Sprite,Foreground,Centre,"sb\particle.png",0,0 C,0,4196,,67,101,237 M,1,4196,4696,185,57,169.5491,9.447174 F,0,4696,5196,1,0
Sprite,Foreground,Centre,"sb\particle.png",0,0 C,0,4196,,67,101,237 M,1,4196,4696,185,57,185,7 F,0,4696,5196,1,0
Sprite,Foreground,Centre,"sb\particle.png",0,0 C,0,4196,,67,101,237 M,1,4196,4696,185,57,200.4509,9.447174 F,0,4696,5196,1,0
Sprite,Foreground,Centre,"sb\particle.png",0,0 C,0,4196,,67,101,237 M,1,4196,4696,185,57,214.3893,16.54915 F,0,4696,5196,1,0
Sprite,Foreground,Centre,"sb\particle.png",0,0 C,0,4196,,67,101,237 M,1,4196,4696,185,57,225.4509,27.61074 F,0,4696,5196,1,0
Sprite,Foreground,Centre,"sb\particle.png",0,0 C,0,4196,,67,101,237 M,1,4196,4696,185,57,232.5528,41.54915 F,0,4696,5196,1,0
Sprite,Foreground,Centre,"sb\particle.png",0,0 C,0,4567,,67,101,237 M,1,4567,5067,164,201,214,201 F,0,5067,5567,1,0
Sprite,Foreground,Centre,"sb\particle.png",0,0 C,0,4567,,67,101,237 M,1,4567,5067,164,201,211.5528,216.4509 F,0,5067,5567,1,0
Sprite,Foreground,Centre,"sb\particle.png",0,0 C,0,4567,,67,101,237 M,1,4567,5067,164,201,204.4509,230.3893 F,0,5067,5567,1,0
Sprite,Foreground,Centre,"sb\particle.png",0,0 C,0,4567,,67,101,237 M,1,4567,5067,164,201,193.3893,241.4509 F,0,5067,5567,1,0
Sprite,Foreground,Centre,"sb\particle.png",0,0 C,0,4567,,67,101,237 M,1,4567,5067,164,201,179.4509,248.5528 F,0,5067,5567,1,0
Sprite,Foreground,Centre,"sb\particle.png",0,0 C,0,4567,,67,101,237 M,1,4567,5067,164,201,164,251 F,0,5067,5567,1,0
Sprite,Foreground,Centre,"sb\particle.png",0,0 C,0,4567,,67,101,237 M,1,4567,5067,164,201,148.5491,248.5528 F,0,5067,5567,1,0
Sprite,Foreground,Centre,"sb\particle.png",0,0 C,0,4567,,67,101,237 M,1,4567,5067,164,201,134.6107,241.4509 F,0,5067,5567,1,0
Sprite,Foreground,Centre,"sb\particle.png",0,0 C,0,4567,,67,101,237 M,1,4567,5067,164,201,123.5491,230.3893 F,0,5067,5567,1,0
Sprite,Foreground,Centre,"sb\particle.png",0,0 C,0,4567,,67,101,237 M,1,4567,5067,164,201,116.4472,216.4509 F,0,5067,5567,1,0
Sprite,Foreground,Centre,"sb\particle.png",0,0 C,0,4567,,67,101,237 M,1,4567,5067,164,201,114,201 F,0,5067,5567,1,0
Sprite,Foreground,Centre,"sb\particle.png",0,0 C,0,4567,,67,101,237 M,1,4567,5067,164,201,116.4472,185.5491 F,0,5067,5567,1,0
Sprite,Foreground,Centre,"sb\particle.png",0,0 C,0,4567,,67,101,237 M,1,4567,5067,164,201,123.5491,171.6107 F,0,5067,5567,1,0
Sprite,Foreground,Centre,"sb\particle.png",0,0 C,0,4567,,67,101,237 M,1,4567,5067,164,201,134.6107,160.5491 F,0,5067,5567,1,0
Sprite,Foreground,Centre,"sb\particle.png",0,0 C,0,4567,,67,101,237 M,1,4567,5067,164,201,148.5491,153.4472 F,0,5067,5567,1,0
Sprite,Foreground,Centre,"sb\particle.png",0,0 C,0,4567,,67,101,237 M,1,4567,5067,164,201,164,151 F,0,5067,5567,1,0
Sprite,Foreground,Centre,"sb\particle.png",0,0 C,0,4567,,67,101,237 M,1,4567,5067,164,201,179.4509,153.4472 F,0,5067,5567,1,0
Sprite,Foreground,Centre,"sb\particle.png",0,0 C,0,4567,,67,101,237 M,1,4567,5067,164,201,193.3893,160.5491 F,0,5067,5567,1,0
Sprite,Foreground,Centre,"sb\particle.png",0,0 C,0,4567,,67,101,237 M,1,4567,5067,164,201,204.4509,171.6107 F,0,5067,5567,1,0
Sprite,Foreground,Centre,"sb\particle.png",0,0 C,0,4567,,67,101,237 M,1,4567,5067,164,201,211.5528,185.5491 F,0,5067,5567,1,0
Sprite,Foreground,Centre,"sb\particle.png",0,0 C,0,4937,,67,101,237 M,1,4937,5437,227,137,277,137 F,0,5437,5937,1,0
Sprite,Foreground,Centre,"sb\particle.png",0,0 C,0,4937,,67,101,237 M,1,4937,5437,227,137,274.5528,152.4509 F,0,5437,5937,1,0
Sprite,Foreground,Centre,"sb\particle.png",0,0 C,0,4937,,67,101,237 M,1,4937,5437,227,137,267.4509,166.3893 F,0,5437,5937,1,0
Sprite,Foreground,Centre,"sb\particle.png",0,0 C,0,4937,,67,101,237 M,1,4937,5437,227,137,256.3893,177.4509 F,0,5437,5937,1,0
Sprite,Foreground,Centre,"sb\particle.png",0,0 C,0,4937,,67,101,237 M,1,4937,5437,227,137,242.4509,184.5528 F,0,5437,5937,1,0
Sprite,Foreground,Centre,"sb\particle.png",0,0 C,0,4937,,67,101,237 M,1,4937,5437,227,137,227,187 F,0,5437,5937,1,0
Sprite,Foreground,Centre,"sb\particle.png",0,0 C,0,4937,,67,101,237 M,1,4937,5437,227,137,211.5491,184.5528 F,0,5437,5937,1,0
Sprite,Foreground,Centre,"sb\particle.png",0,0 C,0,4937,,67,101,237 M,1,4937,5437,227,137,197.6107,177.4509 F,0,5437,5937,1,0
Sprite,Foreground,Centre,"sb\particle.png",0,0 C,0,4937,,67,101,237 M,1,4937,5437,227,137,186.5491,166.3893 F,0,5437,5937,1,0
Sprite,Foreground,Centre,"sb\particle.png",0,0 C,0,4937,,67,101,237 M,1,4937,5437,227,137,179.4472,152.4509 F,0,5437,5937,1,0
Sprite,Foreground,Centre,"sb\particle.png",0,0 C,0,4937,,67,101,237 M,1,4937,5437,227,137,177,137 F,0,5437,5937,1,0
Sprite,Foreground,Centre,"sb\particle.png",0,0 C,0,4937,,67,101,237 M,1,4937,5437,227,137,179.4472,121.5491 F,0,5437,5937,1,0
Sprite,Foreground,Centre,"sb\particle.png",0,0 C,0,4937,,67,101,237 M,1,4937,5437,227,137,186.5491,107.6107 F,0,5437,5937,1,0
Sprite,Foreground,Centre,"sb\particle.png",0,0 C,0,4937,,67,101,237 M,1,4937,5437,227,137,197.6107,96.54915 F,0,5437,5937,1,0
Sprite,Foreground,Centre,"sb\particle.png",0,0 C,0,4937,,67,101,237 M,1,4937,5437,227,137,211.5491,89.44717 F,0,5437,5937,1,0
Sprite,Foreground,Centre,"sb\particle.png",0,0 C,0,4937,,67,101,237 M,1,4937,5437,227,137,227,87 F,0,5437,5937,1,0
Sprite,Foreground,Centre,"sb\particle.png",0,0 C,0,4937,,67,101,237 M,1,4937,5437,227,137,242.4509,89.44717 F,0,5437,5937,1,0
Sprite,Foreground,Centre,"sb\particle.png",0,0 C,0,4937,,67,101,237 M,1,4937,5437,227,137,256.3893,96.54915 F,0,5437,5937,1,0
Sprite,Foreground,Centre,"sb\particle.png",0,0 C,0,4937,,67,101,237 M,1,4937,5437,227,137,267.4509,107.6107 F,0,5437,5937,1,0
Sprite,Foreground,Centre,"sb\particle.png",0,0 C,0,4937,,67,101,237 M,1,4937,5437,227,137,274.5528,121.5491 F,0,5437,5937,1,0
Sprite,Foreground,Centre,"sb\particle.png",0,0 C,0,5307,,255,2,129 M,1,5307,5807,227,137,277,137 F,0,5807,6307,1,0
Sprite,Foreground,Centre,"sb\particle.png",0,0 C,0,5307,,255,2,129 M,1,5307,5807,227,137,274.5528,152.4509 F,0,5807,6307,1,0
Sprite,Foreground,Centre,"sb\particle.png",0,0 C,0,5307,,255,2,129 M,1,5307,5807,227,137,267.4509,166.3893 F,0,5807,6307,1,0
Sprite,Foreground,Centre,"sb\particle.png",0,0 C,0,5307,,255,2,129 M,1,5307,5807,227,137,256.3893,177.4509 F,0,5807,6307,1,0
Sprite,Foreground,Centre,"sb\particle.png",0,0 C,0,5307,,255,2,129 M,1,5307,5807,227,137,242.4509,184.5528 F,0,5807,6307,1,0
Sprite,Foreground,Centre,"sb\particle.png",0,0 C,0,5307,,255,2,129 M,1,5307,5807,227,137,227,187 F,0,5807,6307,1,0
Sprite,Foreground,Centre,"sb\particle.png",0,0 C,0,5307,,255,2,129 M,1,5307,5807,227,137,211.5491,184.5528 F,0,5807,6307,1,0
Sprite,Foreground,Centre,"sb\particle.png",0,0 C,0,5307,,255,2,129 M,1,5307,5807,227,137,197.6107,177.4509 F,0,5807,6307,1,0
Sprite,Foreground,Centre,"sb\particle.png",0,0 C,0,5307,,255,2,129 M,1,5307,5807,227,137,186.5491,166.3893 F,0,5807,6307,1,0
Sprite,Foreground,Centre,"sb\particle.png",0,0 C,0,5307,,255,2,129 M,1,5307,5807,227,137,179.4472,152.4509 F,0,5807,6307,1,0
Sprite,Foreground,Centre,"sb\particle.png",0,0 C,0,5307,,255,2,129 M,1,5307,5807,227,137,177,137 F,0,5807,6307,1,0
Sprite,Foreground,Centre,"sb\particle.png",0,0 C,0,5307,,255,2,129 M,1,5307,5807,227,137,179.4472,121.5491 F,0,5807,6307,1,0
Sprite,Foreground,Centre,"sb\particle.png",0,0 C,0,5307,,255,2,129 M,1,5307,5807,227,137,186.5491,107.6107 F,0,5807,6307,1,0
Sprite,Foreground,Centre,"sb\particle.png",0,0 C,0,5307,,255,2,129 M,1,5307,5807,227,137,197.6107,96.54915 F,0,5807,6307,1,0
Sprite,Foreground,Centre,"sb\particle.png",0,0 C,0,5307,,255,2,129 M,1,5307,5807,227,137,211.5491,89.44717 F,0,5807,6307,1,0
Sprite,Foreground,Centre,"sb\particle.png",0,0 C,0,5307,,255,2,129 M,1,5307,5807,227,137,227,87 F,0,5807,6307,1,0
Sprite,Foreground,Centre,"sb\particle.png",0,0 C,0,5307,,255,2,129 M,1,5307,5807,227,137,242.4509,89.44717 F,0,5807,6307,1,0
Sprite,Foreground,Centre,"sb\particle.png",0,0 C,0,5307,,255,2,129 M,1,5307,5807,227,137,256.3893,96.54915 F,0,5807,6307,1,0
Sprite,Foreground,Centre,"sb\particle.png",0,0 C,0,5307,,255,2,129 M,1,5307,5807,227,137,267.4509,107.6107 F,0,5807,6307,1,0
Sprite,Foreground,Centre,"sb\particle.png",0,0 C,0,5307,,255,2,129 M,1,5307,5807,227,137,274.5528,121.5491 F,0,5807,6307,1,0
Sprite,Foreground,Centre,"sb\particle.png",0,0 C,0,5492,,255,2,129 M,1,5492,5992,164,201,214,201 F,0,5992,6492,1,0
Sprite,Foreground,Centre,"sb\particle.png",0,0 C,0,5492,,255,2,129 M,1,5492,5992,164,201,211.5528,216.4509 F,0,5992,6492,1,0
Sprite,Foreground,Centre,"sb\particle.png",0,0 C,0,5492,,255,2,129 M,1,5492,5992,164,201,204.4509,230.3893 F,0,5992,6492,1,0
Sprite,Foreground,Centre,"sb\particle.png",0,0 C,0,5492,,255,2,129 M,1,5492,5992,164,201,193.3893,241.4509 F,0,5992,6492,1,0
Sprite,Foreground,Centre,"sb\particle.png",0,0 C,0,5492,,255,2,129 M,1,5492,5992,164,201,179.4509,248.5528 F,0,5992,6492,1,0
Sprite,Foreground,Centre,"sb\particle.png",0,0 C,0,5492,,255,2,129 M,1,5492,5992,164,201,164,251 F,0,5992,6492,1,0
Sprite,Foreground,Centre,"sb\particle.png",0,0 C,0,5492,,255,2,129 M,1,5492,5992,164,201,148.5491,248.5528 F,0,5992,6492,1,0
Sprite,Foreground,Centre,"sb\particle.png",0,0 C,0,5492,,255,2,129 M,1,5492,5992,164,201,134.6107,241.4509 F,0,5992,6492,1,0
Sprite,Foreground,Centre,"sb\particle.png",0,0 C,0,5492,,255,2,129 M,1,5492,5992,164,201,123.5491,230.3893 F,0,5992,6492,1,0
Sprite,Foreground,Centre,"sb\particle.png",0,0 C,0,5492,,255,2,129 M,1,5492,5992,164,201,116.4472,216.4509 F,0,5992,6492,1,0
Sprite,Foreground,Centre,"sb\particle.png",0,0 C,0,5492,,255,2,129 M,1,5492,5992,164,201,114,201 F,0,5992,6492,1,0
Sprite,Foreground,Centre,"sb\particle.png",0,0 C,0,5492,,255,2,129 M,1,5492,5992,164,201,116.4472,185.5491 F,0,5992,6492,1,0
Sprite,Foreground,Centre,"sb\particle.png",0,0 C,0,5492,,255,2,129 M,1,5492,5992,164,201,123.5491,171.6107 F,0,5992,6492,1,0
Sprite,Foreground,Centre,"sb\particle.png",0,0 C,0,5492,,255,2,129 M,1,5492,5992,164,201,134.6107,160.5491 F,0,5992,6492,1,0
Sprite,Foreground,Centre,"sb\particle.png",0,0 C,0,5492,,255,2,129 M,1,5492,5992,164,201,148.5491,153.4472 F,0,5992,6492,1,0
Sprite,Foreground,Centre,"sb\particle.png",0,0 C,0,5492,,255,2,129 M,1,5492,5992,164,201,164,151 F,0,5992,6492,1,0
Sprite,Foreground,Centre,"sb\particle.png",0,0 C,0,5492,,255,2,129 M,1,5492,5992,164,201,179.4509,153.4472 F,0,5992,6492,1,0
Sprite,Foreground,Centre,"sb\particle.png",0,0 C,0,5492,,255,2,129 M,1,5492,5992,164,201,193.3893,160.5491 F,0,5992,6492,1,0
Sprite,Foreground,Centre,"sb\particle.png",0,0 C,0,5492,,255,2,129 M,1,5492,5992,164,201,204.4509,171.6107 F,0,5992,6492,1,0
Sprite,Foreground,Centre,"sb\particle.png",0,0 C,0,5492,,255,2,129 M,1,5492,5992,164,201,211.5528,185.5491 F,0,5992,6492,1,0
Sprite,Foreground,Centre,"sb\particle.png",0,0 C,0,5678,,255,2,129 M,1,5678,6178,250,227,300,227 F,0,6178,6678,1,0
Sprite,Foreground,Centre,"sb\particle.png",0,0 C,0,5678,,255,2,129 M,1,5678,6178,250,227,297.5528,242.4509 F,0,6178,6678,1,0
Sprite,Foreground,Centre,"sb\particle.png",0,0 C,0,5678,,255,2,129 M,1,5678,6178,250,227,290.4509,256.3893 F,0,6178,6678,1,0
Sprite,Foreground,Centre,"sb\particle.png",0,0 C,0,5678,,255,2,129 M,1,5678,6178,250,227,279.3893,267.4509 F,0,6178,6678,1,0
Sprite,Foreground,Centre,"sb\particle.png",0,0 C,0,5678,,255,2,129 M,1,5678,6178,250,227,265.4508,274.5528 F,0,6178,6678,1,0
Sprite,Foreground,Centre,"sb\particle.png",0,0 C,0,5678,,255,2,129 M,1,5678,6178,250,227,250,277 F,0,6178,6678,1,0
Sprite,Foreground,Centre,"sb\particle.png",0,0 C,0,5678,,255,2,129 M,1,5678,6178,250,227,234.5491,274.5528 F,0,6178,6678,1,0
Sprite,Foreground,Centre,"sb\particle.png",0,0 C,0,5678,,255,2,129 M,1,5678,6178,250,227,220.6107,267.4509 F,0,6178,6678,1,0
Sprite,Foreground,Centre,"sb\particle.png",0,0 C,0,5678,,255,2,129 M,1,5678,6178,250,227,209.5491,256.3893 F,0,6178,6678,1,0
Sprite,Foreground,Centre,"sb\particle.png",0,0 C,0,5678,,255,2,129 M,1,5678,6178,250,227,202.4472,242.4509 F,0,6178,6678,1,0
Sprite,Foreground,Centre,"sb\particle.png",0,0 C,0,5678,,255,2,129 M,1,5678,6178,250,227,200,227 F,0,6178,6678,1,0
Sprite,Foreground,Centre,"sb\particle.png",0,0 C,0,5678,,255,2,129 M,1,5678,6178,250,227,202.4472,211.5491 F,0,6178,6678,1,0
Sprite,Foreground,Centre,"sb\particle.png",0,0 C,0,5678,,255,2,129 M,1,5678,6178,250,227,209.5491,197.6107 F,0,6178,6678,1,0
Sprite,Foreground,Centre,"sb\particle.png",0,0 C,0,5678,,255,2,129 M,1,5678,6178,250,227,220.6107,186.5491 F,0,6178,6678,1,0
Sprite,Foreground,Centre,"sb\particle.png",0,0 C,0,5678,,255,2,129 M,1,5678,6178,250,227,234.5491,179.4472 F,0,6178,6678,1,0
Sprite,Foreground,Centre,"sb\particle.png",0,0 C,0,5678,,255,2,129 M,1,5678,6178,250,227,250,177 F,0,6178,6678,1,0
Sprite,Foreground,Centre,"sb\particle.png",0,0 C,0,5678,,255,2,129 M,1,5678,6178,250,227,265.4508,179.4472 F,0,6178,6678,1,0
Sprite,Foreground,Centre,"sb\particle.png",0,0 C,0,5678,,255,2,129 M,1,5678,6178,250,227,279.3893,186.5491 F,0,6178,6678,1,0
Sprite,Foreground,Centre,"sb\particle.png",0,0 C,0,5678,,255,2,129 M,1,5678,6178,250,227,290.4509,197.6107 F,0,6178,6678,1,0
Sprite,Foreground,Centre,"sb\particle.png",0,0 C,0,5678,,255,2,129 M,1,5678,6178,250,227,297.5528,211.5491 F,0,6178,6678,1,0
Sprite,Foreground,Centre,"sb\particle.png",0,0 C,0,247893,,255,134,252 M,1,247893,248393,498,77,548,77 F,0,248393,248893,1,0
Sprite,Foreground,Centre,"sb\particle.png",0,0 C,0,247893,,255,134,252 M,1,247893,248393,498,77,545.5529,92.45085 F,0,248393,248893,1,0
Sprite,Foreground,Centre,"sb\particle.png",0,0 C,0,247893,,255,134,252 M,1,247893,248393,498,77,538.4509,106.3893 F,0,248393,248893,1,0
Sprite,Foreground,Centre,"sb\particle.png",0,0 C,0,247893,,255,134,252 M,1,247893,248393,498,77,527.3893,117.4509 F,0,248393,248893,1,0
Sprite,Foreground,Centre,"sb\particle.png",0,0 C,0,247893,,255,134,252 M,1,247893,248393,498,77,513.4509,124.5528 F,0,248393,248893,1,0
Sprite,Foreground,Centre,"sb\particle.png",0,0 C,0,247893,,255,134,252 M,1,247893,248393,498,77,498,127 F,0,248393,248893,1,0
Sprite,Foreground,Centre,"sb\particle.png",0,0 C,0,247893,,255,134,252 M,1,247893,248393,498,77,482.5492,124.5528 F,0,248393,248893,1,0
Sprite,Foreground,Centre,"sb\particle.png",0,0 C,0,247893,,255,134,252 M,1,247893,248393,498,77,468.6107,117.4509 F,0,248393,248893,1,0
Sprite,Foreground,Centre,"sb\particle.png",0,0 C,0,247893,,255,134,252 M,1,247893,248393,498,77,457.5491,106.3893 F,0,248393,248893,1,0
Sprite,Foreground,Centre,"sb\particle.png",0,0 C,0,247893,,255,134,252 M,1,247893,248393,498,77,450.4472,92.45085 F,0,248393,248893,1,0
Sprite,Foreground,Centre,"sb\particle.png",0,0 C,0,247893,,255,134,252 M,1,247893,248393,498,77,448,77 F,0,248393,248893,1,0
Sprite,Foreground,Centre,"sb\particle.png",0,0 C,0,247893,,255,134,252 M,1,247893,248393,498,77,450.4472,61.54915 F,0,248393,248893,1,0
Sprite,Foreground,Centre,"sb\particle.png",0,0 C,0,247893,,255,134,252 M,1,247893,248393,498,77,457.5491,47.61074 F,0,248393,248893,1,0
Sprite,Foreground,Centre,"sb\particle.png",0,0 C,0,247893,,255,134,252 M,1,247893,248393,498,77,468.6107,36.54915 F,0,248393,248893,1,0
Sprite,Foreground,Centre,"sb\particle.png",0,0 C,0,247893,,255,134,252 M,1,247893,248393,498,77,482.5492,29.44717 F,0,248393,248893,1,0
Sprite,Foreground,Centre,"sb\particle.png",0,0 C,0,247893,,255,134,252 M,1,247893,248393,498,77,498,27 F,0,248393,248893,1,0
Sprite,Foreground,Centre,"sb\particle.png",0,0 C,0,247893,,255,134,252 M,1,247893,248393,498,77,513.4509,29.44717 F,0,248393,248893,1,0
Sprite,Foreground,Centre,"sb\particle.png",0,0 C,0,247893,,255,134,252 M,1,247893,248393,498,77,527.3893,36.54915 F,0,248393,248893,1,0
Sprite,Foreground,Centre,"sb\particle.png",0,0 C,0,247893,,255,134,252 M,1,247893,248393,498,77,538.4509,47.61074 F,0,248393,248893,1,0
Sprite,Foreground,Centre,"sb\particle.png",0,0 C,0,247893,,255,134,252 M,1,247893,248393,498,77,545.5529,61.54915 F,0,248393,248893,1,0
Sprite,Foreground,Centre,"sb\particle.png",0,0 C,0,248078,,255,134,252 M,1,248078,248578,518,160,568,160 F,0,248578,249078,1,0
Sprite,Foreground,Centre,"sb\particle.png",0,0 C,0,248078,,255,134,252 M,1,248078,248578,518,160,565.5529,175.4509 F,0,248578,249078,1,0
Sprite,Foreground,Centre,"sb\particle.png",0,0 C,0,248078,,255,134,252 M,1,248078,248578,518,160,558.4509,189.3893 F,0,248578,249078,1,0
Sprite,Foreground,Centre,"sb\particle.png",0,0 C,0,248078,,255,134,252 M,1,248078,248578,518,160,547.3893,200.4509 F,0,248578,249078,1,0
Sprite,Foreground,Centre,"sb\particle.png",0,0 C,0,248078,,255,134,252 M,1,248078,248578,518,160,533.4509,207.5528 F,0,248578,249078,1,0
Sprite,Foreground,Centre,"sb\particle.png",0,0 C,0,248078,,255,134,252 M,1,248078,248578,518,160,518,210 F,0,248578,249078,1,0
Sprite,Foreground,Centre,"sb\particle.png",0,0 C,0,248078,,255,134,252 M,1,248078,248578,518,160,502.5492,207.5528 F,0,248578,249078,1,0
Sprite,Foreground,Centre,"sb\particle.png",0,0 C,0,248078,,255,134,252 M,1,248078,248578,518,160,488.6107,200.4509 F,0,248578,249078,1,0
Sprite,Foreground,Centre,"sb\particle.png",0,0 C,0,248078,,255,134,252 M,1,248078,248578,518,160,477.5491,189.3893 F,0,248578,249078,1,0
Sprite,Foreground,Centre,"sb\particle.png",0,0 C,0,248078,,255,134,252 M,1,248078,248578,518,160,470.4472,175.4509 F,0,248578,249078,1,0
Sprite,Foreground,Centre,"sb\particle.png",0,0 C,0,248078,,255,134,252 M,1,248078,248578,518,160,468,160 F,0,248578,249078,1,0
Sprite,Foreground,Centre,"sb\particle.png",0,0 C,0,248078,,255,134,252 M,1,248078,248578,518,160,470.4472,144.5491 F,0,248578,249078,1,0
Sprite,Foreground,Centre,"sb\particle.png",0,0 C,0,248078,,255,134,252 M,1,248078,248578,518,160,477.5491,130.6107 F,0,248578,249078,1,0
Sprite,Foreground,Centre,"sb\particle.png",0,0 C,0,248078,,255,134,252 M,1,248078,248578,518,160,488.6107,119.5491 F,0,248578,249078,1,0
Sprite,Foreground,Centre,"sb\particle.png",0,0 C,0,248078,,255,134,252 M,1,248078,248578,518,160,502.5492,112.4472 F,0,248578,249078,1,0
Sprite,Foreground,Centre,"sb\particle.png",0,0 C,0,248078,,255,134,252 M,1,248078,248578,518,160,518,110 F,0,248578,249078,1,0
Sprite,Foreground,Centre,"sb\particle.png",0,0 C,0,248078,,255,134,252 M,1,248078,248578,518,160,533.4509,112.4472 F,0,248578,249078,1,0
Sprite,Foreground,Centre,"sb\particle.png",0,0 C,0,248078,,255,134,252 M,1,248078,248578,518,160,547.3893,119.5491 F,0,248578,249078,1,0
Sprite,Foreground,Centre,"sb\particle.png",0,0 C,0,248078,,255,134,252 M,1,248078,248578,518,160,558.4509,130.6107 F,0,248578,249078,1,0
Sprite,Foreground,Centre,"sb\particle.png",0,0 C,0,248078,,255,134,252 M,1,248078,248578,518,160,565.5529,144.5491 F,0,248578,249078,1,0
Sprite,Foreground,Centre,"sb\particle.png",0,0 C,0,248818,,67,101,237 M,1,248818,249318,518,160,568,160 F,0,249318,249818,1,0
Sprite,Foreground,Centre,"sb\particle.png",0,0 C,0,248818,,67,101,237 M,1,248818,249318,518,160,565.5529,175.4509 F,0,249318,249818,1,0
Sprite,Foreground,Centre,"sb\particle.png",0,0 C,0,248818,,67,101,237 M,1,248818,249318,518,160,558.4509,189.3893 F,0,249318,249818,1,0
Sprite,Foreground,Centre,"sb\particle.png",0,0 C,0,248818,,67,101,237 M,1,248818,249318,518,160,547.3893,200.4509 F,0,249318,249818,1,0
Sprite,Foreground,Centre,"sb\particle.png",0,0 C,0,248818,,67,101,237 M,1,248818,249318,518,160,533.4509,207.5528 F,0,249318,249818,1,0
Sprite,Foreground,Centre,"sb\particle.png",0,0 C,0,248818,,67,101,237 M,1,248818,249318,518,160,518,210 F,0,249318,249818,1,0
Sprite,Foreground,Centre,"sb\particle.png",0,0 C,0,248818,,67,101,237 M,1,248818,249318,518,160,502.5492,207.5528 F,0,249318,249818,1,0
Sprite,Foreground,Centre,"sb\particle.png",0,0 C,0,248818,,67,101,237 M,1,248818,249318,518,160,488.6107,200.4509 F,0,249318,249818,1,0
Sprite,Foreground,Centre,"sb\particle.png",0,0 C,0,248818,,67,101,237 M,1,248818,249318,518,160,477.5491,189.3893 F,0,249318,249818,1,0
Sprite,Foreground,Centre,"sb\particle.png",0,0 C,0,248818,,67,101,237 M,1,248818,249318,518,160,470.4472,175.4509 F,0,249318,249818,1,0
Sprite,Foreground,Centre,"sb\particle.png",0,0 C,0,248818,,67,101,237 M,1,248818,249318,518,160,468,160 F,0,249318,249818,1,0
Sprite,Foreground,Centre,"sb\particle.png",0,0 C,0,248818,,67,101,237 M,1,248818,249318,518,160,470.4472,144.5491 F,0,249318,249818,1,0
Sprite,Foreground,Centre,"sb\particle.png",0,0 C,0,248818,,67,101,237 M,1,248818,249318,518,160,477.5491,130.6107 F,0,249318,249818,1,0
Sprite,Foreground,Centre,"sb\particle.png",0,0 C,0,248818,,67,101,237 M,1,248818,249318,518,160,488.6107,119.5491 F,0,249318,249818,1,0
Sprite,Foreground,Centre,"sb\particle.png",0,0 C,0,248818,,67,101,237 M,1,248818,249318,518,160,502.5492,112.4472 F,0,249318,249818,1,0
Sprite,Foreground,Centre,"sb\particle.png",0,0 C,0,248818,,67,101,237 M,1,248818,249318,518,160,518,110 F,0,249318,249818,1,0
Sprite,Foreground,Centre,"sb\particle.png",0,0 C,0,248818,,67,101,237 M,1,248818,249318,518,160,533.4509,112.4472 F,0,249318,249818,1,0
Sprite,Foreground,Centre,"sb\particle.png",0,0 C,0,248818,,67,101,237 M,1,248818,249318,518,160,547.3893,119.5491 F,0,249318,249818,1,0
Sprite,Foreground,Centre,"sb\particle.png",0,0 C,0,248818,,67,101,237 M,1,248818,249318,518,160,558.4509,130.6107 F,0,249318,249818,1,0
Sprite,Foreground,Centre,"sb\particle.png",0,0 C,0,248818,,67,101,237 M,1,248818,249318,518,160,565.5529,144.5491 F,0,249318,249818,1,0
Sprite,Foreground,Centre,"sb\particle.png",0,0 C,0,249189,,255,2,129 M,1,249189,249689,357,138,407,138 F,0,249689,250189,1,0
Sprite,Foreground,Centre,"sb\particle.png",0,0 C,0,249189,,255,2,129 M,1,249189,249689,357,138,404.5528,153.4509 F,0,249689,250189,1,0
Sprite,Foreground,Centre,"sb\particle.png",0,0 C,0,249189,,255,2,129 M,1,249189,249689,357,138,397.4509,167.3893 F,0,249689,250189,1,0
Sprite,Foreground,Centre,"sb\particle.png",0,0 C,0,249189,,255,2,129 M,1,249189,249689,357,138,386.3893,178.4509 F,0,249689,250189,1,0
Sprite,Foreground,Centre,"sb\particle.png",0,0 C,0,249189,,255,2,129 M,1,249189,249689,357,138,372.4508,185.5528 F,0,249689,250189,1,0
Sprite,Foreground,Centre,"sb\particle.png",0,0 C,0,249189,,255,2,129 M,1,249189,249689,357,138,357,188 F,0,249689,250189,1,0
Sprite,Foreground,Centre,"sb\particle.png",0,0 C,0,249189,,255,2,129 M,1,249189,249689,357,138,341.5492,185.5528 F,0,249689,250189,1,0
Sprite,Foreground,Centre,"sb\particle.png",0,0 C,0,249189,,255,2,129 M,1,249189,249689,357,138,327.6107,178.4509 F,0,249689,250189,1,0
Sprite,Foreground,Centre,"sb\particle.png",0,0 C,0,249189,,255,2,129 M,1,249189,249689,357,138,316.5491,167.3893 F,0,249689,250189,1,0
Sprite,Foreground,Centre,"sb\particle.png",0,0 C,0,249189,,255,2,129 M,1,249189,249689,357,138,309.4472,153.4509 F,0,249689,250189,1,0
Sprite,Foreground,Centre,"sb\particle.png",0,0 C,0,249189,,255,2,129 M,1,249189,249689,357,138,307,138 F,0,249689,250189,1,0
Sprite,Foreground,Centre,"sb\particle.png",0,0 C,0,249189,,255,2,129 M,1,249189,249689,357,138,309.4472,122.5491 F,0,249689,250189,1,0
Sprite,Foreground,Centre,"sb\particle.png",0,0 C,0,249189,,255,2,129 M,1,249189,249689,357,138,316.5491,108.6107 F,0,249689,250189,1,0
Sprite,Foreground,Centre,"sb\particle.png",0,0 C,0,249189,,255,2,129 M,1,249189,249689,357,138,327.6107,97.54915 F,0,249689,250189,1,0
Sprite,Foreground,Centre,"sb\particle.png",0,0 C,0,249189,,255,2,129 M,1,249189,249689,357,138,341.5492,90.44717 F,0,249689,250189,1,0
Sprite,Foreground,Centre,"sb\particle.png",0,0 C,0,249189,,255,2,129 M,1,249189,249689,357,138,357,88 F,0,249689,250189,1,0
Sprite,Foreground,Centre,"sb\particle.png",0,0 C,0,249189,,255,2,129 M,1,249189,249689,357,138,372.4508,90.44717 F,0,249689,250189,1,0
Sprite,Foreground,Centre,"sb\particle.png",0,0 C,0,249189,,255,2,129 M,1,249189,249689,357,138,386.3893,97.54915 F,0,249689,250189,1,0
Sprite,Foreground,Centre,"sb\particle.png",0,0 C,0,249189,,255,2,129 M,1,249189,249689,357,138,397.4509,108.6107 F,0,249689,250189,1,0
Sprite,Foreground,Centre,"sb\particle.png",0,0 C,0,249189,,255,2,129 M,1,249189,249689,357,138,404.5528,122.5491 F,0,249689,250189,1,0
Sprite,Foreground,Centre,"sb\particle.png",0,0 C,0,250300,,255,2,129 M,1,250300,250800,357,138,407,138 F,0,250800,251300,1,0
Sprite,Foreground,Centre,"sb\particle.png",0,0 C,0,250300,,255,2,129 M,1,250300,250800,357,138,404.5528,153.4509 F,0,250800,251300,1,0
Sprite,Foreground,Centre,"sb\particle.png",0,0 C,0,250300,,255,2,129 M,1,250300,250800,357,138,397.4509,167.3893 F,0,250800,251300,1,0
Sprite,Foreground,Centre,"sb\particle.png",0,0 C,0,250300,,255,2,129 M,1,250300,250800,357,138,386.3893,178.4509 F,0,250800,251300,1,0
Sprite,Foreground,Centre,"sb\particle.png",0,0 C,0,250300,,255,2,129 M,1,250300,250800,357,138,372.4508,185.5528 F,0,250800,251300,1,0
Sprite,Foreground,Centre,"sb\particle.png",0,0 C,0,250300,,255,2,129 M,1,250300,250800,357,138,357,188 F,0,250800,251300,1,0
Sprite,Foreground,Centre,"sb\particle.png",0,0 C,0,250300,,255,2,129 M,1,250300,250800,357,138,341.5492,185.5528 F,0,250800,251300,1,0
Sprite,Foreground,Centre,"sb\particle.png",0,0 C,0,250300,,255,2,129 M,1,250300,250800,357,138,327.6107,178.4509 F,0,250800,251300,1,0
Sprite,Foreground,Centre,"sb\particle.png",0,0 C,0,250300,,255,2,129 M,1,250300,250800,357,138,316.5491,167.3893 F,0,250800,251300,1,0
Sprite,Foreground,Centre,"sb\particle.png",0,0 C,0,250300,,255,2,129 M,1,250300,250800,357,138,309.4472,153.4509 F,0,250800,251300,1,0
Sprite,Foreground,Centre,"sb\particle.png",0,0 C,0,250300,,255,2,129 M,1,250300,250800,357,138,307,138 F,0,250800,251300,1,0
Sprite,Foreground,Centre,"sb\particle.png",0,0 C,0,250300,,255,2,129 M,1,250300,250800,357,138,309.4472,122.5491 F,0,250800,251300,1,0
Sprite,Foreground,Centre,"sb\particle.png",0,0 C,0,250300,,255,2,129 M,1,250300,250800,357,138,316.5491,108.6107 F,0,250800,251300,1,0
Sprite,Foreground,Centre,"sb\particle.png",0,0 C,0,250300,,255,2,129 M,1,250300,250800,357,138,327.6107,97.54915 F,0,250800,251300,1,0
Sprite,Foreground,Centre,"sb\particle.png",0,0 C,0,250300,,255,2,129 M,1,250300,250800,357,138,341.5492,90.44717 F,0,250800,251300,1,0
Sprite,Foreground,Centre,"sb\particle.png",0,0 C,0,250300,,255,2,129 M,1,250300,250800,357,138,357,88 F,0,250800,251300,1,0
Sprite,Foreground,Centre,"sb\particle.png",0,0 C,0,250300,,255,2,129 M,1,250300,250800,357,138,372.4508,90.44717 F,0,250800,251300,1,0
Sprite,Foreground,Centre,"sb\particle.png",0,0 C,0,250300,,255,2,129 M,1,250300,250800,357,138,386.3893,97.54915 F,0,250800,251300,1,0
Sprite,Foreground,Centre,"sb\particle.png",0,0 C,0,250300,,255,2,129 M,1,250300,250800,357,138,397.4509,108.6107 F,0,250800,251300,1,0
Sprite,Foreground,Centre,"sb\particle.png",0,0 C,0,250300,,255,2,129 M,1,250300,250800,357,138,404.5528,122.5491 F,0,250800,251300,1,0
Sprite,Foreground,Centre,"sb\particle.png",0,0 C,0,250485,,255,2,129 M,1,250485,250985,346,218,396,218 F,0,250985,251485,1,0
Sprite,Foreground,Centre,"sb\particle.png",0,0 C,0,250485,,255,2,129 M,1,250485,250985,346,218,393.5528,233.4509 F,0,250985,251485,1,0
Sprite,Foreground,Centre,"sb\particle.png",0,0 C,0,250485,,255,2,129 M,1,250485,250985,346,218,386.4509,247.3893 F,0,250985,251485,1,0
Sprite,Foreground,Centre,"sb\particle.png",0,0 C,0,250485,,255,2,129 M,1,250485,250985,346,218,375.3893,258.4509 F,0,250985,251485,1,0
Sprite,Foreground,Centre,"sb\particle.png",0,0 C,0,250485,,255,2,129 M,1,250485,250985,346,218,361.4508,265.5528 F,0,250985,251485,1,0
Sprite,Foreground,Centre,"sb\particle.png",0,0 C,0,250485,,255,2,129 M,1,250485,250985,346,218,346,268 F,0,250985,251485,1,0
Sprite,Foreground,Centre,"sb\particle.png",0,0 C,0,250485,,255,2,129 M,1,250485,250985,346,218,330.5492,265.5528 F,0,250985,251485,1,0
Sprite,Foreground,Centre,"sb\particle.png",0,0 C,0,250485,,255,2,129 M,1,250485,250985,346,218,316.6107,258.4509 F,0,250985,251485,1,0
Sprite,Foreground,Centre,"sb\particle.png",0,0 C,0,250485,,255,2,129 M,1,250485,250985,346,218,305.5491,247.3893 F,0,250985,251485,1,0
Sprite,Foreground,Centre,"sb\particle.png",0,0 C,0,250485,,255,2,129 M,1,250485,250985,346,218,298.4472,233.4509 F,0,250985,251485,1,0
Sprite,Foreground,Centre,"sb\particle.png",0,0 C,0,250485,,255,2,129 M,1,250485,250985,346,218,296,218 F,0,250985,251485,1,0
Sprite,Foreground,Centre,"sb\particle.png",0,0 C,0,250485,,255,2,129 M,1,250485,250985,346,218,298.4472,202.5491 F,0,250985,251485,1,0
Sprite,Foreground,Centre,"sb\particle.png",0,0 C,0,250485,,255,2,129 M,1,250485,250985,346,218,305.5491,188.6107 F,0,250985,251485,1,0
Sprite,Foreground,Centre,"sb\particle.png",0,0 C,0,250485,,255,2,129 M,1,250485,250985,346,218,316.6107,177.5491 F,0,250985,251485,1,0
Sprite,Foreground,Centre,"sb\particle.png",0,0 C,0,250485,,255,2,129 M,1,250485,250985,346,218,330.5492,170.4472 F,0,250985,251485,1,0
Sprite,Foreground,Centre,"sb\particle.png",0,0 C,0,250485,,255,2,129 M,1,250485,250985,346,218,346,168 F,0,250985,251485,1,0
Sprite,Foreground,Centre,"sb\particle.png",0,0 C,0,250485,,255,2,129 M,1,250485,250985,346,218,361.4508,170.4472 F,0,250985,251485,1,0
Sprite,Foreground,Centre,"sb\particle.png",0,0 C,0,250485,,255,2,129 M,1,250485,250985,346,218,375.3893,177.5491 F,0,250985,251485,1,0
Sprite,Foreground,Centre,"sb\particle.png",0,0 C,0,250485,,255,2,129 M,1,250485,250985,346,218,386.4509,188.6107 F,0,250985,251485,1,0
Sprite,Foreground,Centre,"sb\particle.png",0,0 C,0,250485,,255,2,129 M,1,250485,250985,346,218,393.5528,202.5491 F,0,250985,251485,1,0
Sprite,Foreground,Centre,"sb\particle.png",0,0 C,0,250670,,255,2,129 M,1,250670,251170,336,298,386,298 F,0,251170,251670,1,0
Sprite,Foreground,Centre,"sb\particle.png",0,0 C,0,250670,,255,2,129 M,1,250670,251170,336,298,383.5528,313.4508 F,0,251170,251670,1,0
Sprite,Foreground,Centre,"sb\particle.png",0,0 C,0,250670,,255,2,129 M,1,250670,251170,336,298,376.4509,327.3893 F,0,251170,251670,1,0
Sprite,Foreground,Centre,"sb\particle.png",0,0 C,0,250670,,255,2,129 M,1,250670,251170,336,298,365.3893,338.4509 F,0,251170,251670,1,0
Sprite,Foreground,Centre,"sb\particle.png",0,0 C,0,250670,,255,2,129 M,1,250670,251170,336,298,351.4508,345.5528 F,0,251170,251670,1,0
Sprite,Foreground,Centre,"sb\particle.png",0,0 C,0,250670,,255,2,129 M,1,250670,251170,336,298,336,348 F,0,251170,251670,1,0
Sprite,Foreground,Centre,"sb\particle.png",0,0 C,0,250670,,255,2,129 M,1,250670,251170,336,298,320.5492,345.5528 F,0,251170,251670,1,0
Sprite,Foreground,Centre,"sb\particle.png",0,0 C,0,250670,,255,2,129 M,1,250670,251170,336,298,306.6107,338.4509 F,0,251170,251670,1,0
Sprite,Foreground,Centre,"sb\particle.png",0,0 C,0,250670,,255,2,129 M,1,250670,251170,336,298,295.5491,327.3893 F,0,251170,251670,1,0
Sprite,Foreground,Centre,"sb\particle.png",0,0 C,0,250670,,255,2,129 M,1,250670,251170,336,298,288.4472,313.4508 F,0,251170,251670,1,0
Sprite,Foreground,Centre,"sb\particle.png",0,0 C,0,250670,,255,2,129 M,1,250670,251170,336,298,286,298 F,0,251170,251670,1,0
Sprite,Foreground,Centre,"sb\particle.png",0,0 C,0,250670,,255,2,129 M,1,250670,251170,336,298,288.4472,282.5492 F,0,251170,251670,1,0
Sprite,Foreground,Centre,"sb\particle.png",0,0 C,0,250670,,255,2,129 M,1,250670,251170,336,298,295.5491,268.6107 F,0,251170,251670,1,0
Sprite,Foreground,Centre,"sb\particle.png",0,0 C,0,250670,,255,2,129 M,1,250670,251170,336,298,306.6107,257.5491 F,0,251170,251670,1,0
Sprite,Foreground,Centre,"sb\particle.png",0,0 C,0,250670,,255,2,129 M,1,250670,251170,336,298,320.5492,250.4472 F,0,251170,251670,1,0
Sprite,Foreground,Centre,"sb\particle.png",0,0 C,0,250670,,255,2,129 M,1,250670,251170,336,298,336,248 F,0,251170,251670,1,0
Sprite,Foreground,Centre,"sb\particle.png",0,0 C,0,250670,,255,2,129 M,1,250670,251170,336,298,351.4508,250.4472 F,0,251170,251670,1,0
Sprite,Foreground,Centre,"sb\particle.png",0,0 C,0,250670,,255,2,129 M,1,250670,251170,336,298,365.3893,257.5491 F,0,251170,251670,1,0
Sprite,Foreground,Centre,"sb\particle.png",0,0 C,0,250670,,255,2,129 M,1,250670,251170,336,298,376.4509,268.6107 F,0,251170,251670,1,0
Sprite,Foreground,Centre,"sb\particle.png",0,0 C,0,250670,,255,2,129 M,1,250670,251170,336,298,383.5528,282.5492 F,0,251170,251670,1,0
Sprite,Foreground,Centre,"sb\particle.png",0,0 C,0,250855,,51,40,176 M,1,250855,251355,326,378,376,378 F,0,251355,251855,1,0
Sprite,Foreground,Centre,"sb\particle.png",0,0 C,0,250855,,51,40,176 M,1,250855,251355,326,378,373.5528,393.4508 F,0,251355,251855,1,0
Sprite,Foreground,Centre,"sb\particle.png",0,0 C,0,250855,,51,40,176 M,1,250855,251355,326,378,366.4509,407.3893 F,0,251355,251855,1,0
Sprite,Foreground,Centre,"sb\particle.png",0,0 C,0,250855,,51,40,176 M,1,250855,251355,326,378,355.3893,418.4509 F,0,251355,251855,1,0
Sprite,Foreground,Centre,"sb\particle.png",0,0 C,0,250855,,51,40,176 M,1,250855,251355,326,378,341.4508,425.5528 F,0,251355,251855,1,0
Sprite,Foreground,Centre,"sb\particle.png",0,0 C,0,250855,,51,40,176 M,1,250855,251355,326,378,326,428 F,0,251355,251855,1,0
Sprite,Foreground,Centre,"sb\particle.png",0,0 C,0,250855,,51,40,176 M,1,250855,251355,326,378,310.5492,425.5528 F,0,251355,251855,1,0
Sprite,Foreground,Centre,"sb\particle.png",0,0 C,0,250855,,51,40,176 M,1,250855,251355,326,378,296.6107,418.4509 F,0,251355,251855,1,0
Sprite,Foreground,Centre,"sb\particle.png",0,0 C,0,250855,,51,40,176 M,1,250855,251355,326,378,285.5491,407.3893 F,0,251355,251855,1,0
Sprite,Foreground,Centre,"sb\particle.png",0,0 C,0,250855,,51,40,176 M,1,250855,251355,326,378,278.4472,393.4508 F,0,251355,251855,1,0
Sprite,Foreground,Centre,"sb\particle.png",0,0 C,0,250855,,51,40,176 M,1,250855,251355,326,378,276,378 F,0,251355,251855,1,0
Sprite,Foreground,Centre,"sb\particle.png",0,0 C,0,250855,,51,40,176 M,1,250855,251355,326,378,278.4472,362.5492 F,0,251355,251855,1,0
Sprite,Foreground,Centre,"sb\particle.png",0,0 C,0,250855,,51,40,176 M,1,250855,251355,326,378,285.5491,348.6107 F,0,251355,251855,1,0
Sprite,Foreground,Centre,"sb\particle.png",0,0 C,0,250855,,51,40,176 M,1,250855,251355,326,378,296.6107,337.5491 F,0,251355,251855,1,0
Sprite,Foreground,Centre,"sb\particle.png",0,0 C,0,250855,,51,40,176 M,1,250855,251355,326,378,310.5492,330.4472 F,0,251355,251855,1,0
Sprite,Foreground,Centre,"sb\particle.png",0,0 C,0,250855,,51,40,176 M,1,250855,251355,326,378,326,328 F,0,251355,251855,1,0
Sprite,Foreground,Centre,"sb\particle.png",0,0 C,0,250855,,51,40,176 M,1,250855,251355,326,378,341.4508,330.4472 F,0,251355,251855,1,0
Sprite,Foreground,Centre,"sb\particle.png",0,0 C,0,250855,,51,40,176 M,1,250855,251355,326,378,355.3893,337.5491 F,0,251355,251855,1,0
Sprite,Foreground,Centre,"sb\particle.png",0,0 C,0,250855,,51,40,176 M,1,250855,251355,326,378,366.4509,348.6107 F,0,251355,251855,1,0
Sprite,Foreground,Centre,"sb\particle.png",0,0 C,0,250855,,51,40,176 M,1,250855,251355,326,378,373.5528,362.5492 F,0,251355,251855,1,0
Sprite,Foreground,Centre,"sb\particle.png",0,0 C,0,251041,,51,40,176 M,1,251041,251541,245,366,295,366 F,0,251541,252041,1,0
Sprite,Foreground,Centre,"sb\particle.png",0,0 C,0,251041,,51,40,176 M,1,251041,251541,245,366,292.5528,381.4508 F,0,251541,252041,1,0
Sprite,Foreground,Centre,"sb\particle.png",0,0 C,0,251041,,51,40,176 M,1,251041,251541,245,366,285.4509,395.3893 F,0,251541,252041,1,0
Sprite,Foreground,Centre,"sb\particle.png",0,0 C,0,251041,,51,40,176 M,1,251041,251541,245,366,274.3893,406.4509 F,0,251541,252041,1,0
Sprite,Foreground,Centre,"sb\particle.png",0,0 C,0,251041,,51,40,176 M,1,251041,251541,245,366,260.4508,413.5528 F,0,251541,252041,1,0
Sprite,Foreground,Centre,"sb\particle.png",0,0 C,0,251041,,51,40,176 M,1,251041,251541,245,366,245,416 F,0,251541,252041,1,0
Sprite,Foreground,Centre,"sb\particle.png",0,0 C,0,251041,,51,40,176 M,1,251041,251541,245,366,229.5491,413.5528 F,0,251541,252041,1,0
Sprite,Foreground,Centre,"sb\particle.png",0,0 C,0,251041,,51,40,176 M,1,251041,251541,245,366,215.6107,406.4509 F,0,251541,252041,1,0
Sprite,Foreground,Centre,"sb\particle.png",0,0 C,0,251041,,51,40,176 M,1,251041,251541,245,366,204.5491,395.3893 F,0,251541,252041,1,0
Sprite,Foreground,Centre,"sb\particle.png",0,0 C,0,251041,,51,40,176 M,1,251041,251541,245,366,197.4472,381.4508 F,0,251541,252041,1,0
Sprite,Foreground,Centre,"sb\particle.png",0,0 C,0,251041,,51,40,176 M,1,251041,251541,245,366,195,366 F,0,251541,252041,1,0
Sprite,Foreground,Centre,"sb\particle.png",0,0 C,0,251041,,51,40,176 M,1,251041,251541,245,366,197.4472,350.5492 F,0,251541,252041,1,0
Sprite,Foreground,Centre,"sb\particle.png",0,0 C,0,251041,,51,40,176 M,1,251041,251541,245,366,204.5491,336.6107 F,0,251541,252041,1,0
Sprite,Foreground,Centre,"sb\particle.png",0,0 C,0,251041,,51,40,176 M,1,251041,251541,245,366,215.6107,325.5491 F,0,251541,252041,1,0
Sprite,Foreground,Centre,"sb\particle.png",0,0 C,0,251041,,51,40,176 M,1,251041,251541,245,366,229.5491,318.4472 F,0,251541,252041,1,0
Sprite,Foreground,Centre,"sb\particle.png",0,0 C,0,251041,,51,40,176 M,1,251041,251541,245,366,245,316 F,0,251541,252041,1,0
Sprite,Foreground,Centre,"sb\particle.png",0,0 C,0,251041,,51,40,176 M,1,251041,251541,245,366,260.4508,318.4472 F,0,251541,252041,1,0
Sprite,Foreground,Centre,"sb\particle.png",0,0 C,0,251041,,51,40,176 M,1,251041,251541,245,366,274.3893,325.5491 F,0,251541,252041,1,0
Sprite,Foreground,Centre,"sb\particle.png",0,0 C,0,251041,,51,40,176 M,1,251041,251541,245,366,285.4509,336.6107 F,0,251541,252041,1,0
Sprite,Foreground,Centre,"sb\particle.png",0,0 C,0,251041,,51,40,176 M,1,251041,251541,245,366,292.5528,350.5492 F,0,251541,252041,1,0
Sprite,Foreground,Centre,"sb\particle.png",0,0 C,0,251781,,255,134,252 M,1,251781,252281,245,366,295,366 F,0,252281,252781,1,0
Sprite,Foreground,Centre,"sb\particle.png",0,0 C,0,251781,,255,134,252 M,1,251781,252281,245,366,292.5528,381.4508 F,0,252281,252781,1,0
Sprite,Foreground,Centre,"sb\particle.png",0,0 C,0,251781,,255,134,252 M,1,251781,252281,245,366,285.4509,395.3893 F,0,252281,252781,1,0
Sprite,Foreground,Centre,"sb\particle.png",0,0 C,0,251781,,255,134,252 M,1,251781,252281,245,366,274.3893,406.4509 F,0,252281,252781,1,0
Sprite,Foreground,Centre,"sb\particle.png",0,0 C,0,251781,,255,134,252 M,1,251781,252281,245,366,260.4508,413.5528 F,0,252281,252781,1,0
Sprite,Foreground,Centre,"sb\particle.png",0,0 C,0,251781,,255,134,252 M,1,251781,252281,245,366,245,416 F,0,252281,252781,1,0
Sprite,Foreground,Centre,"sb\particle.png",0,0 C,0,251781,,255,134,252 M,1,251781,252281,245,366,229.5491,413.5528 F,0,252281,252781,1,0
Sprite,Foreground,Centre,"sb\particle.png",0,0 C,0,251781,,255,134,252 M,1,251781,252281,245,366,215.6107,406.4509 F,0,252281,252781,1,0
Sprite,Foreground,Centre,"sb\particle.png",0,0 C,0,251781,,255,134,252 M,1,251781,252281,245,366,204.5491,395.3893 F,0,252281,252781,1,0
Sprite,Foreground,Centre,"sb\particle.png",0,0 C,0,251781,,255,134,252 M,1,251781,252281,245,366,197.4472,381.4508 F,0,252281,252781,1,0
Sprite,Foreground,Centre,"sb\particle.png",0,0 C,0,251781,,255,134,252 M,1,251781,252281,245,366,195,366 F,0,252281,252781,1,0
Sprite,Foreground,Centre,"sb\particle.png",0,0 C,0,251781,,255,134,252 M,1,251781,252281,245,366,197.4472,350.5492 F,0,252281,252781,1,0
Sprite,Foreground,Centre,"sb\particle.png",0,0 C,0,251781,,255,134,252 M,1,251781,252281,245,366,204.5491,336.6107 F,0,252281,252781,1,0
Sprite,Foreground,Centre,"sb\particle.png",0,0 C,0,251781,,255,134,252 M,1,251781,252281,245,366,215.6107,325.5491 F,0,252281,252781,1,0
Sprite,Foreground,Centre,"sb\particle.png",0,0 C,0,251781,,255,134,252 M,1,251781,252281,245,366,229.5491,318.4472 F,0,252281,252781,1,0
Sprite,Foreground,Centre,"sb\particle.png",0,0 C,0,251781,,255,134,252 M,1,251781,252281,245,366,245,316 F,0,252281,252781,1,0
Sprite,Foreground,Centre,"sb\particle.png",0,0 C,0,251781,,255,134,252 M,1,251781,252281,245,366,260.4508,318.4472 F,0,252281,252781,1,0
Sprite,Foreground,Centre,"sb\particle.png",0,0 C,0,251781,,255,134,252 M,1,251781,252281,245,366,274.3893,325.5491 F,0,252281,252781,1,0
Sprite,Foreground,Centre,"sb\particle.png",0,0 C,0,251781,,255,134,252 M,1,251781,252281,245,366,285.4509,336.6107 F,0,252281,252781,1,0
Sprite,Foreground,Centre,"sb\particle.png",0,0 C,0,251781,,255,134,252 M,1,251781,252281,245,366,292.5528,350.5492 F,0,252281,252781,1,0
Sprite,Foreground,Centre,"sb\particle.png",0,0 C,0,252152,,255,134,252 M,1,252152,252652,86,399,136,399 F,0,252652,253152,1,0
Sprite,Foreground,Centre,"sb\particle.png",0,0 C,0,252152,,255,134,252 M,1,252152,252652,86,399,133.5528,414.4508 F,0,252652,253152,1,0
Sprite,Foreground,Centre,"sb\particle.png",0,0 C,0,252152,,255,134,252 M,1,252152,252652,86,399,126.4509,428.3893 F,0,252652,253152,1,0
Sprite,Foreground,Centre,"sb\particle.png",0,0 C,0,252152,,255,134,252 M,1,252152,252652,86,399,115.3893,439.4509 F,0,252652,253152,1,0
Sprite,Foreground,Centre,"sb\particle.png",0,0 C,0,252152,,255,134,252 M,1,252152,252652,86,399,101.4509,446.5528 F,0,252652,253152,1,0
Sprite,Foreground,Centre,"sb\particle.png",0,0 C,0,252152,,255,134,252 M,1,252152,252652,86,399,86,449 F,0,252652,253152,1,0
Sprite,Foreground,Centre,"sb\particle.png",0,0 C,0,252152,,255,134,252 M,1,252152,252652,86,399,70.54915,446.5528 F,0,252652,253152,1,0
Sprite,Foreground,Centre,"sb\particle.png",0,0 C,0,252152,,255,134,252 M,1,252152,252652,86,399,56.61074,439.4509 F,0,252652,253152,1,0
Sprite,Foreground,Centre,"sb\particle.png",0,0 C,0,252152,,255,134,252 M,1,252152,252652,86,399,45.54915,428.3893 F,0,252652,253152,1,0
Sprite,Foreground,Centre,"sb\particle.png",0,0 C,0,252152,,255,134,252 M,1,252152,252652,86,399,38.44717,414.4508 F,0,252652,253152,1,0
Sprite,Foreground,Centre,"sb\particle.png",0,0 C,0,252152,,255,134,252 M,1,252152,252652,86,399,36,399 F,0,252652,253152,1,0
Sprite,Foreground,Centre,"sb\particle.png",0,0 C,0,252152,,255,134,252 M,1,252152,252652,86,399,38.44717,383.5492 F,0,252652,253152,1,0
Sprite,Foreground,Centre,"sb\particle.png",0,0 C,0,252152,,255,134,252 M,1,252152,252652,86,399,45.54915,369.6107 F,0,252652,253152,1,0
Sprite,Foreground,Centre,"sb\particle.png",0,0 C,0,252152,,255,134,252 M,1,252152,252652,86,399,56.61074,358.5491 F,0,252652,253152,1,0
Sprite,Foreground,Centre,"sb\particle.png",0,0 C,0,252152,,255,134,252 M,1,252152,252652,86,399,70.54915,351.4472 F,0,252652,253152,1,0
Sprite,Foreground,Centre,"sb\particle.png",0,0 C,0,252152,,255,134,252 M,1,252152,252652,86,399,86,349 F,0,252652,253152,1,0
Sprite,Foreground,Centre,"sb\particle.png",0,0 C,0,252152,,255,134,252 M,1,252152,252652,86,399,101.4509,351.4472 F,0,252652,253152,1,0
Sprite,Foreground,Centre,"sb\particle.png",0,0 C,0,252152,,255,134,252 M,1,252152,252652,86,399,115.3893,358.5491 F,0,252652,253152,1,0
Sprite,Foreground,Centre,"sb\particle.png",0,0 C,0,252152,,255,134,252 M,1,252152,252652,86,399,126.4509,369.6107 F,0,252652,253152,1,0
Sprite,Foreground,Centre,"sb\particle.png",0,0 C,0,252152,,255,134,252 M,1,252152,252652,86,399,133.5528,383.5492 F,0,252652,253152,1,0
Sprite,Foreground,Centre,"sb\particle.png",0,0 C,0,252326,,67,101,237 M,1,252326,252826,135,317,185,317 F,0,252826,253326,1,0
Sprite,Foreground,Centre,"sb\particle.png",0,0 C,0,252326,,67,101,237 M,1,252326,252826,135,317,182.5528,332.4508 F,0,252826,253326,1,0
Sprite,Foreground,Centre,"sb\particle.png",0,0 C,0,252326,,67,101,237 M,1,252326,252826,135,317,175.4509,346.3893 F,0,252826,253326,1,0
Sprite,Foreground,Centre,"sb\particle.png",0,0 C,0,252326,,67,101,237 M,1,252326,252826,135,317,164.3893,357.4509 F,0,252826,253326,1,0
Sprite,Foreground,Centre,"sb\particle.png",0,0 C,0,252326,,67,101,237 M,1,252326,252826,135,317,150.4509,364.5528 F,0,252826,253326,1,0
Sprite,Foreground,Centre,"sb\particle.png",0,0 C,0,252326,,67,101,237 M,1,252326,252826,135,317,135,367 F,0,252826,253326,1,0
Sprite,Foreground,Centre,"sb\particle.png",0,0 C,0,252326,,67,101,237 M,1,252326,252826,135,317,119.5491,364.5528 F,0,252826,253326,1,0
Sprite,Foreground,Centre,"sb\particle.png",0,0 C,0,252326,,67,101,237 M,1,252326,252826,135,317,105.6107,357.4509 F,0,252826,253326,1,0
Sprite,Foreground,Centre,"sb\particle.png",0,0 C,0,252326,,67,101,237 M,1,252326,252826,135,317,94.54915,346.3893 F,0,252826,253326,1,0
Sprite,Foreground,Centre,"sb\particle.png",0,0 C,0,252326,,67,101,237 M,1,252326,252826,135,317,87.44717,332.4508 F,0,252826,253326,1,0
Sprite,Foreground,Centre,"sb\particle.png",0,0 C,0,252326,,67,101,237 M,1,252326,252826,135,317,85,317 F,0,252826,253326,1,0
Sprite,Foreground,Centre,"sb\particle.png",0,0 C,0,252326,,67,101,237 M,1,252326,252826,135,317,87.44717,301.5492 F,0,252826,253326,1,0
Sprite,Foreground,Centre,"sb\particle.png",0,0 C,0,252326,,67,101,237 M,1,252326,252826,135,317,94.54915,287.6107 F,0,252826,253326,1,0
Sprite,Foreground,Centre,"sb\particle.png",0,0 C,0,252326,,67,101,237 M,1,252326,252826,135,317,105.6107,276.5491 F,0,252826,253326,1,0
Sprite,Foreground,Centre,"sb\particle.png",0,0 C,0,252326,,67,101,237 M,1,252326,252826,135,317,119.5491,269.4472 F,0,252826,253326,1,0
Sprite,Foreground,Centre,"sb\particle.png",0,0 C,0,252326,,67,101,237 M,1,252326,252826,135,317,135,267 F,0,252826,253326,1,0
Sprite,Foreground,Centre,"sb\particle.png",0,0 C,0,252326,,67,101,237 M,1,252326,252826,135,317,150.4509,269.4472 F,0,252826,253326,1,0
Sprite,Foreground,Centre,"sb\particle.png",0,0 C,0,252326,,67,101,237 M,1,252326,252826,135,317,164.3893,276.5491 F,0,252826,253326,1,0
Sprite,Foreground,Centre,"sb\particle.png",0,0 C,0,252326,,67,101,237 M,1,252326,252826,135,317,175.4509,287.6107 F,0,252826,253326,1,0
Sprite,Foreground,Centre,"sb\particle.png",0,0 C,0,252326,,67,101,237 M,1,252326,252826,135,317,182.5528,301.5492 F,0,252826,253326,1,0
Sprite,Foreground,Centre,"sb\particle.png",0,0 C,0,252614,,67,101,237 M,1,252614,253114,135,209,185,209 F,0,253114,253614,1,0
Sprite,Foreground,Centre,"sb\particle.png",0,0 C,0,252614,,67,101,237 M,1,252614,253114,135,209,182.5528,224.4509 F,0,253114,253614,1,0
Sprite,Foreground,Centre,"sb\particle.png",0,0 C,0,252614,,67,101,237 M,1,252614,253114,135,209,175.4509,238.3893 F,0,253114,253614,1,0
Sprite,Foreground,Centre,"sb\particle.png",0,0 C,0,252614,,67,101,237 M,1,252614,253114,135,209,164.3893,249.4509 F,0,253114,253614,1,0
Sprite,Foreground,Centre,"sb\particle.png",0,0 C,0,252614,,67,101,237 M,1,252614,253114,135,209,150.4509,256.5528 F,0,253114,253614,1,0
Sprite,Foreground,Centre,"sb\particle.png",0,0 C,0,252614,,67,101,237 M,1,252614,253114,135,209,135,259 F,0,253114,253614,1,0
Sprite,Foreground,Centre,"sb\particle.png",0,0 C,0,252614,,67,101,237 M,1,252614,253114,135,209,119.5491,256.5528 F,0,253114,253614,1,0
Sprite,Foreground,Centre,"sb\particle.png",0,0 C,0,252614,,67,101,237 M,1,252614,253114,135,209,105.6107,249.4509 F,0,253114,253614,1,0
Sprite,Foreground,Centre,"sb\particle.png",0,0 C,0,252614,,67,101,237 M,1,252614,253114,135,209,94.54915,238.3893 F,0,253114,253614,1,0
Sprite,Foreground,Centre,"sb\particle.png",0,0 C,0,252614,,67,101,237 M,1,252614,253114,135,209,87.44717,224.4509 F,0,253114,253614,1,0
Sprite,Foreground,Centre,"sb\particle.png",0,0 C,0,252614,,67,101,237 M,1,252614,253114,135,209,85,209 F,0,253114,253614,1,0
Sprite,Foreground,Centre,"sb\particle.png",0,0 C,0,252614,,67,101,237 M,1,252614,253114,135,209,87.44717,193.5491 F,0,253114,253614,1,0
Sprite,Foreground,Centre,"sb\particle.png",0,0 C,0,252614,,67,101,237 M,1,252614,253114,135,209,94.54915,179.6107 F,0,253114,253614,1,0
Sprite,Foreground,Centre,"sb\particle.png",0,0 C,0,252614,,67,101,237 M,1,252614,253114,135,209,105.6107,168.5491 F,0,253114,253614,1,0
Sprite,Foreground,Centre,"sb\particle.png",0,0 C,0,252614,,67,101,237 M,1,252614,253114,135,209,119.5491,161.4472 F,0,253114,253614,1,0
Sprite,Foreground,Centre,"sb\particle.png",0,0 C,0,252614,,67,101,237 M,1,252614,253114,135,209,135,159 F,0,253114,253614,1,0
Sprite,Foreground,Centre,"sb\particle.png",0,0 C,0,252614,,67,101,237 M,1,252614,253114,135,209,150.4509,161.4472 F,0,253114,253614,1,0
Sprite,Foreground,Centre,"sb\particle.png",0,0 C,0,252614,,67,101,237 M,1,252614,253114,135,209,164.3893,168.5491 F,0,253114,253614,1,0
Sprite,Foreground,Centre,"sb\particle.png",0,0 C,0,252614,,67,101,237 M,1,252614,253114,135,209,175.4509,179.6107 F,0,253114,253614,1,0
Sprite,Foreground,Centre,"sb\particle.png",0,0 C,0,252614,,67,101,237 M,1,252614,253114,135,209,182.5528,193.5491 F,0,253114,253614,1,0
Sprite,Foreground,Centre,"sb\particle.png",0,0 C,0,252706,,255,2,129 M,1,252706,253206,132,192,182,192 F,0,253206,253706,1,0
Sprite,Foreground,Centre,"sb\particle.png",0,0 C,0,252706,,255,2,129 M,1,252706,253206,132,192,179.5528,207.4509 F,0,253206,253706,1,0
Sprite,Foreground,Centre,"sb\particle.png",0,0 C,0,252706,,255,2,129 M,1,252706,253206,132,192,172.4509,221.3893 F,0,253206,253706,1,0
Sprite,Foreground,Centre,"sb\particle.png",0,0 C,0,252706,,255,2,129 M,1,252706,253206,132,192,161.3893,232.4509 F,0,253206,253706,1,0
Sprite,Foreground,Centre,"sb\particle.png",0,0 C,0,252706,,255,2,129 M,1,252706,253206,132,192,147.4509,239.5528 F,0,253206,253706,1,0
Sprite,Foreground,Centre,"sb\particle.png",0,0 C,0,252706,,255,2,129 M,1,252706,253206,132,192,132,242 F,0,253206,253706,1,0
Sprite,Foreground,Centre,"sb\particle.png",0,0 C,0,252706,,255,2,129 M,1,252706,253206,132,192,116.5491,239.5528 F,0,253206,253706,1,0
Sprite,Foreground,Centre,"sb\particle.png",0,0 C,0,252706,,255,2,129 M,1,252706,253206,132,192,102.6107,232.4509 F,0,253206,253706,1,0
Sprite,Foreground,Centre,"sb\particle.png",0,0 C,0,252706,,255,2,129 M,1,252706,253206,132,192,91.54915,221.3893 F,0,253206,253706,1,0
Sprite,Foreground,Centre,"sb\particle.png",0,0 C,0,252706,,255,2,129 M,1,252706,253206,132,192,84.44717,207.4509 F,0,253206,253706,1,0
Sprite,Foreground,Centre,"sb\particle.png",0,0 C,0,252706,,255,2,129 M,1,252706,253206,132,192,82,192 F,0,253206,253706,1,0
Sprite,Foreground,Centre,"sb\particle.png",0,0 C,0,252706,,255,2,129 M,1,252706,253206,132,192,84.44717,176.5491 F,0,253206,253706,1,0
Sprite,Foreground,Centre,"sb\particle.png",0,0 C,0,252706,,255,2,129 M,1,252706,253206,132,192,91.54915,162.6107 F,0,253206,253706,1,0
Sprite,Foreground,Centre,"sb\particle.png",0,0 C,0,252706,,255,2,129 M,1,252706,253206,132,192,102.6107,151.5491 F,0,253206,253706,1,0
Sprite,Foreground,Centre,"sb\particle.png",0,0 C,0,252706,,255,2,129 M,1,252706,253206,132,192,116.5491,144.4472 F,0,253206,253706,1,0
Sprite,Foreground,Centre,"sb\particle.png",0,0 C,0,252706,,255,2,129 M,1,252706,253206,132,192,132,142 F,0,253206,253706,1,0
Sprite,Foreground,Centre,"sb\particle.png",0,0 C,0,252706,,255,2,129 M,1,252706,253206,132,192,147.4509,144.4472 F,0,253206,253706,1,0
Sprite,Foreground,Centre,"sb\particle.png",0,0 C,0,252706,,255,2,129 M,1,252706,253206,132,192,161.3893,151.5491 F,0,253206,253706,1,0
Sprite,Foreground,Centre,"sb\particle.png",0,0 C,0,252706,,255,2,129 M,1,252706,253206,132,192,172.4509,162.6107 F,0,253206,253706,1,0
Sprite,Foreground,Centre,"sb\particle.png",0,0 C,0,252706,,255,2,129 M,1,252706,253206,132,192,179.5528,176.5491 F,0,253206,253706,1,0
Sprite,Foreground,Centre,"sb\particle.png",0,0 C,0,252998,,255,2,129 M,1,252998,253498,236,165,286,165 F,0,253498,253998,1,0
Sprite,Foreground,Centre,"sb\particle.png",0,0 C,0,252998,,255,2,129 M,1,252998,253498,236,165,283.5528,180.4509 F,0,253498,253998,1,0
Sprite,Foreground,Centre,"sb\particle.png",0,0 C,0,252998,,255,2,129 M,1,252998,253498,236,165,276.4509,194.3893 F,0,253498,253998,1,0
Sprite,Foreground,Centre,"sb\particle.png",0,0 C,0,252998,,255,2,129 M,1,252998,253498,236,165,265.3893,205.4509 F,0,253498,253998,1,0
Sprite,Foreground,Centre,"sb\particle.png",0,0 C,0,252998,,255,2,129 M,1,252998,253498,236,165,251.4509,212.5528 F,0,253498,253998,1,0
Sprite,Foreground,Centre,"sb\particle.png",0,0 C,0,252998,,255,2,129 M,1,252998,253498,236,165,236,215 F,0,253498,253998,1,0
Sprite,Foreground,Centre,"sb\particle.png",0,0 C,0,252998,,255,2,129 M,1,252998,253498,236,165,220.5491,212.5528 F,0,253498,253998,1,0
Sprite,Foreground,Centre,"sb\particle.png",0,0 C,0,252998,,255,2,129 M,1,252998,253498,236,165,206.6107,205.4509 F,0,253498,253998,1,0
Sprite,Foreground,Centre,"sb\particle.png",0,0 C,0,252998,,255,2,129 M,1,252998,253498,236,165,195.5491,194.3893 F,0,253498,253998,1,0
Sprite,Foreground,Centre,"sb\particle.png",0,0 C,0,252998,,255,2,129 M,1,252998,253498,236,165,188.4472,180.4509 F,0,253498,253998,1,0
Sprite,Foreground,Centre,"sb\particle.png",0,0 C,0,252998,,255,2,129 M,1,252998,253498,236,165,186,165 F,0,253498,253998,1,0
Sprite,Foreground,Centre,"sb\particle.png",0,0 C,0,252998,,255,2,129 M,1,252998,253498,236,165,188.4472,149.5491 F,0,253498,253998,1,0
Sprite,Foreground,Centre,"sb\particle.png",0,0 C,0,252998,,255,2,129 M,1,252998,253498,236,165,195.5491,135.6107 F,0,253498,253998,1,0
Sprite,Foreground,Centre,"sb\particle.png",0,0 C,0,252998,,255,2,129 M,1,252998,253498,236,165,206.6107,124.5491 F,0,253498,253998,1,0
Sprite,Foreground,Centre,"sb\particle.png",0,0 C,0,252998,,255,2,129 M,1,252998,253498,236,165,220.5491,117.4472 F,0,253498,253998,1,0
Sprite,Foreground,Centre,"sb\particle.png",0,0 C,0,252998,,255,2,129 M,1,252998,253498,236,165,236,115 F,0,253498,253998,1,0
Sprite,Foreground,Centre,"sb\particle.png",0,0 C,0,252998,,255,2,129 M,1,252998,253498,236,165,251.4509,117.4472 F,0,253498,253998,1,0
Sprite,Foreground,Centre,"sb\particle.png",0,0 C,0,252998,,255,2,129 M,1,252998,253498,236,165,265.3893,124.5491 F,0,253498,253998,1,0
Sprite,Foreground,Centre,"sb\particle.png",0,0 C,0,252998,,255,2,129 M,1,252998,253498,236,165,276.4509,135.6107 F,0,253498,253998,1,0
Sprite,Foreground,Centre,"sb\particle.png",0,0 C,0,252998,,255,2,129 M,1,252998,253498,236,165,283.5528,149.5491 F,0,253498,253998,1,0
Sprite,Foreground,Centre,"sb\particle.png",0,0 C,0,253093,,51,40,176 M,1,253093,253593,254,158,304,158 F,0,253593,254093,1,0
Sprite,Foreground,Centre,"sb\particle.png",0,0 C,0,253093,,51,40,176 M,1,253093,253593,254,158,301.5528,173.4509 F,0,253593,254093,1,0
Sprite,Foreground,Centre,"sb\particle.png",0,0 C,0,253093,,51,40,176 M,1,253093,253593,254,158,294.4509,187.3893 F,0,253593,254093,1,0
Sprite,Foreground,Centre,"sb\particle.png",0,0 C,0,253093,,51,40,176 M,1,253093,253593,254,158,283.3893,198.4509 F,0,253593,254093,1,0
Sprite,Foreground,Centre,"sb\particle.png",0,0 C,0,253093,,51,40,176 M,1,253093,253593,254,158,269.4508,205.5528 F,0,253593,254093,1,0
Sprite,Foreground,Centre,"sb\particle.png",0,0 C,0,253093,,51,40,176 M,1,253093,253593,254,158,254,208 F,0,253593,254093,1,0
Sprite,Foreground,Centre,"sb\particle.png",0,0 C,0,253093,,51,40,176 M,1,253093,253593,254,158,238.5491,205.5528 F,0,253593,254093,1,0
Sprite,Foreground,Centre,"sb\particle.png",0,0 C,0,253093,,51,40,176 M,1,253093,253593,254,158,224.6107,198.4509 F,0,253593,254093,1,0
Sprite,Foreground,Centre,"sb\particle.png",0,0 C,0,253093,,51,40,176 M,1,253093,253593,254,158,213.5491,187.3893 F,0,253593,254093,1,0
Sprite,Foreground,Centre,"sb\particle.png",0,0 C,0,253093,,51,40,176 M,1,253093,253593,254,158,206.4472,173.4509 F,0,253593,254093,1,0
Sprite,Foreground,Centre,"sb\particle.png",0,0 C,0,253093,,51,40,176 M,1,253093,253593,254,158,204,158 F,0,253593,254093,1,0
Sprite,Foreground,Centre,"sb\particle.png",0,0 C,0,253093,,51,40,176 M,1,253093,253593,254,158,206.4472,142.5491 F,0,253593,254093,1,0
Sprite,Foreground,Centre,"sb\particle.png",0,0 C,0,253093,,51,40,176 M,1,253093,253593,254,158,213.5491,128.6107 F,0,253593,254093,1,0
Sprite,Foreground,Centre,"sb\particle.png",0,0 C,0,253093,,51,40,176 M,1,253093,253593,254,158,224.6107,117.5491 F,0,253593,254093,1,0
Sprite,Foreground,Centre,"sb\particle.png",0,0 C,0,253093,,51,40,176 M,1,253093,253593,254,158,238.5491,110.4472 F,0,253593,254093,1,0
Sprite,Foreground,Centre,"sb\particle.png",0,0 C,0,253093,,51,40,176 M,1,253093,253593,254,158,254,108 F,0,253593,254093,1,0
Sprite,Foreground,Centre,"sb\particle.png",0,0 C,0,253093,,51,40,176 M,1,253093,253593,254,158,269.4508,110.4472 F,0,253593,254093,1,0
Sprite,Foreground,Centre,"sb\particle.png",0,0 C,0,253093,,51,40,176 M,1,253093,253593,254,158,283.3893,117.5491 F,0,253593,254093,1,0
Sprite,Foreground,Centre,"sb\particle.png",0,0 C,0,253093,,51,40,176 M,1,253093,253593,254,158,294.4509,128.6107 F,0,253593,254093,1,0
Sprite,Foreground,Centre,"sb\particle.png",0,0 C,0,253093,,51,40,176 M,1,253093,253593,254,158,301.5528,142.5491 F,0,253593,254093,1,0
Sprite,Foreground,Centre,"sb\particle.png",0,0 C,0,253360,,51,40,176 M,1,253360,253860,307,251,357,251 F,0,253860,254360,1,0
Sprite,Foreground,Centre,"sb\particle.png",0,0 C,0,253360,,51,40,176 M,1,253360,253860,307,251,354.5528,266.4508 F,0,253860,254360,1,0
Sprite,Foreground,Centre,"sb\particle.png",0,0 C,0,253360,,51,40,176 M,1,253360,253860,307,251,347.4509,280.3893 F,0,253860,254360,1,0
Sprite,Foreground,Centre,"sb\particle.png",0,0 C,0,253360,,51,40,176 M,1,253360,253860,307,251,336.3893,291.4509 F,0,253860,254360,1,0
Sprite,Foreground,Centre,"sb\particle.png",0,0 C,0,253360,,51,40,176 M,1,253360,253860,307,251,322.4508,298.5528 F,0,253860,254360,1,0
Sprite,Foreground,Centre,"sb\particle.png",0,0 C,0,253360,,51,40,176 M,1,253360,253860,307,251,307,301 F,0,253860,254360,1,0
Sprite,Foreground,Centre,"sb\particle.png",0,0 C,0,253360,,51,40,176 M,1,253360,253860,307,251,291.5492,298.5528 F,0,253860,254360,1,0
Sprite,Foreground,Centre,"sb\particle.png",0,0 C,0,253360,,51,40,176 M,1,253360,253860,307,251,277.6107,291.4509 F,0,253860,254360,1,0
Sprite,Foreground,Centre,"sb\particle.png",0,0 C,0,253360,,51,40,176 M,1,253360,253860,307,251,266.5491,280.3893 F,0,253860,254360,1,0
Sprite,Foreground,Centre,"sb\particle.png",0,0 C,0,253360,,51,40,176 M,1,253360,253860,307,251,259.4472,266.4508 F,0,253860,254360,1,0
Sprite,Foreground,Centre,"sb\particle.png",0,0 C,0,253360,,51,40,176 M,1,253360,253860,307,251,257,251 F,0,253860,254360,1,0
Sprite,Foreground,Centre,"sb\particle.png",0,0 C,0,253360,,51,40,176 M,1,253360,253860,307,251,259.4472,235.5491 F,0,253860,254360,1,0
Sprite,Foreground,Centre,"sb\particle.png",0,0 C,0,253360,,51,40,176 M,1,253360,253860,307,251,266.5491,221.6107 F,0,253860,254360,1,0
Sprite,Foreground,Centre,"sb\particle.png",0,0 C,0,253360,,51,40,176 M,1,253360,253860,307,251,277.6107,210.5491 F,0,253860,254360,1,0
Sprite,Foreground,Centre,"sb\particle.png",0,0 C,0,253360,,51,40,176 M,1,253360,253860,307,251,291.5492,203.4472 F,0,253860,254360,1,0
Sprite,Foreground,Centre,"sb\particle.png",0,0 C,0,253360,,51,40,176 M,1,253360,253860,307,251,307,201 F,0,253860,254360,1,0
Sprite,Foreground,Centre,"sb\particle.png",0,0 C,0,253360,,51,40,176 M,1,253360,253860,307,251,322.4508,203.4472 F,0,253860,254360,1,0
Sprite,Foreground,Centre,"sb\particle.png",0,0 C,0,253360,,51,40,176 M,1,253360,253860,307,251,336.3893,210.5491 F,0,253860,254360,1,0
Sprite,Foreground,Centre,"sb\particle.png",0,0 C,0,253360,,51,40,176 M,1,253360,253860,307,251,347.4509,221.6107 F,0,253860,254360,1,0
Sprite,Foreground,Centre,"sb\particle.png",0,0 C,0,253360,,51,40,176 M,1,253360,253860,307,251,354.5528,235.5491 F,0,253860,254360,1,0
Sprite,Foreground,Centre,"sb\particle.png",0,0 C,0,253450,,255,134,252 M,1,253450,253950,320,248,370,248 F,0,253950,254450,1,0
Sprite,Foreground,Centre,"sb\particle.png",0,0 C,0,253450,,255,134,252 M,1,253450,253950,320,248,367.5528,263.4508 F,0,253950,254450,1,0
Sprite,Foreground,Centre,"sb\particle.png",0,0 C,0,253450,,255,134,252 M,1,253450,253950,320,248,360.4509,277.3893 F,0,253950,254450,1,0
Sprite,Foreground,Centre,"sb\particle.png",0,0 C,0,253450,,255,134,252 M,1,253450,253950,320,248,349.3893,288.4509 F,0,253950,254450,1,0
Sprite,Foreground,Centre,"sb\particle.png",0,0 C,0,253450,,255,134,252 M,1,253450,253950,320,248,335.4508,295.5528 F,0,253950,254450,1,0
Sprite,Foreground,Centre,"sb\particle.png",0,0 C,0,253450,,255,134,252 M,1,253450,253950,320,248,320,298 F,0,253950,254450,1,0
Sprite,Foreground,Centre,"sb\particle.png",0,0 C,0,253450,,255,134,252 M,1,253450,253950,320,248,304.5492,295.5528 F,0,253950,254450,1,0
Sprite,Foreground,Centre,"sb\particle.png",0,0 C,0,253450,,255,134,252 M,1,253450,253950,320,248,290.6107,288.4509 F,0,253950,254450,1,0
Sprite,Foreground,Centre,"sb\particle.png",0,0 C,0,253450,,255,134,252 M,1,253450,253950,320,248,279.5491,277.3893 F,0,253950,254450,1,0
Sprite,Foreground,Centre,"sb\particle.png",0,0 C,0,253450,,255,134,252 M,1,253450,253950,320,248,272.4472,263.4508 F,0,253950,254450,1,0
Sprite,Foreground,Centre,"sb\particle.png",0,0 C,0,253450,,255,134,252 M,1,253450,253950,320,248,270,248 F,0,253950,254450,1,0
Sprite,Foreground,Centre,"sb\particle.png",0,0 C,0,253450,,255,134,252 M,1,253450,253950,320,248,272.4472,232.5491 F,0,253950,254450,1,0
Sprite,Foreground,Centre,"sb\particle.png",0,0 C,0,253450,,255,134,252 M,1,253450,253950,320,248,279.5491,218.6107 F,0,253950,254450,1,0
Sprite,Foreground,Centre,"sb\particle.png",0,0 C,0,253450,,255,134,252 M,1,253450,253950,320,248,290.6107,207.5491 F,0,253950,254450,1,0
Sprite,Foreground,Centre,"sb\particle.png",0,0 C,0,253450,,255,134,252 M,1,253450,253950,320,248,304.5492,200.4472 F,0,253950,254450,1,0
Sprite,Foreground,Centre,"sb\particle.png",0,0 C,0,253450,,255,134,252 M,1,253450,253950,320,248,320,198 F,0,253950,254450,1,0
Sprite,Foreground,Centre,"sb\particle.png",0,0 C,0,253450,,255,134,252 M,1,253450,253950,320,248,335.4508,200.4472 F,0,253950,254450,1,0
Sprite,Foreground,Centre,"sb\particle.png",0,0 C,0,253450,,255,134,252 M,1,253450,253950,320,248,349.3893,207.5491 F,0,253950,254450,1,0
Sprite,Foreground,Centre,"sb\particle.png",0,0 C,0,253450,,255,134,252 M,1,253450,253950,320,248,360.4509,218.6107 F,0,253950,254450,1,0
Sprite,Foreground,Centre,"sb\particle.png",0,0 C,0,253450,,255,134,252 M,1,253450,253950,320,248,367.5528,232.5491 F,0,253950,254450,1,0
Sprite,Foreground,Centre,"sb\particle.png",0,0 C,0,253807,,67,101,237 M,1,253807,254307,268,337,318,337 F,0,254307,254807,1,0
Sprite,Foreground,Centre,"sb\particle.png",0,0 C,0,253807,,67,101,237 M,1,253807,254307,268,337,315.5528,352.4508 F,0,254307,254807,1,0
Sprite,Foreground,Centre,"sb\particle.png",0,0 C,0,253807,,67,101,237 M,1,253807,254307,268,337,308.4509,366.3893 F,0,254307,254807,1,0
Sprite,Foreground,Centre,"sb\particle.png",0,0 C,0,253807,,67,101,237 M,1,253807,254307,268,337,297.3893,377.4509 F,0,254307,254807,1,0
Sprite,Foreground,Centre,"sb\particle.png",0,0 C,0,253807,,67,101,237 M,1,253807,254307,268,337,283.4508,384.5528 F,0,254307,254807,1,0
Sprite,Foreground,Centre,"sb\particle.png",0,0 C,0,253807,,67,101,237 M,1,253807,254307,268,337,268,387 F,0,254307,254807,1,0
Sprite,Foreground,Centre,"sb\particle.png",0,0 C,0,253807,,67,101,237 M,1,253807,254307,268,337,252.5491,384.5528 F,0,254307,254807,1,0
Sprite,Foreground,Centre,"sb\particle.png",0,0 C,0,253807,,67,101,237 M,1,253807,254307,268,337,238.6107,377.4509 F,0,254307,254807,1,0
Sprite,Foreground,Centre,"sb\particle.png",0,0 C,0,253807,,67,101,237 M,1,253807,254307,268,337,227.5491,366.3893 F,0,254307,254807,1,0
Sprite,Foreground,Centre,"sb\particle.png",0,0 C,0,253807,,67,101,237 M,1,253807,254307,268,337,220.4472,352.4508 F,0,254307,254807,1,0
Sprite,Foreground,Centre,"sb\particle.png",0,0 C,0,253807,,67,101,237 M,1,253807,254307,268,337,218,337 F,0,254307,254807,1,0
Sprite,Foreground,Centre,"sb\particle.png",0,0 C,0,253807,,67,101,237 M,1,253807,254307,268,337,220.4472,321.5492 F,0,254307,254807,1,0
Sprite,Foreground,Centre,"sb\particle.png",0,0 C,0,253807,,67,101,237 M,1,253807,254307,268,337,227.5491,307.6107 F,0,254307,254807,1,0
Sprite,Foreground,Centre,"sb\particle.png",0,0 C,0,253807,,67,101,237 M,1,253807,254307,268,337,238.6107,296.5491 F,0,254307,254807,1,0
Sprite,Foreground,Centre,"sb\particle.png",0,0 C,0,253807,,67,101,237 M,1,253807,254307,268,337,252.5491,289.4472 F,0,254307,254807,1,0
Sprite,Foreground,Centre,"sb\particle.png",0,0 C,0,253807,,67,101,237 M,1,253807,254307,268,337,268,287 F,0,254307,254807,1,0
Sprite,Foreground,Centre,"sb\particle.png",0,0 C,0,253807,,67,101,237 M,1,253807,254307,268,337,283.4508,289.4472 F,0,254307,254807,1,0
Sprite,Foreground,Centre,"sb\particle.png",0,0 C,0,253807,,67,101,237 M,1,253807,254307,268,337,297.3893,296.5491 F,0,254307,254807,1,0
Sprite,Foreground,Centre,"sb\particle.png",0,0 C,0,253807,,67,101,237 M,1,253807,254307,268,337,308.4509,307.6107 F,0,254307,254807,1,0
Sprite,Foreground,Centre,"sb\particle.png",0,0 C,0,253807,,67,101,237 M,1,253807,254307,268,337,315.5528,321.5492 F,0,254307,254807,1,0
Sprite,Foreground,Centre,"sb\particle.png",0,0 C,0,254328,,255,2,129 M,1,254328,254828,84,412,134,412 F,0,254828,255328,1,0
Sprite,Foreground,Centre,"sb\particle.png",0,0 C,0,254328,,255,2,129 M,1,254328,254828,84,412,131.5528,427.4508 F,0,254828,255328,1,0
Sprite,Foreground,Centre,"sb\particle.png",0,0 C,0,254328,,255,2,129 M,1,254328,254828,84,412,124.4509,441.3893 F,0,254828,255328,1,0
Sprite,Foreground,Centre,"sb\particle.png",0,0 C,0,254328,,255,2,129 M,1,254328,254828,84,412,113.3893,452.4509 F,0,254828,255328,1,0
Sprite,Foreground,Centre,"sb\particle.png",0,0 C,0,254328,,255,2,129 M,1,254328,254828,84,412,99.45085,459.5528 F,0,254828,255328,1,0
Sprite,Foreground,Centre,"sb\particle.png",0,0 C,0,254328,,255,2,129 M,1,254328,254828,84,412,84,462 F,0,254828,255328,1,0
Sprite,Foreground,Centre,"sb\particle.png",0,0 C,0,254328,,255,2,129 M,1,254328,254828,84,412,68.54915,459.5528 F,0,254828,255328,1,0
Sprite,Foreground,Centre,"sb\particle.png",0,0 C,0,254328,,255,2,129 M,1,254328,254828,84,412,54.61074,452.4509 F,0,254828,255328,1,0
Sprite,Foreground,Centre,"sb\particle.png",0,0 C,0,254328,,255,2,129 M,1,254328,254828,84,412,43.54915,441.3893 F,0,254828,255328,1,0
Sprite,Foreground,Centre,"sb\particle.png",0,0 C,0,254328,,255,2,129 M,1,254328,254828,84,412,36.44717,427.4508 F,0,254828,255328,1,0
Sprite,Foreground,Centre,"sb\particle.png",0,0 C,0,254328,,255,2,129 M,1,254328,254828,84,412,34,412 F,0,254828,255328,1,0
Sprite,Foreground,Centre,"sb\particle.png",0,0 C,0,254328,,255,2,129 M,1,254328,254828,84,412,36.44717,396.5492 F,0,254828,255328,1,0
Sprite,Foreground,Centre,"sb\particle.png",0,0 C,0,254328,,255,2,129 M,1,254328,254828,84,412,43.54915,382.6107 F,0,254828,255328,1,0
Sprite,Foreground,Centre,"sb\particle.png",0,0 C,0,254328,,255,2,129 M,1,254328,254828,84,412,54.61074,371.5491 F,0,254828,255328,1,0
Sprite,Foreground,Centre,"sb\particle.png",0,0 C,0,254328,,255,2,129 M,1,254328,254828,84,412,68.54915,364.4472 F,0,254828,255328,1,0
Sprite,Foreground,Centre,"sb\particle.png",0,0 C,0,254328,,255,2,129 M,1,254328,254828,84,412,84,362 F,0,254828,255328,1,0
Sprite,Foreground,Centre,"sb\particle.png",0,0 C,0,254328,,255,2,129 M,1,254328,254828,84,412,99.45085,364.4472 F,0,254828,255328,1,0
Sprite,Foreground,Centre,"sb\particle.png",0,0 C,0,254328,,255,2,129 M,1,254328,254828,84,412,113.3893,371.5491 F,0,254828,255328,1,0
Sprite,Foreground,Centre,"sb\particle.png",0,0 C,0,254328,,255,2,129 M,1,254328,254828,84,412,124.4509,382.6107 F,0,254828,255328,1,0
Sprite,Foreground,Centre,"sb\particle.png",0,0 C,0,254328,,255,2,129 M,1,254328,254828,84,412,131.5528,396.5492 F,0,254828,255328,1,0
Sprite,Foreground,Centre,"sb\particle.png",0,0 C,0,254845,,51,40,176 M,1,254845,255345,267,337,317,337 F,0,255345,255845,1,0
Sprite,Foreground,Centre,"sb\particle.png",0,0 C,0,254845,,51,40,176 M,1,254845,255345,267,337,314.5528,352.4508 F,0,255345,255845,1,0
Sprite,Foreground,Centre,"sb\particle.png",0,0 C,0,254845,,51,40,176 M,1,254845,255345,267,337,307.4509,366.3893 F,0,255345,255845,1,0
Sprite,Foreground,Centre,"sb\particle.png",0,0 C,0,254845,,51,40,176 M,1,254845,255345,267,337,296.3893,377.4509 F,0,255345,255845,1,0
Sprite,Foreground,Centre,"sb\particle.png",0,0 C,0,254845,,51,40,176 M,1,254845,255345,267,337,282.4508,384.5528 F,0,255345,255845,1,0
Sprite,Foreground,Centre,"sb\particle.png",0,0 C,0,254845,,51,40,176 M,1,254845,255345,267,337,267,387 F,0,255345,255845,1,0
Sprite,Foreground,Centre,"sb\particle.png",0,0 C,0,254845,,51,40,176 M,1,254845,255345,267,337,251.5491,384.5528 F,0,255345,255845,1,0
Sprite,Foreground,Centre,"sb\particle.png",0,0 C,0,254845,,51,40,176 M,1,254845,255345,267,337,237.6107,377.4509 F,0,255345,255845,1,0
Sprite,Foreground,Centre,"sb\particle.png",0,0 C,0,254845,,51,40,176 M,1,254845,255345,267,337,226.5491,366.3893 F,0,255345,255845,1,0
Sprite,Foreground,Centre,"sb\particle.png",0,0 C,0,254845,,51,40,176 M,1,254845,255345,267,337,219.4472,352.4508 F,0,255345,255845,1,0
Sprite,Foreground,Centre,"sb\particle.png",0,0 C,0,254845,,51,40,176 M,1,254845,255345,267,337,217,337 F,0,255345,255845,1,0
Sprite,Foreground,Centre,"sb\particle.png",0,0 C,0,254845,,51,40,176 M,1,254845,255345,267,337,219.4472,321.5492 F,0,255345,255845,1,0
Sprite,Foreground,Centre,"sb\particle.png",0,0 C,0,254845,,51,40,176 M,1,254845,255345,267,337,226.5491,307.6107 F,0,255345,255845,1,0
Sprite,Foreground,Centre,"sb\particle.png",0,0 C,0,254845,,51,40,176 M,1,254845,255345,267,337,237.6107,296.5491 F,0,255345,255845,1,0
Sprite,Foreground,Centre,"sb\particle.png",0,0 C,0,254845,,51,40,176 M,1,254845,255345,267,337,251.5491,289.4472 F,0,255345,255845,1,0
Sprite,Foreground,Centre,"sb\particle.png",0,0 C,0,254845,,51,40,176 M,1,254845,255345,267,337,267,287 F,0,255345,255845,1,0
Sprite,Foreground,Centre,"sb\particle.png",0,0 C,0,254845,,51,40,176 M,1,254845,255345,267,337,282.4508,289.4472 F,0,255345,255845,1,0
Sprite,Foreground,Centre,"sb\particle.png",0,0 C,0,254845,,51,40,176 M,1,254845,255345,267,337,296.3893,296.5491 F,0,255345,255845,1,0
Sprite,Foreground,Centre,"sb\particle.png",0,0 C,0,254845,,51,40,176 M,1,254845,255345,267,337,307.4509,307.6107 F,0,255345,255845,1,0
Sprite,Foreground,Centre,"sb\particle.png",0,0 C,0,254845,,51,40,176 M,1,254845,255345,267,337,314.5528,321.5492 F,0,255345,255845,1,0
Sprite,Foreground,Centre,"sb\particle.png",0,0 C,0,255347,,255,134,252 M,1,255347,255847,320,248,370,248 F,0,255847,256347,1,0
Sprite,Foreground,Centre,"sb\particle.png",0,0 C,0,255347,,255,134,252 M,1,255347,255847,320,248,367.5528,263.4508 F,0,255847,256347,1,0
Sprite,Foreground,Centre,"sb\particle.png",0,0 C,0,255347,,255,134,252 M,1,255347,255847,320,248,360.4509,277.3893 F,0,255847,256347,1,0
Sprite,Foreground,Centre,"sb\particle.png",0,0 C,0,255347,,255,134,252 M,1,255347,255847,320,248,349.3893,288.4509 F,0,255847,256347,1,0
Sprite,Foreground,Centre,"sb\particle.png",0,0 C,0,255347,,255,134,252 M,1,255347,255847,320,248,335.4508,295.5528 F,0,255847,256347,1,0
Sprite,Foreground,Centre,"sb\particle.png",0,0 C,0,255347,,255,134,252 M,1,255347,255847,320,248,320,298 F,0,255847,256347,1,0
Sprite,Foreground,Centre,"sb\particle.png",0,0 C,0,255347,,255,134,252 M,1,255347,255847,320,248,304.5492,295.5528 F,0,255847,256347,1,0
Sprite,Foreground,Centre,"sb\particle.png",0,0 C,0,255347,,255,134,252 M,1,255347,255847,320,248,290.6107,288.4509 F,0,255847,256347,1,0
Sprite,Foreground,Centre,"sb\particle.png",0,0 C,0,255347,,255,134,252 M,1,255347,255847,320,248,279.5491,277.3893 F,0,255847,256347,1,0
Sprite,Foreground,Centre,"sb\particle.png",0,0 C,0,255347,,255,134,252 M,1,255347,255847,320,248,272.4472,263.4508 F,0,255847,256347,1,0
Sprite,Foreground,Centre,"sb\particle.png",0,0 C,0,255347,,255,134,252 M,1,255347,255847,320,248,270,248 F,0,255847,256347,1,0
Sprite,Foreground,Centre,"sb\particle.png",0,0 C,0,255347,,255,134,252 M,1,255347,255847,320,248,272.4472,232.5491 F,0,255847,256347,1,0
Sprite,Foreground,Centre,"sb\particle.png",0,0 C,0,255347,,255,134,252 M,1,255347,255847,320,248,279.5491,218.6107 F,0,255847,256347,1,0
Sprite,Foreground,Centre,"sb\particle.png",0,0 C,0,255347,,255,134,252 M,1,255347,255847,320,248,290.6107,207.5491 F,0,255847,256347,1,0
Sprite,Foreground,Centre,"sb\particle.png",0,0 C,0,255347,,255,134,252 M,1,255347,255847,320,248,304.5492,200.4472 F,0,255847,256347,1,0
Sprite,Foreground,Centre,"sb\particle.png",0,0 C,0,255347,,255,134,252 M,1,255347,255847,320,248,320,198 F,0,255847,256347,1,0
Sprite,Foreground,Centre,"sb\particle.png",0,0 C,0,255347,,255,134,252 M,1,255347,255847,320,248,335.4508,200.4472 F,0,255847,256347,1,0
Sprite,Foreground,Centre,"sb\particle.png",0,0 C,0,255347,,255,134,252 M,1,255347,255847,320,248,349.3893,207.5491 F,0,255847,256347,1,0
Sprite,Foreground,Centre,"sb\particle.png",0,0 C,0,255347,,255,134,252 M,1,255347,255847,320,248,360.4509,218.6107 F,0,255847,256347,1,0
Sprite,Foreground,Centre,"sb\particle.png",0,0 C,0,255347,,255,134,252 M,1,255347,255847,320,248,367.5528,232.5491 F,0,255847,256347,1,0
Sprite,Foreground,Centre,"sb\particle.png",0,0 C,0,255882,,67,101,237 M,1,255882,256382,503,323,553,323 F,0,256382,256882,1,0
Sprite,Foreground,Centre,"sb\particle.png",0,0 C,0,255882,,67,101,237 M,1,255882,256382,503,323,550.5529,338.4508 F,0,256382,256882,1,0
Sprite,Foreground,Centre,"sb\particle.png",0,0 C,0,255882,,67,101,237 M,1,255882,256382,503,323,543.4509,352.3893 F,0,256382,256882,1,0
Sprite,Foreground,Centre,"sb\particle.png",0,0 C,0,255882,,67,101,237 M,1,255882,256382,503,323,532.3893,363.4509 F,0,256382,256882,1,0
Sprite,Foreground,Centre,"sb\particle.png",0,0 C,0,255882,,67,101,237 M,1,255882,256382,503,323,518.4509,370.5528 F,0,256382,256882,1,0
Sprite,Foreground,Centre,"sb\particle.png",0,0 C,0,255882,,67,101,237 M,1,255882,256382,503,323,503,373 F,0,256382,256882,1,0
Sprite,Foreground,Centre,"sb\particle.png",0,0 C,0,255882,,67,101,237 M,1,255882,256382,503,323,487.5492,370.5528 F,0,256382,256882,1,0
Sprite,Foreground,Centre,"sb\particle.png",0,0 C,0,255882,,67,101,237 M,1,255882,256382,503,323,473.6107,363.4509 F,0,256382,256882,1,0
Sprite,Foreground,Centre,"sb\particle.png",0,0 C,0,255882,,67,101,237 M,1,255882,256382,503,323,462.5491,352.3893 F,0,256382,256882,1,0
Sprite,Foreground,Centre,"sb\particle.png",0,0 C,0,255882,,67,101,237 M,1,255882,256382,503,323,455.4472,338.4508 F,0,256382,256882,1,0
Sprite,Foreground,Centre,"sb\particle.png",0,0 C,0,255882,,67,101,237 M,1,255882,256382,503,323,453,323 F,0,256382,256882,1,0
Sprite,Foreground,Centre,"sb\particle.png",0,0 C,0,255882,,67,101,237 M,1,255882,256382,503,323,455.4472,307.5492 F,0,256382,256882,1,0
Sprite,Foreground,Centre,"sb\particle.png",0,0 C,0,255882,,67,101,237 M,1,255882,256382,503,323,462.5491,293.6107 F,0,256382,256882,1,0
Sprite,Foreground,Centre,"sb\particle.png",0,0 C,0,255882,,67,101,237 M,1,255882,256382,503,323,473.6107,282.5491 F,0,256382,256882,1,0
Sprite,Foreground,Centre,"sb\particle.png",0,0 C,0,255882,,67,101,237 M,1,255882,256382,503,323,487.5492,275.4472 F,0,256382,256882,1,0
Sprite,Foreground,Centre,"sb\particle.png",0,0 C,0,255882,,67,101,237 M,1,255882,256382,503,323,503,273 F,0,256382,256882,1,0
Sprite,Foreground,Centre,"sb\particle.png",0,0 C,0,255882,,67,101,237 M,1,255882,256382,503,323,518.4509,275.4472 F,0,256382,256882,1,0
Sprite,Foreground,Centre,"sb\particle.png",0,0 C,0,255882,,67,101,237 M,1,255882,256382,503,323,532.3893,282.5491 F,0,256382,256882,1,0
Sprite,Foreground,Centre,"sb\particle.png",0,0 C,0,255882,,67,101,237 M,1,255882,256382,503,323,543.4509,293.6107 F,0,256382,256882,1,0
Sprite,Foreground,Centre,"sb\particle.png",0,0 C,0,255882,,67,101,237 M,1,255882,256382,503,323,550.5529,307.5492 F,0,256382,256882,1,0
Sprite,Foreground,Centre,"sb\particle.png",0,0 C,0,292352,,51,40,176 M,1,292352,292852,529,369,579,369 F,0,292852,293352,1,0
Sprite,Foreground,Centre,"sb\particle.png",0,0 C,0,292352,,51,40,176 M,1,292352,292852,529,369,576.5529,384.4508 F,0,292852,293352,1,0
Sprite,Foreground,Centre,"sb\particle.png",0,0 C,0,292352,,51,40,176 M,1,292352,292852,529,369,569.4509,398.3893 F,0,292852,293352,1,0
Sprite,Foreground,Centre,"sb\particle.png",0,0 C,0,292352,,51,40,176 M,1,292352,292852,529,369,558.3893,409.4509 F,0,292852,293352,1,0
Sprite,Foreground,Centre,"sb\particle.png",0,0 C,0,292352,,51,40,176 M,1,292352,292852,529,369,544.4509,416.5528 F,0,292852,293352,1,0
Sprite,Foreground,Centre,"sb\particle.png",0,0 C,0,292352,,51,40,176 M,1,292352,292852,529,369,529,419 F,0,292852,293352,1,0
Sprite,Foreground,Centre,"sb\particle.png",0,0 C,0,292352,,51,40,176 M,1,292352,292852,529,369,513.5491,416.5528 F,0,292852,293352,1,0
Sprite,Foreground,Centre,"sb\particle.png",0,0 C,0,292352,,51,40,176 M,1,292352,292852,529,369,499.6107,409.4509 F,0,292852,293352,1,0
Sprite,Foreground,Centre,"sb\particle.png",0,0 C,0,292352,,51,40,176 M,1,292352,292852,529,369,488.5491,398.3893 F,0,292852,293352,1,0
Sprite,Foreground,Centre,"sb\particle.png",0,0 C,0,292352,,51,40,176 M,1,292352,292852,529,369,481.4472,384.4508 F,0,292852,293352,1,0
Sprite,Foreground,Centre,"sb\particle.png",0,0 C,0,292352,,51,40,176 M,1,292352,292852,529,369,479,369 F,0,292852,293352,1,0
Sprite,Foreground,Centre,"sb\particle.png",0,0 C,0,292352,,51,40,176 M,1,292352,292852,529,369,481.4472,353.5492 F,0,292852,293352,1,0
Sprite,Foreground,Centre,"sb\particle.png",0,0 C,0,292352,,51,40,176 M,1,292352,292852,529,369,488.5491,339.6107 F,0,292852,293352,1,0
Sprite,Foreground,Centre,"sb\particle.png",0,0 C,0,292352,,51,40,176 M,1,292352,292852,529,369,499.6107,328.5491 F,0,292852,293352,1,0
Sprite,Foreground,Centre,"sb\particle.png",0,0 C,0,292352,,51,40,176 M,1,292352,292852,529,369,513.5491,321.4472 F,0,292852,293352,1,0
Sprite,Foreground,Centre,"sb\particle.png",0,0 C,0,292352,,51,40,176 M,1,292352,292852,529,369,529,319 F,0,292852,293352,1,0
Sprite,Foreground,Centre,"sb\particle.png",0,0 C,0,292352,,51,40,176 M,1,292352,292852,529,369,544.4509,321.4472 F,0,292852,293352,1,0
Sprite,Foreground,Centre,"sb\particle.png",0,0 C,0,292352,,51,40,176 M,1,292352,292852,529,369,558.3893,328.5491 F,0,292852,293352,1,0
Sprite,Foreground,Centre,"sb\particle.png",0,0 C,0,292352,,51,40,176 M,1,292352,292852,529,369,569.4509,339.6107 F,0,292852,293352,1,0
Sprite,Foreground,Centre,"sb\particle.png",0,0 C,0,292352,,51,40,176 M,1,292352,292852,529,369,576.5529,353.5492 F,0,292852,293352,1,0
Sprite,Foreground,Centre,"sb\particle.png",0,0 C,0,292534,,51,40,176 M,1,292534,293034,452,342,502,342 F,0,293034,293534,1,0
Sprite,Foreground,Centre,"sb\particle.png",0,0 C,0,292534,,51,40,176 M,1,292534,293034,452,342,499.5528,357.4508 F,0,293034,293534,1,0
Sprite,Foreground,Centre,"sb\particle.png",0,0 C,0,292534,,51,40,176 M,1,292534,293034,452,342,492.4509,371.3893 F,0,293034,293534,1,0
Sprite,Foreground,Centre,"sb\particle.png",0,0 C,0,292534,,51,40,176 M,1,292534,293034,452,342,481.3893,382.4509 F,0,293034,293534,1,0
Sprite,Foreground,Centre,"sb\particle.png",0,0 C,0,292534,,51,40,176 M,1,292534,293034,452,342,467.4508,389.5528 F,0,293034,293534,1,0
Sprite,Foreground,Centre,"sb\particle.png",0,0 C,0,292534,,51,40,176 M,1,292534,293034,452,342,452,392 F,0,293034,293534,1,0
Sprite,Foreground,Centre,"sb\particle.png",0,0 C,0,292534,,51,40,176 M,1,292534,293034,452,342,436.5492,389.5528 F,0,293034,293534,1,0
Sprite,Foreground,Centre,"sb\particle.png",0,0 C,0,292534,,51,40,176 M,1,292534,293034,452,342,422.6107,382.4509 F,0,293034,293534,1,0
Sprite,Foreground,Centre,"sb\particle.png",0,0 C,0,292534,,51,40,176 M,1,292534,293034,452,342,411.5491,371.3893 F,0,293034,293534,1,0
Sprite,Foreground,Centre,"sb\particle.png",0,0 C,0,292534,,51,40,176 M,1,292534,293034,452,342,404.4472,357.4508 F,0,293034,293534,1,0
Sprite,Foreground,Centre,"sb\particle.png",0,0 C,0,292534,,51,40,176 M,1,292534,293034,452,342,402,342 F,0,293034,293534,1,0
Sprite,Foreground,Centre,"sb\particle.png",0,0 C,0,292534,,51,40,176 M,1,292534,293034,452,342,404.4472,326.5492 F,0,293034,293534,1,0
Sprite,Foreground,Centre,"sb\particle.png",0,0 C,0,292534,,51,40,176 M,1,292534,293034,452,342,411.5491,312.6107 F,0,293034,293534,1,0
Sprite,Foreground,Centre,"sb\particle.png",0,0 C,0,292534,,51,40,176 M,1,292534,293034,452,342,422.6107,301.5491 F,0,293034,293534,1,0
Sprite,Foreground,Centre,"sb\particle.png",0,0 C,0,292534,,51,40,176 M,1,292534,293034,452,342,436.5492,294.4472 F,0,293034,293534,1,0
Sprite,Foreground,Centre,"sb\particle.png",0,0 C,0,292534,,51,40,176 M,1,292534,293034,452,342,452,292 F,0,293034,293534,1,0
Sprite,Foreground,Centre,"sb\particle.png",0,0 C,0,292534,,51,40,176 M,1,292534,293034,452,342,467.4508,294.4472 F,0,293034,293534,1,0
Sprite,Foreground,Centre,"sb\particle.png",0,0 C,0,292534,,51,40,176 M,1,292534,293034,452,342,481.3893,301.5491 F,0,293034,293534,1,0
Sprite,Foreground,Centre,"sb\particle.png",0,0 C,0,292534,,51,40,176 M,1,292534,293034,452,342,492.4509,312.6107 F,0,293034,293534,1,0
Sprite,Foreground,Centre,"sb\particle.png",0,0 C,0,292534,,51,40,176 M,1,292534,293034,452,342,499.5528,326.5492 F,0,293034,293534,1,0
Sprite,Foreground,Centre,"sb\particle.png",0,0 C,0,292717,,51,40,176 M,1,292717,293217,407,409,457,409 F,0,293217,293717,1,0
Sprite,Foreground,Centre,"sb\particle.png",0,0 C,0,292717,,51,40,176 M,1,292717,293217,407,409,454.5528,424.4508 F,0,293217,293717,1,0
Sprite,Foreground,Centre,"sb\particle.png",0,0 C,0,292717,,51,40,176 M,1,292717,293217,407,409,447.4509,438.3893 F,0,293217,293717,1,0
Sprite,Foreground,Centre,"sb\particle.png",0,0 C,0,292717,,51,40,176 M,1,292717,293217,407,409,436.3893,449.4509 F,0,293217,293717,1,0
Sprite,Foreground,Centre,"sb\particle.png",0,0 C,0,292717,,51,40,176 M,1,292717,293217,407,409,422.4508,456.5528 F,0,293217,293717,1,0
Sprite,Foreground,Centre,"sb\particle.png",0,0 C,0,292717,,51,40,176 M,1,292717,293217,407,409,407,459 F,0,293217,293717,1,0
Sprite,Foreground,Centre,"sb\particle.png",0,0 C,0,292717,,51,40,176 M,1,292717,293217,407,409,391.5492,456.5528 F,0,293217,293717,1,0
Sprite,Foreground,Centre,"sb\particle.png",0,0 C,0,292717,,51,40,176 M,1,292717,293217,407,409,377.6107,449.4509 F,0,293217,293717,1,0
Sprite,Foreground,Centre,"sb\particle.png",0,0 C,0,292717,,51,40,176 M,1,292717,293217,407,409,366.5491,438.3893 F,0,293217,293717,1,0
Sprite,Foreground,Centre,"sb\particle.png",0,0 C,0,292717,,51,40,176 M,1,292717,293217,407,409,359.4472,424.4508 F,0,293217,293717,1,0
Sprite,Foreground,Centre,"sb\particle.png",0,0 C,0,292717,,51,40,176 M,1,292717,293217,407,409,357,409 F,0,293217,293717,1,0
Sprite,Foreground,Centre,"sb\particle.png",0,0 C,0,292717,,51,40,176 M,1,292717,293217,407,409,359.4472,393.5492 F,0,293217,293717,1,0
Sprite,Foreground,Centre,"sb\particle.png",0,0 C,0,292717,,51,40,176 M,1,292717,293217,407,409,366.5491,379.6107 F,0,293217,293717,1,0
Sprite,Foreground,Centre,"sb\particle.png",0,0 C,0,292717,,51,40,176 M,1,292717,293217,407,409,377.6107,368.5491 F,0,293217,293717,1,0
Sprite,Foreground,Centre,"sb\particle.png",0,0 C,0,292717,,51,40,176 M,1,292717,293217,407,409,391.5492,361.4472 F,0,293217,293717,1,0
Sprite,Foreground,Centre,"sb\particle.png",0,0 C,0,292717,,51,40,176 M,1,292717,293217,407,409,407,359 F,0,293217,293717,1,0
Sprite,Foreground,Centre,"sb\particle.png",0,0 C,0,292717,,51,40,176 M,1,292717,293217,407,409,422.4508,361.4472 F,0,293217,293717,1,0
Sprite,Foreground,Centre,"sb\particle.png",0,0 C,0,292717,,51,40,176 M,1,292717,293217,407,409,436.3893,368.5491 F,0,293217,293717,1,0
Sprite,Foreground,Centre,"sb\particle.png",0,0 C,0,292717,,51,40,176 M,1,292717,293217,407,409,447.4509,379.6107 F,0,293217,293717,1,0
Sprite,Foreground,Centre,"sb\particle.png",0,0 C,0,292717,,51,40,176 M,1,292717,293217,407,409,454.5528,393.5492 F,0,293217,293717,1,0
Sprite,Foreground,Centre,"sb\particle.png",0,0 C,0,293083,,255,134,252 M,1,293083,293583,279,309,329,309 F,0,293583,294083,1,0
Sprite,Foreground,Centre,"sb\particle.png",0,0 C,0,293083,,255,134,252 M,1,293083,293583,279,309,326.5528,324.4508 F,0,293583,294083,1,0
Sprite,Foreground,Centre,"sb\particle.png",0,0 C,0,293083,,255,134,252 M,1,293083,293583,279,309,319.4509,338.3893 F,0,293583,294083,1,0
Sprite,Foreground,Centre,"sb\particle.png",0,0 C,0,293083,,255,134,252 M,1,293083,293583,279,309,308.3893,349.4509 F,0,293583,294083,1,0
Sprite,Foreground,Centre,"sb\particle.png",0,0 C,0,293083,,255,134,252 M,1,293083,293583,279,309,294.4508,356.5528 F,0,293583,294083,1,0
Sprite,Foreground,Centre,"sb\particle.png",0,0 C,0,293083,,255,134,252 M,1,293083,293583,279,309,279,359 F,0,293583,294083,1,0
Sprite,Foreground,Centre,"sb\particle.png",0,0 C,0,293083,,255,134,252 M,1,293083,293583,279,309,263.5492,356.5528 F,0,293583,294083,1,0
Sprite,Foreground,Centre,"sb\particle.png",0,0 C,0,293083,,255,134,252 M,1,293083,293583,279,309,249.6107,349.4509 F,0,293583,294083,1,0
Sprite,Foreground,Centre,"sb\particle.png",0,0 C,0,293083,,255,134,252 M,1,293083,293583,279,309,238.5491,338.3893 F,0,293583,294083,1,0
Sprite,Foreground,Centre,"sb\particle.png",0,0 C,0,293083,,255,134,252 M,1,293083,293583,279,309,231.4472,324.4508 F,0,293583,294083,1,0
Sprite,Foreground,Centre,"sb\particle.png",0,0 C,0,293083,,255,134,252 M,1,293083,293583,279,309,229,309 F,0,293583,294083,1,0
Sprite,Foreground,Centre,"sb\particle.png",0,0 C,0,293083,,255,134,252 M,1,293083,293583,279,309,231.4472,293.5492 F,0,293583,294083,1,0
Sprite,Foreground,Centre,"sb\particle.png",0,0 C,0,293083,,255,134,252 M,1,293083,293583,279,309,238.5491,279.6107 F,0,293583,294083,1,0
Sprite,Foreground,Centre,"sb\particle.png",0,0 C,0,293083,,255,134,252 M,1,293083,293583,279,309,249.6107,268.5491 F,0,293583,294083,1,0
Sprite,Foreground,Centre,"sb\particle.png",0,0 C,0,293083,,255,134,252 M,1,293083,293583,279,309,263.5492,261.4472 F,0,293583,294083,1,0
Sprite,Foreground,Centre,"sb\particle.png",0,0 C,0,293083,,255,134,252 M,1,293083,293583,279,309,279,259 F,0,293583,294083,1,0
Sprite,Foreground,Centre,"sb\particle.png",0,0 C,0,293083,,255,134,252 M,1,293083,293583,279,309,294.4508,261.4472 F,0,293583,294083,1,0
Sprite,Foreground,Centre,"sb\particle.png",0,0 C,0,293083,,255,134,252 M,1,293083,293583,279,309,308.3893,268.5491 F,0,293583,294083,1,0
Sprite,Foreground,Centre,"sb\particle.png",0,0 C,0,293083,,255,134,252 M,1,293083,293583,279,309,319.4509,279.6107 F,0,293583,294083,1,0
Sprite,Foreground,Centre,"sb\particle.png",0,0 C,0,293083,,255,134,252 M,1,293083,293583,279,309,326.5528,293.5492 F,0,293583,294083,1,0
Sprite,Foreground,Centre,"sb\particle.png",0,0 C,0,293453,,255,134,252 M,1,293453,293953,126,364,176,364 F,0,293953,294453,1,0
Sprite,Foreground,Centre,"sb\particle.png",0,0 C,0,293453,,255,134,252 M,1,293453,293953,126,364,173.5528,379.4508 F,0,293953,294453,1,0
Sprite,Foreground,Centre,"sb\particle.png",0,0 C,0,293453,,255,134,252 M,1,293453,293953,126,364,166.4509,393.3893 F,0,293953,294453,1,0
Sprite,Foreground,Centre,"sb\particle.png",0,0 C,0,293453,,255,134,252 M,1,293453,293953,126,364,155.3893,404.4509 F,0,293953,294453,1,0
Sprite,Foreground,Centre,"sb\particle.png",0,0 C,0,293453,,255,134,252 M,1,293453,293953,126,364,141.4509,411.5528 F,0,293953,294453,1,0
Sprite,Foreground,Centre,"sb\particle.png",0,0 C,0,293453,,255,134,252 M,1,293453,293953,126,364,126,414 F,0,293953,294453,1,0
Sprite,Foreground,Centre,"sb\particle.png",0,0 C,0,293453,,255,134,252 M,1,293453,293953,126,364,110.5491,411.5528 F,0,293953,294453,1,0
Sprite,Foreground,Centre,"sb\particle.png",0,0 C,0,293453,,255,134,252 M,1,293453,293953,126,364,96.61073,404.4509 F,0,293953,294453,1,0
Sprite,Foreground,Centre,"sb\particle.png",0,0 C,0,293453,,255,134,252 M,1,293453,293953,126,364,85.54915,393.3893 F,0,293953,294453,1,0
Sprite,Foreground,Centre,"sb\particle.png",0,0 C,0,293453,,255,134,252 M,1,293453,293953,126,364,78.44717,379.4508 F,0,293953,294453,1,0
Sprite,Foreground,Centre,"sb\particle.png",0,0 C,0,293453,,255,134,252 M,1,293453,293953,126,364,76,364 F,0,293953,294453,1,0
Sprite,Foreground,Centre,"sb\particle.png",0,0 C,0,293453,,255,134,252 M,1,293453,293953,126,364,78.44717,348.5492 F,0,293953,294453,1,0
Sprite,Foreground,Centre,"sb\particle.png",0,0 C,0,293453,,255,134,252 M,1,293453,293953,126,364,85.54915,334.6107 F,0,293953,294453,1,0
Sprite,Foreground,Centre,"sb\particle.png",0,0 C,0,293453,,255,134,252 M,1,293453,293953,126,364,96.61073,323.5491 F,0,293953,294453,1,0
Sprite,Foreground,Centre,"sb\particle.png",0,0 C,0,293453,,255,134,252 M,1,293453,293953,126,364,110.5491,316.4472 F,0,293953,294453,1,0
Sprite,Foreground,Centre,"sb\particle.png",0,0 C,0,293453,,255,134,252 M,1,293453,293953,126,364,126,314 F,0,293953,294453,1,0
Sprite,Foreground,Centre,"sb\particle.png",0,0 C,0,293453,,255,134,252 M,1,293453,293953,126,364,141.4509,316.4472 F,0,293953,294453,1,0
Sprite,Foreground,Centre,"sb\particle.png",0,0 C,0,293453,,255,134,252 M,1,293453,293953,126,364,155.3893,323.5491 F,0,293953,294453,1,0
Sprite,Foreground,Centre,"sb\particle.png",0,0 C,0,293453,,255,134,252 M,1,293453,293953,126,364,166.4509,334.6107 F,0,293953,294453,1,0
Sprite,Foreground,Centre,"sb\particle.png",0,0 C,0,293453,,255,134,252 M,1,293453,293953,126,364,173.5528,348.5492 F,0,293953,294453,1,0
Sprite,Foreground,Centre,"sb\particle.png",0,0 C,0,293823,,255,134,252 M,1,293823,294323,156,204,206,204 F,0,294323,294823,1,0
Sprite,Foreground,Centre,"sb\particle.png",0,0 C,0,293823,,255,134,252 M,1,293823,294323,156,204,203.5528,219.4509 F,0,294323,294823,1,0
Sprite,Foreground,Centre,"sb\particle.png",0,0 C,0,293823,,255,134,252 M,1,293823,294323,156,204,196.4509,233.3893 F,0,294323,294823,1,0
Sprite,Foreground,Centre,"sb\particle.png",0,0 C,0,293823,,255,134,252 M,1,293823,294323,156,204,185.3893,244.4509 F,0,294323,294823,1,0
Sprite,Foreground,Centre,"sb\particle.png",0,0 C,0,293823,,255,134,252 M,1,293823,294323,156,204,171.4509,251.5528 F,0,294323,294823,1,0
Sprite,Foreground,Centre,"sb\particle.png",0,0 C,0,293823,,255,134,252 M,1,293823,294323,156,204,156,254 F,0,294323,294823,1,0
Sprite,Foreground,Centre,"sb\particle.png",0,0 C,0,293823,,255,134,252 M,1,293823,294323,156,204,140.5491,251.5528 F,0,294323,294823,1,0
Sprite,Foreground,Centre,"sb\particle.png",0,0 C,0,293823,,255,134,252 M,1,293823,294323,156,204,126.6107,244.4509 F,0,294323,294823,1,0
Sprite,Foreground,Centre,"sb\particle.png",0,0 C,0,293823,,255,134,252 M,1,293823,294323,156,204,115.5491,233.3893 F,0,294323,294823,1,0
Sprite,Foreground,Centre,"sb\particle.png",0,0 C,0,293823,,255,134,252 M,1,293823,294323,156,204,108.4472,219.4509 F,0,294323,294823,1,0
Sprite,Foreground,Centre,"sb\particle.png",0,0 C,0,293823,,255,134,252 M,1,293823,294323,156,204,106,204 F,0,294323,294823,1,0
Sprite,Foreground,Centre,"sb\particle.png",0,0 C,0,293823,,255,134,252 M,1,293823,294323,156,204,108.4472,188.5491 F,0,294323,294823,1,0
Sprite,Foreground,Centre,"sb\particle.png",0,0 C,0,293823,,255,134,252 M,1,293823,294323,156,204,115.5491,174.6107 F,0,294323,294823,1,0
Sprite,Foreground,Centre,"sb\particle.png",0,0 C,0,293823,,255,134,252 M,1,293823,294323,156,204,126.6107,163.5491 F,0,294323,294823,1,0
Sprite,Foreground,Centre,"sb\particle.png",0,0 C,0,293823,,255,134,252 M,1,293823,294323,156,204,140.5491,156.4472 F,0,294323,294823,1,0
Sprite,Foreground,Centre,"sb\particle.png",0,0 C,0,293823,,255,134,252 M,1,293823,294323,156,204,156,154 F,0,294323,294823,1,0
Sprite,Foreground,Centre,"sb\particle.png",0,0 C,0,293823,,255,134,252 M,1,293823,294323,156,204,171.4509,156.4472 F,0,294323,294823,1,0
Sprite,Foreground,Centre,"sb\particle.png",0,0 C,0,293823,,255,134,252 M,1,293823,294323,156,204,185.3893,163.5491 F,0,294323,294823,1,0
Sprite,Foreground,Centre,"sb\particle.png",0,0 C,0,293823,,255,134,252 M,1,293823,294323,156,204,196.4509,174.6107 F,0,294323,294823,1,0
Sprite,Foreground,Centre,"sb\particle.png",0,0 C,0,293823,,255,134,252 M,1,293823,294323,156,204,203.5528,188.5491 F,0,294323,294823,1,0
Sprite,Foreground,Centre,"sb\particle.png",0,0 C,0,294015,,255,134,252 M,1,294015,294515,216,257,266,257 F,0,294515,295015,1,0
Sprite,Foreground,Centre,"sb\particle.png",0,0 C,0,294015,,255,134,252 M,1,294015,294515,216,257,263.5528,272.4508 F,0,294515,295015,1,0
Sprite,Foreground,Centre,"sb\particle.png",0,0 C,0,294015,,255,134,252 M,1,294015,294515,216,257,256.4509,286.3893 F,0,294515,295015,1,0
Sprite,Foreground,Centre,"sb\particle.png",0,0 C,0,294015,,255,134,252 M,1,294015,294515,216,257,245.3893,297.4509 F,0,294515,295015,1,0
Sprite,Foreground,Centre,"sb\particle.png",0,0 C,0,294015,,255,134,252 M,1,294015,294515,216,257,231.4509,304.5528 F,0,294515,295015,1,0
Sprite,Foreground,Centre,"sb\particle.png",0,0 C,0,294015,,255,134,252 M,1,294015,294515,216,257,216,307 F,0,294515,295015,1,0
Sprite,Foreground,Centre,"sb\particle.png",0,0 C,0,294015,,255,134,252 M,1,294015,294515,216,257,200.5491,304.5528 F,0,294515,295015,1,0
Sprite,Foreground,Centre,"sb\particle.png",0,0 C,0,294015,,255,134,252 M,1,294015,294515,216,257,186.6107,297.4509 F,0,294515,295015,1,0
Sprite,Foreground,Centre,"sb\particle.png",0,0 C,0,294015,,255,134,252 M,1,294015,294515,216,257,175.5491,286.3893 F,0,294515,295015,1,0
Sprite,Foreground,Centre,"sb\particle.png",0,0 C,0,294015,,255,134,252 M,1,294015,294515,216,257,168.4472,272.4508 F,0,294515,295015,1,0
Sprite,Foreground,Centre,"sb\particle.png",0,0 C,0,294015,,255,134,252 M,1,294015,294515,216,257,166,257 F,0,294515,295015,1,0
Sprite,Foreground,Centre,"sb\particle.png",0,0 C,0,294015,,255,134,252 M,1,294015,294515,216,257,168.4472,241.5491 F,0,294515,295015,1,0
Sprite,Foreground,Centre,"sb\particle.png",0,0 C,0,294015,,255,134,252 M,1,294015,294515,216,257,175.5491,227.6107 F,0,294515,295015,1,0
Sprite,Foreground,Centre,"sb\particle.png",0,0 C,0,294015,,255,134,252 M,1,294015,294515,216,257,186.6107,216.5491 F,0,294515,295015,1,0
Sprite,Foreground,Centre,"sb\particle.png",0,0 C,0,294015,,255,134,252 M,1,294015,294515,216,257,200.5491,209.4472 F,0,294515,295015,1,0
Sprite,Foreground,Centre,"sb\particle.png",0,0 C,0,294015,,255,134,252 M,1,294015,294515,216,257,216,207 F,0,294515,295015,1,0
Sprite,Foreground,Centre,"sb\particle.png",0,0 C,0,294015,,255,134,252 M,1,294015,294515,216,257,231.4509,209.4472 F,0,294515,295015,1,0
Sprite,Foreground,Centre,"sb\particle.png",0,0 C,0,294015,,255,134,252 M,1,294015,294515,216,257,245.3893,216.5491 F,0,294515,295015,1,0
Sprite,Foreground,Centre,"sb\particle.png",0,0 C,0,294015,,255,134,252 M,1,294015,294515,216,257,256.4509,227.6107 F,0,294515,295015,1,0
Sprite,Foreground,Centre,"sb\particle.png",0,0 C,0,294015,,255,134,252 M,1,294015,294515,216,257,263.5528,241.5491 F,0,294515,295015,1,0
Sprite,Foreground,Centre,"sb\particle.png",0,0 C,0,294207,,255,134,252 M,1,294207,294707,292,229,342,229 F,0,294707,295207,1,0
Sprite,Foreground,Centre,"sb\particle.png",0,0 C,0,294207,,255,134,252 M,1,294207,294707,292,229,339.5528,244.4509 F,0,294707,295207,1,0
Sprite,Foreground,Centre,"sb\particle.png",0,0 C,0,294207,,255,134,252 M,1,294207,294707,292,229,332.4509,258.3893 F,0,294707,295207,1,0
Sprite,Foreground,Centre,"sb\particle.png",0,0 C,0,294207,,255,134,252 M,1,294207,294707,292,229,321.3893,269.4509 F,0,294707,295207,1,0
Sprite,Foreground,Centre,"sb\particle.png",0,0 C,0,294207,,255,134,252 M,1,294207,294707,292,229,307.4508,276.5528 F,0,294707,295207,1,0
Sprite,Foreground,Centre,"sb\particle.png",0,0 C,0,294207,,255,134,252 M,1,294207,294707,292,229,292,279 F,0,294707,295207,1,0
Sprite,Foreground,Centre,"sb\particle.png",0,0 C,0,294207,,255,134,252 M,1,294207,294707,292,229,276.5492,276.5528 F,0,294707,295207,1,0
Sprite,Foreground,Centre,"sb\particle.png",0,0 C,0,294207,,255,134,252 M,1,294207,294707,292,229,262.6107,269.4509 F,0,294707,295207,1,0
Sprite,Foreground,Centre,"sb\particle.png",0,0 C,0,294207,,255,134,252 M,1,294207,294707,292,229,251.5491,258.3893 F,0,294707,295207,1,0
Sprite,Foreground,Centre,"sb\particle.png",0,0 C,0,294207,,255,134,252 M,1,294207,294707,292,229,244.4472,244.4509 F,0,294707,295207,1,0
Sprite,Foreground,Centre,"sb\particle.png",0,0 C,0,294207,,255,134,252 M,1,294207,294707,292,229,242,229 F,0,294707,295207,1,0
Sprite,Foreground,Centre,"sb\particle.png",0,0 C,0,294207,,255,134,252 M,1,294207,294707,292,229,244.4472,213.5491 F,0,294707,295207,1,0
Sprite,Foreground,Centre,"sb\particle.png",0,0 C,0,294207,,255,134,252 M,1,294207,294707,292,229,251.5491,199.6107 F,0,294707,295207,1,0
Sprite,Foreground,Centre,"sb\particle.png",0,0 C,0,294207,,255,134,252 M,1,294207,294707,292,229,262.6107,188.5491 F,0,294707,295207,1,0
Sprite,Foreground,Centre,"sb\particle.png",0,0 C,0,294207,,255,134,252 M,1,294207,294707,292,229,276.5492,181.4472 F,0,294707,295207,1,0
Sprite,Foreground,Centre,"sb\particle.png",0,0 C,0,294207,,255,134,252 M,1,294207,294707,292,229,292,179 F,0,294707,295207,1,0
Sprite,Foreground,Centre,"sb\particle.png",0,0 C,0,294207,,255,134,252 M,1,294207,294707,292,229,307.4508,181.4472 F,0,294707,295207,1,0
Sprite,Foreground,Centre,"sb\particle.png",0,0 C,0,294207,,255,134,252 M,1,294207,294707,292,229,321.3893,188.5491 F,0,294707,295207,1,0
Sprite,Foreground,Centre,"sb\particle.png",0,0 C,0,294207,,255,134,252 M,1,294207,294707,292,229,332.4509,199.6107 F,0,294707,295207,1,0
Sprite,Foreground,Centre,"sb\particle.png",0,0 C,0,294207,,255,134,252 M,1,294207,294707,292,229,339.5528,213.5491 F,0,294707,295207,1,0
Sprite,Foreground,Centre,"sb\particle.png",0,0 C,0,294564,,67,101,237 M,1,294564,295064,363,159,413,159 F,0,295064,295564,1,0
Sprite,Foreground,Centre,"sb\particle.png",0,0 C,0,294564,,67,101,237 M,1,294564,295064,363,159,410.5528,174.4509 F,0,295064,295564,1,0
Sprite,Foreground,Centre,"sb\particle.png",0,0 C,0,294564,,67,101,237 M,1,294564,295064,363,159,403.4509,188.3893 F,0,295064,295564,1,0
Sprite,Foreground,Centre,"sb\particle.png",0,0 C,0,294564,,67,101,237 M,1,294564,295064,363,159,392.3893,199.4509 F,0,295064,295564,1,0
Sprite,Foreground,Centre,"sb\particle.png",0,0 C,0,294564,,67,101,237 M,1,294564,295064,363,159,378.4508,206.5528 F,0,295064,295564,1,0
Sprite,Foreground,Centre,"sb\particle.png",0,0 C,0,294564,,67,101,237 M,1,294564,295064,363,159,363,209 F,0,295064,295564,1,0
Sprite,Foreground,Centre,"sb\particle.png",0,0 C,0,294564,,67,101,237 M,1,294564,295064,363,159,347.5492,206.5528 F,0,295064,295564,1,0
Sprite,Foreground,Centre,"sb\particle.png",0,0 C,0,294564,,67,101,237 M,1,294564,295064,363,159,333.6107,199.4509 F,0,295064,295564,1,0
Sprite,Foreground,Centre,"sb\particle.png",0,0 C,0,294564,,67,101,237 M,1,294564,295064,363,159,322.5491,188.3893 F,0,295064,295564,1,0
Sprite,Foreground,Centre,"sb\particle.png",0,0 C,0,294564,,67,101,237 M,1,294564,295064,363,159,315.4472,174.4509 F,0,295064,295564,1,0
Sprite,Foreground,Centre,"sb\particle.png",0,0 C,0,294564,,67,101,237 M,1,294564,295064,363,159,313,159 F,0,295064,295564,1,0
Sprite,Foreground,Centre,"sb\particle.png",0,0 C,0,294564,,67,101,237 M,1,294564,295064,363,159,315.4472,143.5491 F,0,295064,295564,1,0
Sprite,Foreground,Centre,"sb\particle.png",0,0 C,0,294564,,67,101,237 M,1,294564,295064,363,159,322.5491,129.6107 F,0,295064,295564,1,0
Sprite,Foreground,Centre,"sb\particle.png",0,0 C,0,294564,,67,101,237 M,1,294564,295064,363,159,333.6107,118.5491 F,0,295064,295564,1,0
Sprite,Foreground,Centre,"sb\particle.png",0,0 C,0,294564,,67,101,237 M,1,294564,295064,363,159,347.5492,111.4472 F,0,295064,295564,1,0
Sprite,Foreground,Centre,"sb\particle.png",0,0 C,0,294564,,67,101,237 M,1,294564,295064,363,159,363,109 F,0,295064,295564,1,0
Sprite,Foreground,Centre,"sb\particle.png",0,0 C,0,294564,,67,101,237 M,1,294564,295064,363,159,378.4508,111.4472 F,0,295064,295564,1,0
Sprite,Foreground,Centre,"sb\particle.png",0,0 C,0,294564,,67,101,237 M,1,294564,295064,363,159,392.3893,118.5491 F,0,295064,295564,1,0
Sprite,Foreground,Centre,"sb\particle.png",0,0 C,0,294564,,67,101,237 M,1,294564,295064,363,159,403.4509,129.6107 F,0,295064,295564,1,0
Sprite,Foreground,Centre,"sb\particle.png",0,0 C,0,294564,,67,101,237 M,1,294564,295064,363,159,410.5528,143.5491 F,0,295064,295564,1,0
Sprite,Foreground,Centre,"sb\particle.png",0,0 C,0,294781,,255,2,129 M,1,294781,295281,466,135,516,135 F,0,295281,295781,1,0
Sprite,Foreground,Centre,"sb\particle.png",0,0 C,0,294781,,255,2,129 M,1,294781,295281,466,135,513.5529,150.4509 F,0,295281,295781,1,0
Sprite,Foreground,Centre,"sb\particle.png",0,0 C,0,294781,,255,2,129 M,1,294781,295281,466,135,506.4509,164.3893 F,0,295281,295781,1,0
Sprite,Foreground,Centre,"sb\particle.png",0,0 C,0,294781,,255,2,129 M,1,294781,295281,466,135,495.3893,175.4509 F,0,295281,295781,1,0
Sprite,Foreground,Centre,"sb\particle.png",0,0 C,0,294781,,255,2,129 M,1,294781,295281,466,135,481.4508,182.5528 F,0,295281,295781,1,0
Sprite,Foreground,Centre,"sb\particle.png",0,0 C,0,294781,,255,2,129 M,1,294781,295281,466,135,466,185 F,0,295281,295781,1,0
Sprite,Foreground,Centre,"sb\particle.png",0,0 C,0,294781,,255,2,129 M,1,294781,295281,466,135,450.5492,182.5528 F,0,295281,295781,1,0
Sprite,Foreground,Centre,"sb\particle.png",0,0 C,0,294781,,255,2,129 M,1,294781,295281,466,135,436.6107,175.4509 F,0,295281,295781,1,0
Sprite,Foreground,Centre,"sb\particle.png",0,0 C,0,294781,,255,2,129 M,1,294781,295281,466,135,425.5491,164.3893 F,0,295281,295781,1,0
Sprite,Foreground,Centre,"sb\particle.png",0,0 C,0,294781,,255,2,129 M,1,294781,295281,466,135,418.4472,150.4509 F,0,295281,295781,1,0
Sprite,Foreground,Centre,"sb\particle.png",0,0 C,0,294781,,255,2,129 M,1,294781,295281,466,135,416,135 F,0,295281,295781,1,0
Sprite,Foreground,Centre,"sb\particle.png",0,0 C,0,294781,,255,2,129 M,1,294781,295281,466,135,418.4472,119.5491 F,0,295281,295781,1,0
Sprite,Foreground,Centre,"sb\particle.png",0,0 C,0,294781,,255,2,129 M,1,294781,295281,466,135,425.5491,105.6107 F,0,295281,295781,1,0
Sprite,Foreground,Centre,"sb\particle.png",0,0 C,0,294781,,255,2,129 M,1,294781,295281,466,135,436.6107,94.54915 F,0,295281,295781,1,0
Sprite,Foreground,Centre,"sb\particle.png",0,0 C,0,294781,,255,2,129 M,1,294781,295281,466,135,450.5492,87.44717 F,0,295281,295781,1,0
Sprite,Foreground,Centre,"sb\particle.png",0,0 C,0,294781,,255,2,129 M,1,294781,295281,466,135,466,85 F,0,295281,295781,1,0
Sprite,Foreground,Centre,"sb\particle.png",0,0 C,0,294781,,255,2,129 M,1,294781,295281,466,135,481.4508,87.44717 F,0,295281,295781,1,0
Sprite,Foreground,Centre,"sb\particle.png",0,0 C,0,294781,,255,2,129 M,1,294781,295281,466,135,495.3893,94.54915 F,0,295281,295781,1,0
Sprite,Foreground,Centre,"sb\particle.png",0,0 C,0,294781,,255,2,129 M,1,294781,295281,466,135,506.4509,105.6107 F,0,295281,295781,1,0
Sprite,Foreground,Centre,"sb\particle.png",0,0 C,0,294781,,255,2,129 M,1,294781,295281,466,135,513.5529,119.5491 F,0,295281,295781,1,0
Sprite,Foreground,Centre,"sb\particle.png",0,0 C,0,294937,,51,40,176 M,1,294937,295437,436,228,486,228 F,0,295437,295937,1,0
Sprite,Foreground,Centre,"sb\particle.png",0,0 C,0,294937,,51,40,176 M,1,294937,295437,436,228,483.5528,243.4509 F,0,295437,295937,1,0
Sprite,Foreground,Centre,"sb\particle.png",0,0 C,0,294937,,51,40,176 M,1,294937,295437,436,228,476.4509,257.3893 F,0,295437,295937,1,0
Sprite,Foreground,Centre,"sb\particle.png",0,0 C,0,294937,,51,40,176 M,1,294937,295437,436,228,465.3893,268.4509 F,0,295437,295937,1,0
Sprite,Foreground,Centre,"sb\particle.png",0,0 C,0,294937,,51,40,176 M,1,294937,295437,436,228,451.4508,275.5528 F,0,295437,295937,1,0
Sprite,Foreground,Centre,"sb\particle.png",0,0 C,0,294937,,51,40,176 M,1,294937,295437,436,228,436,278 F,0,295437,295937,1,0
Sprite,Foreground,Centre,"sb\particle.png",0,0 C,0,294937,,51,40,176 M,1,294937,295437,436,228,420.5492,275.5528 F,0,295437,295937,1,0
Sprite,Foreground,Centre,"sb\particle.png",0,0 C,0,294937,,51,40,176 M,1,294937,295437,436,228,406.6107,268.4509 F,0,295437,295937,1,0
Sprite,Foreground,Centre,"sb\particle.png",0,0 C,0,294937,,51,40,176 M,1,294937,295437,436,228,395.5491,257.3893 F,0,295437,295937,1,0
Sprite,Foreground,Centre,"sb\particle.png",0,0 C,0,294937,,51,40,176 M,1,294937,295437,436,228,388.4472,243.4509 F,0,295437,295937,1,0
Sprite,Foreground,Centre,"sb\particle.png",0,0 C,0,294937,,51,40,176 M,1,294937,295437,436,228,386,228 F,0,295437,295937,1,0
Sprite,Foreground,Centre,"sb\particle.png",0,0 C,0,294937,,51,40,176 M,1,294937,295437,436,228,388.4472,212.5491 F,0,295437,295937,1,0
Sprite,Foreground,Centre,"sb\particle.png",0,0 C,0,294937,,51,40,176 M,1,294937,295437,436,228,395.5491,198.6107 F,0,295437,295937,1,0
Sprite,Foreground,Centre,"sb\particle.png",0,0 C,0,294937,,51,40,176 M,1,294937,295437,436,228,406.6107,187.5491 F,0,295437,295937,1,0
Sprite,Foreground,Centre,"sb\particle.png",0,0 C,0,294937,,51,40,176 M,1,294937,295437,436,228,420.5492,180.4472 F,0,295437,295937,1,0
Sprite,Foreground,Centre,"sb\particle.png",0,0 C,0,294937,,51,40,176 M,1,294937,295437,436,228,436,178 F,0,295437,295937,1,0
Sprite,Foreground,Centre,"sb\particle.png",0,0 C,0,294937,,51,40,176 M,1,294937,295437,436,228,451.4508,180.4472 F,0,295437,295937,1,0
Sprite,Foreground,Centre,"sb\particle.png",0,0 C,0,294937,,51,40,176 M,1,294937,295437,436,228,465.3893,187.5491 F,0,295437,295937,1,0
Sprite,Foreground,Centre,"sb\particle.png",0,0 C,0,294937,,51,40,176 M,1,294937,295437,436,228,476.4509,198.6107 F,0,295437,295937,1,0
Sprite,Foreground,Centre,"sb\particle.png",0,0 C,0,294937,,51,40,176 M,1,294937,295437,436,228,483.5528,212.5491 F,0,295437,295937,1,0
Sprite,Foreground,Centre,"sb\particle.png",0,0 C,0,295119,,255,134,252 M,1,295119,295619,395,73,445,73 F,0,295619,296119,1,0
Sprite,Foreground,Centre,"sb\particle.png",0,0 C,0,295119,,255,134,252 M,1,295119,295619,395,73,442.5528,88.45085 F,0,295619,296119,1,0
Sprite,Foreground,Centre,"sb\particle.png",0,0 C,0,295119,,255,134,252 M,1,295119,295619,395,73,435.4509,102.3893 F,0,295619,296119,1,0
Sprite,Foreground,Centre,"sb\particle.png",0,0 C,0,295119,,255,134,252 M,1,295119,295619,395,73,424.3893,113.4509 F,0,295619,296119,1,0
Sprite,Foreground,Centre,"sb\particle.png",0,0 C,0,295119,,255,134,252 M,1,295119,295619,395,73,410.4508,120.5528 F,0,295619,296119,1,0
Sprite,Foreground,Centre,"sb\particle.png",0,0 C,0,295119,,255,134,252 M,1,295119,295619,395,73,395,123 F,0,295619,296119,1,0
Sprite,Foreground,Centre,"sb\particle.png",0,0 C,0,295119,,255,134,252 M,1,295119,295619,395,73,379.5492,120.5528 F,0,295619,296119,1,0
Sprite,Foreground,Centre,"sb\particle.png",0,0 C,0,295119,,255,134,252 M,1,295119,295619,395,73,365.6107,113.4509 F,0,295619,296119,1,0
Sprite,Foreground,Centre,"sb\particle.png",0,0 C,0,295119,,255,134,252 M,1,295119,295619,395,73,354.5491,102.3893 F,0,295619,296119,1,0
Sprite,Foreground,Centre,"sb\particle.png",0,0 C,0,295119,,255,134,252 M,1,295119,295619,395,73,347.4472,88.45085 F,0,295619,296119,1,0
Sprite,Foreground,Centre,"sb\particle.png",0,0 C,0,295119,,255,134,252 M,1,295119,295619,395,73,345,73 F,0,295619,296119,1,0
Sprite,Foreground,Centre,"sb\particle.png",0,0 C,0,295119,,255,134,252 M,1,295119,295619,395,73,347.4472,57.54915 F,0,295619,296119,1,0
Sprite,Foreground,Centre,"sb\particle.png",0,0 C,0,295119,,255,134,252 M,1,295119,295619,395,73,354.5491,43.61074 F,0,295619,296119,1,0
Sprite,Foreground,Centre,"sb\particle.png",0,0 C,0,295119,,255,134,252 M,1,295119,295619,395,73,365.6107,32.54915 F,0,295619,296119,1,0
Sprite,Foreground,Centre,"sb\particle.png",0,0 C,0,295119,,255,134,252 M,1,295119,295619,395,73,379.5492,25.44717 F,0,295619,296119,1,0
Sprite,Foreground,Centre,"sb\particle.png",0,0 C,0,295119,,255,134,252 M,1,295119,295619,395,73,395,23 F,0,295619,296119,1,0
Sprite,Foreground,Centre,"sb\particle.png",0,0 C,0,295119,,255,134,252 M,1,295119,295619,395,73,410.4508,25.44717 F,0,295619,296119,1,0
Sprite,Foreground,Centre,"sb\particle.png",0,0 C,0,295119,,255,134,252 M,1,295119,295619,395,73,424.3893,32.54915 F,0,295619,296119,1,0
Sprite,Foreground,Centre,"sb\particle.png",0,0 C,0,295119,,255,134,252 M,1,295119,295619,395,73,435.4509,43.61074 F,0,295619,296119,1,0
Sprite,Foreground,Centre,"sb\particle.png",0,0 C,0,295119,,255,134,252 M,1,295119,295619,395,73,442.5528,57.54915 F,0,295619,296119,1,0
//Storyboard Layer 4 (Overlay)
//Storyboard Sound Samples

[TimingPoints]
493,370.37037037037,4,2,2,80,1,0
2715,-100,4,2,3,60,0,0
2738,-100,4,2,2,60,0,0
5678,-1000,4,2,2,20,0,0
6326,-1000,4,2,2,5,0,0
6418,-100,4,2,2,70,0,0
30122,-100,4,2,2,50,0,0
30492,-133.333333333333,4,2,2,60,0,0
30863,-133.333333333333,4,2,2,60,0,0
32344,-111.111111111111,4,2,2,60,0,0
32715,-200,4,2,2,60,0,0
33826,-133.333333333333,4,2,2,60,0,0
36048,-200,4,2,2,60,0,0
36789,-133.333333333333,4,2,2,60,0,0
39011,-200,4,2,2,60,0,0
39752,-133.333333333333,4,2,2,60,0,0
41418,-100,4,2,2,60,0,0
43270,-133.333333333333,4,2,2,60,0,0
45307,-100,4,2,2,60,0,0
48270,-133.333333333333,4,2,2,60,0,0
49381,-100,4,2,2,60,0,0
51233,-133.333333333333,4,2,2,60,0,0
51974,-133.333333333333,4,2,2,60,0,0
53085,-100,4,2,2,60,0,0
53826,-83.3333333333333,4,2,2,70,0,0
64937,-133.333333333333,4,2,2,70,0,0
68641,-133.333333333333,4,2,2,50,0,0
69381,-133.333333333333,4,2,2,70,0,0
69474,-133.333333333333,4,2,2,50,0,0
70307,-133.333333333333,4,2,2,70,0,0
79011,-66.6666666666667,4,2,4,80,0,1
79104,-66.6666666666667,4,2,1,80,0,1
80030,-83.3333333333333,4,2,1,80,0,1
80307,-58.8235294117647,4,2,1,80,0,1
80492,-66.6666666666667,4,2,1,80,0,1
80863,-57.1428571428571,4,2,1,80,0,1
81604,-50,4,2,1,80,0,1
81974,-47.6190476190476,4,2,1,80,0,1
82159,-52.6315789473684,4,2,1,80,0,1
82344,-50,4,2,1,80,0,1
82715,-66.6666666666667,4,2,1,80,0,1
82992,-76.9230769230769,4,2,1,80,0,1
83270,-55.5555555555556,4,2,1,80,0,1
83455,-66.6666666666667,4,2,1,80,0,1
84566,348.837209302326,4,2,1,80,1,1
84920,370.37037037037,4,2,1,80,1,1
84920,-66.6666666666667,4,2,1,80,0,1
85660,-66.6666666666667,4,2,1,80,0,1
86031,392.156862745098,4,2,1,80,1,1
86031,-66.6666666666667,4,2,1,80,0,1
86425,370.37037037037,4,2,1,80,1,1
87165,-100,4,2,1,80,0,1
87536,-66.6666666666667,4,2,1,80,0,1
87906,-80,4,2,1,80,0,1
88276,-200,4,2,1,80,0,1
88647,-66.6666666666667,4,2,1,80,0,1
89017,-100,4,2,1,80,0,1
90128,-100,4,2,1,80,0,0
90869,-66.6666666666667,4,2,1,80,0,1
92350,-80,4,2,1,80,0,1
92721,-66.6666666666667,4,2,1,80,0,1
93832,-57.1428571428571,4,2,1,80,0,1
94202,-66.6666666666667,4,2,1,80,0,1
94573,-57.1428571428571,4,2,1,80,0,1
94943,-66.6666666666667,4,2,1,80,0,1
101239,-100,4,2,1,80,0,1
102721,-100,4,2,1,80,0,0
107906,-100,4,2,1,40,0,0
107968,-100,4,2,1,50,0,0
108029,-100,4,2,1,60,0,0
108091,-100,4,2,1,70,0,0
108276,-100,4,2,1,80,0,0
108647,-100,4,2,1,60,0,1
109017,-100,4,2,1,62,0,1
109387,-100,4,2,1,64,0,1
109758,-100,4,2,1,66,0,1
110128,-100,4,2,1,68,0,1
110499,-100,4,2,1,70,0,1
110869,-100,4,2,1,72,0,1
111239,-100,4,2,1,74,0,1
111610,-100,4,2,1,76,0,1
111980,-100,4,2,1,78,0,1
112350,-100,4,2,1,80,0,1
112721,-100,4,2,1,82,0,1
113091,-100,4,2,1,84,0,1
113462,-100,4,2,1,86,0,1
113832,-100,4,2,4,69,0,0
114573,-100,4,2,1,69,0,0
129387,-80,4,2,1,69,0,0
132350,-100,4,2,1,69,0,0
135313,-80,4,2,1,69,0,0
138276,-133.333333333333,4,2,1,69,0,0
138647,-100,4,2,1,69,0,0
141239,-100,4,2,1,50,0,0
143091,-100,4,2,1,69,0,0
148647,-133.333333333333,4,2,1,69,0,0
149387,-100,4,2,1,69,0,0
150128,-100,4,2,6,69,0,0
159017,-100,4,2,1,69,0,0
164387,-133.333333333333,4,2,1,69,0,0
164943,-66.6666666666667,4,2,4,80,0,1
165036,-66.6666666666667,4,2,1,80,0,1
165962,-80,4,2,1,80,0,1
166239,-100,4,2,1,80,0,1
166424,-66.6666666666667,4,2,1,80,0,1
166610,-57.1428571428571,4,2,1,80,0,1
167536,-50,4,2,1,80,0,1
167906,-47.6190476190476,4,2,1,80,0,1
168091,-52.6315789473684,4,2,1,80,0,1
168276,-66.6666666666667,4,2,1,80,0,1
169758,-100,4,2,1,80,0,1
170869,-66.6666666666667,4,2,1,80,0,1
171593,405.405405405405,4,2,1,80,1,1
171593,-66.6666666666667,4,2,1,80,0,1
171795,337.078651685393,4,2,1,80,1,1
171795,-66.6666666666667,4,2,1,80,0,1
171963,394.736842105263,4,2,1,80,1,1
171963,-66.6666666666667,4,2,1,80,0,1
172160,-66.6666666666667,4,2,1,80,0,1
172357,352.941176470588,4,2,1,80,1,1
172533,-100,4,2,1,80,0,1
172709,370.37037037037,4,2,1,80,1,1
172709,-100,4,2,1,80,0,1
173449,-66.6666666666667,4,2,1,80,0,1
173820,-80,4,2,1,80,0,1
174190,-200,4,2,1,80,0,1
174560,-66.6666666666667,4,2,1,80,0,1
174931,-100,4,2,1,80,0,1
176043,361.44578313253,4,2,1,80,1,0
176314,370.37037037037,4,2,1,80,1,0
176603,344.827586206897,4,2,1,80,1,0
176603,-100,4,2,1,80,0,0
176786,370.37037037037,4,2,1,80,1,0
176786,-66.6666666666667,4,2,1,80,0,1
178267,-80,4,2,1,80,0,1
178637,-66.6666666666667,4,2,1,80,0,1
179748,-57.1428571428571,4,2,1,80,0,1
180119,-66.6666666666667,4,2,1,80,0,1
187161,370.37037037037,4,2,1,80,1,0
187161,-100,4,2,1,80,0,1
187892,352.941176470588,4,2,1,80,1,1
188244,379.746835443038,4,2,1,80,1,1
188244,-200,4,2,1,80,0,1
188433,394.736842105263,4,2,1,80,1,1
188615,405.405405405405,4,2,1,80,1,0
188615,-100,4,2,1,80,0,0
188817,346.820809248554,4,2,1,80,1,0
188990,370.37037037037,4,2,1,80,1,0
190101,371.517027863777,4,2,1,80,1,0
194559,-100,4,2,1,60,0,1
194930,-100,4,2,1,62,0,1
195302,-100,4,2,1,64,0,1
195673,-100,4,2,1,66,0,1
196045,-100,4,2,1,68,0,1
196416,-100,4,2,1,70,0,1
196788,-100,4,2,1,72,0,1
197159,-100,4,2,1,74,0,1
197531,-100,4,2,1,76,0,1
197902,-100,4,2,1,78,0,1
198274,-100,4,2,1,80,0,1
198645,-100,4,2,1,82,0,1
199017,-100,4,2,1,84,0,1
199388,-100,4,2,1,86,0,1
199946,-133.333333333333,4,2,0,50,0,0
200470,370.37037037037,4,2,2,80,1,0
200470,-100,4,2,1,80,0,0
205841,375,4,2,1,80,1,0
206403,370.37037037037,4,2,1,80,1,0
211594,416.666666666667,4,2,1,80,1,0
211594,-100,4,2,1,80,0,0
211802,352.941176470588,4,2,1,70,1,0
211978,425.531914893616,4,2,1,80,1,0
211978,-100,4,2,1,80,0,0
212190,322.58064516129,4,2,1,80,1,0
212190,-100,4,2,1,80,0,0
212339,370.37037037037,4,2,1,80,1,0
212524,-80,4,2,1,70,0,0
220857,-100,4,2,1,70,0,0
222709,352.941176470588,4,2,1,70,1,0
222885,384.615384615385,4,2,1,70,1,0
223269,375,4,2,1,70,1,0
223830,-100,4,2,2,50,0,0
224187,370.37037037037,4,2,2,69,1,0
229777,434.782608695652,4,2,1,50,1,0
230108,370.37037037037,4,2,1,60,1,0
230108,-80,4,2,1,80,0,0
233070,-100,4,2,1,80,0,0
235581,337.078651685393,4,2,1,80,1,0
235833,434.782608695652,4,2,1,80,1,0
236061,370.37037037037,4,2,1,80,1,0
236061,-100,4,2,5,70,0,0
236801,-100,4,2,5,55,0,0
237357,-100,4,2,5,80,0,0
237542,-100,4,2,5,70,0,0
238468,-100,4,2,5,80,0,0
238653,-100,4,2,5,70,0,0
239764,-100,4,2,5,55,0,0
240320,-100,4,2,5,80,0,0
240505,-100,4,2,5,70,0,0
241431,-100,4,2,5,80,0,0
241616,-100,4,2,5,70,0,0
241986,-100,4,2,1,80,0,1
242357,-80,4,2,1,80,0,1
243098,-66.6666666666667,4,2,1,80,0,1
243838,-57.1428571428571,4,2,1,80,0,1
244579,-50,4,2,1,80,0,1
244949,-66.6666666666667,4,2,1,90,0,1
246801,-100,4,2,1,80,0,1
247172,389.61038961039,4,2,1,80,1,0
247172,-100,4,2,1,80,0,0
247560,379.746835443038,4,2,1,80,1,0
247893,370.37037037037,4,2,1,80,1,0
252326,384.615384615385,4,2,1,80,1,0
252326,-100,4,2,1,80,0,0
252706,389.61038961039,4,2,1,80,1,0
253093,357.142857142857,4,2,1,80,1,0
253807,365.853658536585,4,2,1,80,1,0
253807,-66.6666666666667,4,2,1,80,0,0
254081,329.67032967033,4,2,1,80,1,0
254081,-66.6666666666667,4,2,1,80,0,0
254328,333.333333333333,4,2,1,80,1,0
254328,-66.6666666666667,4,2,1,80,0,0
254578,357.142857142857,4,2,1,80,1,0
254578,-66.6666666666667,4,2,1,80,0,0
254845,340.909090909091,4,2,1,80,1,0
254845,-66.6666666666667,4,2,1,80,0,0
255100,329.67032967033,4,2,1,80,1,0
255100,-66.6666666666667,4,2,1,80,0,0
255347,357.142857142857,4,2,1,80,1,0
255347,-66.6666666666667,4,2,1,80,0,0
255882,312.5,4,2,1,80,1,0
255882,-66.6666666666667,4,2,1,80,0,0
256116,327.868852459016,4,2,1,80,1,0
256238,365.853658536585,4,2,1,80,1,0
256238,-133.333333333333,4,2,1,80,0,0
256787,370.37037037037,4,2,1,80,1,1
256787,-66.6666666666667,4,2,4,80,0,1
256879,-66.6666666666667,4,2,1,80,0,1
257157,-44.4444444444445,4,2,1,80,0,1
257527,-66.6666666666667,4,2,1,80,0,1
258638,-57.1428571428571,4,2,1,80,0,1
258824,-50,4,2,1,80,0,1
259379,-66.6666666666667,4,2,1,80,0,1
259749,-47.6190476190476,4,2,1,80,0,1
259935,-52.6315789473684,4,2,1,80,0,1
260120,-66.6666666666667,4,2,1,80,0,1
260768,-76.9230769230769,4,2,1,80,0,1
261046,-55.5555555555556,4,2,1,80,0,1
261231,-66.6666666666667,4,2,1,80,0,1
261601,-100,4,2,1,80,0,1
261972,361.44578313253,4,2,1,80,1,1
262152,-66.6666666666667,4,2,1,80,0,1
262333,348.837209302326,4,2,1,80,1,1
262692,370.37037037037,4,2,1,80,1,1
262692,-66.6666666666667,4,2,1,80,0,1
264173,-100,4,2,1,80,0,1
265307,357.142857142857,4,2,1,80,1,1
265307,-66.6666666666667,4,2,1,80,0,1
265664,375,4,2,1,80,1,1
265664,-80,4,2,1,80,0,1
266039,389.61038961039,4,2,1,80,1,1
266039,-200,4,2,1,80,0,1
266428,370.37037037037,4,2,1,80,1,1
266428,-66.6666666666667,4,2,1,80,0,1
266798,-100,4,2,1,80,0,1
267539,361.44578313253,4,2,1,80,1,1
267539,-100,4,2,1,80,0,1
267900,370.37037037037,4,2,1,80,1,0
268632,370.37037037037,4,2,1,80,1,1
268632,-66.6666666666667,4,2,1,80,0,1
270113,-80,4,2,1,80,0,1
270483,-66.6666666666667,4,2,1,80,0,1
271594,-57.1428571428571,4,2,1,80,0,1
271965,-66.6666666666667,4,2,1,80,0,1
272335,-57.1428571428571,4,2,1,80,0,1
272706,-66.6666666666667,4,2,1,80,0,1
273455,361.44578313253,4,2,1,80,1,1
273455,-66.6666666666667,4,2,1,80,0,1
274539,375,4,2,1,80,1,1
274539,-66.6666666666667,4,2,1,80,0,1
275664,365.853658536585,4,2,1,80,1,1
275664,-66.6666666666667,4,2,1,80,0,1
276029,370.37037037037,4,2,1,80,1,1
276029,-66.6666666666667,4,2,1,80,0,1
277529,370.37037037037,4,2,1,80,1,1
277529,-66.6666666666667,4,2,1,80,0,1
279751,-100,4,2,4,80,0,0
280483,370.37037037037,4,2,1,80,1,1
280483,-66.6666666666667,4,2,1,80,0,0
285668,-66.6666666666667,4,2,1,60,0,0
285853,-66.6666666666667,4,2,1,65,0,0
286038,-66.6666666666667,4,2,1,70,0,0
286223,-66.6666666666667,4,2,1,75,0,0
286408,-50,4,2,1,85,0,1
291598,382.165605095541,4,2,1,80,1,0
291598,-66.6666666666667,4,2,1,60,0,0
292352,365.853658536585,4,2,1,80,1,0
292352,-133.333333333333,4,2,1,60,0,0
293083,370.37037037037,4,2,2,80,1,0
293083,-133.333333333333,4,2,1,60,0,0
293823,384.615384615385,4,2,2,80,1,0
294207,357.142857142857,4,2,2,80,1,0
294207,-66.6666666666667,4,2,1,60,0,0
294564,434.782608695652,4,2,2,80,1,0
294781,312.5,4,2,1,60,1,0
294937,365.853658536585,4,2,1,60,1,0
295119,370.37037037037,4,2,1,60,1,0

[Colours]
Combo1 : 67,101,237
Combo2 : 255,2,129
Combo3 : 51,40,176
Combo4 : 255,134,252

[HitObjects]
465,332,493,6,0,L|518:337,2,45,0|0|0,3:2|3:2|3:2,0:2:0:0:
406,277,863,2,0,P|357:277|261:366,1,180,0|8,0:2|0:2,0:2:0:0:
180,345,1604,5,0,3:2:0:0:
125,273,1974,1,0,0:2:0:0:
37,293,2344,1,0,0:2:0:0:
37,293,2715,2,0,L|41:260,1,22.5,8|0,0:2|0:2,0:2:0:0:
0,196,3085,5,0,0:2:0:0:
100,145,3270,1,0,0:2:0:0:
21,107,3455,5,0,3:2:0:0:
32,17,3826,1,0,0:2:0:0:
121,1,4196,1,0,0:2:0:0:
100,145,4567,1,0,3:2:0:0:
163,81,4937,1,8,0:2:0:0:
163,81,5307,5,0,0:2:0:0:
100,145,5492,1,8,0:2:0:0:
186,171,5678,2,0,L|189:202,1,31.5,0|0,3:2|0:2,0:2:0:0:
209,289,6418,6,0,L|162:284,2,45,2|0|2,3:2|3:2|3:2,0:2:0:0:
342,345,6789,1,2,0:2:0:0:
342,345,7159,2,0,P|330:294|330:255,1,90,10|0,0:2|0:2,0:2:0:0:
436,54,7530,2,0,P|448:105|448:144,1,90,2|0,3:2|0:2,0:2:0:0:
254,182,7900,5,2,0:2:0:0:
415,227,8085,1,2,0:2:0:0:
347,42,8270,2,0,P|322:88|312:125,1,90,2|0,0:2|0:2,0:2:0:0:
490,200,8641,1,10,0:2:0:0:
478,281,8826,2,0,P|465:324|443:363,1,90,2|0,0:2|0:2,0:2:0:0:
443,363,9196,1,0,0:2:0:0:
415,227,9381,5,2,3:2:0:0:
250,261,9567,1,2,0:2:0:0:
336,367,9752,2,0,L|226:354,1,90,2|0,0:2|0:2,0:2:0:0:
100,336,10122,6,0,P|56:345|11:370,1,90,2|0,0:2|0:2,0:2:0:0:
239,254,10492,5,2,3:2:0:0:
250,261,10585,2,0,P|294:252|339:227,1,90,0|0,3:2|0:2,0:2:0:0:
343,222,10863,5,10,0:2:0:0:
422,282,11048,1,2,0:2:0:0:
477,220,11233,2,0,P|491:177|492:125,1,90,2|0,3:2|0:2,0:2:0:0:
488,119,11511,1,2,0:2:0:0:
483,106,11604,2,0,P|488:79|496:60,2,45,2|2|2,3:2|0:2|0:2,0:2:0:0:
422,282,11974,2,0,P|423:326|437:369,1,90,0|0,0:2|0:2,0:2:0:0:
477,220,12344,6,0,L|526:212,2,45,2|0|2,3:2|3:2|3:2,0:2:0:0:
350,149,12715,1,2,0:2:0:0:
350,149,13085,2,0,P|355:104|373:63,1,90,10|0,0:2|0:2,0:2:0:0:
208,0,13455,2,0,P|225:41|231:85,1,90,2|0,3:2|0:2,0:2:0:0:
167,159,13826,5,2,0:2:0:0:
23,114,14011,1,2,0:2:0:0:
69,285,14196,2,0,B|114:280|114:280|128:266|128:266|204:254,1,135,2|0,0:2|0:2,0:2:0:0:
213,256,14567,6,0,P|229:297|222:348,1,90,2|2,0:2|0:2,0:2:0:0:
308,374,14937,2,0,P|335:339|383:320,1,90,0|0,0:2|0:2,0:2:0:0:
400,211,15307,5,2,3:2:0:0:
271,157,15492,1,2,0:2:0:0:
224,341,15678,2,0,L|130:353,1,90,2|0,0:2|0:2,0:2:0:0:
181,168,16048,6,0,L|275:156,1,90,2|0,0:2|0:2,0:2:0:0:
106,194,16418,2,0,P|58:210|25:249,1,90,2|0,3:2|0:2,0:2:0:0:
224,341,16789,2,0,P|234:291|216:243,1,90,10|2,0:2|0:2,0:2:0:0:
73,68,17159,1,2,0:2:0:0:
73,68,17530,5,2,0:2:0:0:
95,66,17622,1,2,0:2:0:0:
117,64,17715,1,2,0:2:0:0:
106,194,17900,2,0,L|8:185,1,90,0|0,0:2|0:2,0:2:0:0:
190,28,18270,5,2,3:2:0:0:
204,61,18363,1,0,3:2:0:0:
196,96,18455,1,2,3:2:0:0:
301,43,18641,2,0,P|350:60|380:100,1,90,2|0,0:2|0:2,0:2:0:0:
193,182,19011,2,0,P|183:131|202:85,1,90,10|0,0:2|0:2,0:2:0:0:
368,207,19381,2,0,P|328:240|279:246,1,90,2|0,3:2|0:2,0:2:0:0:
193,182,19752,5,2,0:2:0:0:
368,207,19937,1,2,0:2:0:0:
196,371,20122,2,0,L|183:279,1,90,2|0,0:2|0:2,0:2:0:0:
122,228,20492,1,10,0:2:0:0:
301,43,20678,6,0,L|291:107,1,45,2|0,0:2|0:2,0:2:0:0:
288,122,20863,1,0,0:2:0:0:
288,122,21233,5,2,3:2:0:0:
475,85,21418,1,2,0:2:0:0:
316,352,21604,6,0,P|286:314|286:267,1,90,2|0,0:2|0:2,0:2:0:0:
472,298,21974,2,0,P|455:338|419:359,1,45,2|0,0:2|0:2,0:2:0:0:
420,364,22159,1,0,3:2:0:0:
348,190,22344,2,0,P|395:183|436:206,1,90,2|0,3:2|0:2,0:2:0:0:
316,352,22715,5,10,0:2:0:0:
348,190,22900,1,2,0:2:0:0:
316,352,23085,2,0,L|219:365,1,90,2|0,3:2|0:2,0:2:0:0:
213,367,23363,1,2,0:2:0:0:
199,370,23455,2,0,L|150:362,2,45,2|2|2,3:2|0:2|0:2,0:2:0:0:
252,276,23826,2,0,B|270:246|270:246|258:182,1,90,2|0,0:2|0:2,0:2:0:0:
231,32,24196,5,2,3:2:0:0:
205,57,24289,1,0,3:2:0:0:
212,91,24381,1,2,3:2:0:0:
406,117,24567,6,0,P|402:70|370:31,1,90,2|0,0:2|0:2,0:2:0:0:
259,191,24937,2,0,P|301:211|351:202,1,90,10|0,0:2|0:2,0:2:0:0:
268,26,25307,2,0,P|229:52|211:100,1,90,2|0,3:2|0:2,0:2:0:0:
259,191,25678,5,2,0:2:0:0:
406,117,25863,1,2,0:2:0:0:
384,295,26048,2,0,B|337:291|337:291|330:284|330:284|251:277,1,135,2|0,0:2|0:2,0:2:0:0:
232,271,26418,2,0,P|213:311|176:336,1,90,2|2,0:2|0:2,0:2:0:0:
108,274,26789,2,0,P|126:233|163:208,1,90,0|0,0:2|0:2,0:2:0:0:
246,190,27159,5,2,3:2:0:0:
19,235,27344,1,2,0:2:0:0:
192,19,27530,2,0,P|217:55|220:99,1,90,2|0,0:2|0:2,0:2:0:0:
131,127,27901,6,0,P|115:105|113:78,3,45,2|0|0|0,0:2|0:2|3:2|0:2,0:2:0:0:
118,52,28270,2,0,P|69:49|23:39,1,90,2|0,3:2|0:2,0:2:0:0:
19,235,28641,2,0,P|63:226|107:223,1,90,10|2,0:2|0:2,0:2:0:0:
245,83,29011,6,0,P|225:123|211:166,1,90,2|0,3:2|0:2,0:2:0:0:
224,286,29381,1,2,3:2:0:0:
243,326,29473,1,2,0:2:0:0:
257,369,29566,1,2,0:2:0:0:
468,289,29752,1,0,0:2:0:0:
512,358,30122,5,4,0:2:0:0:
468,289,30492,2,0,P|435:299|410:324,1,67.5000025749208,0|0,0:2|0:2,0:2:0:0:
409,331,30770,1,0,0:2:0:0:
410,341,30863,2,0,L|266:319,1,135.000005149842,8|0,0:2|0:2,0:2:0:0:
276,320,31418,1,0,0:2:0:0:
206,287,31604,6,0,P|175:297|146:322,1,67.5000025749208,0|0,0:2|0:2,0:2:0:0:
63,366,31974,2,0,P|69:334|62:296,1,67.5000025749208,0|0,0:2|0:2,0:2:0:0:
52,190,32344,2,0,P|80:216|124:231,1,80.9999975280763,8|0,0:2|0:2,0:2:0:0:
206,287,32715,6,0,P|175:297|146:322,1,67.5000025749208,0|0,0:2|0:2,0:2:0:0:
63,366,33085,5,0,0:2:0:0:
29,294,33455,2,0,L|-6:285,2,30,0|0|0,0:2|0:2|0:2,0:2:0:0:
109,300,33826,2,0,B|120:288|120:288|97:159,1,135.000005149842,8|0,0:2|0:2,0:2:0:0:
99,171,34381,1,0,0:2:0:0:
152,109,34567,2,0,L|230:116,1,67.5000025749208,0|0,0:2|0:2,0:2:0:0:
201,241,34937,2,0,L|279:234,1,67.5000025749208,0|0,0:2|0:2,0:2:0:0:
382,224,35307,1,8,0:2:0:0:
355,49,35492,6,0,B|334:59|334:59|318:150,1,101.250003862381,0|0,3:2|0:2,0:2:0:0:
319,146,35863,1,8,0:2:0:0:
420,127,36048,5,0,0:2:0:0:
460,200,36418,2,0,L|494:196,2,30,0|0|0,0:2|0:2|0:2,0:2:0:0:
382,224,36789,2,0,B|374:236|374:236|392:365,1,135.000005149842,8|0,0:2|0:2,0:2:0:0:
299,308,37530,2,0,L|223:302,1,67.5000025749208,0|0,0:2|0:2,0:2:0:0:
222,307,37807,1,0,0:2:0:0:
213,312,37900,2,0,L|137:306,1,67.5000025749208,0|0,0:2|0:2,0:2:0:0:
97,170,38270,6,0,B|123:189|123:189|135:233,1,67.5000025749208,8|0,0:2|0:2,0:2:0:0:
64,328,38641,2,0,B|73:362|73:362|99:381,1,67.5000025749208,0|0,0:2|0:2,0:2:0:0:
51,241,39011,5,0,0:2:0:0:
97,170,39381,2,0,L|132:163,2,30,0|0|0,0:2|0:2|0:2,0:2:0:0:
16,165,39752,2,0,B|4:144|4:144|31:32,1,135.000005149842,8|0,0:2|0:2,0:2:0:0:
29,36,40307,1,0,0:2:0:0:
107,84,40492,6,0,L|176:71,1,67.5000025749208,0|0,0:2|0:2,0:2:0:0:
248,23,40863,2,0,L|317:36,1,67.5000025749208,0|0,0:2|0:2,0:2:0:0:
500,73,41233,1,8,0:2:0:0:
375,101,41418,6,0,L|437:89,2,45,0|0|0,3:2|3:2|3:2,0:2:0:0:
500,73,41789,1,8,0:2:0:0:
388,184,41974,6,0,P|456:179|511:226,1,135,4|0,0:2|0:2,0:2:0:0:
512,295,42344,2,0,L|503:364,2,60,0|0|0,0:2|0:2|0:2,0:2:0:0:
506,218,42715,5,8,0:2:0:0:
506,218,43270,2,0,L|461:225,2,33.7500012874604,0|0|0,0:2|0:2|0:2,0:2:0:0:
485,89,43641,2,0,L|450:118,2,33.7500012874604,0|0|0,0:2|0:2|0:2,0:2:0:0:
403,0,44011,2,0,L|387:30,2,33.7500012874604,0|0|8,0:2|0:2|0:2,0:2:0:0:
406,177,44381,5,0,0:2:0:0:
381,106,44567,2,0,L|302:97,1,67.5000025749208,0|0,0:0|0:0,0:2:0:0:
111,62,44937,6,0,P|135:95|122:162,1,101.250003862381,0|0,0:2|0:2,0:2:0:0:
59,190,45307,2,0,L|-20:181,2,60,0|0|0,0:2|0:2|0:2,0:2:0:0:
128,241,45678,2,0,B|108:270|108:270|132:370,2,135,8|0|0,0:2|0:2|0:2,0:2:0:0:
201,195,46418,6,0,L|290:205,1,90,0|0,0:2|0:2,0:2:0:0:
301,198,46696,2,0,L|311:287,1,90,0|0,0:2|0:2,0:2:0:0:
307,300,46974,1,0,0:2:0:0:
389,239,47159,5,8,0:2:0:0:
365,384,47344,2,0,P|396:339|520:313,1,180,0|8,3:2|0:2,0:2:0:0:
512,310,47900,5,0,0:2:0:0:
471,227,48270,2,0,P|482:182|518:147,1,90.0000034332277,0|0,0:2|0:2,0:2:0:0:
510,135,48641,6,0,L|434:128,1,67.5000025749208,8|0,0:2|0:2,0:2:0:0:
435,122,48918,1,0,0:2:0:0:
427,115,49011,2,0,L|351:108,1,67.5000025749208,0|0,0:2|0:2,0:2:0:0:
351,103,49289,1,0,0:2:0:0:
340,94,49381,6,0,P|334:69|343:34,2,60,0|0|0,0:2|0:2|0:2,0:2:0:0:
427,115,49752,2,0,P|448:94|457:66,2,60,0|0|0,0:2|0:2|0:2,0:2:0:0:
315,175,50122,6,0,P|293:195|284:223,2,60,8|0|0,0:2|0:2|0:2,0:2:0:0:
402,196,50493,2,0,P|410:239|398:282,1,90,0|0,0:2|0:2,0:2:0:0:
305,354,50863,5,0,0:2:0:0:
255,285,51233,2,0,L|262:238,2,45.0000017166138,0|0|0,0:2|0:2|0:2,0:2:0:0:
253,298,51604,2,0,P|202:295|158:329,1,90.0000034332277,8|0,0:2|0:2,0:2:0:0:
83,315,51974,6,0,L|93:385,1,67.5000025749208,0|0,3:2|3:2,0:2:0:0:
83,303,52345,2,0,P|32:306|-12:272,1,90.0000034332277,0|0,0:2|0:2,0:2:0:0:
0,273,52715,5,0,3:2:0:0:
152,182,52900,1,0,3:2:0:0:
10,97,53085,1,8,0:2:0:0:
175,13,53455,5,0,3:2:0:0:
113,86,53641,1,8,0:2:0:0:
247,77,53826,5,0,3:2:0:0:
247,77,53918,1,0,3:2:0:0:
247,77,54011,1,0,3:2:0:0:
146,171,54196,2,0,L|39:154,1,107.999996704102,0|0,0:2|0:2,0:2:0:0:
196,1,54567,5,10,0:2:0:0:
146,171,54752,1,0,0:2:0:0:
247,77,54937,2,0,P|302:80|348:115,1,107.999996704102,0|0,3:2|0:2,0:2:0:0:
304,325,55307,5,2,0:2:0:0:
221,298,55492,1,0,0:2:0:0:
221,211,55678,1,0,3:2:0:0:
304,185,55863,1,2,0:2:0:0:
221,298,56048,5,10,0:2:0:0:
221,211,56233,1,0,0:2:0:0:
304,185,56418,1,0,0:2:0:0:
304,325,56604,1,2,0:2:0:0:
239,126,56789,5,0,3:2:0:0:
239,126,56881,1,0,3:2:0:0:
239,126,56974,1,0,3:2:0:0:
354,255,57159,2,0,P|408:240|450:192,1,107.999996704102,0|0,0:2|0:2,0:2:0:0:
436,28,57530,5,8,0:2:0:0:
436,28,57715,1,0,0:2:0:0:
239,126,57900,2,0,P|224:180|244:240,1,107.999996704102,0|0,3:2|0:2,0:2:0:0:
286,296,58270,5,0,0:2:0:0:
286,296,58641,1,2,3:2:0:0:
287,306,58733,1,2,0:2:0:0:
288,316,58826,1,2,0:2:0:0:
289,326,58918,1,2,0:2:0:0:
291,336,59011,5,10,0:2:0:0:
239,126,59196,1,0,0:2:0:0:
291,336,59381,2,0,P|252:372|190:379,1,107.999996704102,2|2,0:2|0:2,0:2:0:0:
82,325,59752,6,0,L|26:333,2,53.9999983520508,0|0|2,3:2|3:2|3:2,0:2:0:0:
147,276,60122,1,0,0:2:0:0:
107,204,60307,1,2,0:2:0:0:
34,251,60492,6,0,L|140:235,1,107.999996704102,10|0,0:2|0:2,0:2:0:0:
216,191,60863,2,0,L|322:206,1,107.999996704102,0|2,3:2|0:2,0:2:0:0:
333,208,61141,1,2,0:2:0:0:
348,210,61233,5,2,0:2:0:0:
290,110,61418,1,2,0:2:0:0:
300,308,61604,2,0,P|388:308|449:250,1,161.999995056153,2|0,3:2|0:2,0:2:0:0:
448,247,61974,5,10,0:2:0:0:
348,210,62159,1,0,0:2:0:0:
399,332,62344,1,0,0:2:0:0:
431,142,62530,1,2,0:2:0:0:
300,308,62715,6,0,B|252:283|252:283|190:291,1,107.999996704102,2|2,3:2|0:2,0:2:0:0:
46,369,63085,2,0,B|91:339|91:339|115:282,1,107.999996704102,2|2,0:2|0:2,0:2:0:0:
121,119,63455,2,0,B|123:173|123:173|161:222,1,107.999996704102,10|2,0:2|0:2,0:2:0:0:
300,308,63825,2,0,B|252:283|252:283|190:290,1,107.999996704102,2|2,0:2|0:2,0:2:0:0:
46,369,64196,5,2,3:2:0:0:
112,290,64381,1,2,0:2:0:0:
11,273,64567,1,2,3:2:0:0:
46,369,64752,1,2,0:2:0:0:
77,194,64937,6,0,L|96:93,2,101.250003862381,10|2|2,0:2|0:2|0:2,0:2:0:0:
56,310,65678,5,0,3:2:0:0:
56,310,65770,1,0,3:2:0:0:
56,310,65863,1,0,3:2:0:0:
137,367,66048,2,0,P|170:362|201:349,1,67.5000025749208,0|0,0:2|0:2,0:2:0:0:
399,360,66418,1,10,0:2:0:0:
248,281,66604,1,0,0:2:0:0:
319,266,66789,2,0,P|353:272|384:285,1,67.5000025749208,0|0,3:2|0:2,0:2:0:0:
219,181,67159,6,0,P|218:147|225:111,1,67.5000025749208,2|0,0:2|0:2,0:2:0:0:
340,49,67530,2,0,B|358:75|358:75|342:147,1,101.250003862381,0|0,3:2|0:2,0:2:0:0:
339,152,67900,2,0,P|309:130|269:127,1,67.5000025749208,10|0,0:2|0:2,0:2:0:0:
269,127,68178,1,0,0:2:0:0:
259,130,68270,2,0,P|229:153|216:191,1,67.5000025749208,0|2,0:2|0:2,0:2:0:0:
151,231,68641,6,0,B|104:223|104:223|68:191,2,90.0000034332277,2|2|2,3:2|0:2|0:2,0:2:0:0:
229,264,69381,2,0,B|246:307|246:307|235:355,2,90.0000034332277,10|2|2,0:2|0:2|0:2,0:2:0:0:
218,180,70122,1,2,0:2:0:0:
332,296,70307,1,2,0:2:0:0:
332,296,70492,2,0,L|400:285,1,67.5000025749208,2|2,3:2|0:2,0:2:0:0:
312,213,70863,1,10,0:2:0:0:
474,254,71048,1,2,0:2:0:0:
420,101,71233,1,2,0:2:0:0:
312,213,71418,1,2,0:2:0:0:
406,192,71604,5,0,3:2:0:0:
406,192,71696,1,0,3:2:0:0:
406,192,71789,1,2,3:2:0:0:
366,34,71974,2,0,P|337:37|301:52,1,67.5000025749208,0|0,0:2|0:2,0:2:0:0:
147,77,72344,1,8,0:2:0:0:
304,134,72530,1,0,0:2:0:0:
231,171,72715,2,0,P|197:165|166:152,1,67.5000025749208,0|0,3:2|0:2,0:2:0:0:
6,30,73085,6,0,P|29:94|37:159,1,135.000005149842,0|0,0:2|3:2,0:2:0:0:
0,296,73826,1,8,0:2:0:0:
144,238,74011,1,2,0:2:0:0:
81,375,74196,2,0,P|85:341|96:309,1,67.5000025749208,2|2,0:2|0:2,0:2:0:0:
144,238,74567,1,2,3:2:0:0:
144,238,74937,6,0,L|136:184,2,45.0000017166138,2|0|0,0:2|0:2|0:2,0:2:0:0:
172,344,75307,6,0,P|205:339|237:328,1,67.5000025749208,2|0,0:2|0:2,0:2:0:0:
308,242,75678,2,0,P|341:246|373:257,1,67.5000025749208,2|0,0:2|0:2,0:2:0:0:
464,325,76048,1,2,3:2:0:0:
256,192,76094,12,0,77530,0:2:0:0:
256,192,78455,6,0,B|253:155|253:155|264:120,2,67.5000025749208,2|2|2,0:2|0:2|0:2,0:2:0:0:
256,192,79011,6,0,P|221:196|187:215,1,67.5000025749208,4|0,3:2|0:2,0:2:0:0:
114,104,79196,2,0,P|144:118|177:122,1,67.5000025749208,0|0,3:2|0:2,0:2:0:0:
87,189,79381,2,0,P|82:121|55:60,1,135.000005149842,10|0,0:2|0:2,0:2:0:0:
50,55,79659,1,0,0:2:0:0:
45,50,79752,6,0,P|111:23|175:46,1,135.000005149842,2|0,3:2|0:2,0:2:0:0:
244,74,80030,1,2,3:2:0:0:
252,80,80122,2,0,L|316:70,1,53.9999983520508,0|0,0:2|0:2,0:2:0:0:
442,50,80307,5,10,0:2:0:0:
442,50,80492,2,0,P|414:72|397:106,1,67.5000025749208,0|0,0:2|0:2,0:2:0:0:
304,71,80678,2,0,P|299:106|311:142,1,67.5000025749208,0|0,3:2|0:2,0:2:0:0:
512,236,80863,2,0,P|439:206|355:211,1,157.500001502037,8|0,0:2|0:2,0:2:0:0:
337,291,81141,1,0,0:2:0:0:
342,309,81233,2,0,P|414:338|492:334,1,157.500001502037,0|0,3:2|3:2,0:2:0:0:
492,333,81604,6,0,P|456:295|404:281,1,90,8|0,0:2|0:2,0:2:0:0:
338,212,81789,2,0,P|289:228|254:269,1,90,0|0,0:2|0:2,0:2:0:0:
194,380,81974,6,0,L|-20:358,1,188.999994232178,2|0,3:2|3:2,0:2:0:0:
0,284,82252,1,0,0:2:0:0:
17,281,82344,2,0,L|205:300,1,180,10|0,0:2|0:2,0:2:0:0:
74,204,82715,6,0,P|54:157|74:62,1,135.000005149842,2|0,3:2|0:2,0:2:0:0:
146,55,82993,1,0,3:2:0:0:
157,55,83085,2,0,P|177:81|181:147,1,58.4999973220826,2|0,0:2|0:2,0:2:0:0:
137,271,83270,1,10,0:2:0:0:
137,271,83455,6,0,P|165:250|204:244,1,67.5000025749208,0|0,0:2|0:2,0:2:0:0:
305,200,83641,2,0,P|265:190|233:166,1,67.5000025749208,0|0,3:2|0:2,0:2:0:0:
382,154,83826,2,0,P|347:211|334:277,1,135.000005149842,8|0,0:2|0:2,0:2:0:0:
412,312,84196,2,0,P|446:254|459:188,1,135.000005149842,0|0,3:2|3:2,0:2:0:0:
464,176,84474,1,0,0:2:0:0:
466,166,84567,2,0,L|519:155,3,45,8|8|8|8,0:2|0:2|0:2|0:2,0:2:0:0:
382,154,84920,6,0,B|316:141|316:141|310:134|310:134|245:122,2,135.000005149842,6|0|10,3:2|3:2|0:2,0:2:0:0:
333,277,85475,1,0,0:2:0:0:
333,277,85568,1,0,0:2:0:0:
333,277,85660,6,0,B|395:265|395:265|402:258|402:258|463:246,2,135.000005149842,2|0|2,3:2|0:2|0:2,0:2:0:0:
333,277,86227,2,0,B|363:281|363:281|379:320,1,67.5000025749208,10|0,0:2|0:2,0:2:0:0:
317,354,86425,6,0,P|293:360|267:371,1,45,0|0,0:2|0:2,0:2:0:0:
210,272,86610,2,0,P|230:280|252:285,1,45,0|0,3:2|0:2,0:2:0:0:
169,333,86795,2,0,P|156:280|136:230,1,90,8|0,0:2|0:2,0:2:0:0:
140,238,87073,1,0,0:2:0:0:
136,229,87165,6,0,P|84:234|54:267,1,90,0|0,3:2|3:2,0:2:0:0:
58,258,87536,2,0,B|71:181|71:181|91:161|91:161|104:64,1,202.500007724762,8|0,0:2|0:2,0:2:0:0:
131,39,87906,6,0,P|158:31|184:17,1,56.25,2|0,3:2|0:2,0:2:0:0:
255,152,88091,2,0,P|228:160|202:174,1,56.25,0|0,3:2|0:2,0:2:0:0:
69,119,88276,6,0,B|88:134|88:134|110:135,1,45,10|0,0:2|0:2,0:2:0:0:
108,135,88647,6,0,P|93:201|111:272,1,135.000005149842,2|0,3:2|0:2,0:2:0:0:
192,308,88925,1,0,0:2:0:0:
192,308,89017,2,0,P|243:292|285:251,1,90,2|14,0:2|0:2,0:2:0:0:
247,69,89387,6,0,B|233:111|233:111|259:159,1,90,0|0,0:2|3:2,0:2:0:0:
421,128,89758,2,0,B|435:86|435:86|413:45,1,90,12|0,0:2|0:2,0:2:0:0:
338,193,90128,5,10,3:2:0:0:
335,202,90221,1,10,0:2:0:0:
338,210,90313,1,10,0:2:0:0:
347,214,90406,1,10,0:2:0:0:
355,210,90499,1,10,3:2:0:0:
359,202,90591,1,2,3:2:0:0:
355,193,90684,1,10,0:2:0:0:
347,190,90776,1,10,0:2:0:0:
350,204,90869,6,0,B|374:220|409:211|421:196|421:196|421:199|421:199|486:239|459:312,1,202.500007724762,4|0,3:2|0:2,0:2:0:0:
391,352,91239,2,0,P|335:343|306:273,1,135.000005149842,8|2,3:2|0:3,0:2:0:0:
261,208,91517,1,0,0:2:0:0:
248,202,91610,6,0,B|190:211|190:211|191:207|191:207|183:229|183:229|70:253,1,202.500007724762,0|0,3:2|0:2,0:2:0:0:
0,172,91980,2,0,B|24:150|36:120|36:120|36:115|36:115|36:121|36:121|46:149|68:171,1,135.000005149842,8|2,3:2|0:3,0:2:0:0:
126,100,92350,6,0,L|118:43,1,56.25,0|0,3:2|0:2,0:2:0:0:
202,89,92536,2,0,L|194:32,1,56.25,2|0,0:3|0:2,0:2:0:0:
297,32,92721,6,0,L|288:109,1,67.5000025749208,8|0,3:2|0:2,0:2:0:0:
374,43,92906,2,0,L|365:120,1,67.5000025749208,2|0,0:3|0:2,0:2:0:0:
512,142,93091,6,0,B|507:135|507:135|444:111|369:143|356:234,1,202.500007724762,0|0,3:2|0:2,0:2:0:0:
392,293,93462,2,0,P|458:287|503:239,1,135.000005149842,8|2,3:2|0:3,0:2:0:0:
297,32,93832,6,0,P|247:139|282:253,1,236.250002253056,0|0,3:2|0:2,0:2:0:0:
279,203,94202,2,0,P|260:136|290:73,1,135.000005149842,8|2,3:2|0:3,0:2:0:0:
218,353,94573,6,0,P|336:342|416:254,1,236.250002253056,0|0,3:2|0:2,0:2:0:0:
375,283,94943,2,0,P|326:332|257:338,1,135.000005149842,8|2,3:2|0:3,0:2:0:0:
124,297,95313,6,0,P|58:305|12:353,1,135.000005149842,0|2,3:2|0:3,0:2:0:0:
8,139,95684,2,0,P|48:191|112:206,1,135.000005149842,8|2,3:2|0:3,0:2:0:0:
278,33,96054,6,0,B|341:12|341:12|400:46,1,135.000005149842,4|0,0:0|0:0,0:0:0:0:
439,121,96424,2,0,L|425:257,1,135.000005149842,8|8,3:2|0:2,0:2:0:0:
343,240,96795,5,4,3:2:0:0:
343,240,96980,1,0,0:2:0:0:
511,367,97165,2,0,P|460:349|376:341,1,135.000005149842,8|2,3:2|0:3,0:2:0:0:
175,367,97536,5,0,3:2:0:0:
175,367,97721,1,2,0:3:0:0:
343,240,97906,2,0,P|292:258|208:266,1,135.000005149842,8|2,3:2|0:3,0:2:0:0:
9,216,98276,5,0,3:2:0:0:
182,175,98462,1,2,0:3:0:0:
10,101,98647,5,8,3:2:0:0:
184,189,98832,1,2,0:3:0:0:
176,9,99017,2,0,B|90:30|114:119|114:119,1,135.000005149842,0|0,3:2|0:2,0:2:0:0:
274,210,99387,2,0,B|360:189|336:100|336:100,1,135.000005149842,8|2,3:2|0:3,0:2:0:0:
340,14,99758,6,0,P|310:30|278:37,1,67.5000025749208,0|0,3:2|0:2,0:2:0:0:
410,164,99943,2,0,P|439:147|472:141,1,67.5000025749208,2|0,0:3|0:2,0:2:0:0:
337,107,100128,2,0,P|369:175|369:241,1,135.000005149842,8|2,3:2|0:3,0:2:0:0:
260,301,100499,6,0,P|203:264|167:207,1,135.000005149842,0|2,3:2|0:3,0:2:0:0:
125,339,100869,2,0,P|150:316|167:287,1,67.5000025749208,12|0,0:2|0:2,0:2:0:0:
346,332,101054,2,0,P|320:354|303:383,1,67.5000025749208,8|0,0:2|0:2,0:2:0:0:
459,378,101239,6,0,L|470:320,3,45,0|0|8|8,3:2|0:2|0:2|0:2,0:2:0:0:
443,296,101610,2,8,L|432:238,3,45,12|0|0|0,3:2|0:2|0:2|0:2,0:2:0:0:
460,226,101980,5,8,3:2:0:0:
463,203,102073,1,8,0:2:0:0:
466,180,102165,1,8,0:2:0:0:
452,93,102350,5,8,3:2:0:0:
429,96,102443,1,8,0:2:0:0:
406,99,102535,1,8,0:2:0:0:
383,101,102628,1,8,0:2:0:0:
360,104,102721,6,0,P|345:59|347:8,2,90,4|0|8,3:2|0:2|3:2,0:2:0:0:
247,37,103276,1,2,0:1:0:0:
247,37,103369,1,0,0:2:0:0:
247,37,103462,2,0,P|262:82|260:133,2,90,0|2|8,3:2|0:1|3:2,0:2:0:0:
158,97,104017,5,2,0:1:0:0:
158,97,104110,1,0,0:2:0:0:
158,97,104202,2,0,L|68:85,1,90,0|2,3:2|0:1,0:2:0:0:
48,195,104573,2,0,L|138:207,1,90,8|2,3:2|0:1,0:2:0:0:
199,280,104943,5,0,3:2:0:0:
216,266,105036,2,0,L|306:254,1,90,8|0,0:2|0:2,0:2:0:0:
326,251,105313,1,8,3:2:0:0:
472,360,105499,5,2,0:1:0:0:
472,360,105591,1,0,0:2:0:0:
472,360,105684,2,0,P|489:315|512:280,2,90,0|2|8,3:2|0:1|3:2,0:2:0:0:
426,243,106239,5,2,0:1:0:0:
426,243,106331,1,0,0:2:0:0:
426,243,106424,2,0,P|409:288|386:323,1,90,0|2,3:2|0:1,0:2:0:0:
270,146,106795,2,0,P|317:138|359:140,1,90,8|2,3:2|0:1,0:2:0:0:
270,327,107165,6,0,P|240:290|221:253,1,90,0|2,3:2|0:1,0:2:0:0:
270,146,107536,1,8,3:2:0:0:
323,221,107721,1,8,0:2:0:0:
157,204,107906,6,0,P|162:175|172:152,3,30,8|8|8|8,3:2|0:2|0:2|0:2,0:2:0:0:
19,89,108276,6,0,P|60:112|111:115,1,90,0|8,3:2|0:2,0:2:0:0:
170,73,108554,1,8,0:2:0:0:
170,73,108647,6,0,P|213:49|251:37,1,90,6|0,3:2|0:2,0:2:0:0:
470,111,109017,2,0,P|434:76|400:55,1,90,2|0,3:2|0:2,0:2:0:0:
223,294,109387,6,0,P|228:253|242:215,2,45,6|0|0,3:2|0:2|0:2,3:2:0:0:
421,265,109758,2,0,P|403:223|378:186,1,90,2|0,3:2|0:2,0:2:0:0:
131,302,110128,5,6,3:2:0:0:
131,302,110221,1,0,0:2:0:0:
131,302,110313,1,0,0:2:0:0:
314,378,110499,2,0,P|329:335|335:291,1,90,2|0,3:2|0:2,0:2:0:0:
268,120,110869,6,0,P|230:106|189:100,3,45,6|0|0|0,3:2|0:2|0:2|0:2,0:2:0:0:
190,114,111239,2,0,P|209:74|201:23,1,90,2|0,3:2|0:2,0:2:0:0:
124,20,111517,1,0,0:2:0:0:
124,20,111610,6,0,P|105:56|113:109,1,90,6|0,3:2|0:2,0:2:0:0:
254,235,111980,2,0,P|295:232|336:199,1,90,6|0,3:2|0:2,0:2:0:0:
394,137,112258,1,0,0:2:0:0:
394,137,112350,6,0,P|435:139|476:172,1,90,6|0,3:2|0:2,0:2:0:0:
208,384,112721,2,0,P|189:347|197:294,1,90,6|0,3:2|0:2,0:2:0:0:
333,203,113091,5,2,0:0:0:0:
335,220,113184,1,2,0:0:0:0:
337,237,113276,1,2,0:0:0:0:
340,254,113369,1,2,0:0:0:0:
369,279,113462,5,2,0:0:0:0:
367,296,113555,1,2,0:0:0:0:
365,313,113647,1,2,0:0:0:0:
362,330,113740,1,2,0:0:0:0:
374,360,113832,6,0,L|424:369,1,45,2|0,0:2|0:2,0:2:0:0:
511,303,114202,2,0,L|466:295,1,45,2|0,0:2|0:2,0:2:0:0:
428,223,114573,6,0,P|383:229|338:251,1,90,6|2,3:2|0:2,0:2:0:0:
257,379,114943,2,0,P|212:373|171:354,1,90,2|0,3:2|0:2,0:2:0:0:
130,209,115313,6,0,B|134:255|134:255|112:294,1,90,2|0,3:2|0:2,0:2:0:0:
0,268,115684,2,0,B|-4:222|-4:222|18:183,1,90,2|0,3:2|0:2,0:2:0:0:
114,122,116054,5,2,3:2:0:0:
220,223,116239,1,2,0:2:0:0:
288,84,116424,2,0,L|194:67,1,90,2|0,3:2|0:2,0:2:0:0:
356,33,116796,1,2,3:2:0:0:
333,156,116980,2,0,L|316:250,1,90,2|0,0:2|3:2,0:2:0:0:
299,322,117351,1,0,0:2:0:0:
399,244,117536,5,2,3:2:0:0:
333,156,117722,1,2,0:2:0:0:
299,322,117907,2,0,L|189:309,1,90,2|0,3:2|0:2,0:2:0:0:
121,288,118277,6,0,B|75:289|75:289|33:319,1,90,2|0,3:2|0:2,0:2:0:0:
6,183,118647,2,0,B|52:182|52:182|94:152,1,90,2|0,3:2|0:2,0:2:0:0:
4,74,119017,1,2,3:2:0:0:
161,199,119203,1,2,0:2:0:0:
213,130,119388,2,0,P|211:85|197:42,1,90,2|0,3:2|0:2,0:2:0:0:
189,31,119665,1,2,0:2:0:0:
179,21,119758,2,0,P|157:14|135:13,2,45,2|2|2,3:2|0:2|0:2,0:2:0:0:
277,188,120128,2,0,P|321:186|364:172,1,90,0|0,3:2|0:2,0:2:0:0:
433,114,120499,5,2,3:2:0:0:
486,219,120684,1,2,0:2:0:0:
403,298,120869,2,0,L|305:281,1,90,2|0,3:2|0:2,0:2:0:0:
90,260,121239,6,0,B|65:299|65:299|68:345,1,90,2|0,3:2|0:2,0:2:0:0:
184,365,121610,2,0,B|209:326|209:326|206:280,1,90,2|0,3:2|0:2,0:2:0:0:
90,260,121981,5,2,3:2:0:0:
196,188,122166,1,2,0:2:0:0:
95,127,122350,2,0,P|49:135|14:164,1,90,2|0,3:2|0:2,0:2:0:0:
183,282,122721,1,2,3:2:0:0:
287,211,122906,1,2,0:2:0:0:
183,282,123091,2,0,P|178:328|197:369,1,90,0|0,3:2|0:2,0:2:0:0:
402,100,123462,5,2,3:2:0:0:
277,69,123647,1,2,0:2:0:0:
287,211,123832,2,0,B|331:210|331:210|367:180,1,90,2|0,3:2|0:2,0:2:0:0:
199,107,124202,6,0,P|193:157|209:197,1,90,2|0,3:2|0:2,0:2:0:0:
423,52,124573,2,0,P|381:22|339:16,1,90,2|0,3:2|0:2,0:2:0:0:
309,240,124943,6,0,L|315:289,3,45,10|8|8|4,0:2|0:2|0:3|0:3,0:2:0:0:
366,173,125313,2,0,L|360:128,3,45,10|4|8|8,3:2|0:3|0:3|3:2,0:2:0:0:
440,229,125684,2,0,L|445:273,3,45,8|8|8|4,0:3|0:3|0:2|0:3,0:2:0:0:
502,167,126054,1,10,0:2:0:0:
500,153,126147,1,8,0:2:0:0:
498,139,126239,1,8,0:2:0:0:
496,125,126332,1,8,0:2:0:0:
493,111,126424,6,0,P|452:104|402:85,1,90,2|0,3:2|0:2,0:2:0:0:
375,178,126702,1,2,0:2:0:0:
366,173,126795,2,0,P|344:177|323:186,2,45,0|0|2,3:2|0:2|0:2,0:2:0:0:
327,270,127165,6,0,P|368:263|418:244,1,90,2|0,3:2|0:2,0:2:0:0:
444,334,127443,1,2,0:2:0:0:
454,332,127536,2,0,P|476:336|497:345,2,45,0|0|2,3:2|0:2|0:2,0:2:0:0:
364,367,127906,6,0,L|255:353,1,90,2|0,3:2|0:2,0:2:0:0:
163,304,128184,1,2,0:2:0:0:
151,297,128276,2,0,L|42:311,1,90,0|2,3:2|0:2,0:2:0:0:
20,120,128647,6,0,P|0:158|3:207,1,90,2|0,3:2|0:2,0:2:0:0:
99,134,129017,2,0,P|101:178|80:218,1,90,0|0,3:2|0:2,0:2:0:0:
24,42,129387,6,0,B|86:23|140:65|140:65,1,112.5,2|0,3:2|0:2,0:2:0:0:
204,42,129665,1,2,0:2:0:0:
183,115,129758,2,0,B|178:112|205:133|235:124,2,56.25,0|0|2,0:2|0:2|0:2,0:2:0:0:
492,149,130128,6,0,B|430:130|376:172|376:172,1,112.5,2|0,3:2|0:2,0:2:0:0:
312,149,130406,1,2,0:2:0:0:
328,224,130499,2,0,B|333:221|306:242|276:233,2,56.25,0|0|2,0:2|0:2|0:2,0:2:0:0:
10,251,130869,6,0,B|72:232|126:274|126:274,1,112.5,2|0,3:2|0:2,0:2:0:0:
190,251,131147,1,2,0:2:0:0:
172,326,131240,2,0,B|167:323|194:344|224:335,2,56.25,0|0|2,0:2|0:2|0:2,0:2:0:0:
487,261,131610,6,0,B|424:242|370:284|370:284,1,112.5,2|0,3:2|0:2,0:2:0:0:
503,341,131980,2,0,B|511:335|458:377|395:358,1,112.5,0|0,3:2|0:2,0:2:0:0:
263,302,132350,6,0,L|167:295,1,90,2|0,3:2|0:2,0:2:0:0:
104,293,132628,1,2,0:2:0:0:
94,301,132721,2,0,L|49:303,2,45,0|0|2,3:2|0:2|0:2,0:2:0:0:
36,191,133091,6,0,L|132:184,1,90,2|0,3:2|0:2,0:2:0:0:
195,182,133369,1,2,0:2:0:0:
205,190,133462,2,0,L|250:192,2,45,0|0|2,3:2|0:2|0:2,0:2:0:0:
396,104,133832,6,0,L|300:97,1,90,2|0,3:2|0:2,0:2:0:0:
237,95,134110,1,2,0:2:0:0:
227,103,134203,2,0,L|182:105,2,45,0|0|2,3:2|0:2|0:2,0:2:0:0:
52,34,134573,6,0,L|148:27,1,90,2|0,3:2|0:2,0:2:0:0:
294,70,134943,2,0,L|390:63,1,90,0|0,3:2|0:2,0:2:0:0:
512,79,135313,6,0,B|492:91|492:91|473:184,1,112.5,2|0,3:2|0:2,0:2:0:0:
464,283,135591,1,2,0:2:0:0:
480,203,135684,2,0,L|486:258,2,56.25,0|0|2,0:2|0:2|0:2,0:2:0:0:
360,321,136054,6,0,B|340:309|340:309|321:216,1,112.5,2|0,3:2|0:2,0:2:0:0:
305,115,136332,1,2,0:2:0:0:
328,197,136425,2,0,L|334:141,2,56.25,0|0|2,0:2|0:2|0:2,0:2:0:0:
218,107,136795,6,0,B|198:119|198:119|179:212,1,112.5,2|0,3:2|0:2,0:2:0:0:
165,309,137073,1,2,0:2:0:0:
186,231,137166,2,0,L|192:286,2,56.25,0|0|2,0:2|0:2|0:2,0:2:0:0:
67,336,137536,6,0,B|47:324|47:324|28:231,1,112.5,2|0,3:2|0:2,0:2:0:0:
142,107,137906,2,0,B|162:119|162:119|181:212,1,112.5,0|2,0:2|0:2,0:2:0:0:
1,40,138276,6,0,P|37:38|74:29,1,67.5000025749208,6|0,3:2|0:2,0:2:0:0:
230,100,138647,2,0,P|175:98|139:108,1,90,8|0,3:2|0:2,0:2:0:0:
42,208,139017,2,0,P|62:115|66:21,1,180,2|8,3:2|3:2,0:2:0:0:
176,196,139573,1,0,0:2:0:0:
141,106,139758,6,0,P|188:108|234:118,1,90,2|0,3:2|0:2,0:2:0:0:
143,280,140128,2,0,P|157:235|179:193,1,90,8|2,3:2|0:2,0:2:0:0:
309,58,140499,2,0,P|328:147|332:238,1,180,2|8,3:2|3:2,0:2:0:0:
229,117,141054,1,2,0:2:0:0:
393,12,141239,6,0,L|533:25,2,120,2|2|2,3:2|0:2|0:2,0:2:0:0:
512,98,141980,2,0,L|392:86,2,120,2|2|2,3:2|0:2|0:2,0:2:0:0:
309,58,142721,5,2,3:2:0:0:
309,58,143091,2,0,P|272:70|237:110,1,90,10|2,0:2|0:2,0:2:0:0:
399,172,143462,2,0,P|407:133|389:83,1,90,2|2,3:2|0:2,0:2:0:0:
255,192,143832,1,10,0:2:0:0:
255,192,144017,1,2,0:2:0:0:
512,288,144202,5,0,3:2:0:0:
460,223,144387,2,0,P|405:222|329:324,1,180,2|2,0:2|0:2,0:2:0:0:
206,371,144943,2,0,P|156:357|128:331,2,90,2|0|8,3:2|0:2|3:2,0:2:0:0:
245,288,145499,1,2,0:2:0:0:
245,288,145591,1,2,0:2:0:0:
245,288,145684,6,0,P|199:262|161:261,1,90,2|2,3:2|0:2,0:2:0:0:
3,346,146054,2,0,P|32:285|33:218,1,135,10|0,0:2|0:2,0:2:0:0:
27,206,146424,6,0,P|71:202|109:178,1,90,2|0,3:2|0:2,0:2:0:0:
83,99,146795,2,0,P|38:102|0:126,1,90,8|2,3:2|0:2,0:2:0:0:
207,199,147165,5,2,3:2:0:0:
185,20,147350,1,2,0:2:0:0:
288,156,147536,5,10,0:2:0:0:
109,178,147721,1,2,0:2:0:0:
245,75,147906,5,2,3:2:0:0:
267,254,148091,1,2,0:2:0:0:
164,118,148277,5,10,0:2:0:0:
343,96,148462,1,2,0:2:0:0:
267,254,148647,6,0,L|255:144,2,101.250003862381,2|2|2,3:2|0:2|0:2,0:2:0:0:
346,301,149387,6,0,P|392:279|409:237,1,90,2|0,3:2|0:2,0:2:0:0:
406,231,149665,1,2,0:2:0:0:
401,218,149758,2,0,P|449:208|492:202,1,90,0|2,0:2|0:2,0:2:0:0:
512,371,150128,6,0,P|485:367|458:361,3,45,4|0|0|0,3:2|0:2|0:2|0:2,0:2:0:0:
412,307,150499,2,0,P|389:311|367:314,3,45,8|0|0|0,3:2|0:2|0:2|0:2,0:2:0:0:
300,370,150869,2,0,P|273:366|246:360,3,45,2|0|0|0,3:2|0:2|0:2|0:2,0:2:0:0:
200,306,151240,2,0,P|177:310|155:313,3,45,8|0|2|0,3:2|0:2|0:2|0:2,0:2:0:0:
90,261,151610,6,0,P|93:238|97:216,3,45,2|0|0|0,3:2|0:2|0:2|0:2,0:2:0:0:
36,164,151980,2,0,P|32:141|28:119,3,45,8|0|0|0,3:2|0:2|0:2|0:2,0:2:0:0:
100,50,152350,5,2,3:2:0:0:
100,50,152443,2,0,P|106:94|114:138,1,90,0|0,3:2|0:2,0:2:0:0:
221,48,152721,1,8,3:2:0:0:
229,46,152813,1,0,0:2:0:0:
237,44,152906,1,2,0:2:0:0:
245,42,152999,1,0,0:2:0:0:
258,31,153091,6,0,P|261:53|265:75,3,45,0|0|0|0,3:2|0:2|0:2|0:2,0:2:0:0:
351,49,153462,2,0,P|346:70|342:93,3,45,8|0|0|0,3:2|0:2|0:2|0:2,0:2:0:0:
426,102,153832,2,0,P|414:121|403:140,3,45,0|0|0|0,3:2|0:2|0:2|0:2,0:2:0:0:
480,179,154202,2,0,P|462:192|445:207,3,45,8|0|0|0,3:2|0:2|0:2|0:2,0:2:0:0:
365,212,154573,5,0,3:2:0:0:
365,212,154665,1,0,0:2:0:0:
365,212,154758,2,0,P|338:209|311:204,1,45,2|0,0:2|0:2,0:2:0:0:
229,285,154943,2,0,P|251:281|273:278,1,45,10|0,0:2|0:2,0:2:0:0:
236,154,155128,2,0,P|239:176|242:198,1,45,2|0,0:2|0:2,0:2:0:0:
433,297,155313,5,2,3:2:0:0:
434,274,155406,1,0,0:2:0:0:
436,252,155499,1,2,0:2:0:0:
440,229,155591,1,0,0:2:0:0:
444,207,155684,1,10,0:2:0:0:
290,48,155869,5,10,0:2:0:0:
271,38,155962,1,8,0:2:0:0:
254,31,156054,2,0,P|250:53|246:75,3,45,0|0|2|0,3:2|0:2|0:2|0:2,0:2:0:0:
161,49,156424,2,0,P|165:70|169:93,3,45,8|0|0|0,3:2|0:2|0:2|0:2,0:2:0:0:
86,102,156795,2,0,P|98:122|110:143,3,45,0|0|0|0,3:2|0:2|0:2|0:2,0:2:0:0:
32,179,157165,2,0,P|49:192|66:207,3,45,8|0|0|0,3:2|0:2|0:2|0:2,0:2:0:0:
7,274,157536,6,0,P|20:321|20:366,1,90,0|0,3:2|0:2,0:2:0:0:
114,375,157906,2,0,P|126:331|149:293,1,90,8|0,3:2|0:2,0:2:0:0:
264,227,158276,5,0,3:2:0:0:
277,225,158368,2,0,P|321:226|364:238,1,90,8|0,0:2|0:2,0:2:0:0:
425,293,158647,2,0,P|469:291|512:279,1,90,10|2,0:2|0:2,0:2:0:0:
330,43,159017,6,0,B|280:58|281:113|281:113,1,90,2|0,3:2|0:2,0:2:0:0:
445,210,159387,2,0,B|495:195|494:140|494:140,1,90,10|0,0:2|0:2,0:2:0:0:
296,190,159758,6,0,B|310:239|365:238|365:238,1,90,2|0,3:2|0:2,0:2:0:0:
484,54,160128,2,0,B|469:4|414:5|414:5,1,90,10|0,0:2|0:2,0:2:0:0:
330,43,160499,5,2,3:2:0:0:
445,210,160684,1,0,3:2:0:0:
484,54,160869,5,2,3:2:0:0:
296,190,161054,1,2,3:2:0:0:
445,210,161239,5,2,3:2:0:0:
453,199,161332,2,0,B|444:189|444:189|403:181,1,45,0|0,0:2|0:2,0:2:0:0:
296,190,161517,2,0,B|302:233|302:233|308:240|308:240|314:285,1,90,0|0,3:2|0:2,0:2:0:0:
414,341,161795,2,0,L|420:284,1,45,0|0,3:2|0:2,0:2:0:0:
420,280,161980,5,2,0:2:0:0:
256,192,162026,12,0,163462,0:2:0:0:
256,192,164387,6,0,B|259:229|259:229|248:264,2,67.5000025749208,2|2|2,0:2|0:2|0:2,0:2:0:0:
256,192,164943,6,0,B|282:168|327:175,1,67.5000025749208,4|0,3:2|0:2,0:2:0:0:
422,245,165128,2,0,B|465:246|485:226,1,67.5000025749208,0|0,3:2|0:2,0:2:0:0:
469,107,165313,2,0,P|434:93|440:168,1,135.000005149842,10|0,0:2|0:2,0:2:0:0:
497,219,165591,1,0,0:2:0:0:
485,226,165684,6,0,P|451:289|457:365,1,135.000005149842,2|0,3:2|0:2,0:2:0:0:
324,314,165962,1,2,3:2:0:0:
372,368,166054,2,0,P|361:342|343:322,1,56.25,0|0,0:2|0:2,0:2:0:0:
249,305,166239,5,10,0:2:0:0:
365,208,166424,2,0,B|368:172|368:172|355:143,1,67.5000025749208,0|0,0:2|0:2,0:2:0:0:
273,111,166610,2,0,B|233:129|233:129|211:159,1,78.7500007510185,0|0,3:2|0:2,0:2:0:0:
173,358,166795,6,0,B|61:338|155:307|12:280,1,157.500001502037,8|0,0:2|0:2,0:2:0:0:
43,173,167073,1,0,0:2:0:0:
56,170,167165,2,0,B|167:189|73:220|216:247,1,157.500001502037,0|0,3:2|0:2,0:2:0:0:
190,241,167536,6,0,P|213:194|208:140,1,90,8|0,0:2|0:2,0:2:0:0:
118,109,167721,2,0,P|74:137|51:186,1,90,0|0,0:2|0:2,0:2:0:0:
6,332,167906,6,0,B|44:300|96:314|96:314|128:368|195:355,1,188.999994232178,2|0,3:2|3:2,0:2:0:0:
247,317,168184,1,0,0:2:0:0:
258,309,168276,2,0,P|329:308|378:362,1,135.000005149842,10|0,0:2|0:2,0:2:0:0:
512,229,168647,6,0,P|465:249|370:229,1,135.000005149842,2|0,3:2|0:2,0:2:0:0:
430,72,168925,1,0,3:2:0:0:
437,65,169017,2,0,P|469:69|519:113,1,67.5000025749208,2|0,0:2|0:2,0:2:0:0:
373,231,169202,1,10,0:2:0:0:
373,231,169387,6,0,P|346:211|326:148,1,67.5000025749208,0|0,0:2|0:2,0:2:0:0:
348,31,169573,2,0,P|343:63|299:113,1,67.5000025749208,0|0,3:2|0:2,0:2:0:0:
171,163,169758,2,0,P|211:137|261:147,1,90,8|0,0:2|3:2,0:2:0:0:
230,220,170128,6,0,P|218:243|215:269,2,45,8|8|8,0:2|0:2|0:2,0:2:0:0:
289,338,170499,2,0,P|300:314|303:288,2,45,8|8|8,0:2|0:2|0:2,0:2:0:0:
373,231,170869,6,0,B|386:297|386:297|393:303|393:303|405:368,1,135.000005149842,6|0,3:2|3:2,0:2:0:0:
426,161,171239,1,10,0:2:0:0:
317,160,171424,1,0,0:2:0:0:
317,160,171517,1,0,0:2:0:0:
317,160,171593,6,0,B|329:98|329:98|336:91|336:91|348:30,1,135.000005149842,2|0,3:2|0:2,0:2:0:0:
234,197,171963,1,2,0:2:0:0:
234,197,172160,2,0,B|199:182|199:182|195:152,1,67.5000025749208,10|0,0:2|0:2,0:2:0:0:
198,69,172357,6,0,P|174:75|148:86,1,45,0|0,0:2|0:2,0:2:0:0:
39,144,172532,2,0,P|59:152|81:157,1,45,0|0,3:2|0:2,0:2:0:0:
259,263,172709,2,0,P|216:247|172:237,1,90,8|0,0:2|0:2,0:2:0:0:
94,249,172986,1,0,0:2:0:0:
86,252,173079,5,0,3:2:0:0:
145,338,173264,1,0,3:2:0:0:
240,170,173449,2,0,P|307:168|378:196,1,135.000005149842,8|0,0:2|0:2,0:2:0:0:
370,191,173820,6,0,P|362:164|348:138,1,56.25,2|0,3:2|0:2,0:2:0:0:
454,227,174005,2,0,P|479:213|506:206,1,56.25,0|0,3:2|0:2,0:2:0:0:
434,106,174190,6,0,B|453:121|453:121|475:122,1,45,10|0,0:2|0:2,0:2:0:0:
473,121,174560,6,0,P|453:77|358:66,1,135.000005149842,2|0,3:2|0:2,0:2:0:0:
297,76,174838,1,0,3:2:0:0:
293,83,174931,2,0,P|257:109|210:110,1,90,2|14,0:2|0:2,0:2:0:0:
99,45,175301,6,0,B|55:41|55:41|20:76,1,90,0|0,0:2|3:2,0:2:0:0:
78,253,175671,2,0,B|122:257|122:257|157:222,1,90,12|0,0:2|0:2,0:2:0:0:
95,147,176043,5,8,3:2:0:0:
87,141,176133,1,8,0:2:0:0:
78,142,176223,1,0,3:2:0:0:
72,150,176314,1,8,0:2:0:0:
74,159,176406,1,8,0:2:0:0:
80,164,176499,1,0,3:2:0:0:
90,163,176603,1,8,0:2:0:0:
95,156,176689,1,8,0:2:0:0:
85,157,176786,6,0,B|86:148|86:148|12:146|12:146|54:279,1,202.500007724762,4|0,3:2|0:2,0:2:0:0:
44,348,177156,2,0,L|179:322,1,135.000005149842,8|2,3:2|0:3,0:2:0:0:
282,263,177434,1,0,0:2:0:0:
292,255,177526,6,0,B|319:233|319:233|296:362|296:362|223:326,1,202.500007724762,0|0,3:2|0:2,0:2:0:0:
167,242,177897,2,0,P|156:206|227:216,1,135.000005149842,8|2,3:2|0:3,0:2:0:0:
328,46,178267,6,0,L|385:38,1,56.25,0|0,3:2|0:2,0:2:0:0:
339,122,178452,2,0,L|396:114,1,56.25,2|0,0:3|0:2,0:2:0:0:
489,202,178637,6,0,L|412:193,1,67.5000025749208,8|0,3:2|0:2,0:2:0:0:
478,279,178823,2,0,L|401:270,1,67.5000025749208,2|0,0:3|0:2,0:2:0:0:
336,333,179008,6,0,B|258:342|258:342|244:354|244:354|134:366,1,202.500007724762,0|0,3:2|0:2,0:2:0:0:
147,279,179378,2,0,P|168:275|126:258,1,135.000005149842,8|2,3:2|0:3,0:2:0:0:
24,311,179748,6,0,B|49:264|26:225|26:225|53:138|154:141,1,236.250002253056,0|0,3:2|0:2,0:2:0:0:
119,124,180119,2,0,P|57:142|12:200,1,135.000005149842,8|2,3:2|0:3,0:2:0:0:
147,1,180489,6,0,B|169:37|205:36|205:36|255:90|212:159,1,202.500007724762,0|0,3:2|0:2,0:2:0:0:
230,162,180860,2,0,P|252:101|224:33,1,135.000005149842,8|2,3:2|0:3,0:2:0:0:
13,195,181230,6,0,P|65:232|138:223,1,135.000005149842,0|2,3:2|0:3,0:2:0:0:
160,116,181600,2,0,P|105:78|39:84,1,135.000005149842,8|2,3:2|0:3,0:2:0:0:
197,384,181971,6,0,B|246:343|246:343|230:251,1,135.000005149842,0|0,3:0|0:0,0:0:0:0:
215,185,182341,2,0,B|268:193|268:193|277:200|277:200|353:212,1,135.000005149842,8|8,3:2|0:2,0:2:0:0:
359,210,182619,1,8,0:2:0:0:
372,210,182711,5,4,3:2:0:0:
433,151,182897,1,0,0:2:0:0:
485,361,183082,2,0,P|467:310|459:226,1,135.000005149842,8|2,3:2|0:3,0:2:0:0:
355,130,183452,5,0,3:2:0:0:
294,71,183637,1,2,0:3:0:0:
242,281,183823,2,0,P|260:230|268:146,1,135.000005149842,8|2,3:2|0:3,0:2:0:0:
209,360,184193,5,4,3:2:0:0:
168,187,184378,1,0,0:2:0:0:
94,359,184563,5,4,3:2:0:0:
182,185,184748,1,0,0:2:0:0:
2,193,184934,2,0,B|23:279|112:255|112:255,1,135.000005149842,4|8,3:2|0:2,0:2:0:0:
203,95,185304,2,0,B|182:9|93:33|93:33,1,135.000005149842,8|8,3:2|0:2,0:2:0:0:
100,31,185674,6,0,P|84:61|77:93,1,67.5000025749208,4|0,3:2|0:2,0:2:0:0:
268,149,185860,2,0,P|284:119|291:87,1,67.5000025749208,0|0,0:2|0:2,0:2:0:0:
85,171,186045,2,0,P|151:182|212:209,1,135.000005149842,8|2,3:2|0:3,0:2:0:0:
296,227,186415,6,0,P|362:216|424:189,1,135.000005149842,0|2,3:2|0:3,0:2:0:0:
503,312,186786,2,0,P|495:279|479:249,1,67.5000025749208,12|0,3:2|0:2,0:2:0:0:
288,305,186972,2,0,P|295:337|311:367,1,67.5000025749208,8|0,3:2|0:2,0:2:0:0:
394,313,187161,5,4,3:2:0:0:
208,279,187531,2,0,L|192:325,3,45,8|8|8|8,3:2|0:2|0:2|0:2,0:2:0:0:
100,278,187892,2,0,L|109:325,3,45,8|8|8|8,3:2|0:2|0:2|0:2,0:2:0:0:
29,360,188244,1,8,3:2:0:0:
29,360,188338,1,8,0:2:0:0:
29,360,188433,1,8,0:2:0:0:
29,360,188531,1,8,0:2:0:0:
29,360,188615,6,0,P|21:315|3:274,1,90,4|0,3:2|0:2,0:2:0:0:
3,274,188990,1,8,0:0:0:0:
74,192,189175,1,2,0:1:0:0:
74,192,189267,1,0,0:2:0:0:
74,192,189360,2,0,P|81:236|99:277,2,90,0|2|8,3:2|0:1|3:2,0:2:0:0:
351,144,189915,5,2,0:1:0:0:
351,144,190008,1,0,0:2:0:0:
351,144,190101,2,0,L|363:54,1,90,0|2,3:2|0:1,0:2:0:0:
253,34,190472,2,0,L|241:124,1,90,8|2,3:2|0:1,0:2:0:0:
394,211,190844,6,0,P|418:180|430:127,1,90,0|2,3:2|0:1,0:2:0:0:
175,186,191215,2,0,P|159:149|161:95,1,90,8|2,3:2|0:1,0:2:0:0:
102,36,191494,1,0,0:2:0:0:
102,36,191587,6,0,P|56:53|22:76,2,90,0|2|8,3:2|0:1|3:2,0:2:0:0:
95,225,192144,1,2,0:1:0:0:
95,225,192237,1,0,0:2:0:0:
95,225,192330,2,0,P|140:208|175:185,1,90,0|2,3:2|0:1,0:2:0:0:
307,36,192701,2,0,P|300:83|302:125,1,90,8|2,3:2|0:1,0:2:0:0:
365,314,193073,6,0,P|327:284|290:265,1,90,0|2,3:2|0:1,0:2:0:0:
215,305,193444,1,8,3:2:0:0:
255,384,193630,1,8,0:2:0:0:
429,252,193816,2,0,L|435:149,1,90,8|8,3:2|0:2,0:2:0:0:
437,153,194094,1,8,0:2:0:0:
442,143,194187,6,0,P|401:166|361:178,1,90,8|8,3:2|0:2,0:2:0:0:
308,99,194466,1,8,0:2:0:0:
308,99,194559,6,0,P|265:75|227:63,1,90,6|0,3:2|0:2,0:2:0:0:
20,134,194930,2,0,P|56:99|90:78,1,90,2|0,3:2|0:2,0:2:0:0:
267,294,195302,6,0,P|262:253|248:215,2,45,6|0|0,3:2|0:2|0:2,0:2:0:0:
69,265,195673,2,0,P|87:223|112:186,1,90,2|0,3:2|0:2,0:2:0:0:
359,302,196045,5,6,3:2:0:0:
359,302,196138,1,0,0:2:0:0:
359,302,196231,1,0,0:2:0:0:
176,378,196416,2,0,P|161:335|155:291,1,90,2|0,3:2|0:2,0:2:0:0:
222,120,196788,6,0,P|260:106|301:100,3,45,6|0|0|0,3:2|0:2|0:2|0:2,0:2:0:0:
300,114,197159,2,0,P|281:74|289:23,1,90,2|0,3:2|0:2,0:2:0:0:
366,20,197438,1,0,0:2:0:0:
366,20,197531,6,0,P|385:56|377:109,1,90,6|0,3:2|0:2,0:2:0:0:
236,235,197902,2,0,P|195:232|154:199,1,90,6|0,3:2|0:2,0:2:0:0:
96,137,198181,1,0,0:2:0:0:
96,137,198274,6,0,P|55:139|14:172,1,90,6|0,3:2|0:2,0:2:0:0:
282,384,198645,2,0,P|301:347|293:294,1,90,6|0,3:2|0:2,0:2:0:0:
0,288,199017,6,0,L|45:293,3,45,6|2|2|2,3:2|0:2|0:2|0:2,0:2:0:0:
80,296,199388,2,0,L|125:301,3,45,6|2|2|2,3:2|0:2|0:2|0:2,0:2:0:0:
509,272,199946,6,2,B|458:264|458:264|455:270|455:270|431:228|431:228|428:232|428:232|370:225,1,168.750006437302,0|0,0:2|0:2,0:1:0:0:
299,272,200470,5,6,3:2:0:0:
289,272,200562,1,0,0:2:0:0:
280,273,200655,1,0,3:2:0:0:
271,274,200747,1,0,0:2:0:0:
262,275,200840,2,0,P|257:301|254:323,3,45,10|0|0|0,0:2|0:2|0:2|0:2,0:2:0:0:
183,356,201210,5,2,3:2:0:0:
173,356,201303,1,0,0:2:0:0:
164,355,201395,1,0,0:2:0:0:
155,354,201488,1,0,3:2:0:0:
146,353,201581,2,0,P|141:327|138:305,3,45,2|0|8|0,0:2|0:2|0:2|0:2,0:2:0:0:
66,281,201951,5,2,0:2:0:0:
67,272,202044,1,0,0:2:0:0:
68,263,202136,1,0,3:2:0:0:
69,254,202229,1,0,0:2:0:0:
70,245,202321,1,10,0:2:0:0:
71,236,202414,1,0,0:2:0:0:
72,227,202507,1,0,0:2:0:0:
73,218,202599,1,0,0:2:0:0:
74,209,202692,2,0,P|53:200|27:197,3,45,2|0|0|0,3:2|0:2|3:2|0:2,0:2:0:0:
153,234,203062,6,0,P|175:230|195:221,1,45,10|0,0:2|0:2,0:2:0:0:
179,82,203247,2,0,P|199:73|221:69,1,45,0|0,0:2|0:2,0:2:0:0:
287,124,203432,6,0,P|335:114|377:97,1,90,2|0,3:2|3:2,0:2:0:0:
404,81,203710,1,0,0:2:0:0:
392,176,203803,6,0,P|440:182|484:196,1,90,10|0,0:2|0:2,0:2:0:0:
512,209,204081,1,0,0:2:0:0:
422,286,204173,6,0,P|451:285|477:279,3,45,2|0|0|0,3:2|0:2|0:2|3:2,0:2:0:0:
367,337,204544,2,0,P|344:333|322:333,3,45,2|0|8|0,0:2|0:2|0:2|0:2,0:2:0:0:
315,255,204914,6,0,P|292:258|270:258,3,45,2|0|0|0,0:2|0:2|3:2|0:2,0:2:0:0:
211,313,205284,2,0,P|188:309|166:309,3,45,10|0|0|8,0:2|0:2|0:2|0:2,0:2:0:0:
81,324,205655,1,2,3:2:0:0:
27,139,205841,1,8,0:2:0:0:
19,98,205934,1,8,0:2:0:0:
64,100,206028,1,8,0:3:0:0:
104,119,206122,1,8,0:3:0:0:
125,158,206216,1,4,0:3:0:0:
128,203,206309,1,4,0:3:0:0:
108,244,206403,6,0,P|82:280|81:324,1,90,6|0,3:2|3:2,0:2:0:0:
157,380,206773,2,0,P|182:343|183:299,1,90,10|0,0:2|0:2,0:2:0:0:
125,158,207143,6,0,P|99:121|98:77,1,90,2|0,3:2|0:2,0:2:0:0:
184,54,207514,2,0,P|209:90|210:134,1,90,2|8,0:2|0:2,0:2:0:0:
228,216,207884,6,0,L|278:223,1,45,2|0,0:2|0:2,0:2:0:0:
356,146,208070,2,0,L|311:152,1,45,0|0,3:2|0:2,0:2:0:0:
266,300,208254,6,0,L|316:307,1,45,10|0,0:2|0:2,0:2:0:0:
410,237,208440,2,0,L|365:243,1,45,0|0,0:2|0:2,0:2:0:0:
467,362,208625,6,0,L|474:302,1,45,2|0,3:2|0:2,0:2:0:0:
487,237,208810,2,0,P|485:214|477:193,1,45,0|0,3:2|0:2,0:2:0:0:
356,146,208995,2,0,P|376:155|398:159,1,45,10|0,0:2|0:2,0:2:0:0:
501,79,209180,2,0,P|482:91|468:109,1,45,0|0,0:2|0:2,0:2:0:0:
410,237,209365,6,0,L|310:250,1,90,2|0,3:2|0:2,0:2:0:0:
194,344,209736,2,0,P|142:336|106:307,1,90,10|0,0:2|0:2,0:2:0:0:
129,171,210107,6,0,B|110:215|110:215|68:228,1,90,2|0,3:2|0:2,0:2:0:0:
29,216,210384,6,0,B|1:181|1:181|12:122,1,90,0|0,3:2|0:2,0:2:0:0:
6,57,210662,6,0,B|89:46|49:104|156:90,1,135,8|0,0:2|0:2,0:2:0:0:
201,24,211033,1,0,3:2:0:0:
145,235,211218,5,10,0:2:0:0:
145,235,211403,1,8,0:2:0:0:
325,99,211594,6,0,B|341:118|341:118|326:190,1,90,6|10,3:2|0:2,0:2:0:0:
219,280,211890,1,8,0:2:0:0:
222,272,211978,2,0,P|187:243|133:236,1,90,2|10,3:2|0:2,0:2:0:0:
25,290,212339,5,6,3:2:0:0:
164,139,212524,2,0,P|164:82|128:32,2,112.5,2|10|2,0:2|0:2|0:2,0:2:0:0:
0,181,213079,5,2,3:2:0:0:
16,177,213172,2,0,P|85:186|124:285,1,168.75,8|10,0:2|0:2,0:2:0:0:
164,139,213635,1,2,0:2:0:0:
205,313,213820,5,2,3:2:0:0:
221,317,213913,2,0,P|290:307|329:208,1,168.75,8|10,0:2|0:2,0:2:0:0:
420,340,214376,1,2,0:2:0:0:
306,145,214561,2,0,L|238:136,2,56.25,2|8|0,3:2|0:2|0:2,0:2:0:0:
479,225,214931,2,0,B|454:167|392:162,1,112.5,10|2,0:2|0:2,0:2:0:0:
127,267,215301,5,6,3:2:0:0:
308,352,215487,2,0,L|431:338,2,112.5,2|10|2,0:2|0:2|0:2,0:2:0:0:
91,102,216042,5,2,3:2:0:0:
79,114,216135,2,0,P|52:170|50:283,1,168.75,8|10,0:2|0:2,0:2:0:0:
123,354,216598,1,2,0:2:0:0:
220,307,216783,5,2,3:2:0:0:
232,295,216876,2,0,P|258:238|260:125,1,168.75,8|10,0:2|0:2,0:2:0:0:
308,352,217339,1,14,0:2:0:0:
401,217,217524,6,0,P|393:182|382:159,2,56.25,10|8|8,0:2|0:2|0:2,0:2:0:0:
382,311,217894,5,8,0:3:0:0:
404,307,217987,1,8,0:3:0:0:
426,310,218079,1,4,0:3:0:0:
445,321,218172,1,4,0:3:0:0:
457,339,218264,5,6,3:2:0:0:
497,242,218450,2,0,P|509:187|510:131,1,112.5,2|10,0:2|0:2,0:2:0:0:
293,109,218820,1,2,0:2:0:0:
456,79,219005,1,2,3:2:0:0:
280,112,219190,1,2,0:2:0:0:
379,34,219376,2,0,P|367:89|366:145,1,112.5,10|2,0:2|0:2,0:2:0:0:
497,242,219746,2,0,P|442:230|386:229,1,112.5,2|0,3:2|0:0,0:2:0:0:
170,358,220116,5,10,0:2:0:0:
302,320,220301,1,10,0:2:0:0:
197,221,220487,1,2,3:2:0:0:
204,229,220579,2,0,B|158:222|158:222|91:227|36:279,1,168.75,8|10,0:2|3:2,0:2:0:0:
3,92,221042,1,0,0:2:0:0:
3,92,221135,1,8,0:2:0:0:
3,92,221227,6,0,P|42:124|64:165,1,90,6|0,3:2|0:2,0:2:0:0:
129,20,221598,1,10,0:2:0:0:
233,132,221783,1,2,0:2:0:0:
233,132,221876,1,0,0:2:0:0:
233,132,221968,6,0,P|226:171|206:203,3,45,2|0|0|0,3:2|0:2|3:2|3:2,0:2:0:0:
297,72,222339,2,0,P|303:32|323:0,3,45,10|0|0|0,0:2|0:2|3:2|1:2,0:2:0:0:
317,149,222709,5,2,3:2:0:0:
334,151,222797,1,8,0:2:0:0:
350,154,222885,2,0,L|408:164,1,45,0|8,3:0|0:3,0:2:0:0:
483,135,223077,5,10,0:2:0:0:
480,151,223173,1,0,3:0:0:0:
478,168,223269,2,0,L|468:226,1,45,8|8,0:3|0:2,0:2:0:0:
497,301,223456,5,2,3:2:0:0:
480,299,223550,1,4,0:3:0:0:
464,296,223644,2,0,L|406:286,1,45,8|0,0:2|3:0,0:2:0:0:
336,282,223831,6,8,L|345:224,3,45,10|8|10|8,0:2|0:0|0:2|0:0,0:2:0:0:
350,154,224187,1,2,3:2:0:0:
97,100,230108,5,4,3:2:0:0:
294,61,230293,1,0,3:2:0:0:
324,248,230478,1,8,0:2:0:0:
324,248,230848,6,0,B|361:204|361:204|422:211,1,112.5,0|0,3:2|0:2,0:2:0:0:
401,325,231126,2,0,B|344:314|344:314|319:258,1,112.5,0|0,3:2|0:2,0:2:0:0:
429,219,231404,2,0,B|448:273|448:273|412:322,1,112.5,8|0,0:2|0:2,0:2:0:0:
90,209,231774,5,0,3:2:0:0:
270,362,231959,2,0,B|193:348|193:348|186:339|186:339|95:323,1,168.75,8|8,0:2|0:2,0:2:0:0:
26,326,232330,5,2,3:2:0:0:
202,232,232515,1,0,3:2:0:0:
117,47,232700,1,8,0:2:0:0:
90,209,232885,1,10,0:2:0:0:
90,209,232978,1,8,0:2:0:0:
90,209,233070,2,0,P|75:161|54:118,1,90,4|0,3:2|3:2,0:2:0:0:
234,21,233441,6,0,P|215:61|202:104,1,90,8|0,0:2|3:2,0:2:0:0:
398,134,233811,2,0,P|353:138|309:148,1,90,8|0,0:2|3:2,0:2:0:0:
302,152,234089,1,8,0:2:0:0:
297,158,234182,1,0,3:2:0:0:
423,307,234367,1,10,0:2:0:0:
335,262,234552,6,0,P|321:305|303:345,1,90,0|0,3:2|3:2,0:2:0:0:
88,251,234922,1,8,0:2:0:0:
88,251,235293,2,0,P|101:207|119:167,1,90,2|8,3:2|0:2,0:2:0:0:
236,305,235581,6,0,P|192:315|147:319,1,90,2|8,3:2|0:2,0:2:0:0:
232,171,235833,6,0,P|247:187|260:205,1,45,2|0,3:2|0:2,0:2:0:0:
332,381,236061,5,2,0:2:0:0:
332,381,236246,1,2,0:2:0:0:
332,381,236431,2,0,L|428:373,1,90,10|0,0:2|0:2,0:2:0:0:
444,376,236709,1,8,0:2:0:0:
466,379,236801,2,0,L|479:328,2,45,10|0|8,0:2|0:2|0:2,0:2:0:0:
388,297,237172,1,2,0:2:0:0:
468,249,237357,1,8,0:2:0:0:
388,197,237542,6,0,L|340:205,2,45,2|8|2,0:2|0:2|0:2,0:2:0:0:
512,130,237912,2,0,L|418:114,1,90,10|0,0:2|0:2,0:2:0:0:
294,92,238283,1,10,0:2:0:0:
491,27,238468,2,0,L|397:11,1,90,10|8,0:2|0:2,0:2:0:0:
379,12,238746,1,8,0:2:0:0:
356,15,238838,1,8,0:2:0:0:
148,35,239023,6,0,L|54:19,1,90,2|2,0:2|0:2,0:2:0:0:
0,144,239394,2,0,L|93:128,1,90,10|0,0:2|0:2,0:2:0:0:
111,126,239672,1,8,0:2:0:0:
133,124,239764,2,0,L|144:173,2,45,10|0|8,0:2|0:2|0:2,0:2:0:0:
66,216,240135,1,2,0:2:0:0:
147,268,240320,1,8,0:2:0:0:
61,310,240505,6,0,L|10:303,2,45,2|8|2,0:2|0:2|0:2,0:2:0:0:
136,373,240875,2,0,L|238:359,1,90,10|0,0:2|0:2,0:2:0:0:
66,216,241246,1,10,0:2:0:0:
147,268,241431,2,0,L|249:254,1,90,10|10,0:2|0:2,0:2:0:0:
255,267,241709,1,8,0:2:0:0:
272,280,241801,1,8,0:2:0:0:
259,108,241986,6,0,P|209:113|158:201,1,135,6|0,3:2|0:2,0:2:0:0:
145,186,242357,2,0,P|190:113|274:95,1,168.75,2|0,3:2|0:2,0:2:0:0:
364,133,242727,6,0,P|403:208|377:290,1,168.75,6|0,3:2|0:2,0:2:0:0:
389,300,243098,2,0,P|415:204|367:117,1,202.500007724762,2|0,3:2|0:2,0:2:0:0:
258,109,243468,6,0,P|193:116|127:230,1,202.500007724762,6|0,3:2|0:2,0:2:0:0:
114,241,243838,2,0,P|161:123|283:99,1,236.250002253056,2|0,3:2|0:2,0:2:0:0:
364,133,244209,6,0,P|419:239|382:352,1,236.250002253056,6|0,3:2|0:2,0:2:0:0:
402,359,244579,2,0,P|429:229|364:115,1,270,0|0,3:2|0:2,0:2:0:0:
279,199,244949,6,0,P|276:278|326:339,1,135.000005149842,6|2,3:2|0:2,0:2:0:0:
401,358,245320,2,0,P|335:357|281:319,1,135.000005149842,6|0,3:2|0:2,0:2:0:0:
279,199,245690,6,0,P|211:156|133:170,1,135.000005149842,6|0,3:2|0:2,0:2:0:0:
79,225,246061,2,0,P|113:167|173:140,1,135.000005149842,6|0,3:2|0:2,0:2:0:0:
279,199,246431,6,0,P|349:161|376:87,1,135.000005149842,6|2,3:2|0:2,0:2:0:0:
356,12,246801,2,0,L|327:10,6,22.5,6|2|2|2|2|2|2,3:2|0:2|0:2|0:2|0:2|0:2|0:2,0:2:0:0:
434,21,247172,5,2,0:2:0:0:
434,21,247893,5,4,3:2:0:0:
454,104,248078,1,2,3:2:0:0:
454,104,248818,5,2,3:2:0:0:
293,82,249189,5,2,3:2:0:0:
293,82,250300,1,2,3:2:0:0:
282,162,250485,1,2,3:2:0:0:
272,242,250670,1,2,3:2:0:0:
262,322,250855,5,4,3:2:0:0:
181,310,251041,1,2,3:2:0:0:
181,310,251781,5,2,3:2:0:0:
22,343,252152,1,2,3:2:0:0:
71,261,252326,6,0,P|77:213|74:166,1,90,4|8,3:2|0:2,0:2:0:0:
71,153,252614,1,8,0:2:0:0:
68,136,252706,6,0,P|115:129|160:114,1,90,12|8,0:2|0:2,0:2:0:0:
172,109,252998,1,8,0:2:0:0:
190,102,253093,6,0,P|208:146|234:185,1,90,12|8,0:2|0:2,0:2:0:0:
243,195,253360,1,8,0:2:0:0:
256,192,253450,6,0,P|279:195|302:202,3,45,8|8|8|8,0:2|0:2|0:2|0:2,0:2:0:0:
204,281,253807,6,0,P|135:291|-2:381,1,202.500007724762,6|6,3:2|3:2,0:2:0:0:
20,356,254328,6,0,P|105:301|204:281,1,202.500007724762,6|6,3:2|3:2,0:2:0:0:
203,281,254845,6,0,P|105:301|20:356,1,202.500007724762,6|6,3:2|3:2,0:2:0:0:
256,192,255347,6,0,P|325:202|462:292,1,202.500007724762,6|6,3:2|3:2,0:2:0:0:
439,267,255882,6,0,P|354:212|256:192,1,202.500007724762,6|2,3:2|0:2,0:2:0:0:
256,192,256787,6,0,P|227:209|192:217,1,67.5000025749208,4|0,3:2|0:2,0:2:0:0:
282,81,256972,2,0,P|311:64|345:55,1,67.5000025749208,0|0,3:2|0:2,0:2:0:0:
368,157,257157,6,0,B|246:185|299:84|145:129,1,202.500007724762,8|0,0:2|0:2,0:2:0:0:
168,125,257435,1,0,0:2:0:0:
161,126,257527,6,0,B|153:184|153:184|132:195|132:195|122:255,1,135.000005149842,2|0,3:2|0:2,0:2:0:0:
9,115,257805,1,0,3:2:0:0:
15,113,257898,2,0,B|44:122|44:122|55:163,1,67.5000025749208,0|0,0:2|0:2,0:2:0:0:
100,325,258083,1,8,0:2:0:0:
100,325,258268,6,0,P|137:325|173:311,1,67.5000025749208,2|0,0:2|0:2,0:2:0:0:
228,247,258453,2,0,P|265:247|301:261,1,67.5000025749208,0|0,3:2|0:2,0:2:0:0:
365,384,258638,6,0,B|346:348|350:317|350:317|387:284|372:224,1,157.500001502037,8|0,0:2|0:2,0:2:0:0:
368,230,258916,1,0,0:2:0:0:
495,297,259009,6,0,P|449:227|487:45,1,270,2|0,3:2|0:2,0:2:0:0:
491,47,259379,6,0,P|458:53|429:71,1,67.5000025749208,8|0,0:2|0:2,0:2:0:0:
368,157,259564,2,0,L|299:149,1,67.5000025749208,0|0,0:2|0:2,0:2:0:0:
223,86,259749,6,0,B|191:48|191:48|212:203,1,188.999994232178,2|0,3:2|3:2,0:2:0:0:
207,194,260027,1,0,0:2:0:0:
41,230,260120,6,0,P|114:224|141:286,1,135.000005149842,8|0,0:2|0:2,0:2:0:0:
141,284,260398,1,0,0:2:0:0:
65,324,260490,6,0,B|144:314|123:356|202:348,1,135.000005149842,2|0,3:2|0:2,0:2:0:0:
243,276,260768,1,0,3:2:0:0:
243,276,260861,2,0,P|282:280|303:295,1,58.4999973220826,0|0,0:2|0:2,0:2:0:0:
351,366,261046,1,8,0:2:0:0:
351,366,261231,6,0,B|334:332|334:332|336:285,1,67.5000025749208,2|8,0:2|0:2,0:2:0:0:
492,203,261416,2,0,B|508:236|508:236|507:284,1,67.5000025749208,0|0,3:2|0:2,0:2:0:0:
427,316,261601,6,0,L|407:210,1,90,8|0,0:2|0:2,0:2:0:0:
470,74,261972,6,0,L|419:67,3,45,10|8|8|8,3:2|0:2|0:2|0:2,0:2:0:0:
365,121,262333,2,0,L|298:111,3,45,8|8|8|8,3:2|0:2|0:2|0:2,0:2:0:0:
256,64,262692,6,0,P|209:63|139:115,2,135.000005149842,6|0|8,3:2|3:2|0:2,0:2:0:0:
215,271,263247,1,0,0:2:0:0:
215,271,263340,1,0,0:2:0:0:
215,271,263432,2,0,P|262:272|332:220,2,135.000005149842,2|0|0,3:2|0:2|0:2,0:2:0:0:
215,271,263988,2,0,B|194:297|194:297|198:347,1,67.5000025749208,10|0,0:2|0:2,0:2:0:0:
349,261,264173,6,0,P|339:230|323:217,1,45,0|0,0:2|0:2,0:2:0:0:
399,322,264358,2,0,P|420:297|424:277,1,45,0|0,3:2|0:2,0:2:0:0:
406,105,264543,6,0,L|422:205,1,90,8|0,0:2|0:2,0:2:0:0:
421,198,264821,1,0,0:2:0:0:
422,202,264914,2,0,P|470:196|508:162,1,90,0|0,3:2|3:2,0:2:0:0:
472,24,265307,6,0,B|426:8|426:8|334:43|334:43|272:34,1,202.500007724762,8|0,0:2|0:2,0:2:0:0:
264,23,265664,6,0,P|248:56|248:81,1,56.25,2|0,3:2|0:2,0:2:0:0:
154,153,265851,2,0,P|150:125|137:100,1,56.25,0|0,3:2|0:2,0:2:0:0:
235,207,266039,6,0,P|247:180|247:160,1,45,8|0,0:2|0:2,0:2:0:0:
248,165,266428,6,0,P|313:161|365:208,1,135.000005149842,2|0,3:2|0:2,0:2:0:0:
390,282,266705,1,0,3:2:0:0:
390,282,266798,2,0,P|437:299|483:285,1,90,0|14,3:2|0:2,0:2:0:0:
366,43,267168,6,0,B|341:71|341:71|329:140,1,90,0|0,0:2|3:2,0:2:0:0:
448,215,267539,2,0,B|473:187|473:187|485:118,1,90,12|8,0:2|0:2,0:2:0:0:
442,45,267900,6,0,L|474:40,15,22.5,2|2|2|2|10|2|10|2|8|0|8|0|8|0|8|0,3:2|0:2|0:2|0:2|0:2|0:2|0:2|0:2|3:2|0:2|0:2|0:2|0:2|0:2|0:2|0:2,0:2:0:0:
390,100,268632,6,0,B|370:86|361:63|365:41|365:41|323:12|269:20|236:54,1,202.500007724763,6|0,3:2|0:2,0:2:0:0:
104,88,269002,2,0,B|132:78|154:45|154:45|155:87|182:114,1,135.000005149842,10|2,3:2|0:3,0:2:0:0:
165,235,269280,1,0,0:2:0:0:
152,236,269372,6,0,B|180:196|180:196|188:196|188:196|36:157,1,202.500007724762,2|0,3:2|0:2,0:2:0:0:
99,306,269743,2,0,P|164:326|229:282,1,135.000005149842,10|2,3:2|0:3,0:2:0:0:
275,233,270113,6,0,P|304:250|321:280,1,56.25,2|0,3:2|0:2,0:2:0:0:
359,366,270298,2,0,P|376:337|406:320,1,56.25,2|0,0:3|0:2,0:2:0:0:
497,280,270483,6,0,P|465:261|446:228,1,67.5000025749208,10|0,3:2|0:2,0:2:0:0:
410,146,270669,2,0,P|391:177|358:196,1,67.5000025749208,2|0,0:3|0:2,0:2:0:0:
293,23,270854,6,0,B|383:33|383:33|389:47|389:47|512:60,1,202.500007724762,2|0,3:2|0:2,0:2:0:0:
512,73,271224,2,0,L|366:58,1,135.000005149842,10|2,3:2|0:3,0:2:0:0:
223,121,271594,6,0,B|167:88|153:31|153:31|153:88|101:150,1,236.250002253056,2|0,3:2|0:2,0:2:0:0:
136,143,271965,2,0,B|160:113|160:81|160:81|168:113|200:132,1,135.000005149842,10|2,3:2|0:3,0:2:0:0:
399,207,272335,6,0,B|343:240|329:297|329:297|329:240|277:178,1,236.250002253056,2|0,3:2|0:2,0:2:0:0:
312,185,272706,2,0,B|336:214|336:246|336:246|344:214|376:195,1,135.000005149842,10|2,3:2|0:3,0:2:0:0:
426,127,273076,5,2,3:2:0:0:
312,185,273261,1,2,3:3:0:0:
452,125,273455,5,2,3:2:0:0:
223,121,273635,1,8,0:2:0:0:
465,50,273816,5,2,3:2:0:0:
491,52,273906,1,8,0:2:0:0:
510,71,273997,1,8,0:2:0:0:
452,125,274177,5,10,0:2:0:0:
426,127,274268,1,8,0:2:0:0:
407,146,274358,1,8,0:2:0:0:
402,172,274448,1,8,0:2:0:0:
410,198,274539,2,0,P|403:235|399:272,3,67.5000025749208,8|8|4|4,0:3|0:3|0:3|0:3,0:2:0:0:
330,360,274914,6,0,P|323:322|319:286,1,67.5000025749208,2|0,3:2|0:2,0:2:0:0:
250,208,275101,2,0,P|243:245|239:282,1,67.5000025749208,8|0,3:2|3:2,0:2:0:0:
189,353,275289,5,2,3:2:0:0:
162,355,275382,1,0,0:2:0:0:
139,339,275476,1,0,0:2:0:0:
147,255,275664,2,0,P|108:261|70:284,3,67.5000025749208,2|0|8|8,3:2|0:2|0:2|0:2,0:2:0:0:
11,348,276029,6,0,P|53:291|26:163,1,202.500007724762,6|0,3:2|0:2,0:2:0:0:
12,148,276399,2,0,P|82:137|153:27,1,202.500007724762,6|0,3:2|0:2,0:2:0:0:
154,7,276769,2,0,P|211:48|338:21,1,202.500007724762,6|0,3:2|0:2,0:2:0:0:
354,7,277140,2,0,P|364:77|474:148,1,202.500007724762,6|0,3:2|0:2,0:2:0:0:
494,147,277529,6,0,P|460:192|482:294,1,135.000005149842,2|2,3:2|0:3,0:2:0:0:
512,370,277806,1,0,0:2:0:0:
512,370,277899,2,0,P|489:318|389:285,1,135.000005149842,10|2,3:2|0:3,0:2:0:0:
364,349,278269,5,2,3:2:0:0:
342,365,278362,2,0,B|282:360|282:360|270:367|270:367|202:362,1,135.000005149842,0|0,0:2|0:2,0:2:0:0:
184,372,278640,2,0,P|151:308|23:315,1,202.500007724762,10|0,3:2|0:2,0:2:0:0:
14,344,279010,1,6,3:2:0:0:
14,344,279195,6,0,L|21:391,10,33.7500012874604,2|2|10|2|10|0|0|0|8|0|0,0:2|0:2|0:2|0:2|3:2|0:2|0:2|0:2|0:2|0:2|0:2,0:2:0:0:
40,259,279751,6,0,L|29:198,1,45,2|0,0:2|0:2,0:2:0:0:
6,68,280121,2,0,L|13:112,1,45,2|0,0:2|0:2,0:2:0:0:
108,145,280483,5,6,3:2:0:0:
307,96,280669,1,2,0:1:0:0:
204,56,280853,2,0,B|169:125|222:185|222:185,1,135.000005149842,10|2,3:2|0:1,0:2:0:0:
243,207,281131,1,0,0:2:0:0:
257,187,281223,5,10,3:2:0:0:
281,177,281316,1,8,0:2:0:0:
306,178,281408,1,2,0:1:0:0:
303,299,281594,2,0,B|378:283|422:349|422:349,1,135.000005149842,10|2,3:2|0:1,0:2:0:0:
219,335,281964,5,2,3:2:0:0:
478,270,282149,1,2,0:1:0:0:
219,335,282334,1,10,3:2:0:0:
463,121,282705,5,2,3:2:0:0:
204,56,282890,1,2,0:1:0:0:
463,121,283075,2,0,B|431:113|411:80|411:80|412:118|393:143,1,135.000005149842,8|2,3:2|0:1,0:2:0:0:
345,218,283445,5,2,3:2:0:0:
293,13,283631,1,2,0:1:0:0:
345,218,283816,2,0,B|277:181|219:243|219:243,1,135.000005149842,10|2,3:2|0:1,0:2:0:0:
204,262,284094,1,0,0:2:0:0:
181,266,284186,5,10,3:2:0:0:
154,260,284279,1,8,0:2:0:0:
134,241,284371,1,2,0:1:0:0:
204,56,284557,2,0,B|136:93|78:31|78:31,1,135.000005149842,10|2,3:2|0:1,0:2:0:0:
18,131,284927,5,2,3:2:0:0:
65,310,285112,1,2,0:1:0:0:
18,131,285297,2,0,L|169:152,1,135.000005149842,10|0,3:2|0:0,0:0:0:0:
246,169,285575,5,2,0:2:0:0:
246,169,285668,1,14,3:2:0:0:
246,169,285760,1,10,0:2:0:0:
246,169,285853,2,0,L|259:102,1,67.5000025749208,10|8,0:2|0:2,0:2:0:0:
209,314,286038,2,0,L|197:381,3,67.5000025749208,10|8|8|8,3:2|0:2|0:2|0:2,0:2:0:0:
245,248,286408,6,0,P|327:241|466:100,1,270,6|0,3:2|0:2,0:2:0:0:
459,118,286779,2,0,P|391:165|341:356,1,270,6|0,3:2|0:2,0:2:0:0:
337,337,287149,6,0,P|404:289|454:98,1,270,6|0,3:2|0:2,0:2:0:0:
457,117,287520,2,0,P|422:191|474:382,1,270,6|0,3:2|0:2,0:2:0:0:
461,367,287890,6,0,B|364:356|364:356|341:338|341:338|191:321,1,270,6|0,3:2|0:2,0:2:0:0:
164,333,288260,2,0,B|174:236|174:236|192:213|192:213|209:63,1,270,6|0,3:2|0:2,0:2:0:0:
198,35,288631,2,0,B|294:45|294:45|317:63|317:63|467:80,1,270,6|0,3:2|0:2,0:2:0:0:
496,69,289001,2,0,B|485:165|485:165|467:188|467:188|450:338,1,270,4|0,3:2|0:2,0:2:0:0:
461,367,289371,5,6,3:2:0:0:
461,367,289557,1,2,0:2:0:0:
164,333,289742,5,6,3:2:0:0:
164,333,289927,1,0,0:2:0:0:
194,30,290112,5,6,3:2:0:0:
194,30,290297,1,0,0:2:0:0:
496,69,290483,5,6,3:2:0:0:
496,69,290668,1,0,0:2:0:0:
426,109,290853,6,0,P|457:140|513:142,3,90,6|0|2|0,3:2|0:2|0:2|0:2,0:2:0:0:
442,225,291223,6,0,P|426:209|398:208,7,45,6|0|0|0|0|0|0|0,3:2|0:2|0:2|0:2|0:2|0:2|0:2|0:2,0:2:0:0:
465,313,292352,5,2,3:2:0:0:
388,286,292534,1,2,0:2:0:0:
343,353,292717,1,2,0:2:0:0:
215,253,293083,5,2,0:2:0:0:
62,308,293453,1,2,3:2:0:0:
92,148,293823,1,2,0:2:0:0:
152,201,294015,1,2,0:2:0:0:
228,173,294207,1,2,0:2:0:0:
299,103,294564,5,2,0:2:0:0:
402,79,294781,5,2,0:2:0:0:
372,172,294937,5,2,0:2:0:0:
331,17,295119,5,2,0:2:0:0:
