osu file format v14

[General]
AudioFilename: audio.mp3
AudioLeadIn: 0
PreviewTime: 135317
Countdown: 0
SampleSet: Soft
StackLeniency: 0.7
Mode: 3
LetterboxInBreaks: 0
SpecialStyle: 0
WidescreenStoryboard: 1

[Editor]
DistanceSpacing: 0.3
BeatDivisor: 4
GridSize: 8
TimelineZoom: 2.4

[Metadata]
Title:Kan Saete Kuyashiiwa
TitleUnicode:勘冴えて悔しいわ
Artist:ZUTOMAYO
ArtistUnicode:ずっと真夜中でいいのに。
Creator:Rio1-
Version:Tap Ping
Source:
Tags:
BeatmapID:3074666
BeatmapSetID:1500407

[Difficulty]
HPDrainRate:7
CircleSize:4
OverallDifficulty:6
ApproachRate:5
SliderMultiplier:1.4
SliderTickRate:1

[Events]
//Background and Video events
0,0,"20200303184850_ruc3Nkjh.jpg",0,0
//Break Periods
//Storyboard Layer 0 (Background)
//Storyboard Layer 1 (Fail)
//Storyboard Layer 2 (Pass)
//Storyboard Layer 3 (Foreground)
//Storyboard Layer 4 (Overlay)
//Storyboard Sound Samples

[TimingPoints]
309,400,4,2,1,0,1,0
309,-100,4,2,1,0,0,0
509,400,4,2,1,0,1,0
509,-100,4,2,1,0,0,0
58109,-100,4,2,1,0,0,1
58409,-100,4,2,1,0,0,0
58509,-100,4,2,1,0,0,1
58809,-100,4,2,1,0,0,0
58909,-100,4,2,1,0,0,1
59209,-100,4,2,1,0,0,0
64509,-100,4,2,1,0,0,1
64809,-100,4,2,1,0,0,0
64909,-100,4,2,1,0,0,1
65209,-100,4,2,1,0,0,0
65309,-100,4,2,1,0,0,1
65609,-100,4,2,1,0,0,0
70909,-100,4,2,1,0,0,1
82109,-100,4,2,1,0,0,0
90886,405.405405405405,4,2,1,0,1,0
90886,-99.009900990099,4,2,1,0,0,0
92507,400,4,2,1,0,1,0
92507,-100,4,2,1,0,0,0
96498,400,4,2,1,0,1,0
96498,-100,4,2,1,0,0,0
96631,400,4,2,1,0,1,0
96631,-100,4,2,1,0,0,0
96898,300,4,2,1,0,1,0
96898,-133.333333333333,4,2,1,0,0,0
97273,283.018867924528,4,2,1,0,1,0
97273,-140.845070422535,4,2,1,0,0,0
97485,333.333333333333,4,2,1,0,1,0
97485,-120.481927710843,4,2,1,0,0,0
97735,352.941176470588,4,2,1,0,1,0
97735,-113.636363636364,4,2,1,0,0,0
98087,461.538461538462,4,2,1,0,1,0
98087,-86.9565217391304,4,2,1,0,0,0
98317,400,4,2,1,0,1,0
98317,-100,4,2,1,0,0,0
99717,400,4,2,1,0,1,0
99717,-100,4,2,1,0,0,0
123717,-100,4,2,1,0,0,1
124017,-100,4,2,1,0,0,0
124117,-100,4,2,1,0,0,1
124417,-100,4,2,1,0,0,0
124517,-100,4,2,1,0,0,1
124817,-100,4,2,1,0,0,0
130117,-100,4,2,1,0,0,1
130417,-100,4,2,1,0,0,0
130517,-100,4,2,1,0,0,1
130817,-100,4,2,1,0,0,0
130917,-100,4,2,1,0,0,1
131217,-100,4,2,1,0,0,0
136517,-100,4,2,1,0,0,1
147717,-100,4,2,1,0,0,0
155674,400,4,2,1,0,1,0
155674,-100,4,2,1,0,0,0
155974,545.454545454546,4,2,1,0,1,0
155974,-73.5294117647059,4,2,1,0,0,0
156110,400,4,2,1,0,1,0
156110,-100,4,2,1,0,0,0
157310,400,4,2,1,0,1,0
157310,-100,4,2,1,0,0,0
186110,-100,4,2,1,0,0,1
186410,-100,4,2,1,0,0,0
186510,-100,4,2,1,0,0,1
186810,-100,4,2,1,0,0,0
186910,-100,4,2,1,0,0,1
187210,-100,4,2,1,0,0,0
192510,-100,4,2,1,0,0,1
192810,-100,4,2,1,0,0,0
192910,-100,4,2,1,0,0,1
193210,-100,4,2,1,0,0,0
193310,-100,4,2,1,0,0,1
193610,-100,4,2,1,0,0,0
198910,-100,4,2,1,0,0,1
211310,-100,4,2,1,0,0,0
230938,400,4,2,1,0,1,0
230938,-100,4,2,1,0,0,0
231538,397.350993377483,4,2,1,0,1,0
231538,-101.010101010101,4,2,1,0,0,0

[HitObjects]
192,192,309,5,0,0:0:0:0:
320,192,309,1,0,0:0:0:0:
192,192,409,1,0,0:0:0:0:
64,192,509,1,0,0:0:0:0:
320,192,509,1,0,0:0:0:0:
448,192,509,1,0,0:0:0:0:
64,192,709,128,0,809:0:0:0:0:
192,192,909,128,0,1109:0:0:0:0:
320,192,1109,128,0,1209:0:0:0:0:
448,192,1309,128,0,1509:0:0:0:0:
64,192,1309,1,0,0:0:0:0:
320,192,1309,128,0,1509:0:0:0:0:
192,192,1609,128,0,1809:0:0:0:0:
448,192,1609,1,0,0:0:0:0:
64,192,1609,128,0,1809:0:0:0:0:
64,192,1909,1,0,0:0:0:0:
448,192,1909,1,0,0:0:0:0:
192,192,1909,128,0,2509:0:0:0:0:
320,192,1909,128,0,2309:0:0:0:0:
192,192,2909,128,0,3109:0:0:0:0:
64,192,2909,128,0,3109:0:0:0:0:
320,192,2909,1,0,0:0:0:0:
64,192,3209,128,0,3409:0:0:0:0:
192,192,3209,1,0,0:0:0:0:
448,192,3209,128,0,3409:0:0:0:0:
320,192,3509,128,0,3659:0:0:0:0:
64,192,3509,128,0,3659:0:0:0:0:
448,192,3509,1,0,0:0:0:0:
192,192,3709,1,0,0:0:0:0:
64,192,3709,1,0,0:0:0:0:
320,192,3709,1,0,0:0:0:0:
64,192,3909,128,0,4009:0:0:0:0:
320,192,4109,128,0,4309:0:0:0:0:
448,192,4309,128,0,4409:0:0:0:0:
64,192,4509,128,0,4709:0:0:0:0:
192,192,4509,128,0,4709:0:0:0:0:
448,192,4509,1,0,0:0:0:0:
320,192,4809,128,0,5009:0:0:0:0:
64,192,4809,1,0,0:0:0:0:
448,192,4809,128,0,5009:0:0:0:0:
192,192,5109,128,0,5309:0:0:0:0:
64,192,5109,1,0,0:0:0:0:
320,192,5109,128,0,5309:0:0:0:0:
448,192,5109,1,0,0:0:0:0:
64,192,5309,1,0,0:0:0:0:
192,192,5409,1,0,0:0:0:0:
448,192,5459,1,0,0:0:0:0:
64,192,5509,1,0,0:0:0:0:
320,192,5509,128,0,5709:0:0:0:0:
448,192,5709,1,0,0:0:0:0:
320,192,5809,1,0,0:0:0:0:
64,192,5809,128,0,6009:0:0:0:0:
192,192,6009,1,0,0:0:0:0:
64,192,6109,1,0,0:0:0:0:
448,192,6109,1,0,0:0:0:0:
320,192,6109,1,0,0:0:0:0:
448,192,6209,1,0,0:0:0:0:
192,192,6309,1,0,0:0:0:0:
448,192,6409,1,0,0:0:0:0:
64,192,6409,1,0,0:0:0:0:
64,192,6509,1,0,0:0:0:0:
192,192,6509,1,0,0:0:0:0:
320,192,6509,1,0,0:0:0:0:
64,192,6709,1,0,0:0:0:0:
448,192,6709,1,0,0:0:0:0:
192,192,6759,1,0,0:0:0:0:
320,192,6809,1,0,0:0:0:0:
64,192,6859,1,0,0:0:0:0:
192,192,6909,1,0,0:0:0:0:
448,192,6909,1,0,0:0:0:0:
320,192,6909,1,0,0:0:0:0:
192,192,7009,1,0,0:0:0:0:
64,192,7109,1,0,0:0:0:0:
320,192,7109,1,0,0:0:0:0:
320,192,7209,1,0,0:0:0:0:
448,192,7309,1,0,0:0:0:0:
192,192,7309,1,0,0:0:0:0:
64,192,7309,1,0,0:0:0:0:
448,192,7409,1,0,0:0:0:0:
320,192,7509,1,0,0:0:0:0:
64,192,7509,1,0,0:0:0:0:
192,192,7609,1,0,0:0:0:0:
448,192,7609,1,0,0:0:0:0:
64,192,7709,1,0,0:0:0:0:
448,192,7709,1,0,0:0:0:0:
320,192,7809,1,0,0:0:0:0:
64,192,7909,1,0,0:0:0:0:
320,192,7909,1,0,0:0:0:0:
448,192,8009,1,0,0:0:0:0:
64,192,8009,1,0,0:0:0:0:
192,192,8109,1,0,0:0:0:0:
320,192,8109,1,0,0:0:0:0:
448,192,8109,1,0,0:0:0:0:
192,192,8209,1,0,0:0:0:0:
64,192,8309,1,0,0:0:0:0:
448,192,8309,1,0,0:0:0:0:
448,192,8509,1,0,0:0:0:0:
64,192,8509,1,0,0:0:0:0:
320,192,8509,1,0,0:0:0:0:
320,192,8709,1,0,0:0:0:0:
64,192,8709,1,0,0:0:0:0:
192,192,8809,1,0,0:0:0:0:
320,192,8909,1,0,0:0:0:0:
448,192,8909,1,0,0:0:0:0:
64,192,8909,1,0,0:0:0:0:
192,192,9009,1,0,0:0:0:0:
64,192,9109,1,0,0:0:0:0:
448,192,9109,1,0,0:0:0:0:
320,192,9209,1,0,0:0:0:0:
448,192,9309,1,0,0:0:0:0:
192,192,9309,1,0,0:0:0:0:
64,192,9409,1,0,0:0:0:0:
448,192,9409,1,0,0:0:0:0:
320,192,9509,1,0,0:0:0:0:
64,192,9609,1,0,0:0:0:0:
320,192,9609,1,0,0:0:0:0:
64,192,9709,1,0,0:0:0:0:
448,192,9709,1,0,0:0:0:0:
192,192,9709,1,0,0:0:0:0:
192,192,9809,1,0,0:0:0:0:
320,192,9909,1,0,0:0:0:0:
64,192,9909,1,0,0:0:0:0:
320,192,10109,1,0,0:0:0:0:
448,192,10109,1,0,0:0:0:0:
64,192,10109,1,0,0:0:0:0:
64,192,10209,1,0,0:0:0:0:
192,192,10309,1,0,0:0:0:0:
448,192,10309,1,0,0:0:0:0:
448,192,10409,1,0,0:0:0:0:
320,192,10509,1,0,0:0:0:0:
192,192,10509,1,0,0:0:0:0:
64,192,10509,1,0,0:0:0:0:
64,192,10609,1,0,0:0:0:0:
192,192,10709,1,0,0:0:0:0:
448,192,10709,1,0,0:0:0:0:
320,192,10809,1,0,0:0:0:0:
64,192,10809,1,0,0:0:0:0:
64,192,10909,1,0,0:0:0:0:
448,192,10909,1,0,0:0:0:0:
320,192,11009,1,0,0:0:0:0:
320,192,11109,1,0,0:0:0:0:
64,192,11109,1,0,0:0:0:0:
192,192,11209,1,0,0:0:0:0:
448,192,11209,1,0,0:0:0:0:
320,192,11309,1,0,0:0:0:0:
448,192,11309,1,0,0:0:0:0:
64,192,11309,1,0,0:0:0:0:
320,192,11409,1,0,0:0:0:0:
448,192,11509,1,0,0:0:0:0:
192,192,11509,1,0,0:0:0:0:
64,192,11709,1,0,0:0:0:0:
192,192,11709,1,0,0:0:0:0:
320,192,11709,1,0,0:0:0:0:
448,192,11809,1,0,0:0:0:0:
192,192,11909,1,0,0:0:0:0:
320,192,12009,1,0,0:0:0:0:
64,192,12109,1,0,0:0:0:0:
448,192,12109,1,0,0:0:0:0:
64,192,12209,1,0,0:0:0:0:
192,192,12309,1,0,0:0:0:0:
448,192,12309,1,0,0:0:0:0:
448,192,12409,1,0,0:0:0:0:
320,192,12509,1,0,0:0:0:0:
64,192,12509,1,0,0:0:0:0:
64,192,12609,1,0,0:0:0:0:
192,192,12609,1,0,0:0:0:0:
192,192,12709,1,0,0:0:0:0:
320,192,12809,1,0,0:0:0:0:
448,192,12809,1,0,0:0:0:0:
448,192,12909,1,0,0:0:0:0:
192,192,12909,1,0,0:0:0:0:
64,192,13109,1,0,0:0:0:0:
448,192,13109,1,0,0:0:0:0:
320,192,13209,1,0,0:0:0:0:
192,192,13209,1,0,0:0:0:0:
64,192,13309,1,0,0:0:0:0:
320,192,13309,1,0,0:0:0:0:
448,192,13309,1,0,0:0:0:0:
64,192,13409,1,0,0:0:0:0:
192,192,13509,1,0,0:0:0:0:
448,192,13509,1,0,0:0:0:0:
448,192,13609,1,0,0:0:0:0:
320,192,13709,1,0,0:0:0:0:
192,192,13709,1,0,0:0:0:0:
64,192,13709,1,0,0:0:0:0:
192,192,13809,1,0,0:0:0:0:
64,192,13909,1,0,0:0:0:0:
320,192,13909,1,0,0:0:0:0:
192,192,14009,1,0,0:0:0:0:
448,192,14009,1,0,0:0:0:0:
448,192,14109,1,0,0:0:0:0:
64,192,14109,1,0,0:0:0:0:
192,192,14209,1,0,0:0:0:0:
192,192,14309,1,0,0:0:0:0:
448,192,14309,1,0,0:0:0:0:
448,192,14409,1,0,0:0:0:0:
320,192,14509,1,0,0:0:0:0:
192,192,14509,1,0,0:0:0:0:
64,192,14509,1,0,0:0:0:0:
64,192,14609,1,0,0:0:0:0:
192,192,14709,1,0,0:0:0:0:
448,192,14709,1,0,0:0:0:0:
448,192,14909,1,0,0:0:0:0:
64,192,14909,1,0,0:0:0:0:
320,192,14909,1,0,0:0:0:0:
64,192,15009,1,0,0:0:0:0:
192,192,15109,1,0,0:0:0:0:
448,192,15109,1,0,0:0:0:0:
320,192,15209,1,0,0:0:0:0:
192,192,15309,1,0,0:0:0:0:
64,192,15309,1,0,0:0:0:0:
448,192,15309,1,0,0:0:0:0:
192,192,15409,1,0,0:0:0:0:
64,192,15509,1,0,0:0:0:0:
320,192,15509,1,0,0:0:0:0:
320,192,15609,1,0,0:0:0:0:
64,192,15709,1,0,0:0:0:0:
448,192,15709,1,0,0:0:0:0:
448,192,15809,1,0,0:0:0:0:
192,192,15809,1,0,0:0:0:0:
320,192,15909,1,0,0:0:0:0:
64,192,16009,1,0,0:0:0:0:
448,192,16009,1,0,0:0:0:0:
320,192,16109,1,0,0:0:0:0:
64,192,16109,1,0,0:0:0:0:
192,192,16209,1,0,0:0:0:0:
192,192,16309,1,0,0:0:0:0:
448,192,16309,1,0,0:0:0:0:
448,192,16409,1,0,0:0:0:0:
64,192,16409,1,0,0:0:0:0:
320,192,16509,1,0,0:0:0:0:
64,192,16509,1,0,0:0:0:0:
192,192,16509,1,0,0:0:0:0:
320,192,16609,1,0,0:0:0:0:
64,192,16709,1,0,0:0:0:0:
192,192,16709,1,0,0:0:0:0:
448,192,16809,1,0,0:0:0:0:
320,192,16909,1,0,0:0:0:0:
192,192,16909,1,0,0:0:0:0:
64,192,16909,1,0,0:0:0:0:
64,192,17009,1,0,0:0:0:0:
192,192,17109,1,0,0:0:0:0:
448,192,17109,1,0,0:0:0:0:
448,192,17309,1,0,0:0:0:0:
320,192,17309,1,0,0:0:0:0:
64,192,17409,1,0,0:0:0:0:
320,192,17509,1,0,0:0:0:0:
192,192,17509,1,0,0:0:0:0:
64,192,17609,1,0,0:0:0:0:
192,192,17709,1,0,0:0:0:0:
320,192,17709,1,0,0:0:0:0:
448,192,17709,1,0,0:0:0:0:
448,192,17809,1,0,0:0:0:0:
64,192,17909,1,0,0:0:0:0:
320,192,17909,1,0,0:0:0:0:
448,192,18009,1,0,0:0:0:0:
64,192,18109,1,0,0:0:0:0:
192,192,18109,1,0,0:0:0:0:
320,192,18109,1,0,0:0:0:0:
320,192,18209,1,0,0:0:0:0:
448,192,18209,1,0,0:0:0:0:
64,192,18309,1,0,0:0:0:0:
448,192,18309,1,0,0:0:0:0:
192,192,18309,1,0,0:0:0:0:
192,192,18409,1,0,0:0:0:0:
64,192,18509,1,0,0:0:0:0:
448,192,18509,1,0,0:0:0:0:
320,192,18609,1,0,0:0:0:0:
64,192,18609,1,0,0:0:0:0:
192,192,18709,1,0,0:0:0:0:
448,192,18709,1,0,0:0:0:0:
320,192,18809,1,0,0:0:0:0:
192,192,18809,1,0,0:0:0:0:
320,192,18909,128,0,19109:0:0:0:0:
448,192,18909,128,0,19109:0:0:0:0:
64,192,18909,128,0,19109:0:0:0:0:
192,192,19209,128,0,19409:0:0:0:0:
448,192,19209,128,0,19409:0:0:0:0:
64,192,19209,128,0,19409:0:0:0:0:
320,192,19509,128,0,19659:0:0:0:0:
192,192,19509,128,0,19659:0:0:0:0:
448,192,19509,128,0,19659:0:0:0:0:
448,192,19709,1,0,0:0:0:0:
192,192,19709,1,0,0:0:0:0:
64,192,19709,1,0,0:0:0:0:
320,192,19709,1,0,0:0:0:0:
192,192,19909,1,0,0:0:0:0:
192,192,20009,1,0,0:0:0:0:
320,192,20109,1,0,0:0:0:0:
64,192,20109,1,0,0:0:0:0:
320,192,20209,1,0,0:0:0:0:
192,192,20309,1,0,0:0:0:0:
448,192,20409,1,0,0:0:0:0:
448,192,20509,128,0,20709:0:0:0:0:
64,192,20509,128,0,20709:0:0:0:0:
64,192,20809,128,0,21009:0:0:0:0:
320,192,20809,128,0,21009:0:0:0:0:
192,192,21109,128,0,21309:0:0:0:0:
64,192,21109,128,0,21309:0:0:0:0:
320,192,21509,1,0,0:0:0:0:
64,192,21509,1,0,0:0:0:0:
192,192,21609,1,0,0:0:0:0:
64,192,21709,1,0,0:0:0:0:
448,192,21709,1,0,0:0:0:0:
192,192,21709,128,0,21909:0:0:0:0:
320,192,21909,1,0,0:0:0:0:
64,192,22009,1,0,0:0:0:0:
192,192,22109,128,0,22309:0:0:0:0:
448,192,22109,128,0,22309:0:0:0:0:
320,192,22109,1,0,0:0:0:0:
320,192,22409,128,0,22609:0:0:0:0:
192,192,22409,128,0,22609:0:0:0:0:
448,192,22709,128,0,22909:0:0:0:0:
64,192,22709,128,0,22909:0:0:0:0:
192,192,23109,1,0,0:0:0:0:
448,192,23109,1,0,0:0:0:0:
448,192,23209,1,0,0:0:0:0:
320,192,23309,1,0,0:0:0:0:
64,192,23309,1,0,0:0:0:0:
192,192,23309,128,0,23509:0:0:0:0:
448,192,23509,1,0,0:0:0:0:
320,192,23609,1,0,0:0:0:0:
192,192,23709,128,0,23909:0:0:0:0:
64,192,23709,128,0,23909:0:0:0:0:
448,192,23709,1,0,0:0:0:0:
448,192,23909,1,0,0:0:0:0:
192,192,24009,128,0,24209:0:0:0:0:
320,192,24009,128,0,24209:0:0:0:0:
64,192,24109,1,0,0:0:0:0:
448,192,24309,128,0,24509:0:0:0:0:
192,192,24309,128,0,24509:0:0:0:0:
64,192,24309,1,0,0:0:0:0:
320,192,24509,1,0,0:0:0:0:
320,192,24709,1,0,0:0:0:0:
192,192,24709,1,0,0:0:0:0:
448,192,24909,1,0,0:0:0:0:
64,192,24909,1,0,0:0:0:0:
192,192,24909,128,0,25109:0:0:0:0:
320,192,25009,1,0,0:0:0:0:
64,192,25109,1,0,0:0:0:0:
320,192,25159,1,0,0:0:0:0:
64,192,25209,1,0,0:0:0:0:
320,192,25259,1,0,0:0:0:0:
192,192,25309,128,0,25509:0:0:0:0:
64,192,25309,128,0,25509:0:0:0:0:
448,192,25309,1,0,0:0:0:0:
320,192,25509,1,0,0:0:0:0:
192,192,25609,128,0,25809:0:0:0:0:
448,192,25609,128,0,25809:0:0:0:0:
64,192,25709,1,0,0:0:0:0:
192,192,25909,1,0,0:0:0:0:
64,192,25909,128,0,26209:0:0:0:0:
320,192,25909,128,0,26209:0:0:0:0:
448,192,25909,128,0,26209:0:0:0:0:
192,192,26309,1,0,0:0:0:0:
64,192,26309,1,0,0:0:0:0:
192,192,26409,1,0,0:0:0:0:
448,192,26509,1,0,0:0:0:0:
64,192,26509,1,0,0:0:0:0:
320,192,26509,128,0,26709:0:0:0:0:
192,192,26609,1,0,0:0:0:0:
64,192,26709,1,0,0:0:0:0:
320,192,26759,1,0,0:0:0:0:
448,192,26809,1,0,0:0:0:0:
320,192,26909,128,0,27109:0:0:0:0:
64,192,26909,128,0,27109:0:0:0:0:
192,192,26909,1,0,0:0:0:0:
448,192,27209,128,0,27409:0:0:0:0:
192,192,27209,128,0,27409:0:0:0:0:
64,192,27209,1,0,0:0:0:0:
192,192,27509,128,0,27709:0:0:0:0:
64,192,27509,128,0,27709:0:0:0:0:
448,192,27509,1,0,0:0:0:0:
64,192,27909,1,0,0:0:0:0:
448,192,27909,1,0,0:0:0:0:
192,192,28009,1,0,0:0:0:0:
64,192,28109,1,0,0:0:0:0:
448,192,28109,1,0,0:0:0:0:
320,192,28109,1,0,0:0:0:0:
192,192,28159,1,0,0:0:0:0:
448,192,28209,1,0,0:0:0:0:
320,192,28259,1,0,0:0:0:0:
64,192,28309,1,0,0:0:0:0:
448,192,28359,1,0,0:0:0:0:
192,192,28409,1,0,0:0:0:0:
448,192,28459,1,0,0:0:0:0:
64,192,28509,128,0,28709:0:0:0:0:
320,192,28509,128,0,28709:0:0:0:0:
192,192,28509,1,0,0:0:0:0:
192,192,28809,128,0,29009:0:0:0:0:
64,192,28809,128,0,29009:0:0:0:0:
448,192,28809,1,0,0:0:0:0:
192,192,29109,128,0,29309:0:0:0:0:
448,192,29109,128,0,29309:0:0:0:0:
64,192,29109,1,0,0:0:0:0:
320,192,29309,128,0,29409:0:0:0:0:
320,192,29509,1,0,0:0:0:0:
64,192,29509,1,0,0:0:0:0:
192,192,29709,1,0,0:0:0:0:
64,192,29709,1,0,0:0:0:0:
448,192,29709,1,0,0:0:0:0:
320,192,29759,1,0,0:0:0:0:
64,192,29809,1,0,0:0:0:0:
192,192,29859,1,0,0:0:0:0:
448,192,29909,1,0,0:0:0:0:
320,192,29909,1,0,0:0:0:0:
64,192,29959,1,0,0:0:0:0:
448,192,30009,1,0,0:0:0:0:
64,192,30059,1,0,0:0:0:0:
192,192,30109,128,0,30309:0:0:0:0:
320,192,30109,128,0,30309:0:0:0:0:
448,192,30109,1,0,0:0:0:0:
192,192,30409,128,0,30609:0:0:0:0:
64,192,30409,128,0,30609:0:0:0:0:
448,192,30409,1,0,0:0:0:0:
192,192,30709,128,0,30909:0:0:0:0:
448,192,30709,128,0,30909:0:0:0:0:
64,192,30709,128,0,30909:0:0:0:0:
320,192,30909,1,0,0:0:0:0:
64,192,31109,1,0,0:0:0:0:
192,192,31109,1,0,0:0:0:0:
64,192,31309,1,0,0:0:0:0:
448,192,31309,1,0,0:0:0:0:
320,192,31309,1,0,0:0:0:0:
192,192,31409,128,0,31509:0:0:0:0:
64,192,31509,128,0,31609:0:0:0:0:
448,192,31609,128,0,31709:0:0:0:0:
64,192,31709,128,0,31909:0:0:0:0:
320,192,31709,128,0,31809:0:0:0:0:
192,192,31709,128,0,31809:0:0:0:0:
192,192,31909,1,0,0:0:0:0:
320,192,31909,1,0,0:0:0:0:
448,192,32009,128,0,32209:0:0:0:0:
320,192,32009,128,0,32209:0:0:0:0:
64,192,32109,1,0,0:0:0:0:
192,192,32109,1,0,0:0:0:0:
64,192,32209,128,0,32459:0:0:0:0:
192,192,32209,128,0,32459:0:0:0:0:
448,192,32309,128,0,32459:0:0:0:0:
448,192,32509,1,0,0:0:0:0:
64,192,32509,1,0,0:0:0:0:
192,192,32509,1,0,0:0:0:0:
320,192,32509,1,0,0:0:0:0:
320,192,32709,1,0,0:0:0:0:
192,192,32809,1,0,0:0:0:0:
64,192,32909,1,0,0:0:0:0:
448,192,32909,1,0,0:0:0:0:
320,192,32909,1,0,0:0:0:0:
64,192,33009,1,0,0:0:0:0:
320,192,33109,128,0,33259:0:0:0:0:
192,192,33309,128,0,33509:0:0:0:0:
64,192,33309,128,0,33509:0:0:0:0:
448,192,33309,128,0,33509:0:0:0:0:
320,192,33309,1,0,0:0:0:0:
320,192,33609,128,0,33809:0:0:0:0:
64,192,33609,128,0,33809:0:0:0:0:
448,192,33609,1,0,0:0:0:0:
192,192,33809,1,0,0:0:0:0:
320,192,33909,128,0,34109:0:0:0:0:
448,192,33909,128,0,34109:0:0:0:0:
64,192,33909,1,0,0:0:0:0:
64,192,34109,1,0,0:0:0:0:
320,192,34209,1,0,0:0:0:0:
448,192,34309,1,0,0:0:0:0:
192,192,34309,1,0,0:0:0:0:
448,192,34409,1,0,0:0:0:0:
320,192,34509,1,0,0:0:0:0:
64,192,34509,1,0,0:0:0:0:
192,192,34509,1,0,0:0:0:0:
64,192,34609,1,0,0:0:0:0:
192,192,34709,1,0,0:0:0:0:
448,192,34709,1,0,0:0:0:0:
320,192,34809,1,0,0:0:0:0:
448,192,34809,1,0,0:0:0:0:
64,192,34909,128,0,35109:0:0:0:0:
192,192,34909,128,0,35109:0:0:0:0:
320,192,34909,1,0,0:0:0:0:
320,192,35209,128,0,35409:0:0:0:0:
448,192,35209,128,0,35409:0:0:0:0:
64,192,35209,1,0,0:0:0:0:
192,192,35409,1,0,0:0:0:0:
448,192,35509,128,0,35709:0:0:0:0:
64,192,35509,128,0,35709:0:0:0:0:
320,192,35509,1,0,0:0:0:0:
320,192,35709,1,0,0:0:0:0:
64,192,35809,1,0,0:0:0:0:
192,192,35809,1,0,0:0:0:0:
448,192,35909,1,0,0:0:0:0:
320,192,35909,1,0,0:0:0:0:
448,192,36009,1,0,0:0:0:0:
192,192,36109,1,0,0:0:0:0:
64,192,36109,1,0,0:0:0:0:
320,192,36109,1,0,0:0:0:0:
192,192,36209,1,0,0:0:0:0:
320,192,36309,128,0,36409:0:0:0:0:
448,192,36309,128,0,36409:0:0:0:0:
64,192,36309,1,0,0:0:0:0:
448,192,36509,1,0,0:0:0:0:
192,192,36509,128,0,36709:0:0:0:0:
320,192,36509,1,0,0:0:0:0:
320,192,36709,128,0,36909:0:0:0:0:
192,192,36809,1,0,0:0:0:0:
64,192,36809,1,0,0:0:0:0:
64,192,36909,128,0,37109:0:0:0:0:
448,192,36909,128,0,37109:0:0:0:0:
320,192,37109,128,0,37309:0:0:0:0:
192,192,37109,128,0,37309:0:0:0:0:
448,192,37309,1,0,0:0:0:0:
64,192,37309,128,0,37509:0:0:0:0:
192,192,37509,128,0,37709:0:0:0:0:
320,192,37509,1,0,0:0:0:0:
448,192,37709,128,0,37909:0:0:0:0:
320,192,37709,1,0,0:0:0:0:
64,192,37709,1,0,0:0:0:0:
192,192,37809,1,0,0:0:0:0:
320,192,37909,128,0,38109:0:0:0:0:
64,192,37909,1,0,0:0:0:0:
448,192,37959,1,0,0:0:0:0:
64,192,38009,1,0,0:0:0:0:
448,192,38059,1,0,0:0:0:0:
192,192,38109,1,0,0:0:0:0:
64,192,38109,1,0,0:0:0:0:
448,192,38309,128,0,38659:0:0:0:0:
64,192,38409,128,0,38509:0:0:0:0:
192,192,38509,128,0,38709:0:0:0:0:
448,192,38709,128,0,39009:0:0:0:0:
320,192,38709,128,0,39009:0:0:0:0:
64,192,38709,128,0,39009:0:0:0:0:
320,192,39109,1,0,0:0:0:0:
192,192,39109,1,0,0:0:0:0:
320,192,39209,1,0,0:0:0:0:
192,192,39309,1,0,0:0:0:0:
64,192,39309,1,0,0:0:0:0:
448,192,39309,1,0,0:0:0:0:
64,192,39409,1,0,0:0:0:0:
320,192,39509,1,0,0:0:0:0:
448,192,39509,1,0,0:0:0:0:
192,192,39609,1,0,0:0:0:0:
320,192,39709,128,0,39909:0:0:0:0:
64,192,39709,128,0,39909:0:0:0:0:
192,192,39909,128,0,40009:0:0:0:0:
320,192,40009,1,0,0:0:0:0:
448,192,40009,128,0,40209:0:0:0:0:
64,192,40009,128,0,40209:0:0:0:0:
320,192,40209,128,0,40309:0:0:0:0:
192,192,40309,128,0,40509:0:0:0:0:
64,192,40309,128,0,40509:0:0:0:0:
448,192,40309,1,0,0:0:0:0:
448,192,40509,1,0,0:0:0:0:
448,192,40609,1,0,0:0:0:0:
320,192,40709,1,0,0:0:0:0:
64,192,40709,1,0,0:0:0:0:
192,192,40809,1,0,0:0:0:0:
192,192,40909,1,0,0:0:0:0:
64,192,40909,1,0,0:0:0:0:
448,192,40909,1,0,0:0:0:0:
320,192,41009,1,0,0:0:0:0:
64,192,41109,1,0,0:0:0:0:
192,192,41109,1,0,0:0:0:0:
192,192,41309,128,0,41509:0:0:0:0:
448,192,41309,1,0,0:0:0:0:
64,192,41309,128,0,41509:0:0:0:0:
448,192,41509,1,0,0:0:0:0:
320,192,41609,128,0,41809:0:0:0:0:
192,192,41609,128,0,41809:0:0:0:0:
64,192,41609,1,0,0:0:0:0:
64,192,41809,1,0,0:0:0:0:
320,192,41909,128,0,42109:0:0:0:0:
448,192,41909,128,0,42109:0:0:0:0:
192,192,41909,1,0,0:0:0:0:
64,192,42109,1,0,0:0:0:0:
192,192,42309,1,0,0:0:0:0:
448,192,42309,1,0,0:0:0:0:
320,192,42509,1,0,0:0:0:0:
448,192,42509,1,0,0:0:0:0:
64,192,42509,1,0,0:0:0:0:
192,192,42559,1,0,0:0:0:0:
320,192,42609,1,0,0:0:0:0:
64,192,42659,1,0,0:0:0:0:
192,192,42709,1,0,0:0:0:0:
448,192,42709,1,0,0:0:0:0:
448,192,42809,1,0,0:0:0:0:
320,192,42859,1,0,0:0:0:0:
64,192,42909,1,0,0:0:0:0:
192,192,42909,1,0,0:0:0:0:
192,192,43109,1,0,0:0:0:0:
448,192,43109,1,0,0:0:0:0:
448,192,43209,1,0,0:0:0:0:
64,192,43209,1,0,0:0:0:0:
320,192,43309,128,0,43509:0:0:0:0:
192,192,43309,1,0,0:0:0:0:
64,192,43509,1,0,0:0:0:0:
192,192,43509,128,0,43709:0:0:0:0:
448,192,43509,128,0,43709:0:0:0:0:
320,192,43709,1,0,0:0:0:0:
192,192,43909,1,0,0:0:0:0:
64,192,43909,1,0,0:0:0:0:
192,192,44109,1,0,0:0:0:0:
320,192,44109,1,0,0:0:0:0:
448,192,44109,1,0,0:0:0:0:
64,192,44159,1,0,0:0:0:0:
320,192,44309,1,0,0:0:0:0:
192,192,44309,1,0,0:0:0:0:
64,192,44359,1,0,0:0:0:0:
192,192,44509,1,0,0:0:0:0:
320,192,44509,1,0,0:0:0:0:
448,192,44509,128,0,44809:0:0:0:0:
64,192,44809,1,0,0:0:0:0:
320,192,44809,1,0,0:0:0:0:
320,192,44909,128,0,45209:0:0:0:0:
448,192,44909,1,0,0:0:0:0:
192,192,44909,1,0,0:0:0:0:
64,192,45109,1,0,0:0:0:0:
192,192,45109,1,0,0:0:0:0:
64,192,45309,1,0,0:0:0:0:
320,192,45309,1,0,0:0:0:0:
448,192,45309,1,0,0:0:0:0:
192,192,45509,1,0,0:0:0:0:
320,192,45709,128,0,45909:0:0:0:0:
448,192,45709,1,0,0:0:0:0:
64,192,45909,1,0,0:0:0:0:
192,192,45909,1,0,0:0:0:0:
192,192,46109,1,0,0:0:0:0:
64,192,46109,1,0,0:0:0:0:
448,192,46109,1,0,0:0:0:0:
320,192,46309,1,0,0:0:0:0:
192,192,46509,128,0,46709:0:0:0:0:
448,192,46509,1,0,0:0:0:0:
64,192,46709,1,0,0:0:0:0:
320,192,46709,1,0,0:0:0:0:
192,192,46809,1,0,0:0:0:0:
64,192,46809,1,0,0:0:0:0:
192,192,46909,1,0,0:0:0:0:
448,192,46909,1,0,0:0:0:0:
320,192,47009,1,0,0:0:0:0:
448,192,47009,1,0,0:0:0:0:
320,192,47109,1,0,0:0:0:0:
192,192,47209,1,0,0:0:0:0:
192,192,47309,1,0,0:0:0:0:
64,192,47309,1,0,0:0:0:0:
448,192,47309,1,0,0:0:0:0:
64,192,47409,1,0,0:0:0:0:
320,192,47409,1,0,0:0:0:0:
192,192,47509,1,0,0:0:0:0:
320,192,47509,1,0,0:0:0:0:
192,192,47609,1,0,0:0:0:0:
320,192,47709,128,0,47909:0:0:0:0:
64,192,47709,128,0,47909:0:0:0:0:
448,192,47709,128,0,47909:0:0:0:0:
192,192,48009,128,0,48159:0:0:0:0:
64,192,48009,128,0,48159:0:0:0:0:
448,192,48009,128,0,48159:0:0:0:0:
320,192,48309,128,0,48709:0:0:0:0:
192,192,48309,128,0,48509:0:0:0:0:
64,192,48709,1,0,0:0:0:0:
448,192,48709,1,0,0:0:0:0:
320,192,48909,1,0,0:0:0:0:
64,192,48909,1,0,0:0:0:0:
192,192,49109,1,0,0:0:0:0:
64,192,49109,1,0,0:0:0:0:
64,192,49309,1,0,0:0:0:0:
448,192,49309,1,0,0:0:0:0:
320,192,49409,1,0,0:0:0:0:
64,192,49409,1,0,0:0:0:0:
192,192,49509,1,0,0:0:0:0:
448,192,49509,1,0,0:0:0:0:
320,192,49609,1,0,0:0:0:0:
448,192,49709,1,0,0:0:0:0:
320,192,49709,1,0,0:0:0:0:
64,192,49709,1,0,0:0:0:0:
448,192,49809,1,0,0:0:0:0:
64,192,49909,1,0,0:0:0:0:
192,192,49909,1,0,0:0:0:0:
192,192,50009,1,0,0:0:0:0:
64,192,50109,1,0,0:0:0:0:
448,192,50109,1,0,0:0:0:0:
320,192,50109,1,0,0:0:0:0:
320,192,50209,1,0,0:0:0:0:
320,192,50309,1,0,0:0:0:0:
64,192,50409,1,0,0:0:0:0:
64,192,50509,1,0,0:0:0:0:
192,192,50509,1,0,0:0:0:0:
448,192,50509,1,0,0:0:0:0:
448,192,50609,1,0,0:0:0:0:
192,192,50609,1,0,0:0:0:0:
320,192,50709,1,0,0:0:0:0:
320,192,50809,1,0,0:0:0:0:
192,192,50909,128,0,51109:0:0:0:0:
64,192,50909,128,0,51109:0:0:0:0:
448,192,50909,128,0,51109:0:0:0:0:
320,192,51209,128,0,51359:0:0:0:0:
64,192,51209,128,0,51359:0:0:0:0:
192,192,51209,128,0,51359:0:0:0:0:
192,192,51509,128,0,51709:0:0:0:0:
448,192,51509,128,0,51909:0:0:0:0:
64,192,51709,128,0,52009:0:0:0:0:
320,192,51909,128,0,52009:0:0:0:0:
192,192,51909,1,0,0:0:0:0:
64,192,52109,1,0,0:0:0:0:
320,192,52109,1,0,0:0:0:0:
320,192,52309,1,0,0:0:0:0:
448,192,52309,1,0,0:0:0:0:
320,192,52509,1,0,0:0:0:0:
64,192,52509,1,0,0:0:0:0:
192,192,52609,1,0,0:0:0:0:
64,192,52609,1,0,0:0:0:0:
192,192,52709,1,0,0:0:0:0:
448,192,52709,1,0,0:0:0:0:
320,192,52809,1,0,0:0:0:0:
448,192,52909,1,0,0:0:0:0:
320,192,52909,1,0,0:0:0:0:
64,192,52909,1,0,0:0:0:0:
192,192,53109,1,0,0:0:0:0:
64,192,53109,1,0,0:0:0:0:
192,192,53209,1,0,0:0:0:0:
448,192,53209,1,0,0:0:0:0:
448,192,53309,1,0,0:0:0:0:
64,192,53309,1,0,0:0:0:0:
320,192,53375,1,0,0:0:0:0:
192,192,53442,1,0,0:0:0:0:
64,192,53509,1,0,0:0:0:0:
320,192,53575,1,0,0:0:0:0:
192,192,53642,1,0,0:0:0:0:
64,192,53709,1,0,0:0:0:0:
448,192,53709,1,0,0:0:0:0:
320,192,53775,1,0,0:0:0:0:
64,192,53842,1,0,0:0:0:0:
192,192,53909,1,0,0:0:0:0:
320,192,53975,1,0,0:0:0:0:
448,192,54042,1,0,0:0:0:0:
64,192,54109,128,0,54309:0:0:0:0:
192,192,54109,128,0,54309:0:0:0:0:
320,192,54109,1,0,0:0:0:0:
448,192,54309,1,0,0:0:0:0:
320,192,54309,1,0,0:0:0:0:
320,192,54409,128,0,54559:0:0:0:0:
448,192,54409,128,0,54559:0:0:0:0:
64,192,54409,128,0,54559:0:0:0:0:
448,192,54709,128,0,54909:0:0:0:0:
64,192,54709,1,0,0:0:0:0:
320,192,54709,128,0,54909:0:0:0:0:
192,192,54909,1,0,0:0:0:0:
64,192,54909,1,0,0:0:0:0:
192,192,55009,1,0,0:0:0:0:
448,192,55009,1,0,0:0:0:0:
320,192,55109,1,0,0:0:0:0:
64,192,55109,1,0,0:0:0:0:
64,192,55209,1,0,0:0:0:0:
192,192,55309,1,0,0:0:0:0:
448,192,55309,1,0,0:0:0:0:
320,192,55309,1,0,0:0:0:0:
448,192,55409,1,0,0:0:0:0:
64,192,55509,128,0,55709:0:0:0:0:
320,192,55509,1,0,0:0:0:0:
192,192,55709,1,0,0:0:0:0:
448,192,55709,1,0,0:0:0:0:
64,192,55759,1,0,0:0:0:0:
320,192,55809,1,0,0:0:0:0:
192,192,55859,1,0,0:0:0:0:
64,192,55909,1,0,0:0:0:0:
448,192,55909,1,0,0:0:0:0:
64,192,56009,1,0,0:0:0:0:
320,192,56009,1,0,0:0:0:0:
448,192,56109,1,0,0:0:0:0:
192,192,56109,1,0,0:0:0:0:
320,192,56109,1,0,0:0:0:0:
64,192,56309,128,0,56609:0:0:0:0:
448,192,56309,128,0,56609:0:0:0:0:
320,192,56309,128,0,56609:0:0:0:0:
192,192,56509,128,0,57309:0:0:0:0:
320,192,57709,128,0,58109:0:0:0:0:
64,192,58109,1,0,0:0:0:0:
192,192,58109,1,0,0:0:0:0:
448,192,58109,1,0,0:0:0:0:
64,192,58209,1,0,0:0:0:0:
64,192,58309,1,0,0:0:0:0:
192,192,58309,1,0,0:0:0:0:
192,192,58409,1,0,0:0:0:0:
64,192,58509,1,0,0:0:0:0:
320,192,58509,1,0,0:0:0:0:
448,192,58509,1,0,0:0:0:0:
448,192,58609,1,0,0:0:0:0:
320,192,58709,1,0,0:0:0:0:
448,192,58709,1,0,0:0:0:0:
320,192,58809,1,0,0:0:0:0:
192,192,58909,1,0,0:0:0:0:
448,192,58909,1,0,0:0:0:0:
64,192,58909,1,0,0:0:0:0:
192,192,59009,1,0,0:0:0:0:
448,192,59109,1,0,0:0:0:0:
320,192,59109,1,0,0:0:0:0:
64,192,59209,1,0,0:0:0:0:
320,192,59209,1,0,0:0:0:0:
64,192,59309,1,0,0:0:0:0:
192,192,59309,1,0,0:0:0:0:
448,192,59309,1,0,0:0:0:0:
192,192,59409,1,0,0:0:0:0:
320,192,59509,1,0,0:0:0:0:
448,192,59509,1,0,0:0:0:0:
320,192,59609,1,0,0:0:0:0:
192,192,59709,1,0,0:0:0:0:
64,192,59709,1,0,0:0:0:0:
64,192,59809,1,0,0:0:0:0:
320,192,59909,1,0,0:0:0:0:
448,192,59909,1,0,0:0:0:0:
192,192,60009,1,0,0:0:0:0:
320,192,60109,1,0,0:0:0:0:
448,192,60109,1,0,0:0:0:0:
64,192,60109,1,0,0:0:0:0:
320,192,60209,1,0,0:0:0:0:
192,192,60309,1,0,0:0:0:0:
64,192,60309,1,0,0:0:0:0:
64,192,60409,1,0,0:0:0:0:
192,192,60509,1,0,0:0:0:0:
448,192,60509,1,0,0:0:0:0:
448,192,60609,1,0,0:0:0:0:
64,192,60609,1,0,0:0:0:0:
320,192,60609,1,0,0:0:0:0:
192,192,60709,128,0,60909:0:0:0:0:
64,192,60909,1,0,0:0:0:0:
448,192,60909,1,0,0:0:0:0:
320,192,61009,1,0,0:0:0:0:
64,192,61009,1,0,0:0:0:0:
192,192,61109,1,0,0:0:0:0:
192,192,61209,1,0,0:0:0:0:
448,192,61209,1,0,0:0:0:0:
320,192,61309,1,0,0:0:0:0:
448,192,61309,1,0,0:0:0:0:
64,192,61309,1,0,0:0:0:0:
64,192,61409,1,0,0:0:0:0:
192,192,61509,1,0,0:0:0:0:
320,192,61509,1,0,0:0:0:0:
320,192,61609,1,0,0:0:0:0:
64,192,61709,1,0,0:0:0:0:
448,192,61709,1,0,0:0:0:0:
192,192,61709,1,0,0:0:0:0:
192,192,61809,128,0,62009:0:0:0:0:
320,192,61909,1,0,0:0:0:0:
64,192,62009,1,0,0:0:0:0:
448,192,62009,1,0,0:0:0:0:
448,192,62109,1,0,0:0:0:0:
64,192,62109,1,0,0:0:0:0:
320,192,62109,1,0,0:0:0:0:
192,192,62209,1,0,0:0:0:0:
320,192,62309,1,0,0:0:0:0:
64,192,62309,1,0,0:0:0:0:
320,192,62409,1,0,0:0:0:0:
192,192,62509,1,0,0:0:0:0:
448,192,62509,1,0,0:0:0:0:
64,192,62509,1,0,0:0:0:0:
448,192,62609,1,0,0:0:0:0:
320,192,62709,1,0,0:0:0:0:
64,192,62709,1,0,0:0:0:0:
64,192,62809,1,0,0:0:0:0:
192,192,62909,1,0,0:0:0:0:
320,192,62909,1,0,0:0:0:0:
448,192,62909,1,0,0:0:0:0:
448,192,63009,1,0,0:0:0:0:
320,192,63109,1,0,0:0:0:0:
64,192,63109,1,0,0:0:0:0:
64,192,63209,1,0,0:0:0:0:
448,192,63309,1,0,0:0:0:0:
192,192,63309,1,0,0:0:0:0:
64,192,63309,1,0,0:0:0:0:
320,192,63409,1,0,0:0:0:0:
192,192,63409,1,0,0:0:0:0:
320,192,63509,1,0,0:0:0:0:
448,192,63509,128,0,63709:0:0:0:0:
64,192,63709,1,0,0:0:0:0:
192,192,63709,1,0,0:0:0:0:
320,192,63709,1,0,0:0:0:0:
192,192,63809,1,0,0:0:0:0:
64,192,63909,1,0,0:0:0:0:
320,192,64009,1,0,0:0:0:0:
448,192,64109,1,0,0:0:0:0:
320,192,64109,128,0,64309:0:0:0:0:
192,192,64109,128,0,64309:0:0:0:0:
64,192,64309,1,0,0:0:0:0:
192,192,64509,1,0,0:0:0:0:
64,192,64509,1,0,0:0:0:0:
448,192,64509,1,0,0:0:0:0:
64,192,64609,1,0,0:0:0:0:
192,192,64709,1,0,0:0:0:0:
320,192,64709,1,0,0:0:0:0:
320,192,64809,1,0,0:0:0:0:
448,192,64909,1,0,0:0:0:0:
192,192,64909,1,0,0:0:0:0:
64,192,64909,1,0,0:0:0:0:
448,192,65009,1,0,0:0:0:0:
320,192,65109,1,0,0:0:0:0:
192,192,65109,1,0,0:0:0:0:
192,192,65209,1,0,0:0:0:0:
64,192,65309,1,0,0:0:0:0:
320,192,65309,1,0,0:0:0:0:
448,192,65409,1,0,0:0:0:0:
192,192,65509,1,0,0:0:0:0:
64,192,65509,1,0,0:0:0:0:
320,192,65609,1,0,0:0:0:0:
448,192,65609,1,0,0:0:0:0:
448,192,65709,1,0,0:0:0:0:
192,192,65709,1,0,0:0:0:0:
64,192,65709,1,0,0:0:0:0:
320,192,65809,1,0,0:0:0:0:
320,192,65909,1,0,0:0:0:0:
64,192,65909,128,0,66109:0:0:0:0:
192,192,66109,1,0,0:0:0:0:
448,192,66109,1,0,0:0:0:0:
448,192,66209,1,0,0:0:0:0:
192,192,66309,1,0,0:0:0:0:
320,192,66309,1,0,0:0:0:0:
64,192,66409,1,0,0:0:0:0:
64,192,66509,1,0,0:0:0:0:
320,192,66509,1,0,0:0:0:0:
448,192,66509,1,0,0:0:0:0:
192,192,66609,1,0,0:0:0:0:
192,192,66709,1,0,0:0:0:0:
320,192,66709,1,0,0:0:0:0:
448,192,66809,1,0,0:0:0:0:
320,192,66909,1,0,0:0:0:0:
64,192,66909,1,0,0:0:0:0:
192,192,67009,1,0,0:0:0:0:
64,192,67009,1,0,0:0:0:0:
448,192,67009,1,0,0:0:0:0:
320,192,67109,1,0,0:0:0:0:
320,192,67309,1,0,0:0:0:0:
192,192,67309,1,0,0:0:0:0:
64,192,67309,1,0,0:0:0:0:
192,192,67409,1,0,0:0:0:0:
64,192,67509,1,0,0:0:0:0:
320,192,67509,1,0,0:0:0:0:
320,192,67609,1,0,0:0:0:0:
192,192,67709,1,0,0:0:0:0:
448,192,67709,1,0,0:0:0:0:
64,192,67809,1,0,0:0:0:0:
320,192,67909,1,0,0:0:0:0:
192,192,67909,1,0,0:0:0:0:
192,192,68009,1,0,0:0:0:0:
64,192,68109,1,0,0:0:0:0:
320,192,68109,1,0,0:0:0:0:
448,192,68109,1,0,0:0:0:0:
448,192,68209,1,0,0:0:0:0:
448,192,68309,1,0,0:0:0:0:
64,192,68309,1,0,0:0:0:0:
192,192,68409,1,0,0:0:0:0:
192,192,68509,1,0,0:0:0:0:
64,192,68509,1,0,0:0:0:0:
448,192,68509,1,0,0:0:0:0:
320,192,68609,1,0,0:0:0:0:
448,192,68609,1,0,0:0:0:0:
320,192,68709,1,0,0:0:0:0:
64,192,68709,1,0,0:0:0:0:
192,192,68809,1,0,0:0:0:0:
64,192,68909,1,0,0:0:0:0:
320,192,68909,1,0,0:0:0:0:
448,192,68909,1,0,0:0:0:0:
64,192,69009,1,0,0:0:0:0:
192,192,69109,1,0,0:0:0:0:
320,192,69109,1,0,0:0:0:0:
448,192,69109,1,0,0:0:0:0:
320,192,69209,1,0,0:0:0:0:
192,192,69309,1,0,0:0:0:0:
64,192,69309,1,0,0:0:0:0:
448,192,69309,1,0,0:0:0:0:
320,192,69409,1,0,0:0:0:0:
64,192,69409,1,0,0:0:0:0:
192,192,69509,1,0,0:0:0:0:
320,192,69509,1,0,0:0:0:0:
192,192,69609,1,0,0:0:0:0:
64,192,69709,1,0,0:0:0:0:
448,192,69709,1,0,0:0:0:0:
320,192,69775,1,0,0:0:0:0:
192,192,69842,1,0,0:0:0:0:
64,192,69909,1,0,0:0:0:0:
448,192,69909,1,0,0:0:0:0:
320,192,69975,1,0,0:0:0:0:
64,192,70042,1,0,0:0:0:0:
192,192,70109,1,0,0:0:0:0:
320,192,70109,1,0,0:0:0:0:
448,192,70175,1,0,0:0:0:0:
192,192,70242,1,0,0:0:0:0:
64,192,70309,1,0,0:0:0:0:
320,192,70309,1,0,0:0:0:0:
448,192,70375,1,0,0:0:0:0:
64,192,70442,1,0,0:0:0:0:
192,192,70509,1,0,0:0:0:0:
320,192,70509,1,0,0:0:0:0:
448,192,70575,1,0,0:0:0:0:
320,192,70642,1,0,0:0:0:0:
192,192,70709,1,0,0:0:0:0:
64,192,70709,1,0,0:0:0:0:
448,192,70775,1,0,0:0:0:0:
192,192,70842,1,0,0:0:0:0:
64,192,70909,1,0,0:0:0:0:
448,192,70909,1,0,0:0:0:0:
320,192,70909,1,0,0:0:0:0:
320,192,71009,1,0,0:0:0:0:
448,192,71109,1,0,0:0:0:0:
64,192,71109,1,0,0:0:0:0:
64,192,71209,1,0,0:0:0:0:
448,192,71309,1,0,0:0:0:0:
192,192,71309,1,0,0:0:0:0:
320,192,71309,1,0,0:0:0:0:
448,192,71409,1,0,0:0:0:0:
320,192,71509,1,0,0:0:0:0:
192,192,71509,1,0,0:0:0:0:
64,192,71609,1,0,0:0:0:0:
448,192,71709,1,0,0:0:0:0:
64,192,71709,1,0,0:0:0:0:
320,192,71709,1,0,0:0:0:0:
320,192,71809,1,0,0:0:0:0:
192,192,71809,1,0,0:0:0:0:
192,192,71909,1,0,0:0:0:0:
64,192,71909,1,0,0:0:0:0:
448,192,72009,1,0,0:0:0:0:
64,192,72009,1,0,0:0:0:0:
320,192,72009,1,0,0:0:0:0:
320,192,72109,1,0,0:0:0:0:
448,192,72109,1,0,0:0:0:0:
192,192,72109,1,0,0:0:0:0:
320,192,72209,1,0,0:0:0:0:
64,192,72309,1,0,0:0:0:0:
448,192,72309,1,0,0:0:0:0:
192,192,72309,1,0,0:0:0:0:
64,192,72409,1,0,0:0:0:0:
320,192,72409,1,0,0:0:0:0:
192,192,72509,1,0,0:0:0:0:
320,192,72509,1,0,0:0:0:0:
448,192,72509,1,0,0:0:0:0:
192,192,72609,1,0,0:0:0:0:
64,192,72709,1,0,0:0:0:0:
320,192,72709,1,0,0:0:0:0:
448,192,72709,1,0,0:0:0:0:
192,192,72809,1,0,0:0:0:0:
64,192,72809,1,0,0:0:0:0:
192,192,72909,1,0,0:0:0:0:
320,192,72909,1,0,0:0:0:0:
448,192,72909,1,0,0:0:0:0:
320,192,73009,1,0,0:0:0:0:
64,192,73109,1,0,0:0:0:0:
448,192,73109,1,0,0:0:0:0:
64,192,73209,1,0,0:0:0:0:
192,192,73209,1,0,0:0:0:0:
192,192,73309,1,0,0:0:0:0:
448,192,73309,1,0,0:0:0:0:
320,192,73409,1,0,0:0:0:0:
448,192,73409,1,0,0:0:0:0:
64,192,73409,1,0,0:0:0:0:
192,192,73509,1,0,0:0:0:0:
64,192,73609,1,0,0:0:0:0:
448,192,73609,1,0,0:0:0:0:
192,192,73609,1,0,0:0:0:0:
320,192,73709,1,0,0:0:0:0:
448,192,73709,1,0,0:0:0:0:
192,192,73709,1,0,0:0:0:0:
320,192,73809,1,0,0:0:0:0:
192,192,73909,1,0,0:0:0:0:
64,192,73909,1,0,0:0:0:0:
448,192,73909,1,0,0:0:0:0:
192,192,74009,1,0,0:0:0:0:
64,192,74109,1,0,0:0:0:0:
320,192,74109,1,0,0:0:0:0:
448,192,74109,1,0,0:0:0:0:
320,192,74209,1,0,0:0:0:0:
192,192,74309,1,0,0:0:0:0:
64,192,74309,1,0,0:0:0:0:
64,192,74409,1,0,0:0:0:0:
192,192,74509,1,0,0:0:0:0:
448,192,74509,1,0,0:0:0:0:
320,192,74509,1,0,0:0:0:0:
320,192,74609,1,0,0:0:0:0:
192,192,74709,1,0,0:0:0:0:
64,192,74709,1,0,0:0:0:0:
192,192,74809,1,0,0:0:0:0:
64,192,74909,1,0,0:0:0:0:
320,192,74909,1,0,0:0:0:0:
448,192,74909,1,0,0:0:0:0:
448,192,75009,1,0,0:0:0:0:
192,192,75009,1,0,0:0:0:0:
320,192,75109,1,0,0:0:0:0:
192,192,75109,1,0,0:0:0:0:
64,192,75209,1,0,0:0:0:0:
448,192,75209,1,0,0:0:0:0:
320,192,75209,1,0,0:0:0:0:
320,192,75309,1,0,0:0:0:0:
448,192,75309,1,0,0:0:0:0:
192,192,75309,1,0,0:0:0:0:
64,192,75409,1,0,0:0:0:0:
192,192,75409,1,0,0:0:0:0:
64,192,75509,1,0,0:0:0:0:
448,192,75509,1,0,0:0:0:0:
320,192,75509,1,0,0:0:0:0:
320,192,75609,1,0,0:0:0:0:
64,192,75709,1,0,0:0:0:0:
448,192,75709,1,0,0:0:0:0:
192,192,75709,1,0,0:0:0:0:
192,192,75809,1,0,0:0:0:0:
64,192,75909,1,0,0:0:0:0:
320,192,75909,1,0,0:0:0:0:
448,192,76009,1,0,0:0:0:0:
448,192,76109,1,0,0:0:0:0:
320,192,76109,1,0,0:0:0:0:
64,192,76109,1,0,0:0:0:0:
64,192,76209,1,0,0:0:0:0:
64,192,76309,1,0,0:0:0:0:
192,192,76309,1,0,0:0:0:0:
192,192,76409,1,0,0:0:0:0:
64,192,76509,1,0,0:0:0:0:
320,192,76509,1,0,0:0:0:0:
448,192,76609,1,0,0:0:0:0:
64,192,76609,1,0,0:0:0:0:
320,192,76609,1,0,0:0:0:0:
192,192,76709,1,0,0:0:0:0:
192,192,76809,1,0,0:0:0:0:
448,192,76809,1,0,0:0:0:0:
320,192,76909,128,0,77109:0:0:0:0:
448,192,76909,128,0,77109:0:0:0:0:
64,192,76909,1,0,0:0:0:0:
192,192,77109,1,0,0:0:0:0:
64,192,77109,1,0,0:0:0:0:
64,192,77209,1,0,0:0:0:0:
192,192,77209,1,0,0:0:0:0:
64,192,77309,1,0,0:0:0:0:
320,192,77309,1,0,0:0:0:0:
448,192,77309,1,0,0:0:0:0:
320,192,77409,1,0,0:0:0:0:
192,192,77509,1,0,0:0:0:0:
64,192,77509,1,0,0:0:0:0:
192,192,77609,1,0,0:0:0:0:
64,192,77709,1,0,0:0:0:0:
320,192,77709,1,0,0:0:0:0:
448,192,77709,1,0,0:0:0:0:
448,192,77809,1,0,0:0:0:0:
320,192,77909,1,0,0:0:0:0:
64,192,77909,1,0,0:0:0:0:
64,192,78009,1,0,0:0:0:0:
192,192,78109,1,0,0:0:0:0:
448,192,78109,1,0,0:0:0:0:
448,192,78209,1,0,0:0:0:0:
320,192,78209,1,0,0:0:0:0:
320,192,78309,1,0,0:0:0:0:
64,192,78309,1,0,0:0:0:0:
192,192,78409,1,0,0:0:0:0:
448,192,78409,1,0,0:0:0:0:
64,192,78409,1,0,0:0:0:0:
448,192,78509,1,0,0:0:0:0:
320,192,78509,1,0,0:0:0:0:
192,192,78509,1,0,0:0:0:0:
64,192,78609,1,0,0:0:0:0:
64,192,78709,1,0,0:0:0:0:
448,192,78709,1,0,0:0:0:0:
320,192,78709,1,0,0:0:0:0:
192,192,78809,1,0,0:0:0:0:
192,192,78909,1,0,0:0:0:0:
64,192,78909,1,0,0:0:0:0:
448,192,78909,1,0,0:0:0:0:
320,192,79009,1,0,0:0:0:0:
320,192,79109,1,0,0:0:0:0:
64,192,79109,1,0,0:0:0:0:
64,192,79209,1,0,0:0:0:0:
192,192,79309,1,0,0:0:0:0:
320,192,79309,1,0,0:0:0:0:
448,192,79309,1,0,0:0:0:0:
320,192,79409,1,0,0:0:0:0:
64,192,79509,1,0,0:0:0:0:
192,192,79509,1,0,0:0:0:0:
448,192,79609,1,0,0:0:0:0:
192,192,79609,1,0,0:0:0:0:
448,192,79709,1,0,0:0:0:0:
320,192,79709,1,0,0:0:0:0:
64,192,79709,1,0,0:0:0:0:
320,192,79809,1,0,0:0:0:0:
192,192,79909,1,0,0:0:0:0:
64,192,79909,1,0,0:0:0:0:
64,192,80109,1,0,0:0:0:0:
448,192,80109,1,0,0:0:0:0:
320,192,80109,128,0,80309:0:0:0:0:
192,192,80309,128,0,80509:0:0:0:0:
64,192,80509,1,0,0:0:0:0:
320,192,80509,1,0,0:0:0:0:
448,192,80509,1,0,0:0:0:0:
192,192,80709,1,0,0:0:0:0:
64,192,80709,1,0,0:0:0:0:
64,192,80909,1,0,0:0:0:0:
320,192,80909,1,0,0:0:0:0:
448,192,80909,1,0,0:0:0:0:
192,192,81009,1,0,0:0:0:0:
320,192,81009,1,0,0:0:0:0:
192,192,81109,1,0,0:0:0:0:
448,192,81109,1,0,0:0:0:0:
64,192,81209,1,0,0:0:0:0:
320,192,81209,1,0,0:0:0:0:
64,192,81309,1,0,0:0:0:0:
448,192,81309,1,0,0:0:0:0:
192,192,81409,1,0,0:0:0:0:
448,192,81409,1,0,0:0:0:0:
320,192,81509,1,0,0:0:0:0:
192,192,81509,1,0,0:0:0:0:
320,192,81609,1,0,0:0:0:0:
192,192,81709,1,0,0:0:0:0:
64,192,81709,1,0,0:0:0:0:
448,192,81709,1,0,0:0:0:0:
320,192,81809,1,0,0:0:0:0:
64,192,81809,1,0,0:0:0:0:
192,192,81909,1,0,0:0:0:0:
320,192,81909,1,0,0:0:0:0:
192,192,82009,1,0,0:0:0:0:
64,192,82009,1,0,0:0:0:0:
64,192,82109,1,0,0:0:0:0:
320,192,82109,128,0,82409:0:0:0:0:
448,192,82109,128,0,82409:0:0:0:0:
320,192,82509,1,0,0:0:0:0:
192,192,82709,1,0,0:0:0:0:
192,192,82909,128,0,83309:0:0:0:0:
448,192,82909,128,0,83309:0:0:0:0:
64,192,82909,1,0,0:0:0:0:
320,192,83109,1,0,0:0:0:0:
64,192,83309,128,0,83459:0:0:0:0:
192,192,83559,128,0,83709:0:0:0:0:
320,192,83709,1,0,0:0:0:0:
448,192,83709,1,0,0:0:0:0:
64,192,83709,1,0,0:0:0:0:
64,192,83909,1,0,0:0:0:0:
192,192,83909,1,0,0:0:0:0:
320,192,83909,1,0,0:0:0:0:
192,192,84109,1,0,0:0:0:0:
64,192,84109,1,0,0:0:0:0:
448,192,84109,1,0,0:0:0:0:
192,192,84209,1,0,0:0:0:0:
320,192,84209,1,0,0:0:0:0:
448,192,84309,1,0,0:0:0:0:
192,192,84409,1,0,0:0:0:0:
64,192,84409,1,0,0:0:0:0:
64,192,84509,1,0,0:0:0:0:
448,192,84509,1,0,0:0:0:0:
320,192,84509,128,0,84759:0:0:0:0:
64,192,84809,1,0,0:0:0:0:
320,192,84809,1,0,0:0:0:0:
192,192,84809,128,0,85059:0:0:0:0:
192,192,85109,1,0,0:0:0:0:
448,192,85109,1,0,0:0:0:0:
64,192,85109,128,0,85359:0:0:0:0:
64,192,85409,1,0,0:0:0:0:
192,192,85409,1,0,0:0:0:0:
320,192,85509,128,0,85709:0:0:0:0:
448,192,85509,1,0,0:0:0:0:
192,192,85709,128,0,85909:0:0:0:0:
64,192,85709,1,0,0:0:0:0:
448,192,85709,1,0,0:0:0:0:
320,192,85809,1,0,0:0:0:0:
64,192,85909,1,0,0:0:0:0:
448,192,85909,128,0,86059:0:0:0:0:
192,192,86009,1,0,0:0:0:0:
64,192,86109,1,0,0:0:0:0:
320,192,86109,128,0,86359:0:0:0:0:
448,192,86109,128,0,86359:0:0:0:0:
448,192,86409,1,0,0:0:0:0:
320,192,86409,128,0,86659:0:0:0:0:
192,192,86409,128,0,86659:0:0:0:0:
448,192,86709,1,0,0:0:0:0:
192,192,86709,128,0,86859:0:0:0:0:
64,192,86709,128,0,86859:0:0:0:0:
64,192,86909,1,0,0:0:0:0:
192,192,86909,1,0,0:0:0:0:
448,192,86909,1,0,0:0:0:0:
320,192,87209,1,0,0:0:0:0:
192,192,87309,1,0,0:0:0:0:
64,192,87309,1,0,0:0:0:0:
448,192,87309,1,0,0:0:0:0:
192,192,87509,1,0,0:0:0:0:
320,192,87509,1,0,0:0:0:0:
192,192,87709,1,0,0:0:0:0:
320,192,87709,128,0,87959:0:0:0:0:
448,192,87709,128,0,87959:0:0:0:0:
64,192,87909,128,0,88009:0:0:0:0:
320,192,88009,128,0,88259:0:0:0:0:
192,192,88009,128,0,88259:0:0:0:0:
448,192,88009,1,0,0:0:0:0:
448,192,88209,128,0,88309:0:0:0:0:
192,192,88309,1,0,0:0:0:0:
64,192,88309,128,0,88559:0:0:0:0:
320,192,88309,128,0,88559:0:0:0:0:
64,192,88609,1,0,0:0:0:0:
320,192,88609,1,0,0:0:0:0:
192,192,88709,1,0,0:0:0:0:
64,192,88709,1,0,0:0:0:0:
192,192,88909,1,0,0:0:0:0:
320,192,88909,1,0,0:0:0:0:
448,192,88909,128,0,89109:0:0:0:0:
64,192,89109,1,0,0:0:0:0:
192,192,89109,128,0,89209:0:0:0:0:
448,192,89209,1,0,0:0:0:0:
320,192,89209,1,0,0:0:0:0:
448,192,89309,1,0,0:0:0:0:
64,192,89309,1,0,0:0:0:0:
192,192,89309,1,0,0:0:0:0:
320,192,89509,1,0,0:0:0:0:
192,192,89509,1,0,0:0:0:0:
320,192,89609,1,0,0:0:0:0:
448,192,89609,1,0,0:0:0:0:
64,192,89609,1,0,0:0:0:0:
64,192,89709,1,0,0:0:0:0:
192,192,89709,1,0,0:0:0:0:
448,192,89709,1,0,0:0:0:0:
448,192,89909,1,0,0:0:0:0:
192,192,89909,128,0,90109:0:0:0:0:
320,192,89909,128,0,90109:0:0:0:0:
320,192,90309,128,0,90409:0:0:0:0:
192,192,90309,128,0,90409:0:0:0:0:
192,192,90509,128,0,90609:0:0:0:0:
320,192,90509,128,0,90609:0:0:0:0:
320,192,90886,128,0,91088:0:0:0:0:
448,192,90886,128,0,91088:0:0:0:0:
192,192,90886,1,0,0:0:0:0:
192,192,91190,128,0,91392:0:0:0:0:
448,192,91190,128,0,91392:0:0:0:0:
64,192,91190,1,0,0:0:0:0:
192,192,91494,128,0,91696:0:0:0:0:
64,192,91494,128,0,91696:0:0:0:0:
448,192,91494,1,0,0:0:0:0:
320,192,91899,128,0,92000:0:0:0:0:
64,192,91899,1,0,0:0:0:0:
192,192,91899,128,0,92000:0:0:0:0:
320,192,92102,128,0,92203:0:0:0:0:
448,192,92102,128,0,92203:0:0:0:0:
192,192,92102,1,0,0:0:0:0:
64,192,92102,1,0,0:0:0:0:
64,192,92203,128,0,92304:0:0:0:0:
192,192,92304,1,0,0:0:0:0:
320,192,92304,128,0,92456:0:0:0:0:
64,192,92507,1,0,0:0:0:0:
192,192,92507,128,0,92707:0:0:0:0:
448,192,92507,128,0,92707:0:0:0:0:
320,192,92507,1,0,0:0:0:0:
448,192,92807,128,0,93007:0:0:0:0:
64,192,92807,128,0,93007:0:0:0:0:
192,192,92807,1,0,0:0:0:0:
192,192,93107,128,0,93307:0:0:0:0:
448,192,93107,1,0,0:0:0:0:
64,192,93107,128,0,93307:0:0:0:0:
320,192,93307,1,0,0:0:0:0:
448,192,93307,1,0,0:0:0:0:
192,192,93407,1,0,0:0:0:0:
64,192,93507,1,0,0:0:0:0:
320,192,93507,1,0,0:0:0:0:
448,192,93607,1,0,0:0:0:0:
192,192,93707,1,0,0:0:0:0:
64,192,93707,1,0,0:0:0:0:
192,192,93807,1,0,0:0:0:0:
448,192,93807,1,0,0:0:0:0:
320,192,93907,1,0,0:0:0:0:
448,192,93907,1,0,0:0:0:0:
320,192,94007,1,0,0:0:0:0:
64,192,94007,1,0,0:0:0:0:
192,192,94107,1,0,0:0:0:0:
64,192,94107,1,0,0:0:0:0:
448,192,94107,1,0,0:0:0:0:
448,192,94207,1,0,0:0:0:0:
320,192,94207,1,0,0:0:0:0:
192,192,94307,1,0,0:0:0:0:
64,192,94307,1,0,0:0:0:0:
64,192,94407,1,0,0:0:0:0:
320,192,94407,1,0,0:0:0:0:
448,192,94507,1,0,0:0:0:0:
320,192,94507,1,0,0:0:0:0:
448,192,94607,1,0,0:0:0:0:
192,192,94607,1,0,0:0:0:0:
64,192,94707,1,0,0:0:0:0:
320,192,94707,1,0,0:0:0:0:
192,192,94807,1,0,0:0:0:0:
64,192,94807,1,0,0:0:0:0:
320,192,94907,1,0,0:0:0:0:
448,192,94907,1,0,0:0:0:0:
192,192,94907,1,0,0:0:0:0:
320,192,95007,1,0,0:0:0:0:
64,192,95107,1,0,0:0:0:0:
192,192,95107,1,0,0:0:0:0:
320,192,95207,1,0,0:0:0:0:
448,192,95207,1,0,0:0:0:0:
192,192,95307,1,0,0:0:0:0:
64,192,95307,1,0,0:0:0:0:
192,192,95407,1,0,0:0:0:0:
448,192,95407,1,0,0:0:0:0:
320,192,95507,1,0,0:0:0:0:
448,192,95507,1,0,0:0:0:0:
64,192,95607,1,0,0:0:0:0:
192,192,95607,1,0,0:0:0:0:
192,192,95707,128,0,95907:0:0:0:0:
320,192,95707,128,0,95907:0:0:0:0:
448,192,95707,128,0,95907:0:0:0:0:
192,192,96007,128,0,96207:0:0:0:0:
320,192,96007,128,0,96207:0:0:0:0:
448,192,96007,128,0,96207:0:0:0:0:
64,192,96007,1,0,0:0:0:0:
192,192,96307,128,0,96457:0:0:0:0:
64,192,96307,128,0,96457:0:0:0:0:
448,192,96307,1,0,0:0:0:0:
320,192,96307,128,0,96457:0:0:0:0:
64,192,96498,1,0,0:0:0:0:
192,192,96498,1,0,0:0:0:0:
320,192,96498,1,0,0:0:0:0:
192,192,96631,1,0,0:0:0:0:
64,192,96631,1,0,0:0:0:0:
192,192,96731,1,0,0:0:0:0:
64,192,96898,1,0,0:0:0:0:
320,192,96898,128,0,97160:0:0:0:0:
448,192,96898,128,0,97160:0:0:0:0:
64,192,97198,1,0,0:0:0:0:
448,192,97198,128,0,97449:0:0:0:0:
192,192,97198,128,0,97449:0:0:0:0:
448,192,97485,128,0,97693:0:0:0:0:
64,192,97485,128,0,97693:0:0:0:0:
192,192,97485,1,0,0:0:0:0:
64,192,97735,128,0,97955:0:0:0:0:
192,192,97735,128,0,97955:0:0:0:0:
320,192,97735,1,0,0:0:0:0:
64,192,97999,128,0,98087:0:0:0:0:
192,192,97999,1,0,0:0:0:0:
320,192,98087,1,0,0:0:0:0:
448,192,98087,1,0,0:0:0:0:
192,192,98317,1,0,0:0:0:0:
192,192,98417,1,0,0:0:0:0:
320,192,98517,1,0,0:0:0:0:
448,192,98717,1,0,0:0:0:0:
64,192,98917,128,0,99167:0:0:0:0:
192,192,99217,128,0,99467:0:0:0:0:
320,192,99517,128,0,99717:0:0:0:0:
64,192,99617,1,0,0:0:0:0:
448,192,99667,1,0,0:0:0:0:
192,192,99717,1,0,0:0:0:0:
64,192,99767,1,0,0:0:0:0:
320,192,99817,1,0,0:0:0:0:
448,192,99917,1,0,0:0:0:0:
448,192,100017,1,0,0:0:0:0:
192,192,100117,1,0,0:0:0:0:
320,192,100217,1,0,0:0:0:0:
64,192,100317,1,0,0:0:0:0:
192,192,100417,1,0,0:0:0:0:
448,192,100517,128,0,100767:0:0:0:0:
320,192,100517,1,0,0:0:0:0:
320,192,100817,128,0,101067:0:0:0:0:
192,192,101117,128,0,101317:0:0:0:0:
64,192,101317,1,0,0:0:0:0:
320,192,101317,1,0,0:0:0:0:
192,192,101517,1,0,0:0:0:0:
448,192,101717,1,0,0:0:0:0:
320,192,101917,1,0,0:0:0:0:
64,192,102117,128,0,102217:0:0:0:0:
192,192,102317,128,0,102467:0:0:0:0:
320,192,102517,128,0,102667:0:0:0:0:
448,192,102717,128,0,102867:0:0:0:0:
448,192,102917,1,0,0:0:0:0:
64,192,102917,1,0,0:0:0:0:
320,192,103117,1,0,0:0:0:0:
64,192,103317,1,0,0:0:0:0:
192,192,103517,1,0,0:0:0:0:
320,192,103617,1,0,0:0:0:0:
448,192,103667,1,0,0:0:0:0:
64,192,103717,1,0,0:0:0:0:
192,192,103767,1,0,0:0:0:0:
320,192,103917,1,0,0:0:0:0:
192,192,104117,128,0,104517:0:0:0:0:
64,192,104517,1,0,0:0:0:0:
448,192,104517,1,0,0:0:0:0:
448,192,104717,1,0,0:0:0:0:
192,192,104717,1,0,0:0:0:0:
192,192,104817,1,0,0:0:0:0:
320,192,104917,1,0,0:0:0:0:
64,192,105017,1,0,0:0:0:0:
192,192,105117,1,0,0:0:0:0:
448,192,105217,1,0,0:0:0:0:
320,192,105317,128,0,105567:0:0:0:0:
64,192,105617,128,0,105867:0:0:0:0:
192,192,105917,128,0,106117:0:0:0:0:
64,192,106117,1,0,0:0:0:0:
320,192,106117,1,0,0:0:0:0:
192,192,106317,1,0,0:0:0:0:
64,192,106417,128,0,106617:0:0:0:0:
192,192,106617,128,0,106817:0:0:0:0:
320,192,106917,128,0,107067:0:0:0:0:
192,192,107217,128,0,107467:0:0:0:0:
64,192,107517,128,0,107717:0:0:0:0:
192,192,107717,1,0,0:0:0:0:
448,192,107717,1,0,0:0:0:0:
320,192,107917,1,0,0:0:0:0:
64,192,107967,1,0,0:0:0:0:
64,192,108117,1,0,0:0:0:0:
192,192,108317,1,0,0:0:0:0:
192,192,108517,1,0,0:0:0:0:
448,192,108517,1,0,0:0:0:0:
448,192,108717,1,0,0:0:0:0:
320,192,108917,1,0,0:0:0:0:
64,192,108917,1,0,0:0:0:0:
64,192,109117,1,0,0:0:0:0:
192,192,109317,1,0,0:0:0:0:
320,192,109317,1,0,0:0:0:0:
448,192,109317,1,0,0:0:0:0:
64,192,109517,1,0,0:0:0:0:
320,192,109517,1,0,0:0:0:0:
64,192,109717,1,0,0:0:0:0:
448,192,109717,1,0,0:0:0:0:
192,192,109717,1,0,0:0:0:0:
64,192,110117,1,0,0:0:0:0:
320,192,110117,1,0,0:0:0:0:
448,192,110117,1,0,0:0:0:0:
64,192,110250,1,0,0:0:0:0:
192,192,110250,1,0,0:0:0:0:
448,192,110250,1,0,0:0:0:0:
192,192,110383,1,0,0:0:0:0:
320,192,110383,1,0,0:0:0:0:
64,192,110517,1,0,0:0:0:0:
320,192,110517,1,0,0:0:0:0:
448,192,110517,1,0,0:0:0:0:
192,192,110650,1,0,0:0:0:0:
64,192,110650,1,0,0:0:0:0:
192,192,110783,1,0,0:0:0:0:
320,192,110783,1,0,0:0:0:0:
64,192,110917,1,0,0:0:0:0:
448,192,110917,1,0,0:0:0:0:
192,192,110917,1,0,0:0:0:0:
320,192,110917,128,0,111117:0:0:0:0:
64,192,111117,1,0,0:0:0:0:
192,192,111317,1,0,0:0:0:0:
448,192,111317,128,0,111517:0:0:0:0:
320,192,111517,1,0,0:0:0:0:
64,192,111717,1,0,0:0:0:0:
448,192,111717,1,0,0:0:0:0:
192,192,111717,128,0,111917:0:0:0:0:
448,192,111917,1,0,0:0:0:0:
320,192,112117,1,0,0:0:0:0:
64,192,112117,128,0,112317:0:0:0:0:
192,192,112317,1,0,0:0:0:0:
64,192,112517,1,0,0:0:0:0:
320,192,112517,1,0,0:0:0:0:
448,192,112517,1,0,0:0:0:0:
192,192,112617,1,0,0:0:0:0:
64,192,112617,1,0,0:0:0:0:
192,192,112717,1,0,0:0:0:0:
448,192,112717,1,0,0:0:0:0:
448,192,112817,1,0,0:0:0:0:
64,192,112817,1,0,0:0:0:0:
320,192,112917,1,0,0:0:0:0:
64,192,112917,1,0,0:0:0:0:
192,192,113017,1,0,0:0:0:0:
320,192,113017,1,0,0:0:0:0:
192,192,113117,1,0,0:0:0:0:
448,192,113117,1,0,0:0:0:0:
320,192,113217,1,0,0:0:0:0:
64,192,113217,1,0,0:0:0:0:
448,192,113217,1,0,0:0:0:0:
320,192,113317,1,0,0:0:0:0:
192,192,113317,128,0,113517:0:0:0:0:
64,192,113317,128,0,113517:0:0:0:0:
448,192,113517,1,0,0:0:0:0:
320,192,113617,128,0,113817:0:0:0:0:
192,192,113617,128,0,113817:0:0:0:0:
64,192,113617,1,0,0:0:0:0:
64,192,113817,1,0,0:0:0:0:
320,192,113917,128,0,114417:0:0:0:0:
448,192,113917,128,0,114117:0:0:0:0:
192,192,114317,1,0,0:0:0:0:
64,192,114317,1,0,0:0:0:0:
192,192,114517,1,0,0:0:0:0:
320,192,114517,1,0,0:0:0:0:
192,192,114717,1,0,0:0:0:0:
448,192,114717,1,0,0:0:0:0:
448,192,114917,1,0,0:0:0:0:
64,192,114917,1,0,0:0:0:0:
320,192,114917,1,0,0:0:0:0:
192,192,115017,1,0,0:0:0:0:
64,192,115017,1,0,0:0:0:0:
192,192,115117,1,0,0:0:0:0:
448,192,115117,1,0,0:0:0:0:
448,192,115217,1,0,0:0:0:0:
320,192,115217,1,0,0:0:0:0:
320,192,115317,1,0,0:0:0:0:
64,192,115317,1,0,0:0:0:0:
192,192,115417,128,0,115517:0:0:0:0:
448,192,115517,1,0,0:0:0:0:
64,192,115517,1,0,0:0:0:0:
192,192,115617,1,0,0:0:0:0:
320,192,115717,1,0,0:0:0:0:
448,192,115717,1,0,0:0:0:0:
64,192,115717,1,0,0:0:0:0:
320,192,115817,1,0,0:0:0:0:
448,192,115817,1,0,0:0:0:0:
320,192,115917,1,0,0:0:0:0:
64,192,115917,1,0,0:0:0:0:
192,192,116017,1,0,0:0:0:0:
64,192,116017,1,0,0:0:0:0:
192,192,116117,1,0,0:0:0:0:
320,192,116117,1,0,0:0:0:0:
448,192,116117,1,0,0:0:0:0:
320,192,116217,1,0,0:0:0:0:
448,192,116217,1,0,0:0:0:0:
64,192,116317,1,0,0:0:0:0:
192,192,116417,1,0,0:0:0:0:
64,192,116517,1,0,0:0:0:0:
320,192,116517,128,0,116717:0:0:0:0:
448,192,116517,128,0,116717:0:0:0:0:
192,192,116717,1,0,0:0:0:0:
320,192,116817,128,0,117017:0:0:0:0:
64,192,116817,128,0,117017:0:0:0:0:
448,192,116817,1,0,0:0:0:0:
192,192,117017,1,0,0:0:0:0:
448,192,117117,128,0,117317:0:0:0:0:
320,192,117117,1,0,0:0:0:0:
64,192,117117,128,0,117517:0:0:0:0:
192,192,117317,1,0,0:0:0:0:
320,192,117517,1,0,0:0:0:0:
448,192,117517,1,0,0:0:0:0:
64,192,117717,1,0,0:0:0:0:
448,192,117717,1,0,0:0:0:0:
320,192,117817,1,0,0:0:0:0:
192,192,117817,1,0,0:0:0:0:
320,192,117917,1,0,0:0:0:0:
64,192,117917,1,0,0:0:0:0:
192,192,118017,1,0,0:0:0:0:
192,192,118117,1,0,0:0:0:0:
448,192,118117,1,0,0:0:0:0:
64,192,118117,1,0,0:0:0:0:
320,192,118217,1,0,0:0:0:0:
448,192,118217,1,0,0:0:0:0:
320,192,118317,1,0,0:0:0:0:
64,192,118317,1,0,0:0:0:0:
448,192,118417,1,0,0:0:0:0:
192,192,118417,1,0,0:0:0:0:
192,192,118517,1,0,0:0:0:0:
64,192,118517,1,0,0:0:0:0:
320,192,118617,1,0,0:0:0:0:
448,192,118617,1,0,0:0:0:0:
64,192,118717,1,0,0:0:0:0:
448,192,118717,1,0,0:0:0:0:
192,192,118817,1,0,0:0:0:0:
320,192,118817,1,0,0:0:0:0:
448,192,118917,1,0,0:0:0:0:
64,192,118917,1,0,0:0:0:0:
320,192,118917,1,0,0:0:0:0:
192,192,119017,1,0,0:0:0:0:
192,192,119117,1,0,0:0:0:0:
448,192,119117,1,0,0:0:0:0:
320,192,119217,1,0,0:0:0:0:
320,192,119317,1,0,0:0:0:0:
448,192,119317,1,0,0:0:0:0:
64,192,119317,1,0,0:0:0:0:
64,192,119417,1,0,0:0:0:0:
448,192,119517,1,0,0:0:0:0:
192,192,119517,1,0,0:0:0:0:
320,192,119617,1,0,0:0:0:0:
448,192,119717,1,0,0:0:0:0:
192,192,119717,128,0,119917:0:0:0:0:
64,192,119717,128,0,119917:0:0:0:0:
320,192,119917,1,0,0:0:0:0:
192,192,120017,128,0,120217:0:0:0:0:
64,192,120017,128,0,120217:0:0:0:0:
448,192,120017,1,0,0:0:0:0:
448,192,120217,1,0,0:0:0:0:
320,192,120317,128,0,120517:0:0:0:0:
448,192,120317,128,0,120517:0:0:0:0:
64,192,120317,1,0,0:0:0:0:
192,192,120517,1,0,0:0:0:0:
64,192,120517,1,0,0:0:0:0:
64,192,120717,1,0,0:0:0:0:
448,192,120717,1,0,0:0:0:0:
64,192,120917,1,0,0:0:0:0:
448,192,120917,1,0,0:0:0:0:
320,192,120917,1,0,0:0:0:0:
320,192,121117,1,0,0:0:0:0:
64,192,121117,1,0,0:0:0:0:
192,192,121317,1,0,0:0:0:0:
448,192,121317,1,0,0:0:0:0:
192,192,121517,1,0,0:0:0:0:
448,192,121517,1,0,0:0:0:0:
320,192,121617,1,0,0:0:0:0:
320,192,121717,1,0,0:0:0:0:
448,192,121717,1,0,0:0:0:0:
64,192,121717,1,0,0:0:0:0:
192,192,121817,1,0,0:0:0:0:
192,192,121917,1,0,0:0:0:0:
64,192,121917,1,0,0:0:0:0:
64,192,122117,1,0,0:0:0:0:
320,192,122117,1,0,0:0:0:0:
448,192,122117,1,0,0:0:0:0:
192,192,122217,1,0,0:0:0:0:
448,192,122217,1,0,0:0:0:0:
64,192,122317,1,0,0:0:0:0:
192,192,122317,1,0,0:0:0:0:
320,192,122417,1,0,0:0:0:0:
320,192,122517,1,0,0:0:0:0:
448,192,122517,1,0,0:0:0:0:
64,192,122517,1,0,0:0:0:0:
192,192,122617,1,0,0:0:0:0:
64,192,122617,1,0,0:0:0:0:
320,192,122717,1,0,0:0:0:0:
192,192,122817,1,0,0:0:0:0:
64,192,122917,128,0,123117:0:0:0:0:
192,192,122917,1,0,0:0:0:0:
448,192,122917,128,0,123117:0:0:0:0:
192,192,123117,1,0,0:0:0:0:
448,192,123217,128,0,123417:0:0:0:0:
320,192,123217,128,0,123317:0:0:0:0:
64,192,123317,128,0,123667:0:0:0:0:
320,192,123417,1,0,0:0:0:0:
448,192,123517,128,0,123667:0:0:0:0:
192,192,123517,128,0,123667:0:0:0:0:
320,192,123717,1,0,0:0:0:0:
448,192,123717,1,0,0:0:0:0:
64,192,123717,1,0,0:0:0:0:
192,192,123717,1,0,0:0:0:0:
320,192,123817,1,0,0:0:0:0:
192,192,123917,1,0,0:0:0:0:
64,192,123917,1,0,0:0:0:0:
64,192,124017,1,0,0:0:0:0:
192,192,124117,1,0,0:0:0:0:
448,192,124117,1,0,0:0:0:0:
320,192,124117,1,0,0:0:0:0:
192,192,124217,1,0,0:0:0:0:
320,192,124317,1,0,0:0:0:0:
448,192,124317,1,0,0:0:0:0:
448,192,124417,1,0,0:0:0:0:
192,192,124517,1,0,0:0:0:0:
64,192,124517,1,0,0:0:0:0:
192,192,124617,1,0,0:0:0:0:
448,192,124617,1,0,0:0:0:0:
320,192,124717,1,0,0:0:0:0:
448,192,124717,1,0,0:0:0:0:
64,192,124817,1,0,0:0:0:0:
320,192,124817,1,0,0:0:0:0:
64,192,124917,1,0,0:0:0:0:
192,192,124917,1,0,0:0:0:0:
448,192,124917,1,0,0:0:0:0:
448,192,125017,1,0,0:0:0:0:
320,192,125117,1,0,0:0:0:0:
192,192,125117,1,0,0:0:0:0:
64,192,125217,1,0,0:0:0:0:
192,192,125317,1,0,0:0:0:0:
64,192,125317,1,0,0:0:0:0:
448,192,125317,1,0,0:0:0:0:
192,192,125417,1,0,0:0:0:0:
448,192,125517,1,0,0:0:0:0:
192,192,125517,1,0,0:0:0:0:
320,192,125617,1,0,0:0:0:0:
320,192,125717,1,0,0:0:0:0:
64,192,125717,1,0,0:0:0:0:
448,192,125717,1,0,0:0:0:0:
192,192,125817,1,0,0:0:0:0:
64,192,125917,1,0,0:0:0:0:
192,192,125917,1,0,0:0:0:0:
64,192,126017,1,0,0:0:0:0:
320,192,126017,1,0,0:0:0:0:
192,192,126117,1,0,0:0:0:0:
448,192,126117,1,0,0:0:0:0:
448,192,126217,1,0,0:0:0:0:
320,192,126217,1,0,0:0:0:0:
64,192,126217,1,0,0:0:0:0:
320,192,126317,1,0,0:0:0:0:
192,192,126417,1,0,0:0:0:0:
64,192,126517,1,0,0:0:0:0:
192,192,126517,1,0,0:0:0:0:
448,192,126517,1,0,0:0:0:0:
448,192,126617,1,0,0:0:0:0:
320,192,126717,1,0,0:0:0:0:
64,192,126717,1,0,0:0:0:0:
448,192,126817,1,0,0:0:0:0:
192,192,126817,1,0,0:0:0:0:
320,192,126917,1,0,0:0:0:0:
448,192,126917,1,0,0:0:0:0:
64,192,126917,1,0,0:0:0:0:
320,192,127017,1,0,0:0:0:0:
192,192,127117,1,0,0:0:0:0:
64,192,127117,1,0,0:0:0:0:
448,192,127217,1,0,0:0:0:0:
320,192,127217,1,0,0:0:0:0:
448,192,127317,1,0,0:0:0:0:
192,192,127317,1,0,0:0:0:0:
64,192,127317,1,0,0:0:0:0:
320,192,127417,1,0,0:0:0:0:
64,192,127417,1,0,0:0:0:0:
192,192,127517,1,0,0:0:0:0:
448,192,127517,1,0,0:0:0:0:
320,192,127617,1,0,0:0:0:0:
192,192,127617,1,0,0:0:0:0:
448,192,127717,1,0,0:0:0:0:
64,192,127717,1,0,0:0:0:0:
320,192,127717,1,0,0:0:0:0:
192,192,127817,1,0,0:0:0:0:
192,192,127917,1,0,0:0:0:0:
64,192,127917,1,0,0:0:0:0:
448,192,128017,1,0,0:0:0:0:
320,192,128017,1,0,0:0:0:0:
320,192,128117,1,0,0:0:0:0:
448,192,128117,1,0,0:0:0:0:
64,192,128117,1,0,0:0:0:0:
192,192,128217,1,0,0:0:0:0:
64,192,128317,1,0,0:0:0:0:
448,192,128317,1,0,0:0:0:0:
320,192,128417,1,0,0:0:0:0:
320,192,128517,1,0,0:0:0:0:
192,192,128517,1,0,0:0:0:0:
64,192,128517,1,0,0:0:0:0:
64,192,128617,1,0,0:0:0:0:
192,192,128717,1,0,0:0:0:0:
320,192,128717,1,0,0:0:0:0:
192,192,128817,1,0,0:0:0:0:
64,192,128917,1,0,0:0:0:0:
320,192,128917,1,0,0:0:0:0:
448,192,128917,1,0,0:0:0:0:
192,192,129017,1,0,0:0:0:0:
320,192,129117,1,0,0:0:0:0:
192,192,129117,1,0,0:0:0:0:
320,192,129217,1,0,0:0:0:0:
64,192,129217,1,0,0:0:0:0:
64,192,129317,1,0,0:0:0:0:
448,192,129317,1,0,0:0:0:0:
192,192,129417,1,0,0:0:0:0:
320,192,129417,1,0,0:0:0:0:
448,192,129417,1,0,0:0:0:0:
192,192,129517,1,0,0:0:0:0:
64,192,129617,1,0,0:0:0:0:
320,192,129617,1,0,0:0:0:0:
64,192,129717,1,0,0:0:0:0:
448,192,129717,1,0,0:0:0:0:
320,192,129717,1,0,0:0:0:0:
192,192,129817,1,0,0:0:0:0:
192,192,129917,1,0,0:0:0:0:
448,192,129917,1,0,0:0:0:0:
64,192,130017,1,0,0:0:0:0:
192,192,130117,1,0,0:0:0:0:
320,192,130117,1,0,0:0:0:0:
448,192,130117,1,0,0:0:0:0:
320,192,130217,1,0,0:0:0:0:
320,192,130317,1,0,0:0:0:0:
192,192,130317,1,0,0:0:0:0:
192,192,130417,1,0,0:0:0:0:
64,192,130517,1,0,0:0:0:0:
320,192,130517,1,0,0:0:0:0:
448,192,130517,1,0,0:0:0:0:
192,192,130617,1,0,0:0:0:0:
192,192,130717,1,0,0:0:0:0:
320,192,130717,1,0,0:0:0:0:
320,192,130817,1,0,0:0:0:0:
192,192,130917,1,0,0:0:0:0:
64,192,130917,1,0,0:0:0:0:
448,192,130917,1,0,0:0:0:0:
64,192,131017,1,0,0:0:0:0:
320,192,131017,1,0,0:0:0:0:
320,192,131117,1,0,0:0:0:0:
192,192,131217,1,0,0:0:0:0:
448,192,131217,1,0,0:0:0:0:
64,192,131317,1,0,0:0:0:0:
320,192,131317,1,0,0:0:0:0:
448,192,131317,1,0,0:0:0:0:
320,192,131417,1,0,0:0:0:0:
192,192,131517,1,0,0:0:0:0:
64,192,131517,1,0,0:0:0:0:
64,192,131617,1,0,0:0:0:0:
192,192,131717,1,0,0:0:0:0:
320,192,131717,1,0,0:0:0:0:
448,192,131717,1,0,0:0:0:0:
320,192,131817,1,0,0:0:0:0:
64,192,131917,1,0,0:0:0:0:
192,192,131917,1,0,0:0:0:0:
448,192,132017,1,0,0:0:0:0:
448,192,132117,1,0,0:0:0:0:
320,192,132117,1,0,0:0:0:0:
64,192,132117,1,0,0:0:0:0:
320,192,132217,1,0,0:0:0:0:
192,192,132217,1,0,0:0:0:0:
64,192,132317,1,0,0:0:0:0:
64,192,132417,1,0,0:0:0:0:
320,192,132417,1,0,0:0:0:0:
320,192,132517,1,0,0:0:0:0:
448,192,132517,1,0,0:0:0:0:
192,192,132617,1,0,0:0:0:0:
64,192,132617,1,0,0:0:0:0:
448,192,132617,1,0,0:0:0:0:
192,192,132717,1,0,0:0:0:0:
320,192,132817,1,0,0:0:0:0:
64,192,132817,1,0,0:0:0:0:
320,192,132917,1,0,0:0:0:0:
448,192,132917,1,0,0:0:0:0:
192,192,132917,1,0,0:0:0:0:
192,192,133017,1,0,0:0:0:0:
64,192,133117,1,0,0:0:0:0:
448,192,133117,1,0,0:0:0:0:
64,192,133217,1,0,0:0:0:0:
448,192,133317,1,0,0:0:0:0:
192,192,133317,1,0,0:0:0:0:
64,192,133317,1,0,0:0:0:0:
320,192,133417,1,0,0:0:0:0:
192,192,133517,1,0,0:0:0:0:
192,192,133617,1,0,0:0:0:0:
64,192,133717,1,0,0:0:0:0:
448,192,133717,1,0,0:0:0:0:
320,192,133717,1,0,0:0:0:0:
64,192,133817,1,0,0:0:0:0:
192,192,133917,1,0,0:0:0:0:
448,192,133917,1,0,0:0:0:0:
320,192,134017,1,0,0:0:0:0:
448,192,134017,1,0,0:0:0:0:
320,192,134117,1,0,0:0:0:0:
192,192,134117,1,0,0:0:0:0:
64,192,134117,1,0,0:0:0:0:
192,192,134217,1,0,0:0:0:0:
448,192,134317,1,0,0:0:0:0:
320,192,134317,1,0,0:0:0:0:
448,192,134417,1,0,0:0:0:0:
320,192,134517,1,0,0:0:0:0:
64,192,134517,1,0,0:0:0:0:
192,192,134617,1,0,0:0:0:0:
320,192,134617,1,0,0:0:0:0:
192,192,134717,1,0,0:0:0:0:
64,192,134817,1,0,0:0:0:0:
320,192,134817,1,0,0:0:0:0:
192,192,134917,1,0,0:0:0:0:
64,192,134917,1,0,0:0:0:0:
448,192,134917,1,0,0:0:0:0:
192,192,135017,1,0,0:0:0:0:
320,192,135117,1,0,0:0:0:0:
448,192,135117,1,0,0:0:0:0:
64,192,135117,1,0,0:0:0:0:
448,192,135217,1,0,0:0:0:0:
64,192,135317,1,0,0:0:0:0:
192,192,135317,1,0,0:0:0:0:
320,192,135383,1,0,0:0:0:0:
64,192,135450,1,0,0:0:0:0:
192,192,135517,1,0,0:0:0:0:
320,192,135517,1,0,0:0:0:0:
448,192,135583,1,0,0:0:0:0:
192,192,135650,1,0,0:0:0:0:
64,192,135717,1,0,0:0:0:0:
320,192,135717,1,0,0:0:0:0:
192,192,135783,1,0,0:0:0:0:
320,192,135850,1,0,0:0:0:0:
448,192,135917,1,0,0:0:0:0:
64,192,135917,1,0,0:0:0:0:
320,192,136017,1,0,0:0:0:0:
64,192,136017,1,0,0:0:0:0:
192,192,136117,1,0,0:0:0:0:
448,192,136117,1,0,0:0:0:0:
64,192,136183,1,0,0:0:0:0:
320,192,136250,1,0,0:0:0:0:
192,192,136317,1,0,0:0:0:0:
64,192,136317,1,0,0:0:0:0:
448,192,136383,1,0,0:0:0:0:
192,192,136450,1,0,0:0:0:0:
64,192,136517,1,0,0:0:0:0:
448,192,136517,1,0,0:0:0:0:
320,192,136517,1,0,0:0:0:0:
320,192,136617,1,0,0:0:0:0:
448,192,136717,1,0,0:0:0:0:
64,192,136717,1,0,0:0:0:0:
64,192,136817,1,0,0:0:0:0:
448,192,136917,1,0,0:0:0:0:
192,192,136917,1,0,0:0:0:0:
320,192,136917,1,0,0:0:0:0:
448,192,137017,1,0,0:0:0:0:
320,192,137117,1,0,0:0:0:0:
192,192,137117,1,0,0:0:0:0:
64,192,137217,1,0,0:0:0:0:
448,192,137317,1,0,0:0:0:0:
64,192,137317,1,0,0:0:0:0:
320,192,137317,1,0,0:0:0:0:
320,192,137417,1,0,0:0:0:0:
192,192,137417,1,0,0:0:0:0:
192,192,137517,1,0,0:0:0:0:
64,192,137517,1,0,0:0:0:0:
448,192,137617,1,0,0:0:0:0:
64,192,137617,1,0,0:0:0:0:
320,192,137617,1,0,0:0:0:0:
320,192,137717,1,0,0:0:0:0:
448,192,137717,1,0,0:0:0:0:
192,192,137717,1,0,0:0:0:0:
320,192,137817,1,0,0:0:0:0:
64,192,137917,1,0,0:0:0:0:
448,192,137917,1,0,0:0:0:0:
192,192,137917,1,0,0:0:0:0:
64,192,138017,1,0,0:0:0:0:
320,192,138017,1,0,0:0:0:0:
192,192,138117,1,0,0:0:0:0:
320,192,138117,1,0,0:0:0:0:
448,192,138117,1,0,0:0:0:0:
192,192,138217,1,0,0:0:0:0:
64,192,138317,1,0,0:0:0:0:
320,192,138317,1,0,0:0:0:0:
448,192,138317,1,0,0:0:0:0:
192,192,138417,1,0,0:0:0:0:
64,192,138417,1,0,0:0:0:0:
192,192,138517,1,0,0:0:0:0:
320,192,138517,1,0,0:0:0:0:
448,192,138517,1,0,0:0:0:0:
320,192,138617,1,0,0:0:0:0:
64,192,138717,1,0,0:0:0:0:
448,192,138717,1,0,0:0:0:0:
64,192,138817,1,0,0:0:0:0:
192,192,138817,1,0,0:0:0:0:
192,192,138917,1,0,0:0:0:0:
448,192,138917,1,0,0:0:0:0:
320,192,139017,1,0,0:0:0:0:
448,192,139017,1,0,0:0:0:0:
64,192,139017,1,0,0:0:0:0:
192,192,139117,1,0,0:0:0:0:
64,192,139217,1,0,0:0:0:0:
448,192,139217,1,0,0:0:0:0:
192,192,139217,1,0,0:0:0:0:
320,192,139317,1,0,0:0:0:0:
448,192,139317,1,0,0:0:0:0:
192,192,139317,1,0,0:0:0:0:
320,192,139417,1,0,0:0:0:0:
192,192,139517,1,0,0:0:0:0:
64,192,139517,1,0,0:0:0:0:
448,192,139517,1,0,0:0:0:0:
192,192,139617,1,0,0:0:0:0:
64,192,139717,1,0,0:0:0:0:
320,192,139717,1,0,0:0:0:0:
448,192,139717,1,0,0:0:0:0:
320,192,139817,1,0,0:0:0:0:
192,192,139917,1,0,0:0:0:0:
64,192,139917,1,0,0:0:0:0:
64,192,140017,1,0,0:0:0:0:
192,192,140117,1,0,0:0:0:0:
448,192,140117,1,0,0:0:0:0:
320,192,140117,1,0,0:0:0:0:
320,192,140217,1,0,0:0:0:0:
192,192,140317,1,0,0:0:0:0:
64,192,140317,1,0,0:0:0:0:
192,192,140417,1,0,0:0:0:0:
64,192,140517,1,0,0:0:0:0:
320,192,140517,1,0,0:0:0:0:
448,192,140517,1,0,0:0:0:0:
448,192,140617,1,0,0:0:0:0:
192,192,140617,1,0,0:0:0:0:
320,192,140717,1,0,0:0:0:0:
192,192,140717,1,0,0:0:0:0:
64,192,140817,1,0,0:0:0:0:
448,192,140817,1,0,0:0:0:0:
320,192,140817,1,0,0:0:0:0:
320,192,140917,1,0,0:0:0:0:
448,192,140917,1,0,0:0:0:0:
192,192,140917,1,0,0:0:0:0:
64,192,141017,1,0,0:0:0:0:
192,192,141017,1,0,0:0:0:0:
64,192,141117,1,0,0:0:0:0:
448,192,141117,1,0,0:0:0:0:
320,192,141117,1,0,0:0:0:0:
320,192,141217,1,0,0:0:0:0:
64,192,141317,1,0,0:0:0:0:
448,192,141317,1,0,0:0:0:0:
192,192,141317,1,0,0:0:0:0:
192,192,141417,1,0,0:0:0:0:
64,192,141517,1,0,0:0:0:0:
320,192,141517,1,0,0:0:0:0:
448,192,141617,1,0,0:0:0:0:
448,192,141717,1,0,0:0:0:0:
320,192,141717,1,0,0:0:0:0:
64,192,141717,1,0,0:0:0:0:
64,192,141817,1,0,0:0:0:0:
64,192,141917,1,0,0:0:0:0:
192,192,141917,1,0,0:0:0:0:
192,192,142017,1,0,0:0:0:0:
64,192,142117,1,0,0:0:0:0:
320,192,142117,1,0,0:0:0:0:
448,192,142217,1,0,0:0:0:0:
64,192,142217,1,0,0:0:0:0:
320,192,142217,1,0,0:0:0:0:
192,192,142317,1,0,0:0:0:0:
192,192,142417,1,0,0:0:0:0:
448,192,142417,1,0,0:0:0:0:
320,192,142517,128,0,142717:0:0:0:0:
448,192,142517,128,0,142717:0:0:0:0:
64,192,142517,1,0,0:0:0:0:
192,192,142717,1,0,0:0:0:0:
64,192,142717,1,0,0:0:0:0:
64,192,142817,1,0,0:0:0:0:
192,192,142817,1,0,0:0:0:0:
64,192,142917,1,0,0:0:0:0:
320,192,142917,1,0,0:0:0:0:
448,192,142917,1,0,0:0:0:0:
320,192,143017,1,0,0:0:0:0:
192,192,143117,1,0,0:0:0:0:
64,192,143117,1,0,0:0:0:0:
192,192,143217,1,0,0:0:0:0:
64,192,143317,1,0,0:0:0:0:
320,192,143317,1,0,0:0:0:0:
448,192,143317,1,0,0:0:0:0:
448,192,143417,1,0,0:0:0:0:
320,192,143517,1,0,0:0:0:0:
64,192,143517,1,0,0:0:0:0:
64,192,143617,1,0,0:0:0:0:
192,192,143717,1,0,0:0:0:0:
448,192,143717,1,0,0:0:0:0:
64,192,143717,1,0,0:0:0:0:
448,192,143817,1,0,0:0:0:0:
320,192,143817,1,0,0:0:0:0:
320,192,143917,1,0,0:0:0:0:
64,192,143917,1,0,0:0:0:0:
192,192,144017,1,0,0:0:0:0:
448,192,144017,1,0,0:0:0:0:
64,192,144017,1,0,0:0:0:0:
448,192,144117,1,0,0:0:0:0:
320,192,144117,1,0,0:0:0:0:
192,192,144117,1,0,0:0:0:0:
64,192,144217,1,0,0:0:0:0:
64,192,144317,1,0,0:0:0:0:
448,192,144317,1,0,0:0:0:0:
320,192,144317,1,0,0:0:0:0:
192,192,144417,1,0,0:0:0:0:
192,192,144517,1,0,0:0:0:0:
64,192,144517,1,0,0:0:0:0:
448,192,144517,1,0,0:0:0:0:
320,192,144617,1,0,0:0:0:0:
320,192,144717,1,0,0:0:0:0:
64,192,144717,1,0,0:0:0:0:
448,192,144717,1,0,0:0:0:0:
64,192,144817,1,0,0:0:0:0:
192,192,144917,1,0,0:0:0:0:
320,192,144917,1,0,0:0:0:0:
448,192,144917,1,0,0:0:0:0:
320,192,145017,1,0,0:0:0:0:
64,192,145117,1,0,0:0:0:0:
192,192,145117,1,0,0:0:0:0:
448,192,145117,1,0,0:0:0:0:
448,192,145217,1,0,0:0:0:0:
192,192,145217,1,0,0:0:0:0:
448,192,145317,1,0,0:0:0:0:
320,192,145317,1,0,0:0:0:0:
64,192,145317,1,0,0:0:0:0:
320,192,145417,1,0,0:0:0:0:
192,192,145517,1,0,0:0:0:0:
64,192,145517,1,0,0:0:0:0:
448,192,145617,1,0,0:0:0:0:
320,192,145617,1,0,0:0:0:0:
64,192,145617,1,0,0:0:0:0:
64,192,145717,1,0,0:0:0:0:
448,192,145717,1,0,0:0:0:0:
320,192,145717,128,0,145917:0:0:0:0:
192,192,145917,128,0,146117:0:0:0:0:
64,192,145917,1,0,0:0:0:0:
64,192,146117,1,0,0:0:0:0:
320,192,146117,1,0,0:0:0:0:
448,192,146117,1,0,0:0:0:0:
448,192,146217,1,0,0:0:0:0:
192,192,146317,1,0,0:0:0:0:
64,192,146317,1,0,0:0:0:0:
192,192,146417,1,0,0:0:0:0:
64,192,146517,1,0,0:0:0:0:
320,192,146517,1,0,0:0:0:0:
448,192,146517,1,0,0:0:0:0:
192,192,146617,1,0,0:0:0:0:
320,192,146617,1,0,0:0:0:0:
192,192,146717,1,0,0:0:0:0:
448,192,146717,1,0,0:0:0:0:
64,192,146817,1,0,0:0:0:0:
320,192,146817,1,0,0:0:0:0:
64,192,146917,1,0,0:0:0:0:
448,192,146917,1,0,0:0:0:0:
320,192,146917,1,0,0:0:0:0:
192,192,147017,1,0,0:0:0:0:
448,192,147017,1,0,0:0:0:0:
320,192,147117,1,0,0:0:0:0:
192,192,147117,1,0,0:0:0:0:
320,192,147217,1,0,0:0:0:0:
64,192,147217,1,0,0:0:0:0:
192,192,147317,1,0,0:0:0:0:
64,192,147317,1,0,0:0:0:0:
448,192,147317,1,0,0:0:0:0:
320,192,147417,1,0,0:0:0:0:
64,192,147417,1,0,0:0:0:0:
192,192,147517,1,0,0:0:0:0:
320,192,147517,1,0,0:0:0:0:
448,192,147517,1,0,0:0:0:0:
192,192,147617,1,0,0:0:0:0:
64,192,147617,1,0,0:0:0:0:
320,192,147617,1,0,0:0:0:0:
64,192,147717,1,0,0:0:0:0:
320,192,147717,128,0,148017:0:0:0:0:
448,192,147717,128,0,148017:0:0:0:0:
320,192,148117,1,0,0:0:0:0:
192,192,148317,1,0,0:0:0:0:
192,192,148517,128,0,148917:0:0:0:0:
448,192,148517,128,0,148917:0:0:0:0:
64,192,148517,1,0,0:0:0:0:
320,192,148717,1,0,0:0:0:0:
64,192,148917,128,0,149067:0:0:0:0:
192,192,149167,128,0,149317:0:0:0:0:
320,192,149317,1,0,0:0:0:0:
448,192,149317,1,0,0:0:0:0:
64,192,149317,1,0,0:0:0:0:
320,192,149517,1,0,0:0:0:0:
448,192,149617,1,0,0:0:0:0:
64,192,149617,1,0,0:0:0:0:
192,192,149617,1,0,0:0:0:0:
448,192,149817,1,0,0:0:0:0:
320,192,149917,1,0,0:0:0:0:
192,192,149917,1,0,0:0:0:0:
64,192,149917,1,0,0:0:0:0:
192,192,150117,1,0,0:0:0:0:
320,192,150217,1,0,0:0:0:0:
448,192,150217,1,0,0:0:0:0:
64,192,150217,1,0,0:0:0:0:
320,192,150417,1,0,0:0:0:0:
64,192,150517,128,0,150717:0:0:0:0:
192,192,150517,128,0,150717:0:0:0:0:
448,192,150517,128,0,150667:0:0:0:0:
448,192,150717,1,0,0:0:0:0:
192,192,150917,1,0,0:0:0:0:
64,192,150917,1,0,0:0:0:0:
448,192,150917,1,0,0:0:0:0:
192,192,151117,1,0,0:0:0:0:
64,192,151217,1,0,0:0:0:0:
320,192,151217,1,0,0:0:0:0:
448,192,151217,1,0,0:0:0:0:
448,192,151417,1,0,0:0:0:0:
192,192,151517,1,0,0:0:0:0:
64,192,151517,1,0,0:0:0:0:
320,192,151517,1,0,0:0:0:0:
64,192,151717,1,0,0:0:0:0:
192,192,151817,1,0,0:0:0:0:
320,192,151817,1,0,0:0:0:0:
448,192,151817,1,0,0:0:0:0:
320,192,152017,1,0,0:0:0:0:
192,192,152117,128,0,152317:0:0:0:0:
64,192,152117,128,0,152317:0:0:0:0:
448,192,152117,128,0,152267:0:0:0:0:
448,192,152317,1,0,0:0:0:0:
448,192,152517,1,0,0:0:0:0:
320,192,152517,1,0,0:0:0:0:
192,192,152517,1,0,0:0:0:0:
320,192,152717,1,0,0:0:0:0:
192,192,152817,1,0,0:0:0:0:
64,192,152817,1,0,0:0:0:0:
448,192,152817,1,0,0:0:0:0:
448,192,153017,1,0,0:0:0:0:
320,192,153117,1,0,0:0:0:0:
192,192,153117,1,0,0:0:0:0:
64,192,153117,1,0,0:0:0:0:
64,192,153317,1,0,0:0:0:0:
320,192,153417,1,0,0:0:0:0:
448,192,153417,1,0,0:0:0:0:
192,192,153417,128,0,153617:0:0:0:0:
320,192,153617,1,0,0:0:0:0:
64,192,153717,128,0,153917:0:0:0:0:
192,192,153717,128,0,153917:0:0:0:0:
448,192,153717,128,0,153867:0:0:0:0:
448,192,153917,1,0,0:0:0:0:
320,192,154117,1,0,0:0:0:0:
448,192,154117,1,0,0:0:0:0:
64,192,154117,1,0,0:0:0:0:
192,192,154317,1,0,0:0:0:0:
64,192,154317,1,0,0:0:0:0:
320,192,154317,1,0,0:0:0:0:
64,192,154417,1,0,0:0:0:0:
448,192,154417,1,0,0:0:0:0:
192,192,154517,1,0,0:0:0:0:
448,192,154517,1,0,0:0:0:0:
320,192,154517,1,0,0:0:0:0:
320,192,154617,1,0,0:0:0:0:
64,192,154617,1,0,0:0:0:0:
192,192,154717,1,0,0:0:0:0:
64,192,154717,1,0,0:0:0:0:
192,192,154817,1,0,0:0:0:0:
448,192,154817,1,0,0:0:0:0:
320,192,154917,1,0,0:0:0:0:
448,192,154917,1,0,0:0:0:0:
64,192,154917,1,0,0:0:0:0:
64,192,155017,1,0,0:0:0:0:
448,192,155017,1,0,0:0:0:0:
192,192,155117,1,0,0:0:0:0:
320,192,155117,1,0,0:0:0:0:
320,192,155217,1,0,0:0:0:0:
192,192,155317,1,0,0:0:0:0:
64,192,155317,1,0,0:0:0:0:
448,192,155317,1,0,0:0:0:0:
320,192,155417,1,0,0:0:0:0:
448,192,155417,1,0,0:0:0:0:
320,192,155517,1,0,0:0:0:0:
64,192,155517,1,0,0:0:0:0:
64,192,155617,1,0,0:0:0:0:
192,192,155617,1,0,0:0:0:0:
320,192,155674,1,0,0:0:0:0:
448,192,155674,1,0,0:0:0:0:
64,192,155874,128,0,156042:0:0:0:0:
192,192,155874,1,0,0:0:0:0:
192,192,156110,128,0,156510:0:0:0:0:
64,192,156310,1,0,0:0:0:0:
320,192,156510,1,0,0:0:0:0:
192,192,156710,1,0,0:0:0:0:
448,192,156810,1,0,0:0:0:0:
320,192,156910,128,0,157210:0:0:0:0:
192,192,157110,1,0,0:0:0:0:
448,192,157310,128,0,157560:0:0:0:0:
320,192,157310,1,0,0:0:0:0:
64,192,157510,1,0,0:0:0:0:
192,192,157710,128,0,158010:0:0:0:0:
448,192,157710,1,0,0:0:0:0:
320,192,157810,1,0,0:0:0:0:
64,192,158110,128,0,158460:0:0:0:0:
192,192,158110,1,0,0:0:0:0:
448,192,158210,1,0,0:0:0:0:
320,192,158410,1,0,0:0:0:0:
192,192,158510,128,0,158660:0:0:0:0:
64,192,158510,1,0,0:0:0:0:
320,192,158710,128,0,158860:0:0:0:0:
192,192,158710,1,0,0:0:0:0:
448,192,158910,1,0,0:0:0:0:
320,192,158910,1,0,0:0:0:0:
192,192,158910,128,0,159410:0:0:0:0:
64,192,159110,1,0,0:0:0:0:
320,192,159310,1,0,0:0:0:0:
448,192,159410,1,0,0:0:0:0:
64,192,159510,128,0,159710:0:0:0:0:
320,192,159710,128,0,161310:0:0:0:0:
192,192,159710,1,0,0:0:0:0:
64,192,160010,1,0,0:0:0:0:
448,192,160310,1,0,0:0:0:0:
192,192,160510,1,0,0:0:0:0:
64,192,160510,1,0,0:0:0:0:
448,192,160710,1,0,0:0:0:0:
192,192,160910,1,0,0:0:0:0:
448,192,161010,1,0,0:0:0:0:
64,192,161110,1,0,0:0:0:0:
192,192,161310,128,0,161460:0:0:0:0:
64,192,161310,128,0,161460:0:0:0:0:
448,192,161510,1,0,0:0:0:0:
192,192,161610,128,0,161760:0:0:0:0:
320,192,161610,128,0,161760:0:0:0:0:
64,192,161610,1,0,0:0:0:0:
320,192,161910,128,0,162060:0:0:0:0:
448,192,161910,128,0,162060:0:0:0:0:
192,192,161910,1,0,0:0:0:0:
448,192,162110,1,0,0:0:0:0:
320,192,162110,1,0,0:0:0:0:
64,192,162110,128,0,162360:0:0:0:0:
320,192,162510,1,0,0:0:0:0:
448,192,162510,1,0,0:0:0:0:
192,192,162510,128,0,162810:0:0:0:0:
448,192,162910,1,0,0:0:0:0:
320,192,162910,128,0,163110:0:0:0:0:
192,192,163210,1,0,0:0:0:0:
64,192,163210,1,0,0:0:0:0:
448,192,163310,128,0,163460:0:0:0:0:
448,192,163510,1,0,0:0:0:0:
320,192,163510,128,0,163710:0:0:0:0:
64,192,163710,1,0,0:0:0:0:
192,192,163710,128,0,164010:0:0:0:0:
320,192,164110,128,0,164410:0:0:0:0:
192,192,164110,1,0,0:0:0:0:
64,192,164110,1,0,0:0:0:0:
320,192,164510,1,0,0:0:0:0:
448,192,164510,128,0,164810:0:0:0:0:
192,192,164810,1,0,0:0:0:0:
320,192,164810,1,0,0:0:0:0:
64,192,164910,128,0,165160:0:0:0:0:
320,192,165110,1,0,0:0:0:0:
448,192,165110,1,0,0:0:0:0:
64,192,165310,1,0,0:0:0:0:
192,192,165310,128,0,165810:0:0:0:0:
448,192,165710,1,0,0:0:0:0:
320,192,165710,1,0,0:0:0:0:
320,192,165910,128,0,166110:0:0:0:0:
448,192,166110,128,0,166810:0:0:0:0:
192,192,166110,1,0,0:0:0:0:
64,192,166110,1,0,0:0:0:0:
192,192,166410,1,0,0:0:0:0:
320,192,166410,1,0,0:0:0:0:
192,192,166710,1,0,0:0:0:0:
320,192,166710,1,0,0:0:0:0:
64,192,166910,1,0,0:0:0:0:
448,192,166910,1,0,0:0:0:0:
192,192,166910,128,0,167410:0:0:0:0:
192,192,167510,1,0,0:0:0:0:
192,192,167710,1,0,0:0:0:0:
448,192,167710,1,0,0:0:0:0:
320,192,167710,128,0,168010:0:0:0:0:
64,192,168010,128,0,168110:0:0:0:0:
448,192,168010,1,0,0:0:0:0:
192,192,168110,128,0,168510:0:0:0:0:
320,192,168310,1,0,0:0:0:0:
64,192,168310,1,0,0:0:0:0:
64,192,168510,1,0,0:0:0:0:
320,192,168510,1,0,0:0:0:0:
448,192,168510,1,0,0:0:0:0:
192,192,168710,1,0,0:0:0:0:
64,192,168710,1,0,0:0:0:0:
192,192,168910,1,0,0:0:0:0:
320,192,168910,1,0,0:0:0:0:
448,192,168910,1,0,0:0:0:0:
320,192,169110,128,0,169310:0:0:0:0:
448,192,169310,1,0,0:0:0:0:
64,192,169310,1,0,0:0:0:0:
320,192,169510,1,0,0:0:0:0:
192,192,169610,1,0,0:0:0:0:
64,192,169610,1,0,0:0:0:0:
448,192,169710,128,0,170010:0:0:0:0:
320,192,169910,1,0,0:0:0:0:
192,192,169910,1,0,0:0:0:0:
64,192,169910,1,0,0:0:0:0:
320,192,170110,1,0,0:0:0:0:
64,192,170110,1,0,0:0:0:0:
448,192,170110,128,0,170410:0:0:0:0:
192,192,170310,1,0,0:0:0:0:
320,192,170310,1,0,0:0:0:0:
64,192,170410,1,0,0:0:0:0:
448,192,170510,1,0,0:0:0:0:
192,192,170510,128,0,170710:0:0:0:0:
320,192,170710,1,0,0:0:0:0:
64,192,170710,1,0,0:0:0:0:
64,192,170910,1,0,0:0:0:0:
320,192,170910,128,0,171210:0:0:0:0:
192,192,170910,1,0,0:0:0:0:
64,192,171110,1,0,0:0:0:0:
192,192,171210,1,0,0:0:0:0:
448,192,171210,1,0,0:0:0:0:
320,192,171310,1,0,0:0:0:0:
64,192,171310,128,0,171460:0:0:0:0:
320,192,171510,128,0,171710:0:0:0:0:
192,192,171510,1,0,0:0:0:0:
64,192,171510,1,0,0:0:0:0:
64,192,171710,1,0,0:0:0:0:
448,192,171710,1,0,0:0:0:0:
192,192,171910,1,0,0:0:0:0:
448,192,171910,1,0,0:0:0:0:
320,192,172110,1,0,0:0:0:0:
448,192,172110,1,0,0:0:0:0:
64,192,172310,1,0,0:0:0:0:
448,192,172310,128,0,172660:0:0:0:0:
320,192,172410,1,0,0:0:0:0:
64,192,172410,1,0,0:0:0:0:
192,192,172510,1,0,0:0:0:0:
448,192,172710,1,0,0:0:0:0:
320,192,172710,128,0,172910:0:0:0:0:
64,192,172710,128,0,172810:0:0:0:0:
192,192,172810,1,0,0:0:0:0:
448,192,172910,128,0,173210:0:0:0:0:
64,192,173110,128,0,173510:0:0:0:0:
192,192,173110,128,0,173510:0:0:0:0:
320,192,173110,1,0,0:0:0:0:
320,192,173510,1,0,0:0:0:0:
320,192,173610,1,0,0:0:0:0:
64,192,173610,1,0,0:0:0:0:
192,192,173710,1,0,0:0:0:0:
64,192,173710,1,0,0:0:0:0:
448,192,173710,1,0,0:0:0:0:
192,192,173810,1,0,0:0:0:0:
320,192,173810,1,0,0:0:0:0:
448,192,173910,1,0,0:0:0:0:
64,192,173910,1,0,0:0:0:0:
320,192,173960,1,0,0:0:0:0:
192,192,174010,1,0,0:0:0:0:
64,192,174060,1,0,0:0:0:0:
448,192,174110,1,0,0:0:0:0:
320,192,174160,1,0,0:0:0:0:
192,192,174210,1,0,0:0:0:0:
64,192,174260,1,0,0:0:0:0:
320,192,174310,1,0,0:0:0:0:
448,192,174310,1,0,0:0:0:0:
64,192,174410,1,0,0:0:0:0:
320,192,174410,1,0,0:0:0:0:
192,192,174510,1,0,0:0:0:0:
448,192,174510,1,0,0:0:0:0:
64,192,174510,1,0,0:0:0:0:
192,192,174610,1,0,0:0:0:0:
320,192,174610,1,0,0:0:0:0:
64,192,174710,1,0,0:0:0:0:
448,192,174710,1,0,0:0:0:0:
320,192,174810,1,0,0:0:0:0:
448,192,174810,1,0,0:0:0:0:
192,192,174810,1,0,0:0:0:0:
320,192,174910,1,0,0:0:0:0:
64,192,174910,1,0,0:0:0:0:
192,192,174910,128,0,175110:0:0:0:0:
192,192,175210,1,0,0:0:0:0:
448,192,175310,1,0,0:0:0:0:
64,192,175310,1,0,0:0:0:0:
320,192,175310,128,0,175510:0:0:0:0:
192,192,175510,1,0,0:0:0:0:
448,192,175710,128,0,175910:0:0:0:0:
64,192,175710,128,0,175910:0:0:0:0:
192,192,175710,128,0,175860:0:0:0:0:
192,192,175910,1,0,0:0:0:0:
320,192,175910,1,0,0:0:0:0:
448,192,176010,128,0,176210:0:0:0:0:
320,192,176010,128,0,176160:0:0:0:0:
64,192,176010,128,0,176160:0:0:0:0:
64,192,176210,1,0,0:0:0:0:
320,192,176210,1,0,0:0:0:0:
64,192,176310,128,0,176410:0:0:0:0:
192,192,176310,128,0,176410:0:0:0:0:
320,192,176310,128,0,176410:0:0:0:0:
192,192,176510,1,0,0:0:0:0:
448,192,176510,1,0,0:0:0:0:
64,192,176510,128,0,176760:0:0:0:0:
320,192,176610,1,0,0:0:0:0:
192,192,176610,1,0,0:0:0:0:
448,192,176610,1,0,0:0:0:0:
64,192,176810,1,0,0:0:0:0:
64,192,176910,1,0,0:0:0:0:
448,192,176910,1,0,0:0:0:0:
192,192,176910,128,0,177160:0:0:0:0:
320,192,177110,1,0,0:0:0:0:
192,192,177210,1,0,0:0:0:0:
64,192,177210,1,0,0:0:0:0:
64,192,177310,128,0,177510:0:0:0:0:
320,192,177310,128,0,177460:0:0:0:0:
448,192,177310,128,0,177460:0:0:0:0:
448,192,177510,1,0,0:0:0:0:
320,192,177510,1,0,0:0:0:0:
320,192,177610,128,0,177810:0:0:0:0:
192,192,177610,128,0,177760:0:0:0:0:
64,192,177610,128,0,177760:0:0:0:0:
64,192,177810,1,0,0:0:0:0:
192,192,177810,1,0,0:0:0:0:
320,192,177910,128,0,178060:0:0:0:0:
448,192,177910,128,0,178060:0:0:0:0:
64,192,177910,128,0,178060:0:0:0:0:
64,192,178110,1,0,0:0:0:0:
448,192,178110,1,0,0:0:0:0:
320,192,178110,1,0,0:0:0:0:
192,192,178210,1,0,0:0:0:0:
64,192,178210,1,0,0:0:0:0:
192,192,178310,1,0,0:0:0:0:
448,192,178310,1,0,0:0:0:0:
320,192,178410,1,0,0:0:0:0:
64,192,178410,1,0,0:0:0:0:
192,192,178510,1,0,0:0:0:0:
64,192,178510,1,0,0:0:0:0:
448,192,178510,1,0,0:0:0:0:
320,192,178610,1,0,0:0:0:0:
192,192,178610,1,0,0:0:0:0:
320,192,178710,1,0,0:0:0:0:
64,192,178710,1,0,0:0:0:0:
192,192,178810,1,0,0:0:0:0:
448,192,178910,128,0,179110:0:0:0:0:
64,192,178910,128,0,179110:0:0:0:0:
320,192,178910,128,0,179110:0:0:0:0:
64,192,179210,128,0,179410:0:0:0:0:
192,192,179210,128,0,179410:0:0:0:0:
448,192,179210,128,0,179410:0:0:0:0:
192,192,179510,128,0,179660:0:0:0:0:
320,192,179510,128,0,179660:0:0:0:0:
64,192,179510,128,0,179660:0:0:0:0:
64,192,179710,1,0,0:0:0:0:
192,192,179710,1,0,0:0:0:0:
320,192,179710,128,0,180010:0:0:0:0:
192,192,180110,128,0,180260:0:0:0:0:
64,192,180310,128,0,180460:0:0:0:0:
448,192,180360,1,0,0:0:0:0:
320,192,180460,1,0,0:0:0:0:
448,192,180510,1,0,0:0:0:0:
192,192,180610,128,0,180760:0:0:0:0:
320,192,180810,128,0,180960:0:0:0:0:
448,192,181010,128,0,181210:0:0:0:0:
320,192,181210,128,0,181410:0:0:0:0:
64,192,181260,1,0,0:0:0:0:
192,192,181260,1,0,0:0:0:0:
448,192,181260,1,0,0:0:0:0:
192,192,181410,128,0,182310:0:0:0:0:
64,192,182060,128,0,182310:0:0:0:0:
64,192,182410,128,0,182560:0:0:0:0:
192,192,182610,128,0,182760:0:0:0:0:
320,192,182810,128,0,182960:0:0:0:0:
64,192,182810,128,0,182910:0:0:0:0:
192,192,182910,1,0,0:0:0:0:
64,192,182960,1,0,0:0:0:0:
320,192,183010,1,0,0:0:0:0:
448,192,183060,128,0,183710:0:0:0:0:
320,192,183610,1,0,0:0:0:0:
192,192,183660,1,0,0:0:0:0:
64,192,183710,128,0,184010:0:0:0:0:
320,192,183910,1,0,0:0:0:0:
448,192,183910,1,0,0:0:0:0:
192,192,184110,1,0,0:0:0:0:
64,192,184110,1,0,0:0:0:0:
320,192,184110,1,0,0:0:0:0:
64,192,184510,1,0,0:0:0:0:
320,192,184510,1,0,0:0:0:0:
448,192,184510,1,0,0:0:0:0:
64,192,184610,1,0,0:0:0:0:
320,192,184610,1,0,0:0:0:0:
448,192,184610,1,0,0:0:0:0:
64,192,184810,1,0,0:0:0:0:
192,192,184810,1,0,0:0:0:0:
448,192,184810,1,0,0:0:0:0:
192,192,185010,1,0,0:0:0:0:
64,192,185010,1,0,0:0:0:0:
448,192,185010,1,0,0:0:0:0:
320,192,185210,1,0,0:0:0:0:
192,192,185210,1,0,0:0:0:0:
64,192,185210,1,0,0:0:0:0:
448,192,185210,1,0,0:0:0:0:
448,192,185310,1,0,0:0:0:0:
320,192,185310,1,0,0:0:0:0:
64,192,185310,1,0,0:0:0:0:
192,192,185310,1,0,0:0:0:0:
192,192,185510,128,0,185610:0:0:0:0:
64,192,185510,128,0,185610:0:0:0:0:
64,192,185710,128,0,186010:0:0:0:0:
320,192,185710,128,0,186010:0:0:0:0:
192,192,186110,1,0,0:0:0:0:
64,192,186110,1,0,0:0:0:0:
448,192,186110,1,0,0:0:0:0:
320,192,186110,1,0,0:0:0:0:
192,192,186210,1,0,0:0:0:0:
192,192,186310,1,0,0:0:0:0:
64,192,186310,1,0,0:0:0:0:
64,192,186410,1,0,0:0:0:0:
64,192,186510,1,0,0:0:0:0:
320,192,186510,1,0,0:0:0:0:
448,192,186510,1,0,0:0:0:0:
320,192,186610,1,0,0:0:0:0:
448,192,186710,1,0,0:0:0:0:
192,192,186710,1,0,0:0:0:0:
192,192,186810,1,0,0:0:0:0:
64,192,186910,1,0,0:0:0:0:
448,192,186910,1,0,0:0:0:0:
320,192,186910,1,0,0:0:0:0:
320,192,187010,1,0,0:0:0:0:
192,192,187010,1,0,0:0:0:0:
192,192,187110,1,0,0:0:0:0:
64,192,187210,1,0,0:0:0:0:
448,192,187210,1,0,0:0:0:0:
320,192,187310,1,0,0:0:0:0:
448,192,187310,1,0,0:0:0:0:
192,192,187310,1,0,0:0:0:0:
320,192,187410,1,0,0:0:0:0:
64,192,187410,1,0,0:0:0:0:
192,192,187510,1,0,0:0:0:0:
448,192,187510,1,0,0:0:0:0:
448,192,187610,1,0,0:0:0:0:
320,192,187710,1,0,0:0:0:0:
64,192,187710,1,0,0:0:0:0:
192,192,187710,1,0,0:0:0:0:
192,192,187810,1,0,0:0:0:0:
64,192,187910,1,0,0:0:0:0:
448,192,187910,1,0,0:0:0:0:
448,192,188010,1,0,0:0:0:0:
320,192,188010,1,0,0:0:0:0:
320,192,188110,1,0,0:0:0:0:
192,192,188110,1,0,0:0:0:0:
64,192,188110,1,0,0:0:0:0:
192,192,188210,1,0,0:0:0:0:
64,192,188310,1,0,0:0:0:0:
448,192,188310,1,0,0:0:0:0:
448,192,188410,1,0,0:0:0:0:
320,192,188510,1,0,0:0:0:0:
64,192,188510,1,0,0:0:0:0:
64,192,188610,1,0,0:0:0:0:
192,192,188610,1,0,0:0:0:0:
448,192,188610,1,0,0:0:0:0:
320,192,188710,1,0,0:0:0:0:
64,192,188810,1,0,0:0:0:0:
192,192,188810,1,0,0:0:0:0:
64,192,188910,1,0,0:0:0:0:
448,192,188910,1,0,0:0:0:0:
320,192,188910,1,0,0:0:0:0:
320,192,189010,1,0,0:0:0:0:
192,192,189110,1,0,0:0:0:0:
64,192,189110,1,0,0:0:0:0:
320,192,189210,1,0,0:0:0:0:
448,192,189310,1,0,0:0:0:0:
320,192,189310,1,0,0:0:0:0:
64,192,189310,1,0,0:0:0:0:
64,192,189410,1,0,0:0:0:0:
192,192,189510,1,0,0:0:0:0:
448,192,189510,1,0,0:0:0:0:
448,192,189610,1,0,0:0:0:0:
192,192,189610,1,0,0:0:0:0:
320,192,189710,1,0,0:0:0:0:
64,192,189710,1,0,0:0:0:0:
192,192,189710,1,0,0:0:0:0:
320,192,189810,1,0,0:0:0:0:
64,192,189910,1,0,0:0:0:0:
192,192,189910,1,0,0:0:0:0:
448,192,190010,1,0,0:0:0:0:
320,192,190110,1,0,0:0:0:0:
448,192,190110,1,0,0:0:0:0:
192,192,190110,1,0,0:0:0:0:
192,192,190210,1,0,0:0:0:0:
64,192,190310,1,0,0:0:0:0:
320,192,190310,1,0,0:0:0:0:
320,192,190410,1,0,0:0:0:0:
192,192,190510,1,0,0:0:0:0:
64,192,190510,1,0,0:0:0:0:
448,192,190510,1,0,0:0:0:0:
192,192,190610,1,0,0:0:0:0:
64,192,190710,1,0,0:0:0:0:
448,192,190710,1,0,0:0:0:0:
320,192,190810,1,0,0:0:0:0:
64,192,190910,1,0,0:0:0:0:
448,192,190910,1,0,0:0:0:0:
320,192,191010,1,0,0:0:0:0:
192,192,191010,1,0,0:0:0:0:
64,192,191010,1,0,0:0:0:0:
192,192,191110,1,0,0:0:0:0:
448,192,191110,1,0,0:0:0:0:
320,192,191210,1,0,0:0:0:0:
448,192,191310,1,0,0:0:0:0:
320,192,191310,1,0,0:0:0:0:
64,192,191310,1,0,0:0:0:0:
64,192,191410,1,0,0:0:0:0:
192,192,191510,1,0,0:0:0:0:
320,192,191510,1,0,0:0:0:0:
448,192,191510,1,0,0:0:0:0:
448,192,191610,1,0,0:0:0:0:
320,192,191710,1,0,0:0:0:0:
192,192,191710,1,0,0:0:0:0:
64,192,191710,1,0,0:0:0:0:
64,192,191810,1,0,0:0:0:0:
448,192,191810,1,0,0:0:0:0:
320,192,191910,1,0,0:0:0:0:
192,192,191910,1,0,0:0:0:0:
448,192,192010,1,0,0:0:0:0:
192,192,192010,1,0,0:0:0:0:
320,192,192110,1,0,0:0:0:0:
448,192,192110,1,0,0:0:0:0:
64,192,192110,1,0,0:0:0:0:
192,192,192210,1,0,0:0:0:0:
320,192,192310,1,0,0:0:0:0:
448,192,192310,1,0,0:0:0:0:
320,192,192410,1,0,0:0:0:0:
448,192,192410,1,0,0:0:0:0:
192,192,192510,1,0,0:0:0:0:
64,192,192510,1,0,0:0:0:0:
448,192,192510,1,0,0:0:0:0:
192,192,192610,1,0,0:0:0:0:
64,192,192710,1,0,0:0:0:0:
320,192,192710,1,0,0:0:0:0:
448,192,192810,1,0,0:0:0:0:
448,192,192910,1,0,0:0:0:0:
320,192,192910,1,0,0:0:0:0:
64,192,192910,1,0,0:0:0:0:
320,192,193010,1,0,0:0:0:0:
192,192,193110,1,0,0:0:0:0:
448,192,193110,1,0,0:0:0:0:
64,192,193210,1,0,0:0:0:0:
320,192,193210,1,0,0:0:0:0:
192,192,193310,1,0,0:0:0:0:
64,192,193310,1,0,0:0:0:0:
448,192,193310,1,0,0:0:0:0:
192,192,193410,1,0,0:0:0:0:
64,192,193510,1,0,0:0:0:0:
448,192,193510,1,0,0:0:0:0:
320,192,193610,1,0,0:0:0:0:
320,192,193710,1,0,0:0:0:0:
64,192,193710,1,0,0:0:0:0:
448,192,193710,1,0,0:0:0:0:
192,192,193810,1,0,0:0:0:0:
192,192,193910,1,0,0:0:0:0:
448,192,193910,1,0,0:0:0:0:
320,192,194010,1,0,0:0:0:0:
320,192,194110,1,0,0:0:0:0:
448,192,194110,1,0,0:0:0:0:
64,192,194110,1,0,0:0:0:0:
64,192,194210,1,0,0:0:0:0:
192,192,194310,1,0,0:0:0:0:
320,192,194310,1,0,0:0:0:0:
448,192,194410,1,0,0:0:0:0:
320,192,194510,1,0,0:0:0:0:
192,192,194510,1,0,0:0:0:0:
64,192,194510,1,0,0:0:0:0:
192,192,194610,1,0,0:0:0:0:
64,192,194710,1,0,0:0:0:0:
448,192,194710,1,0,0:0:0:0:
320,192,194810,1,0,0:0:0:0:
320,192,194910,1,0,0:0:0:0:
64,192,194910,1,0,0:0:0:0:
192,192,195010,1,0,0:0:0:0:
64,192,195010,1,0,0:0:0:0:
448,192,195010,1,0,0:0:0:0:
192,192,195110,1,0,0:0:0:0:
448,192,195210,1,0,0:0:0:0:
64,192,195210,1,0,0:0:0:0:
64,192,195310,1,0,0:0:0:0:
448,192,195310,1,0,0:0:0:0:
320,192,195310,1,0,0:0:0:0:
320,192,195410,1,0,0:0:0:0:
448,192,195510,1,0,0:0:0:0:
64,192,195510,1,0,0:0:0:0:
192,192,195610,1,0,0:0:0:0:
64,192,195710,1,0,0:0:0:0:
320,192,195710,1,0,0:0:0:0:
448,192,195710,1,0,0:0:0:0:
320,192,195810,1,0,0:0:0:0:
192,192,195910,1,0,0:0:0:0:
64,192,195910,1,0,0:0:0:0:
64,192,196010,1,0,0:0:0:0:
192,192,196110,1,0,0:0:0:0:
320,192,196110,1,0,0:0:0:0:
448,192,196110,1,0,0:0:0:0:
448,192,196210,1,0,0:0:0:0:
64,192,196210,1,0,0:0:0:0:
192,192,196310,1,0,0:0:0:0:
320,192,196310,1,0,0:0:0:0:
320,192,196410,1,0,0:0:0:0:
192,192,196510,1,0,0:0:0:0:
64,192,196510,1,0,0:0:0:0:
448,192,196510,1,0,0:0:0:0:
192,192,196610,1,0,0:0:0:0:
64,192,196710,1,0,0:0:0:0:
320,192,196710,1,0,0:0:0:0:
64,192,196810,1,0,0:0:0:0:
448,192,196810,1,0,0:0:0:0:
448,192,196910,1,0,0:0:0:0:
320,192,196910,1,0,0:0:0:0:
192,192,196910,1,0,0:0:0:0:
192,192,197010,1,0,0:0:0:0:
320,192,197110,1,0,0:0:0:0:
448,192,197110,1,0,0:0:0:0:
64,192,197210,1,0,0:0:0:0:
192,192,197310,1,0,0:0:0:0:
448,192,197310,1,0,0:0:0:0:
64,192,197310,1,0,0:0:0:0:
192,192,197410,1,0,0:0:0:0:
320,192,197410,1,0,0:0:0:0:
320,192,197510,1,0,0:0:0:0:
64,192,197510,1,0,0:0:0:0:
192,192,197610,1,0,0:0:0:0:
64,192,197610,1,0,0:0:0:0:
448,192,197610,1,0,0:0:0:0:
448,192,197710,1,0,0:0:0:0:
320,192,197710,1,0,0:0:0:0:
192,192,197710,1,0,0:0:0:0:
64,192,197776,1,0,0:0:0:0:
320,192,197843,1,0,0:0:0:0:
192,192,197910,1,0,0:0:0:0:
64,192,197910,1,0,0:0:0:0:
448,192,197976,1,0,0:0:0:0:
192,192,198043,1,0,0:0:0:0:
320,192,198110,1,0,0:0:0:0:
448,192,198110,1,0,0:0:0:0:
64,192,198176,1,0,0:0:0:0:
448,192,198243,1,0,0:0:0:0:
320,192,198310,1,0,0:0:0:0:
192,192,198310,1,0,0:0:0:0:
64,192,198376,1,0,0:0:0:0:
320,192,198443,1,0,0:0:0:0:
448,192,198510,1,0,0:0:0:0:
64,192,198510,1,0,0:0:0:0:
192,192,198576,1,0,0:0:0:0:
320,192,198643,1,0,0:0:0:0:
64,192,198710,1,0,0:0:0:0:
192,192,198710,1,0,0:0:0:0:
320,192,198776,1,0,0:0:0:0:
448,192,198843,1,0,0:0:0:0:
192,192,198910,1,0,0:0:0:0:
64,192,198910,1,0,0:0:0:0:
320,192,198910,1,0,0:0:0:0:
64,192,199010,1,0,0:0:0:0:
192,192,199110,1,0,0:0:0:0:
448,192,199110,1,0,0:0:0:0:
448,192,199210,1,0,0:0:0:0:
320,192,199310,1,0,0:0:0:0:
64,192,199310,1,0,0:0:0:0:
448,192,199310,1,0,0:0:0:0:
192,192,199410,1,0,0:0:0:0:
448,192,199410,1,0,0:0:0:0:
320,192,199510,1,0,0:0:0:0:
64,192,199510,1,0,0:0:0:0:
192,192,199610,1,0,0:0:0:0:
448,192,199610,1,0,0:0:0:0:
320,192,199710,1,0,0:0:0:0:
448,192,199710,1,0,0:0:0:0:
64,192,199710,1,0,0:0:0:0:
320,192,199810,1,0,0:0:0:0:
192,192,199810,1,0,0:0:0:0:
64,192,199810,1,0,0:0:0:0:
192,192,199910,1,0,0:0:0:0:
64,192,200010,1,0,0:0:0:0:
320,192,200010,1,0,0:0:0:0:
448,192,200010,1,0,0:0:0:0:
192,192,200110,1,0,0:0:0:0:
64,192,200110,1,0,0:0:0:0:
448,192,200110,1,0,0:0:0:0:
320,192,200210,1,0,0:0:0:0:
320,192,200310,1,0,0:0:0:0:
448,192,200310,1,0,0:0:0:0:
64,192,200310,1,0,0:0:0:0:
64,192,200410,1,0,0:0:0:0:
192,192,200410,1,0,0:0:0:0:
192,192,200510,1,0,0:0:0:0:
320,192,200510,1,0,0:0:0:0:
448,192,200510,1,0,0:0:0:0:
448,192,200610,1,0,0:0:0:0:
64,192,200610,1,0,0:0:0:0:
320,192,200710,1,0,0:0:0:0:
192,192,200710,1,0,0:0:0:0:
192,192,200810,1,0,0:0:0:0:
64,192,200910,1,0,0:0:0:0:
320,192,200910,1,0,0:0:0:0:
448,192,200910,1,0,0:0:0:0:
448,192,201010,1,0,0:0:0:0:
320,192,201110,1,0,0:0:0:0:
192,192,201110,1,0,0:0:0:0:
64,192,201110,1,0,0:0:0:0:
64,192,201210,1,0,0:0:0:0:
192,192,201210,1,0,0:0:0:0:
64,192,201310,1,0,0:0:0:0:
320,192,201310,1,0,0:0:0:0:
448,192,201310,1,0,0:0:0:0:
192,192,201410,1,0,0:0:0:0:
448,192,201410,1,0,0:0:0:0:
320,192,201410,1,0,0:0:0:0:
192,192,201510,1,0,0:0:0:0:
448,192,201610,1,0,0:0:0:0:
64,192,201610,1,0,0:0:0:0:
320,192,201610,1,0,0:0:0:0:
192,192,201710,1,0,0:0:0:0:
64,192,201710,1,0,0:0:0:0:
448,192,201710,1,0,0:0:0:0:
448,192,201810,1,0,0:0:0:0:
320,192,201810,1,0,0:0:0:0:
320,192,201910,1,0,0:0:0:0:
64,192,201910,1,0,0:0:0:0:
192,192,201910,1,0,0:0:0:0:
192,192,202010,1,0,0:0:0:0:
64,192,202110,1,0,0:0:0:0:
320,192,202110,1,0,0:0:0:0:
448,192,202110,1,0,0:0:0:0:
320,192,202210,1,0,0:0:0:0:
192,192,202310,1,0,0:0:0:0:
64,192,202310,1,0,0:0:0:0:
192,192,202410,1,0,0:0:0:0:
64,192,202510,1,0,0:0:0:0:
320,192,202510,1,0,0:0:0:0:
448,192,202510,1,0,0:0:0:0:
448,192,202610,1,0,0:0:0:0:
192,192,202610,1,0,0:0:0:0:
192,192,202710,1,0,0:0:0:0:
64,192,202710,1,0,0:0:0:0:
64,192,202810,1,0,0:0:0:0:
320,192,202810,1,0,0:0:0:0:
192,192,202910,1,0,0:0:0:0:
448,192,202910,1,0,0:0:0:0:
320,192,202910,1,0,0:0:0:0:
448,192,203010,1,0,0:0:0:0:
64,192,203010,1,0,0:0:0:0:
192,192,203010,1,0,0:0:0:0:
320,192,203110,1,0,0:0:0:0:
64,192,203210,1,0,0:0:0:0:
320,192,203210,1,0,0:0:0:0:
448,192,203210,1,0,0:0:0:0:
192,192,203310,1,0,0:0:0:0:
64,192,203310,1,0,0:0:0:0:
448,192,203310,1,0,0:0:0:0:
192,192,203410,1,0,0:0:0:0:
320,192,203410,1,0,0:0:0:0:
448,192,203510,1,0,0:0:0:0:
320,192,203510,1,0,0:0:0:0:
64,192,203510,1,0,0:0:0:0:
192,192,203610,1,0,0:0:0:0:
448,192,203710,1,0,0:0:0:0:
192,192,203710,1,0,0:0:0:0:
64,192,203810,1,0,0:0:0:0:
448,192,203810,1,0,0:0:0:0:
320,192,203810,1,0,0:0:0:0:
64,192,203910,1,0,0:0:0:0:
192,192,203910,1,0,0:0:0:0:
320,192,204010,1,0,0:0:0:0:
192,192,204110,1,0,0:0:0:0:
320,192,204110,1,0,0:0:0:0:
448,192,204110,1,0,0:0:0:0:
192,192,204210,1,0,0:0:0:0:
64,192,204310,1,0,0:0:0:0:
448,192,204310,1,0,0:0:0:0:
448,192,204410,1,0,0:0:0:0:
320,192,204410,1,0,0:0:0:0:
320,192,204510,1,0,0:0:0:0:
192,192,204510,1,0,0:0:0:0:
64,192,204510,1,0,0:0:0:0:
192,192,204610,1,0,0:0:0:0:
64,192,204610,1,0,0:0:0:0:
448,192,204610,1,0,0:0:0:0:
320,192,204710,1,0,0:0:0:0:
448,192,204710,1,0,0:0:0:0:
448,192,204810,1,0,0:0:0:0:
64,192,204810,1,0,0:0:0:0:
192,192,204810,1,0,0:0:0:0:
320,192,204910,1,0,0:0:0:0:
64,192,204910,1,0,0:0:0:0:
448,192,204910,1,0,0:0:0:0:
192,192,205010,1,0,0:0:0:0:
320,192,205010,1,0,0:0:0:0:
192,192,205110,1,0,0:0:0:0:
64,192,205110,1,0,0:0:0:0:
448,192,205110,1,0,0:0:0:0:
448,192,205210,1,0,0:0:0:0:
64,192,205210,1,0,0:0:0:0:
320,192,205310,1,0,0:0:0:0:
448,192,205310,1,0,0:0:0:0:
192,192,205310,1,0,0:0:0:0:
192,192,205410,1,0,0:0:0:0:
64,192,205510,1,0,0:0:0:0:
320,192,205510,1,0,0:0:0:0:
320,192,205610,1,0,0:0:0:0:
192,192,205710,1,0,0:0:0:0:
64,192,205710,1,0,0:0:0:0:
448,192,205710,1,0,0:0:0:0:
64,192,205810,1,0,0:0:0:0:
192,192,205910,1,0,0:0:0:0:
320,192,205910,1,0,0:0:0:0:
448,192,205910,1,0,0:0:0:0:
320,192,206010,1,0,0:0:0:0:
64,192,206010,1,0,0:0:0:0:
192,192,206110,1,0,0:0:0:0:
64,192,206110,1,0,0:0:0:0:
448,192,206110,1,0,0:0:0:0:
192,192,206210,1,0,0:0:0:0:
320,192,206210,1,0,0:0:0:0:
448,192,206210,1,0,0:0:0:0:
320,192,206310,1,0,0:0:0:0:
64,192,206410,1,0,0:0:0:0:
192,192,206410,1,0,0:0:0:0:
448,192,206410,1,0,0:0:0:0:
320,192,206510,1,0,0:0:0:0:
64,192,206510,1,0,0:0:0:0:
192,192,206510,1,0,0:0:0:0:
448,192,206610,1,0,0:0:0:0:
64,192,206710,1,0,0:0:0:0:
320,192,206710,1,0,0:0:0:0:
448,192,206710,1,0,0:0:0:0:
192,192,206810,1,0,0:0:0:0:
64,192,206810,1,0,0:0:0:0:
192,192,206910,1,0,0:0:0:0:
448,192,206910,1,0,0:0:0:0:
320,192,206910,1,0,0:0:0:0:
320,192,207010,1,0,0:0:0:0:
64,192,207010,1,0,0:0:0:0:
192,192,207110,1,0,0:0:0:0:
64,192,207110,1,0,0:0:0:0:
448,192,207110,1,0,0:0:0:0:
192,192,207210,1,0,0:0:0:0:
320,192,207310,1,0,0:0:0:0:
448,192,207310,1,0,0:0:0:0:
64,192,207310,1,0,0:0:0:0:
192,192,207410,1,0,0:0:0:0:
320,192,207510,1,0,0:0:0:0:
448,192,207510,1,0,0:0:0:0:
320,192,207610,1,0,0:0:0:0:
64,192,207610,1,0,0:0:0:0:
448,192,207710,1,0,0:0:0:0:
64,192,207710,1,0,0:0:0:0:
192,192,207710,1,0,0:0:0:0:
192,192,207810,1,0,0:0:0:0:
320,192,207810,1,0,0:0:0:0:
192,192,207910,1,0,0:0:0:0:
448,192,207910,1,0,0:0:0:0:
320,192,207910,1,0,0:0:0:0:
320,192,208010,1,0,0:0:0:0:
64,192,208010,1,0,0:0:0:0:
192,192,208110,1,0,0:0:0:0:
64,192,208110,1,0,0:0:0:0:
448,192,208110,1,0,0:0:0:0:
192,192,208210,1,0,0:0:0:0:
320,192,208210,1,0,0:0:0:0:
448,192,208310,1,0,0:0:0:0:
64,192,208310,1,0,0:0:0:0:
320,192,208410,1,0,0:0:0:0:
64,192,208410,1,0,0:0:0:0:
192,192,208510,1,0,0:0:0:0:
320,192,208510,1,0,0:0:0:0:
448,192,208510,1,0,0:0:0:0:
192,192,208710,1,0,0:0:0:0:
64,192,208710,1,0,0:0:0:0:
320,192,208710,1,0,0:0:0:0:
64,192,208910,1,0,0:0:0:0:
320,192,208910,1,0,0:0:0:0:
448,192,208910,1,0,0:0:0:0:
192,192,209110,1,0,0:0:0:0:
192,192,209310,1,0,0:0:0:0:
64,192,209310,1,0,0:0:0:0:
448,192,209310,1,0,0:0:0:0:
320,192,209510,1,0,0:0:0:0:
448,192,209510,1,0,0:0:0:0:
192,192,209610,1,0,0:0:0:0:
448,192,209610,1,0,0:0:0:0:
320,192,209710,1,0,0:0:0:0:
64,192,209710,1,0,0:0:0:0:
448,192,209810,1,0,0:0:0:0:
448,192,209910,1,0,0:0:0:0:
64,192,209910,1,0,0:0:0:0:
192,192,209910,1,0,0:0:0:0:
64,192,210010,1,0,0:0:0:0:
320,192,210010,1,0,0:0:0:0:
320,192,210110,1,0,0:0:0:0:
448,192,210110,1,0,0:0:0:0:
192,192,210110,1,0,0:0:0:0:
192,192,210310,1,0,0:0:0:0:
64,192,210310,1,0,0:0:0:0:
320,192,210310,1,0,0:0:0:0:
64,192,210510,1,0,0:0:0:0:
320,192,210510,1,0,0:0:0:0:
448,192,210510,1,0,0:0:0:0:
192,192,210710,1,0,0:0:0:0:
320,192,210710,1,0,0:0:0:0:
448,192,210710,1,0,0:0:0:0:
192,192,210910,1,0,0:0:0:0:
64,192,210910,1,0,0:0:0:0:
448,192,210910,1,0,0:0:0:0:
192,192,211110,1,0,0:0:0:0:
64,192,211110,1,0,0:0:0:0:
320,192,211110,1,0,0:0:0:0:
64,192,211310,1,0,0:0:0:0:
320,192,211310,1,0,0:0:0:0:
448,192,211310,1,0,0:0:0:0:
192,192,211410,1,0,0:0:0:0:
320,192,211410,1,0,0:0:0:0:
192,192,211510,1,0,0:0:0:0:
320,192,211510,1,0,0:0:0:0:
448,192,211510,1,0,0:0:0:0:
64,192,211610,1,0,0:0:0:0:
448,192,211610,1,0,0:0:0:0:
192,192,211710,1,0,0:0:0:0:
64,192,211710,1,0,0:0:0:0:
448,192,211710,1,0,0:0:0:0:
320,192,211810,1,0,0:0:0:0:
320,192,211910,1,0,0:0:0:0:
64,192,211910,1,0,0:0:0:0:
192,192,212010,1,0,0:0:0:0:
64,192,212010,1,0,0:0:0:0:
192,192,212110,1,0,0:0:0:0:
448,192,212110,1,0,0:0:0:0:
320,192,212110,1,0,0:0:0:0:
320,192,212210,1,0,0:0:0:0:
64,192,212310,1,0,0:0:0:0:
448,192,212310,1,0,0:0:0:0:
192,192,212410,1,0,0:0:0:0:
192,192,212510,1,0,0:0:0:0:
448,192,212510,1,0,0:0:0:0:
64,192,212610,1,0,0:0:0:0:
320,192,212610,1,0,0:0:0:0:
448,192,212610,1,0,0:0:0:0:
320,192,212710,1,0,0:0:0:0:
192,192,212710,1,0,0:0:0:0:
64,192,212810,1,0,0:0:0:0:
192,192,212910,1,0,0:0:0:0:
320,192,212910,1,0,0:0:0:0:
448,192,212910,1,0,0:0:0:0:
448,192,213010,1,0,0:0:0:0:
192,192,213010,1,0,0:0:0:0:
320,192,213110,1,0,0:0:0:0:
64,192,213110,1,0,0:0:0:0:
64,192,213210,1,0,0:0:0:0:
320,192,213310,1,0,0:0:0:0:
448,192,213310,1,0,0:0:0:0:
192,192,213310,1,0,0:0:0:0:
320,192,213410,1,0,0:0:0:0:
64,192,213510,1,0,0:0:0:0:
448,192,213510,1,0,0:0:0:0:
192,192,213610,1,0,0:0:0:0:
448,192,213710,1,0,0:0:0:0:
192,192,213710,1,0,0:0:0:0:
64,192,213710,1,0,0:0:0:0:
448,192,213810,1,0,0:0:0:0:
320,192,213910,1,0,0:0:0:0:
64,192,213910,1,0,0:0:0:0:
192,192,214010,1,0,0:0:0:0:
192,192,214110,1,0,0:0:0:0:
64,192,214110,1,0,0:0:0:0:
448,192,214110,1,0,0:0:0:0:
320,192,214210,1,0,0:0:0:0:
448,192,214210,1,0,0:0:0:0:
64,192,214310,1,0,0:0:0:0:
448,192,214410,1,0,0:0:0:0:
192,192,214410,1,0,0:0:0:0:
64,192,214510,1,0,0:0:0:0:
192,192,214510,1,0,0:0:0:0:
320,192,214510,1,0,0:0:0:0:
320,192,214610,1,0,0:0:0:0:
448,192,214610,1,0,0:0:0:0:
64,192,214710,1,0,0:0:0:0:
192,192,214710,1,0,0:0:0:0:
448,192,214710,1,0,0:0:0:0:
64,192,214810,1,0,0:0:0:0:
320,192,214810,1,0,0:0:0:0:
192,192,214910,1,0,0:0:0:0:
448,192,214910,1,0,0:0:0:0:
320,192,214910,1,0,0:0:0:0:
448,192,215010,1,0,0:0:0:0:
64,192,215110,1,0,0:0:0:0:
192,192,215110,1,0,0:0:0:0:
320,192,215210,1,0,0:0:0:0:
448,192,215310,1,0,0:0:0:0:
192,192,215310,1,0,0:0:0:0:
320,192,215310,1,0,0:0:0:0:
64,192,215410,1,0,0:0:0:0:
448,192,215410,1,0,0:0:0:0:
320,192,215510,1,0,0:0:0:0:
64,192,215510,1,0,0:0:0:0:
192,192,215610,1,0,0:0:0:0:
448,192,215710,1,0,0:0:0:0:
192,192,215710,1,0,0:0:0:0:
64,192,215710,1,0,0:0:0:0:
320,192,215810,1,0,0:0:0:0:
320,192,215910,1,0,0:0:0:0:
64,192,215910,1,0,0:0:0:0:
192,192,216010,1,0,0:0:0:0:
192,192,216110,1,0,0:0:0:0:
448,192,216110,1,0,0:0:0:0:
320,192,216110,1,0,0:0:0:0:
320,192,216210,1,0,0:0:0:0:
64,192,216310,1,0,0:0:0:0:
448,192,216310,1,0,0:0:0:0:
192,192,216410,1,0,0:0:0:0:
192,192,216510,1,0,0:0:0:0:
448,192,216510,1,0,0:0:0:0:
64,192,216510,1,0,0:0:0:0:
320,192,216610,1,0,0:0:0:0:
64,192,216610,1,0,0:0:0:0:
192,192,216710,1,0,0:0:0:0:
448,192,216810,1,0,0:0:0:0:
448,192,216910,1,0,0:0:0:0:
320,192,216910,1,0,0:0:0:0:
64,192,216910,1,0,0:0:0:0:
320,192,217010,1,0,0:0:0:0:
192,192,217010,1,0,0:0:0:0:
448,192,217110,1,0,0:0:0:0:
192,192,217110,1,0,0:0:0:0:
64,192,217210,1,0,0:0:0:0:
64,192,217310,1,0,0:0:0:0:
320,192,217310,1,0,0:0:0:0:
192,192,217410,1,0,0:0:0:0:
448,192,217410,1,0,0:0:0:0:
320,192,217410,1,0,0:0:0:0:
192,192,217510,1,0,0:0:0:0:
64,192,217510,1,0,0:0:0:0:
320,192,217610,1,0,0:0:0:0:
448,192,217710,1,0,0:0:0:0:
320,192,217710,1,0,0:0:0:0:
64,192,217710,1,0,0:0:0:0:
448,192,217810,1,0,0:0:0:0:
320,192,217910,1,0,0:0:0:0:
192,192,217910,1,0,0:0:0:0:
64,192,218010,1,0,0:0:0:0:
192,192,218110,1,0,0:0:0:0:
64,192,218110,1,0,0:0:0:0:
448,192,218110,1,0,0:0:0:0:
192,192,218210,1,0,0:0:0:0:
64,192,218310,1,0,0:0:0:0:
320,192,218310,1,0,0:0:0:0:
448,192,218410,1,0,0:0:0:0:
320,192,218510,1,0,0:0:0:0:
448,192,218510,1,0,0:0:0:0:
192,192,218510,1,0,0:0:0:0:
192,192,218610,1,0,0:0:0:0:
64,192,218710,1,0,0:0:0:0:
320,192,218710,1,0,0:0:0:0:
192,192,218810,1,0,0:0:0:0:
320,192,218810,1,0,0:0:0:0:
64,192,218910,1,0,0:0:0:0:
448,192,218910,1,0,0:0:0:0:
320,192,219010,1,0,0:0:0:0:
64,192,219010,1,0,0:0:0:0:
192,192,219010,1,0,0:0:0:0:
192,192,219110,1,0,0:0:0:0:
320,192,219210,1,0,0:0:0:0:
448,192,219210,1,0,0:0:0:0:
448,192,219310,1,0,0:0:0:0:
192,192,219310,1,0,0:0:0:0:
64,192,219310,1,0,0:0:0:0:
320,192,219410,1,0,0:0:0:0:
320,192,219510,1,0,0:0:0:0:
64,192,219510,1,0,0:0:0:0:
448,192,219610,1,0,0:0:0:0:
320,192,219710,1,0,0:0:0:0:
448,192,219710,1,0,0:0:0:0:
192,192,219710,1,0,0:0:0:0:
192,192,219810,1,0,0:0:0:0:
64,192,219910,1,0,0:0:0:0:
320,192,219910,1,0,0:0:0:0:
320,192,220010,1,0,0:0:0:0:
192,192,220110,1,0,0:0:0:0:
64,192,220110,1,0,0:0:0:0:
448,192,220110,1,0,0:0:0:0:
64,192,220210,1,0,0:0:0:0:
448,192,220310,1,0,0:0:0:0:
320,192,220310,1,0,0:0:0:0:
192,192,220310,1,0,0:0:0:0:
192,192,220410,1,0,0:0:0:0:
192,192,220510,1,0,0:0:0:0:
448,192,220510,1,0,0:0:0:0:
64,192,220610,1,0,0:0:0:0:
320,192,220610,1,0,0:0:0:0:
448,192,220610,1,0,0:0:0:0:
320,192,220710,1,0,0:0:0:0:
64,192,220810,1,0,0:0:0:0:
192,192,220810,1,0,0:0:0:0:
448,192,220810,1,0,0:0:0:0:
320,192,220910,1,0,0:0:0:0:
64,192,220910,1,0,0:0:0:0:
448,192,220910,1,0,0:0:0:0:
192,192,221010,1,0,0:0:0:0:
320,192,221110,1,0,0:0:0:0:
448,192,221110,1,0,0:0:0:0:
192,192,221110,1,0,0:0:0:0:
64,192,221210,1,0,0:0:0:0:
192,192,221310,1,0,0:0:0:0:
64,192,221310,1,0,0:0:0:0:
448,192,221310,1,0,0:0:0:0:
320,192,221410,1,0,0:0:0:0:
320,192,221510,1,0,0:0:0:0:
448,192,221510,1,0,0:0:0:0:
64,192,221510,1,0,0:0:0:0:
192,192,221610,1,0,0:0:0:0:
64,192,221610,1,0,0:0:0:0:
320,192,221710,1,0,0:0:0:0:
448,192,221710,1,0,0:0:0:0:
192,192,221710,1,0,0:0:0:0:
320,192,221810,1,0,0:0:0:0:
64,192,221810,1,0,0:0:0:0:
192,192,221910,1,0,0:0:0:0:
64,192,221910,1,0,0:0:0:0:
320,192,222010,1,0,0:0:0:0:
448,192,222010,1,0,0:0:0:0:
448,192,222110,1,0,0:0:0:0:
192,192,222110,1,0,0:0:0:0:
64,192,222110,1,0,0:0:0:0:
192,192,222210,1,0,0:0:0:0:
320,192,222210,1,0,0:0:0:0:
320,192,222310,1,0,0:0:0:0:
64,192,222310,1,0,0:0:0:0:
192,192,222410,1,0,0:0:0:0:
448,192,222510,1,0,0:0:0:0:
64,192,222510,1,0,0:0:0:0:
320,192,222510,1,0,0:0:0:0:
448,192,222610,1,0,0:0:0:0:
320,192,222710,1,0,0:0:0:0:
192,192,222710,1,0,0:0:0:0:
64,192,222710,1,0,0:0:0:0:
192,192,222810,1,0,0:0:0:0:
64,192,222910,1,0,0:0:0:0:
320,192,222910,1,0,0:0:0:0:
448,192,222910,1,0,0:0:0:0:
192,192,223010,1,0,0:0:0:0:
64,192,223010,1,0,0:0:0:0:
192,192,223110,1,0,0:0:0:0:
448,192,223110,1,0,0:0:0:0:
320,192,223210,1,0,0:0:0:0:
192,192,223210,1,0,0:0:0:0:
320,192,223310,1,0,0:0:0:0:
448,192,223310,1,0,0:0:0:0:
64,192,223310,1,0,0:0:0:0:
192,192,223410,1,0,0:0:0:0:
64,192,223410,1,0,0:0:0:0:
64,192,223510,1,0,0:0:0:0:
320,192,223510,1,0,0:0:0:0:
192,192,223610,1,0,0:0:0:0:
448,192,223610,1,0,0:0:0:0:
320,192,223710,1,0,0:0:0:0:
448,192,223710,1,0,0:0:0:0:
64,192,223710,1,0,0:0:0:0:
320,192,223810,1,0,0:0:0:0:
192,192,223810,1,0,0:0:0:0:
64,192,223910,1,0,0:0:0:0:
320,192,223910,1,0,0:0:0:0:
192,192,224010,1,0,0:0:0:0:
64,192,224010,1,0,0:0:0:0:
64,192,224110,1,0,0:0:0:0:
448,192,224110,1,0,0:0:0:0:
320,192,224110,1,0,0:0:0:0:
192,192,224210,1,0,0:0:0:0:
448,192,224210,1,0,0:0:0:0:
192,192,224310,1,0,0:0:0:0:
448,192,224310,1,0,0:0:0:0:
320,192,224310,1,0,0:0:0:0:
320,192,224410,1,0,0:0:0:0:
64,192,224410,1,0,0:0:0:0:
192,192,224510,1,0,0:0:0:0:
64,192,224510,1,0,0:0:0:0:
448,192,224510,1,0,0:0:0:0:
320,192,224610,1,0,0:0:0:0:
320,192,224710,1,0,0:0:0:0:
64,192,224710,1,0,0:0:0:0:
192,192,224810,1,0,0:0:0:0:
448,192,224810,1,0,0:0:0:0:
192,192,224910,1,0,0:0:0:0:
64,192,224910,1,0,0:0:0:0:
448,192,224910,1,0,0:0:0:0:
320,192,225010,1,0,0:0:0:0:
320,192,225110,1,0,0:0:0:0:
448,192,225110,1,0,0:0:0:0:
64,192,225210,1,0,0:0:0:0:
192,192,225310,1,0,0:0:0:0:
320,192,225310,1,0,0:0:0:0:
448,192,225310,1,0,0:0:0:0:
320,192,225410,1,0,0:0:0:0:
192,192,225510,1,0,0:0:0:0:
64,192,225510,1,0,0:0:0:0:
64,192,225610,1,0,0:0:0:0:
448,192,225610,1,0,0:0:0:0:
320,192,225710,1,0,0:0:0:0:
448,192,225710,1,0,0:0:0:0:
192,192,225710,1,0,0:0:0:0:
320,192,225810,1,0,0:0:0:0:
192,192,225810,1,0,0:0:0:0:
64,192,225910,1,0,0:0:0:0:
448,192,225910,1,0,0:0:0:0:
192,192,226010,1,0,0:0:0:0:
448,192,226010,1,0,0:0:0:0:
320,192,226110,1,0,0:0:0:0:
448,192,226110,1,0,0:0:0:0:
64,192,226110,1,0,0:0:0:0:
64,192,226210,1,0,0:0:0:0:
192,192,226210,1,0,0:0:0:0:
192,192,226310,1,0,0:0:0:0:
448,192,226310,1,0,0:0:0:0:
320,192,226410,1,0,0:0:0:0:
320,192,226510,1,0,0:0:0:0:
448,192,226510,1,0,0:0:0:0:
64,192,226510,1,0,0:0:0:0:
448,192,226610,1,0,0:0:0:0:
448,192,226710,1,0,0:0:0:0:
192,192,226710,1,0,0:0:0:0:
64,192,226810,1,0,0:0:0:0:
192,192,226810,1,0,0:0:0:0:
64,192,226910,1,0,0:0:0:0:
320,192,226910,1,0,0:0:0:0:
448,192,226910,1,0,0:0:0:0:
320,192,227010,1,0,0:0:0:0:
192,192,227010,1,0,0:0:0:0:
64,192,227110,1,0,0:0:0:0:
448,192,227110,1,0,0:0:0:0:
448,192,227210,1,0,0:0:0:0:
192,192,227310,1,0,0:0:0:0:
64,192,227310,1,0,0:0:0:0:
320,192,227310,1,0,0:0:0:0:
320,192,227410,1,0,0:0:0:0:
64,192,227510,1,0,0:0:0:0:
192,192,227510,1,0,0:0:0:0:
64,192,227610,1,0,0:0:0:0:
320,192,227710,1,0,0:0:0:0:
448,192,227710,1,0,0:0:0:0:
192,192,227710,1,0,0:0:0:0:
320,192,227810,1,0,0:0:0:0:
192,192,227910,1,0,0:0:0:0:
64,192,227910,1,0,0:0:0:0:
64,192,228010,1,0,0:0:0:0:
320,192,228010,1,0,0:0:0:0:
192,192,228110,1,0,0:0:0:0:
448,192,228110,1,0,0:0:0:0:
320,192,228110,1,0,0:0:0:0:
192,192,228210,1,0,0:0:0:0:
64,192,228210,1,0,0:0:0:0:
320,192,228210,1,0,0:0:0:0:
64,192,228310,1,0,0:0:0:0:
448,192,228310,1,0,0:0:0:0:
192,192,228410,1,0,0:0:0:0:
320,192,228410,1,0,0:0:0:0:
320,192,228510,1,0,0:0:0:0:
448,192,228510,1,0,0:0:0:0:
64,192,228510,1,0,0:0:0:0:
448,192,228610,1,0,0:0:0:0:
192,192,228710,1,0,0:0:0:0:
64,192,228710,1,0,0:0:0:0:
320,192,228710,1,0,0:0:0:0:
64,192,228810,1,0,0:0:0:0:
192,192,228910,1,0,0:0:0:0:
320,192,228910,1,0,0:0:0:0:
448,192,228910,1,0,0:0:0:0:
320,192,229010,1,0,0:0:0:0:
192,192,229110,1,0,0:0:0:0:
64,192,229110,1,0,0:0:0:0:
448,192,229110,1,0,0:0:0:0:
192,192,229310,1,0,0:0:0:0:
64,192,229310,1,0,0:0:0:0:
320,192,229310,1,0,0:0:0:0:
448,192,229310,1,0,0:0:0:0:
320,192,229710,1,0,0:0:0:0:
448,192,229710,1,0,0:0:0:0:
64,192,229710,1,0,0:0:0:0:
192,192,229910,1,0,0:0:0:0:
320,192,229910,1,0,0:0:0:0:
448,192,229910,1,0,0:0:0:0:
448,192,230110,1,0,0:0:0:0:
64,192,230110,128,0,230460:0:0:0:0:
192,192,230110,128,0,230460:0:0:0:0:
320,192,230210,1,0,0:0:0:0:
320,192,230410,1,0,0:0:0:0:
192,192,230510,128,0,230860:0:0:0:0:
64,192,230510,128,0,230860:0:0:0:0:
448,192,230510,1,0,0:0:0:0:
320,192,230710,1,0,0:0:0:0:
64,192,230938,5,0,0:0:0:0:
192,192,230938,1,0,0:0:0:0:
448,192,230938,1,0,0:0:0:0:
320,192,231138,1,0,0:0:0:0:
448,192,231138,1,0,0:0:0:0:
192,192,231138,1,0,0:0:0:0:
64,192,231338,1,0,0:0:0:0:
320,192,231338,1,0,0:0:0:0:
448,192,231338,1,0,0:0:0:0:
192,192,231538,1,0,0:0:0:0:
64,192,231538,1,0,0:0:0:0:
320,192,231538,1,0,0:0:0:0:
64,192,231736,1,0,0:0:0:0:
192,192,231736,1,0,0:0:0:0:
448,192,231736,1,0,0:0:0:0:
320,192,231935,1,0,0:0:0:0:
448,192,231935,1,0,0:0:0:0:
64,192,231935,1,0,0:0:0:0:
448,192,232134,5,0,0:0:0:0:
320,192,232134,1,0,0:0:0:0:
192,192,232134,1,0,0:0:0:0:
64,192,232332,128,0,233127:0:0:0:0:
192,192,232332,128,0,232928:0:0:0:0:
320,192,232332,128,0,233028:0:0:0:0:
448,192,232332,1,0,0:0:0:0:
