osu file format v14

[General]
AudioFilename: audio_1.1.mp3
AudioLeadIn: 0
PreviewTime: 123015
Countdown: 0
SampleSet: None
StackLeniency: 0.7
Mode: 3
LetterboxInBreaks: 0
SpecialStyle: 0
WidescreenStoryboard: 1

[Editor]
DistanceSpacing: 0.3
BeatDivisor: 4
GridSize: 8
TimelineZoom: 2.4

[Metadata]
Title:Kan Saete Kuyashiiwa
TitleUnicode:勘冴えて悔しいわ
Artist:ZUTOMAYO
ArtistUnicode:ずっと真夜中でいいのに。
Creator:Rio1-
Version:Tap Ping x1.1
Source:
Tags:
BeatmapID:3074662
BeatmapSetID:1500407

[Difficulty]
HPDrainRate:7
CircleSize:4
OverallDifficulty:6
ApproachRate:5
SliderMultiplier:1.4
SliderTickRate:1

[Events]
//Background and Video events
0,0,"20200303184850_ruc3Nkjh.jpg",0,0
//Break Periods
//Storyboard Layer 0 (Background)
//Storyboard Layer 1 (Fail)
//Storyboard Layer 2 (Pass)
//Storyboard Layer 3 (Foreground)
//Storyboard Layer 4 (Overlay)
//Storyboard Sound Samples

[TimingPoints]
280,363.636363636364,4,2,1,0,1,0
280,-100,4,2,1,0,0,0
462,363.636363636364,4,2,1,0,1,0
462,-100,4,2,1,0,0,0
52826,-100,4,2,1,0,0,1
53099,-100,4,2,1,0,0,0
53189,-100,4,2,1,0,0,1
53462,-100,4,2,1,0,0,0
53553,-100,4,2,1,0,0,1
53826,-100,4,2,1,0,0,0
58644,-100,4,2,1,0,0,1
58917,-100,4,2,1,0,0,0
59008,-100,4,2,1,0,0,1
59280,-100,4,2,1,0,0,0
59371,-100,4,2,1,0,0,1
59644,-100,4,2,1,0,0,0
64462,-100,4,2,1,0,0,1
74644,-100,4,2,1,0,0,0
82623,368.550368550368,4,2,1,0,1,0
82623,-99.009900990099,4,2,1,0,0,0
84097,363.636363636364,4,2,1,0,1,0
84097,-100,4,2,1,0,0,0
87725,363.636363636364,4,2,1,0,1,0
87725,-100,4,2,1,0,0,0
87846,363.636363636364,4,2,1,0,1,0
87846,-100,4,2,1,0,0,0
88089,272.727272727273,4,2,1,0,1,0
88089,-133.333333333333,4,2,1,0,0,0
88430,257.289879931389,4,2,1,0,1,0
88430,-140.845070422535,4,2,1,0,0,0
88622,303.030303030303,4,2,1,0,1,0
88622,-120.481927710843,4,2,1,0,0,0
88850,320.855614973262,4,2,1,0,1,0
88850,-113.636363636364,4,2,1,0,0,0
89170,419.58041958042,4,2,1,0,1,0
89170,-86.9565217391304,4,2,1,0,0,0
89379,363.636363636364,4,2,1,0,1,0
89379,-100,4,2,1,0,0,0
90651,363.636363636364,4,2,1,0,1,0
90651,-100,4,2,1,0,0,0
112469,-100,4,2,1,0,0,1
112742,-100,4,2,1,0,0,0
112833,-100,4,2,1,0,0,1
113106,-100,4,2,1,0,0,0
113197,-100,4,2,1,0,0,1
113469,-100,4,2,1,0,0,0
118288,-100,4,2,1,0,0,1
118560,-100,4,2,1,0,0,0
118651,-100,4,2,1,0,0,1
118924,-100,4,2,1,0,0,0
119015,-100,4,2,1,0,0,1
119288,-100,4,2,1,0,0,0
124106,-100,4,2,1,0,0,1
134288,-100,4,2,1,0,0,0
141521,363.636363636364,4,2,1,0,1,0
141521,-100,4,2,1,0,0,0
141794,495.867768595042,4,2,1,0,1,0
141794,-73.5294117647059,4,2,1,0,0,0
141918,363.636363636364,4,2,1,0,1,0
141918,-100,4,2,1,0,0,0
143009,363.636363636364,4,2,1,0,1,0
143009,-100,4,2,1,0,0,0
169190,-100,4,2,1,0,0,1
169463,-100,4,2,1,0,0,0
169554,-100,4,2,1,0,0,1
169827,-100,4,2,1,0,0,0
169918,-100,4,2,1,0,0,1
170190,-100,4,2,1,0,0,0
175009,-100,4,2,1,0,0,1
175281,-100,4,2,1,0,0,0
175372,-100,4,2,1,0,0,1
175645,-100,4,2,1,0,0,0
175736,-100,4,2,1,0,0,1
176009,-100,4,2,1,0,0,0
180827,-100,4,2,1,0,0,1
192099,-100,4,2,1,0,0,0
209943,363.636363636364,4,2,1,0,1,0
209943,-100,4,2,1,0,0,0
210489,361.228175797712,4,2,1,0,1,0
210489,-101.010101010101,4,2,1,0,0,0

[HitObjects]
192,192,280,5,0,0:0:0:0:
320,192,280,1,0,0:0:0:0:
192,192,371,1,0,0:0:0:0:
64,192,462,1,0,0:0:0:0:
320,192,462,1,0,0:0:0:0:
448,192,462,1,0,0:0:0:0:
64,192,644,128,0,735:0:0:0:0:
192,192,826,128,0,1008:0:0:0:0:
320,192,1008,128,0,1099:0:0:0:0:
448,192,1190,128,0,1371:0:0:0:0:
64,192,1190,1,0,0:0:0:0:
320,192,1190,128,0,1371:0:0:0:0:
192,192,1462,128,0,1644:0:0:0:0:
448,192,1462,1,0,0:0:0:0:
64,192,1462,128,0,1644:0:0:0:0:
64,192,1735,1,0,0:0:0:0:
448,192,1735,1,0,0:0:0:0:
192,192,1735,128,0,2280:0:0:0:0:
320,192,1735,128,0,2099:0:0:0:0:
192,192,2644,128,0,2826:0:0:0:0:
64,192,2644,128,0,2826:0:0:0:0:
320,192,2644,1,0,0:0:0:0:
64,192,2917,128,0,3099:0:0:0:0:
192,192,2917,1,0,0:0:0:0:
448,192,2917,128,0,3099:0:0:0:0:
320,192,3189,128,0,3326:0:0:0:0:
64,192,3189,128,0,3326:0:0:0:0:
448,192,3189,1,0,0:0:0:0:
192,192,3371,1,0,0:0:0:0:
64,192,3371,1,0,0:0:0:0:
320,192,3371,1,0,0:0:0:0:
64,192,3553,128,0,3644:0:0:0:0:
320,192,3735,128,0,3917:0:0:0:0:
448,192,3917,128,0,4008:0:0:0:0:
64,192,4099,128,0,4280:0:0:0:0:
192,192,4099,128,0,4280:0:0:0:0:
448,192,4099,1,0,0:0:0:0:
320,192,4371,128,0,4553:0:0:0:0:
64,192,4371,1,0,0:0:0:0:
448,192,4371,128,0,4553:0:0:0:0:
192,192,4644,128,0,4826:0:0:0:0:
64,192,4644,1,0,0:0:0:0:
320,192,4644,128,0,4826:0:0:0:0:
448,192,4644,1,0,0:0:0:0:
64,192,4826,1,0,0:0:0:0:
192,192,4917,1,0,0:0:0:0:
448,192,4962,1,0,0:0:0:0:
64,192,5008,1,0,0:0:0:0:
320,192,5008,128,0,5190:0:0:0:0:
448,192,5190,1,0,0:0:0:0:
320,192,5280,1,0,0:0:0:0:
64,192,5280,128,0,5462:0:0:0:0:
192,192,5462,1,0,0:0:0:0:
64,192,5553,1,0,0:0:0:0:
448,192,5553,1,0,0:0:0:0:
320,192,5553,1,0,0:0:0:0:
448,192,5644,1,0,0:0:0:0:
192,192,5735,1,0,0:0:0:0:
448,192,5826,1,0,0:0:0:0:
64,192,5826,1,0,0:0:0:0:
64,192,5917,1,0,0:0:0:0:
192,192,5917,1,0,0:0:0:0:
320,192,5917,1,0,0:0:0:0:
64,192,6099,1,0,0:0:0:0:
448,192,6099,1,0,0:0:0:0:
192,192,6144,1,0,0:0:0:0:
320,192,6189,1,0,0:0:0:0:
64,192,6235,1,0,0:0:0:0:
192,192,6280,1,0,0:0:0:0:
448,192,6280,1,0,0:0:0:0:
320,192,6280,1,0,0:0:0:0:
192,192,6371,1,0,0:0:0:0:
64,192,6462,1,0,0:0:0:0:
320,192,6462,1,0,0:0:0:0:
320,192,6553,1,0,0:0:0:0:
448,192,6644,1,0,0:0:0:0:
192,192,6644,1,0,0:0:0:0:
64,192,6644,1,0,0:0:0:0:
448,192,6735,1,0,0:0:0:0:
320,192,6826,1,0,0:0:0:0:
64,192,6826,1,0,0:0:0:0:
192,192,6917,1,0,0:0:0:0:
448,192,6917,1,0,0:0:0:0:
64,192,7008,1,0,0:0:0:0:
448,192,7008,1,0,0:0:0:0:
320,192,7099,1,0,0:0:0:0:
64,192,7189,1,0,0:0:0:0:
320,192,7189,1,0,0:0:0:0:
448,192,7280,1,0,0:0:0:0:
64,192,7280,1,0,0:0:0:0:
192,192,7371,1,0,0:0:0:0:
320,192,7371,1,0,0:0:0:0:
448,192,7371,1,0,0:0:0:0:
192,192,7462,1,0,0:0:0:0:
64,192,7553,1,0,0:0:0:0:
448,192,7553,1,0,0:0:0:0:
448,192,7735,1,0,0:0:0:0:
64,192,7735,1,0,0:0:0:0:
320,192,7735,1,0,0:0:0:0:
320,192,7917,1,0,0:0:0:0:
64,192,7917,1,0,0:0:0:0:
192,192,8008,1,0,0:0:0:0:
320,192,8099,1,0,0:0:0:0:
448,192,8099,1,0,0:0:0:0:
64,192,8099,1,0,0:0:0:0:
192,192,8189,1,0,0:0:0:0:
64,192,8280,1,0,0:0:0:0:
448,192,8280,1,0,0:0:0:0:
320,192,8371,1,0,0:0:0:0:
448,192,8462,1,0,0:0:0:0:
192,192,8462,1,0,0:0:0:0:
64,192,8553,1,0,0:0:0:0:
448,192,8553,1,0,0:0:0:0:
320,192,8644,1,0,0:0:0:0:
64,192,8735,1,0,0:0:0:0:
320,192,8735,1,0,0:0:0:0:
64,192,8826,1,0,0:0:0:0:
448,192,8826,1,0,0:0:0:0:
192,192,8826,1,0,0:0:0:0:
192,192,8917,1,0,0:0:0:0:
320,192,9008,1,0,0:0:0:0:
64,192,9008,1,0,0:0:0:0:
320,192,9190,1,0,0:0:0:0:
448,192,9190,1,0,0:0:0:0:
64,192,9190,1,0,0:0:0:0:
64,192,9280,1,0,0:0:0:0:
192,192,9371,1,0,0:0:0:0:
448,192,9371,1,0,0:0:0:0:
448,192,9462,1,0,0:0:0:0:
320,192,9553,1,0,0:0:0:0:
192,192,9553,1,0,0:0:0:0:
64,192,9553,1,0,0:0:0:0:
64,192,9644,1,0,0:0:0:0:
192,192,9735,1,0,0:0:0:0:
448,192,9735,1,0,0:0:0:0:
320,192,9826,1,0,0:0:0:0:
64,192,9826,1,0,0:0:0:0:
64,192,9917,1,0,0:0:0:0:
448,192,9917,1,0,0:0:0:0:
320,192,10008,1,0,0:0:0:0:
320,192,10099,1,0,0:0:0:0:
64,192,10099,1,0,0:0:0:0:
192,192,10190,1,0,0:0:0:0:
448,192,10190,1,0,0:0:0:0:
320,192,10280,1,0,0:0:0:0:
448,192,10280,1,0,0:0:0:0:
64,192,10280,1,0,0:0:0:0:
320,192,10371,1,0,0:0:0:0:
448,192,10462,1,0,0:0:0:0:
192,192,10462,1,0,0:0:0:0:
64,192,10644,1,0,0:0:0:0:
192,192,10644,1,0,0:0:0:0:
320,192,10644,1,0,0:0:0:0:
448,192,10735,1,0,0:0:0:0:
192,192,10826,1,0,0:0:0:0:
320,192,10917,1,0,0:0:0:0:
64,192,11008,1,0,0:0:0:0:
448,192,11008,1,0,0:0:0:0:
64,192,11099,1,0,0:0:0:0:
192,192,11190,1,0,0:0:0:0:
448,192,11190,1,0,0:0:0:0:
448,192,11280,1,0,0:0:0:0:
320,192,11371,1,0,0:0:0:0:
64,192,11371,1,0,0:0:0:0:
64,192,11462,1,0,0:0:0:0:
192,192,11462,1,0,0:0:0:0:
192,192,11553,1,0,0:0:0:0:
320,192,11644,1,0,0:0:0:0:
448,192,11644,1,0,0:0:0:0:
448,192,11735,1,0,0:0:0:0:
192,192,11735,1,0,0:0:0:0:
64,192,11917,1,0,0:0:0:0:
448,192,11917,1,0,0:0:0:0:
320,192,12008,1,0,0:0:0:0:
192,192,12008,1,0,0:0:0:0:
64,192,12099,1,0,0:0:0:0:
320,192,12099,1,0,0:0:0:0:
448,192,12099,1,0,0:0:0:0:
64,192,12189,1,0,0:0:0:0:
192,192,12280,1,0,0:0:0:0:
448,192,12280,1,0,0:0:0:0:
448,192,12371,1,0,0:0:0:0:
320,192,12462,1,0,0:0:0:0:
192,192,12462,1,0,0:0:0:0:
64,192,12462,1,0,0:0:0:0:
192,192,12553,1,0,0:0:0:0:
64,192,12644,1,0,0:0:0:0:
320,192,12644,1,0,0:0:0:0:
192,192,12735,1,0,0:0:0:0:
448,192,12735,1,0,0:0:0:0:
448,192,12826,1,0,0:0:0:0:
64,192,12826,1,0,0:0:0:0:
192,192,12917,1,0,0:0:0:0:
192,192,13008,1,0,0:0:0:0:
448,192,13008,1,0,0:0:0:0:
448,192,13099,1,0,0:0:0:0:
320,192,13189,1,0,0:0:0:0:
192,192,13189,1,0,0:0:0:0:
64,192,13189,1,0,0:0:0:0:
64,192,13280,1,0,0:0:0:0:
192,192,13371,1,0,0:0:0:0:
448,192,13371,1,0,0:0:0:0:
448,192,13553,1,0,0:0:0:0:
64,192,13553,1,0,0:0:0:0:
320,192,13553,1,0,0:0:0:0:
64,192,13644,1,0,0:0:0:0:
192,192,13735,1,0,0:0:0:0:
448,192,13735,1,0,0:0:0:0:
320,192,13826,1,0,0:0:0:0:
192,192,13917,1,0,0:0:0:0:
64,192,13917,1,0,0:0:0:0:
448,192,13917,1,0,0:0:0:0:
192,192,14008,1,0,0:0:0:0:
64,192,14099,1,0,0:0:0:0:
320,192,14099,1,0,0:0:0:0:
320,192,14189,1,0,0:0:0:0:
64,192,14280,1,0,0:0:0:0:
448,192,14280,1,0,0:0:0:0:
448,192,14371,1,0,0:0:0:0:
192,192,14371,1,0,0:0:0:0:
320,192,14462,1,0,0:0:0:0:
64,192,14553,1,0,0:0:0:0:
448,192,14553,1,0,0:0:0:0:
320,192,14644,1,0,0:0:0:0:
64,192,14644,1,0,0:0:0:0:
192,192,14735,1,0,0:0:0:0:
192,192,14826,1,0,0:0:0:0:
448,192,14826,1,0,0:0:0:0:
448,192,14917,1,0,0:0:0:0:
64,192,14917,1,0,0:0:0:0:
320,192,15008,1,0,0:0:0:0:
64,192,15008,1,0,0:0:0:0:
192,192,15008,1,0,0:0:0:0:
320,192,15099,1,0,0:0:0:0:
64,192,15189,1,0,0:0:0:0:
192,192,15189,1,0,0:0:0:0:
448,192,15280,1,0,0:0:0:0:
320,192,15371,1,0,0:0:0:0:
192,192,15371,1,0,0:0:0:0:
64,192,15371,1,0,0:0:0:0:
64,192,15462,1,0,0:0:0:0:
192,192,15553,1,0,0:0:0:0:
448,192,15553,1,0,0:0:0:0:
448,192,15735,1,0,0:0:0:0:
320,192,15735,1,0,0:0:0:0:
64,192,15826,1,0,0:0:0:0:
320,192,15917,1,0,0:0:0:0:
192,192,15917,1,0,0:0:0:0:
64,192,16008,1,0,0:0:0:0:
192,192,16099,1,0,0:0:0:0:
320,192,16099,1,0,0:0:0:0:
448,192,16099,1,0,0:0:0:0:
448,192,16189,1,0,0:0:0:0:
64,192,16280,1,0,0:0:0:0:
320,192,16280,1,0,0:0:0:0:
448,192,16371,1,0,0:0:0:0:
64,192,16462,1,0,0:0:0:0:
192,192,16462,1,0,0:0:0:0:
320,192,16462,1,0,0:0:0:0:
320,192,16553,1,0,0:0:0:0:
448,192,16553,1,0,0:0:0:0:
64,192,16644,1,0,0:0:0:0:
448,192,16644,1,0,0:0:0:0:
192,192,16644,1,0,0:0:0:0:
192,192,16735,1,0,0:0:0:0:
64,192,16826,1,0,0:0:0:0:
448,192,16826,1,0,0:0:0:0:
320,192,16917,1,0,0:0:0:0:
64,192,16917,1,0,0:0:0:0:
192,192,17008,1,0,0:0:0:0:
448,192,17008,1,0,0:0:0:0:
320,192,17099,1,0,0:0:0:0:
192,192,17099,1,0,0:0:0:0:
320,192,17190,128,0,17371:0:0:0:0:
448,192,17190,128,0,17371:0:0:0:0:
64,192,17190,128,0,17371:0:0:0:0:
192,192,17462,128,0,17644:0:0:0:0:
448,192,17462,128,0,17644:0:0:0:0:
64,192,17462,128,0,17644:0:0:0:0:
320,192,17735,128,0,17871:0:0:0:0:
192,192,17735,128,0,17871:0:0:0:0:
448,192,17735,128,0,17871:0:0:0:0:
448,192,17917,1,0,0:0:0:0:
192,192,17917,1,0,0:0:0:0:
64,192,17917,1,0,0:0:0:0:
320,192,17917,1,0,0:0:0:0:
192,192,18099,1,0,0:0:0:0:
192,192,18190,1,0,0:0:0:0:
320,192,18280,1,0,0:0:0:0:
64,192,18280,1,0,0:0:0:0:
320,192,18371,1,0,0:0:0:0:
192,192,18462,1,0,0:0:0:0:
448,192,18553,1,0,0:0:0:0:
448,192,18644,128,0,18826:0:0:0:0:
64,192,18644,128,0,18826:0:0:0:0:
64,192,18917,128,0,19099:0:0:0:0:
320,192,18917,128,0,19099:0:0:0:0:
192,192,19190,128,0,19371:0:0:0:0:
64,192,19190,128,0,19371:0:0:0:0:
320,192,19553,1,0,0:0:0:0:
64,192,19553,1,0,0:0:0:0:
192,192,19644,1,0,0:0:0:0:
64,192,19735,1,0,0:0:0:0:
448,192,19735,1,0,0:0:0:0:
192,192,19735,128,0,19917:0:0:0:0:
320,192,19917,1,0,0:0:0:0:
64,192,20008,1,0,0:0:0:0:
192,192,20099,128,0,20280:0:0:0:0:
448,192,20099,128,0,20280:0:0:0:0:
320,192,20099,1,0,0:0:0:0:
320,192,20371,128,0,20553:0:0:0:0:
192,192,20371,128,0,20553:0:0:0:0:
448,192,20644,128,0,20826:0:0:0:0:
64,192,20644,128,0,20826:0:0:0:0:
192,192,21008,1,0,0:0:0:0:
448,192,21008,1,0,0:0:0:0:
448,192,21099,1,0,0:0:0:0:
320,192,21190,1,0,0:0:0:0:
64,192,21190,1,0,0:0:0:0:
192,192,21190,128,0,21371:0:0:0:0:
448,192,21371,1,0,0:0:0:0:
320,192,21462,1,0,0:0:0:0:
192,192,21553,128,0,21735:0:0:0:0:
64,192,21553,128,0,21735:0:0:0:0:
448,192,21553,1,0,0:0:0:0:
448,192,21735,1,0,0:0:0:0:
192,192,21826,128,0,22008:0:0:0:0:
320,192,21826,128,0,22008:0:0:0:0:
64,192,21917,1,0,0:0:0:0:
448,192,22099,128,0,22280:0:0:0:0:
192,192,22099,128,0,22280:0:0:0:0:
64,192,22099,1,0,0:0:0:0:
320,192,22280,1,0,0:0:0:0:
320,192,22462,1,0,0:0:0:0:
192,192,22462,1,0,0:0:0:0:
448,192,22644,1,0,0:0:0:0:
64,192,22644,1,0,0:0:0:0:
192,192,22644,128,0,22826:0:0:0:0:
320,192,22735,1,0,0:0:0:0:
64,192,22826,1,0,0:0:0:0:
320,192,22871,1,0,0:0:0:0:
64,192,22917,1,0,0:0:0:0:
320,192,22962,1,0,0:0:0:0:
192,192,23008,128,0,23189:0:0:0:0:
64,192,23008,128,0,23189:0:0:0:0:
448,192,23008,1,0,0:0:0:0:
320,192,23189,1,0,0:0:0:0:
192,192,23280,128,0,23462:0:0:0:0:
448,192,23280,128,0,23462:0:0:0:0:
64,192,23371,1,0,0:0:0:0:
192,192,23553,1,0,0:0:0:0:
64,192,23553,128,0,23826:0:0:0:0:
320,192,23553,128,0,23826:0:0:0:0:
448,192,23553,128,0,23826:0:0:0:0:
192,192,23917,1,0,0:0:0:0:
64,192,23917,1,0,0:0:0:0:
192,192,24008,1,0,0:0:0:0:
448,192,24099,1,0,0:0:0:0:
64,192,24099,1,0,0:0:0:0:
320,192,24099,128,0,24280:0:0:0:0:
192,192,24189,1,0,0:0:0:0:
64,192,24280,1,0,0:0:0:0:
320,192,24326,1,0,0:0:0:0:
448,192,24371,1,0,0:0:0:0:
320,192,24462,128,0,24644:0:0:0:0:
64,192,24462,128,0,24644:0:0:0:0:
192,192,24462,1,0,0:0:0:0:
448,192,24735,128,0,24917:0:0:0:0:
192,192,24735,128,0,24917:0:0:0:0:
64,192,24735,1,0,0:0:0:0:
192,192,25008,128,0,25189:0:0:0:0:
64,192,25008,128,0,25189:0:0:0:0:
448,192,25008,1,0,0:0:0:0:
64,192,25371,1,0,0:0:0:0:
448,192,25371,1,0,0:0:0:0:
192,192,25462,1,0,0:0:0:0:
64,192,25553,1,0,0:0:0:0:
448,192,25553,1,0,0:0:0:0:
320,192,25553,1,0,0:0:0:0:
192,192,25599,1,0,0:0:0:0:
448,192,25644,1,0,0:0:0:0:
320,192,25689,1,0,0:0:0:0:
64,192,25735,1,0,0:0:0:0:
448,192,25780,1,0,0:0:0:0:
192,192,25826,1,0,0:0:0:0:
448,192,25871,1,0,0:0:0:0:
64,192,25917,128,0,26099:0:0:0:0:
320,192,25917,128,0,26099:0:0:0:0:
192,192,25917,1,0,0:0:0:0:
192,192,26189,128,0,26371:0:0:0:0:
64,192,26189,128,0,26371:0:0:0:0:
448,192,26189,1,0,0:0:0:0:
192,192,26462,128,0,26644:0:0:0:0:
448,192,26462,128,0,26644:0:0:0:0:
64,192,26462,1,0,0:0:0:0:
320,192,26644,128,0,26735:0:0:0:0:
320,192,26826,1,0,0:0:0:0:
64,192,26826,1,0,0:0:0:0:
192,192,27008,1,0,0:0:0:0:
64,192,27008,1,0,0:0:0:0:
448,192,27008,1,0,0:0:0:0:
320,192,27053,1,0,0:0:0:0:
64,192,27099,1,0,0:0:0:0:
192,192,27144,1,0,0:0:0:0:
448,192,27189,1,0,0:0:0:0:
320,192,27189,1,0,0:0:0:0:
64,192,27235,1,0,0:0:0:0:
448,192,27280,1,0,0:0:0:0:
64,192,27326,1,0,0:0:0:0:
192,192,27371,128,0,27553:0:0:0:0:
320,192,27371,128,0,27553:0:0:0:0:
448,192,27371,1,0,0:0:0:0:
192,192,27644,128,0,27826:0:0:0:0:
64,192,27644,128,0,27826:0:0:0:0:
448,192,27644,1,0,0:0:0:0:
192,192,27917,128,0,28099:0:0:0:0:
448,192,27917,128,0,28099:0:0:0:0:
64,192,27917,128,0,28099:0:0:0:0:
320,192,28099,1,0,0:0:0:0:
64,192,28280,1,0,0:0:0:0:
192,192,28280,1,0,0:0:0:0:
64,192,28462,1,0,0:0:0:0:
448,192,28462,1,0,0:0:0:0:
320,192,28462,1,0,0:0:0:0:
192,192,28553,128,0,28644:0:0:0:0:
64,192,28644,128,0,28735:0:0:0:0:
448,192,28735,128,0,28826:0:0:0:0:
64,192,28826,128,0,29008:0:0:0:0:
320,192,28826,128,0,28917:0:0:0:0:
192,192,28826,128,0,28917:0:0:0:0:
192,192,29008,1,0,0:0:0:0:
320,192,29008,1,0,0:0:0:0:
448,192,29099,128,0,29280:0:0:0:0:
320,192,29099,128,0,29280:0:0:0:0:
64,192,29189,1,0,0:0:0:0:
192,192,29189,1,0,0:0:0:0:
64,192,29280,128,0,29508:0:0:0:0:
192,192,29280,128,0,29508:0:0:0:0:
448,192,29371,128,0,29508:0:0:0:0:
448,192,29553,1,0,0:0:0:0:
64,192,29553,1,0,0:0:0:0:
192,192,29553,1,0,0:0:0:0:
320,192,29553,1,0,0:0:0:0:
320,192,29735,1,0,0:0:0:0:
192,192,29826,1,0,0:0:0:0:
64,192,29917,1,0,0:0:0:0:
448,192,29917,1,0,0:0:0:0:
320,192,29917,1,0,0:0:0:0:
64,192,30008,1,0,0:0:0:0:
320,192,30099,128,0,30235:0:0:0:0:
192,192,30280,128,0,30462:0:0:0:0:
64,192,30280,128,0,30462:0:0:0:0:
448,192,30280,128,0,30462:0:0:0:0:
320,192,30280,1,0,0:0:0:0:
320,192,30553,128,0,30735:0:0:0:0:
64,192,30553,128,0,30735:0:0:0:0:
448,192,30553,1,0,0:0:0:0:
192,192,30735,1,0,0:0:0:0:
320,192,30826,128,0,31008:0:0:0:0:
448,192,30826,128,0,31008:0:0:0:0:
64,192,30826,1,0,0:0:0:0:
64,192,31008,1,0,0:0:0:0:
320,192,31099,1,0,0:0:0:0:
448,192,31189,1,0,0:0:0:0:
192,192,31189,1,0,0:0:0:0:
448,192,31280,1,0,0:0:0:0:
320,192,31371,1,0,0:0:0:0:
64,192,31371,1,0,0:0:0:0:
192,192,31371,1,0,0:0:0:0:
64,192,31462,1,0,0:0:0:0:
192,192,31553,1,0,0:0:0:0:
448,192,31553,1,0,0:0:0:0:
320,192,31644,1,0,0:0:0:0:
448,192,31644,1,0,0:0:0:0:
64,192,31735,128,0,31917:0:0:0:0:
192,192,31735,128,0,31917:0:0:0:0:
320,192,31735,1,0,0:0:0:0:
320,192,32008,128,0,32189:0:0:0:0:
448,192,32008,128,0,32189:0:0:0:0:
64,192,32008,1,0,0:0:0:0:
192,192,32189,1,0,0:0:0:0:
448,192,32280,128,0,32462:0:0:0:0:
64,192,32280,128,0,32462:0:0:0:0:
320,192,32280,1,0,0:0:0:0:
320,192,32462,1,0,0:0:0:0:
64,192,32553,1,0,0:0:0:0:
192,192,32553,1,0,0:0:0:0:
448,192,32644,1,0,0:0:0:0:
320,192,32644,1,0,0:0:0:0:
448,192,32735,1,0,0:0:0:0:
192,192,32826,1,0,0:0:0:0:
64,192,32826,1,0,0:0:0:0:
320,192,32826,1,0,0:0:0:0:
192,192,32917,1,0,0:0:0:0:
320,192,33008,128,0,33099:0:0:0:0:
448,192,33008,128,0,33099:0:0:0:0:
64,192,33008,1,0,0:0:0:0:
448,192,33190,1,0,0:0:0:0:
192,192,33190,128,0,33371:0:0:0:0:
320,192,33190,1,0,0:0:0:0:
320,192,33371,128,0,33553:0:0:0:0:
192,192,33462,1,0,0:0:0:0:
64,192,33462,1,0,0:0:0:0:
64,192,33553,128,0,33735:0:0:0:0:
448,192,33553,128,0,33735:0:0:0:0:
320,192,33735,128,0,33917:0:0:0:0:
192,192,33735,128,0,33917:0:0:0:0:
448,192,33917,1,0,0:0:0:0:
64,192,33917,128,0,34099:0:0:0:0:
192,192,34099,128,0,34280:0:0:0:0:
320,192,34099,1,0,0:0:0:0:
448,192,34280,128,0,34462:0:0:0:0:
320,192,34280,1,0,0:0:0:0:
64,192,34280,1,0,0:0:0:0:
192,192,34371,1,0,0:0:0:0:
320,192,34462,128,0,34644:0:0:0:0:
64,192,34462,1,0,0:0:0:0:
448,192,34508,1,0,0:0:0:0:
64,192,34553,1,0,0:0:0:0:
448,192,34599,1,0,0:0:0:0:
192,192,34644,1,0,0:0:0:0:
64,192,34644,1,0,0:0:0:0:
448,192,34826,128,0,35144:0:0:0:0:
64,192,34917,128,0,35008:0:0:0:0:
192,192,35008,128,0,35190:0:0:0:0:
448,192,35190,128,0,35462:0:0:0:0:
320,192,35190,128,0,35462:0:0:0:0:
64,192,35190,128,0,35462:0:0:0:0:
320,192,35553,1,0,0:0:0:0:
192,192,35553,1,0,0:0:0:0:
320,192,35644,1,0,0:0:0:0:
192,192,35735,1,0,0:0:0:0:
64,192,35735,1,0,0:0:0:0:
448,192,35735,1,0,0:0:0:0:
64,192,35826,1,0,0:0:0:0:
320,192,35917,1,0,0:0:0:0:
448,192,35917,1,0,0:0:0:0:
192,192,36008,1,0,0:0:0:0:
320,192,36099,128,0,36280:0:0:0:0:
64,192,36099,128,0,36280:0:0:0:0:
192,192,36280,128,0,36371:0:0:0:0:
320,192,36371,1,0,0:0:0:0:
448,192,36371,128,0,36553:0:0:0:0:
64,192,36371,128,0,36553:0:0:0:0:
320,192,36553,128,0,36644:0:0:0:0:
192,192,36644,128,0,36826:0:0:0:0:
64,192,36644,128,0,36826:0:0:0:0:
448,192,36644,1,0,0:0:0:0:
448,192,36826,1,0,0:0:0:0:
448,192,36917,1,0,0:0:0:0:
320,192,37008,1,0,0:0:0:0:
64,192,37008,1,0,0:0:0:0:
192,192,37099,1,0,0:0:0:0:
192,192,37190,1,0,0:0:0:0:
64,192,37190,1,0,0:0:0:0:
448,192,37190,1,0,0:0:0:0:
320,192,37280,1,0,0:0:0:0:
64,192,37371,1,0,0:0:0:0:
192,192,37371,1,0,0:0:0:0:
192,192,37553,128,0,37735:0:0:0:0:
448,192,37553,1,0,0:0:0:0:
64,192,37553,128,0,37735:0:0:0:0:
448,192,37735,1,0,0:0:0:0:
320,192,37826,128,0,38008:0:0:0:0:
192,192,37826,128,0,38008:0:0:0:0:
64,192,37826,1,0,0:0:0:0:
64,192,38008,1,0,0:0:0:0:
320,192,38099,128,0,38280:0:0:0:0:
448,192,38099,128,0,38280:0:0:0:0:
192,192,38099,1,0,0:0:0:0:
64,192,38280,1,0,0:0:0:0:
192,192,38462,1,0,0:0:0:0:
448,192,38462,1,0,0:0:0:0:
320,192,38644,1,0,0:0:0:0:
448,192,38644,1,0,0:0:0:0:
64,192,38644,1,0,0:0:0:0:
192,192,38690,1,0,0:0:0:0:
320,192,38735,1,0,0:0:0:0:
64,192,38780,1,0,0:0:0:0:
192,192,38826,1,0,0:0:0:0:
448,192,38826,1,0,0:0:0:0:
448,192,38917,1,0,0:0:0:0:
320,192,38962,1,0,0:0:0:0:
64,192,39008,1,0,0:0:0:0:
192,192,39008,1,0,0:0:0:0:
192,192,39190,1,0,0:0:0:0:
448,192,39190,1,0,0:0:0:0:
448,192,39280,1,0,0:0:0:0:
64,192,39280,1,0,0:0:0:0:
320,192,39371,128,0,39553:0:0:0:0:
192,192,39371,1,0,0:0:0:0:
64,192,39553,1,0,0:0:0:0:
192,192,39553,128,0,39735:0:0:0:0:
448,192,39553,128,0,39735:0:0:0:0:
320,192,39735,1,0,0:0:0:0:
192,192,39917,1,0,0:0:0:0:
64,192,39917,1,0,0:0:0:0:
192,192,40099,1,0,0:0:0:0:
320,192,40099,1,0,0:0:0:0:
448,192,40099,1,0,0:0:0:0:
64,192,40144,1,0,0:0:0:0:
320,192,40280,1,0,0:0:0:0:
192,192,40280,1,0,0:0:0:0:
64,192,40326,1,0,0:0:0:0:
192,192,40462,1,0,0:0:0:0:
320,192,40462,1,0,0:0:0:0:
448,192,40462,128,0,40735:0:0:0:0:
64,192,40735,1,0,0:0:0:0:
320,192,40735,1,0,0:0:0:0:
320,192,40826,128,0,41099:0:0:0:0:
448,192,40826,1,0,0:0:0:0:
192,192,40826,1,0,0:0:0:0:
64,192,41008,1,0,0:0:0:0:
192,192,41008,1,0,0:0:0:0:
64,192,41190,1,0,0:0:0:0:
320,192,41190,1,0,0:0:0:0:
448,192,41190,1,0,0:0:0:0:
192,192,41371,1,0,0:0:0:0:
320,192,41553,128,0,41735:0:0:0:0:
448,192,41553,1,0,0:0:0:0:
64,192,41735,1,0,0:0:0:0:
192,192,41735,1,0,0:0:0:0:
192,192,41917,1,0,0:0:0:0:
64,192,41917,1,0,0:0:0:0:
448,192,41917,1,0,0:0:0:0:
320,192,42099,1,0,0:0:0:0:
192,192,42280,128,0,42462:0:0:0:0:
448,192,42280,1,0,0:0:0:0:
64,192,42462,1,0,0:0:0:0:
320,192,42462,1,0,0:0:0:0:
192,192,42553,1,0,0:0:0:0:
64,192,42553,1,0,0:0:0:0:
192,192,42644,1,0,0:0:0:0:
448,192,42644,1,0,0:0:0:0:
320,192,42735,1,0,0:0:0:0:
448,192,42735,1,0,0:0:0:0:
320,192,42826,1,0,0:0:0:0:
192,192,42917,1,0,0:0:0:0:
192,192,43008,1,0,0:0:0:0:
64,192,43008,1,0,0:0:0:0:
448,192,43008,1,0,0:0:0:0:
64,192,43099,1,0,0:0:0:0:
320,192,43099,1,0,0:0:0:0:
192,192,43190,1,0,0:0:0:0:
320,192,43190,1,0,0:0:0:0:
192,192,43280,1,0,0:0:0:0:
320,192,43371,128,0,43553:0:0:0:0:
64,192,43371,128,0,43553:0:0:0:0:
448,192,43371,128,0,43553:0:0:0:0:
192,192,43644,128,0,43780:0:0:0:0:
64,192,43644,128,0,43780:0:0:0:0:
448,192,43644,128,0,43780:0:0:0:0:
320,192,43917,128,0,44280:0:0:0:0:
192,192,43917,128,0,44099:0:0:0:0:
64,192,44280,1,0,0:0:0:0:
448,192,44280,1,0,0:0:0:0:
320,192,44462,1,0,0:0:0:0:
64,192,44462,1,0,0:0:0:0:
192,192,44644,1,0,0:0:0:0:
64,192,44644,1,0,0:0:0:0:
64,192,44826,1,0,0:0:0:0:
448,192,44826,1,0,0:0:0:0:
320,192,44917,1,0,0:0:0:0:
64,192,44917,1,0,0:0:0:0:
192,192,45008,1,0,0:0:0:0:
448,192,45008,1,0,0:0:0:0:
320,192,45099,1,0,0:0:0:0:
448,192,45189,1,0,0:0:0:0:
320,192,45189,1,0,0:0:0:0:
64,192,45189,1,0,0:0:0:0:
448,192,45280,1,0,0:0:0:0:
64,192,45371,1,0,0:0:0:0:
192,192,45371,1,0,0:0:0:0:
192,192,45462,1,0,0:0:0:0:
64,192,45553,1,0,0:0:0:0:
448,192,45553,1,0,0:0:0:0:
320,192,45553,1,0,0:0:0:0:
320,192,45644,1,0,0:0:0:0:
320,192,45735,1,0,0:0:0:0:
64,192,45826,1,0,0:0:0:0:
64,192,45917,1,0,0:0:0:0:
192,192,45917,1,0,0:0:0:0:
448,192,45917,1,0,0:0:0:0:
448,192,46008,1,0,0:0:0:0:
192,192,46008,1,0,0:0:0:0:
320,192,46099,1,0,0:0:0:0:
320,192,46189,1,0,0:0:0:0:
192,192,46280,128,0,46462:0:0:0:0:
64,192,46280,128,0,46462:0:0:0:0:
448,192,46280,128,0,46462:0:0:0:0:
320,192,46553,128,0,46689:0:0:0:0:
64,192,46553,128,0,46689:0:0:0:0:
192,192,46553,128,0,46689:0:0:0:0:
192,192,46826,128,0,47008:0:0:0:0:
448,192,46826,128,0,47189:0:0:0:0:
64,192,47008,128,0,47280:0:0:0:0:
320,192,47189,128,0,47280:0:0:0:0:
192,192,47189,1,0,0:0:0:0:
64,192,47371,1,0,0:0:0:0:
320,192,47371,1,0,0:0:0:0:
320,192,47553,1,0,0:0:0:0:
448,192,47553,1,0,0:0:0:0:
320,192,47735,1,0,0:0:0:0:
64,192,47735,1,0,0:0:0:0:
192,192,47826,1,0,0:0:0:0:
64,192,47826,1,0,0:0:0:0:
192,192,47917,1,0,0:0:0:0:
448,192,47917,1,0,0:0:0:0:
320,192,48008,1,0,0:0:0:0:
448,192,48099,1,0,0:0:0:0:
320,192,48099,1,0,0:0:0:0:
64,192,48099,1,0,0:0:0:0:
192,192,48280,1,0,0:0:0:0:
64,192,48280,1,0,0:0:0:0:
192,192,48371,1,0,0:0:0:0:
448,192,48371,1,0,0:0:0:0:
448,192,48462,1,0,0:0:0:0:
64,192,48462,1,0,0:0:0:0:
320,192,48522,1,0,0:0:0:0:
192,192,48583,1,0,0:0:0:0:
64,192,48644,1,0,0:0:0:0:
320,192,48704,1,0,0:0:0:0:
192,192,48765,1,0,0:0:0:0:
64,192,48826,1,0,0:0:0:0:
448,192,48826,1,0,0:0:0:0:
320,192,48886,1,0,0:0:0:0:
64,192,48947,1,0,0:0:0:0:
192,192,49008,1,0,0:0:0:0:
320,192,49068,1,0,0:0:0:0:
448,192,49129,1,0,0:0:0:0:
64,192,49189,128,0,49371:0:0:0:0:
192,192,49189,128,0,49371:0:0:0:0:
320,192,49189,1,0,0:0:0:0:
448,192,49371,1,0,0:0:0:0:
320,192,49371,1,0,0:0:0:0:
320,192,49462,128,0,49599:0:0:0:0:
448,192,49462,128,0,49599:0:0:0:0:
64,192,49462,128,0,49599:0:0:0:0:
448,192,49735,128,0,49917:0:0:0:0:
64,192,49735,1,0,0:0:0:0:
320,192,49735,128,0,49917:0:0:0:0:
192,192,49917,1,0,0:0:0:0:
64,192,49917,1,0,0:0:0:0:
192,192,50008,1,0,0:0:0:0:
448,192,50008,1,0,0:0:0:0:
320,192,50099,1,0,0:0:0:0:
64,192,50099,1,0,0:0:0:0:
64,192,50189,1,0,0:0:0:0:
192,192,50280,1,0,0:0:0:0:
448,192,50280,1,0,0:0:0:0:
320,192,50280,1,0,0:0:0:0:
448,192,50371,1,0,0:0:0:0:
64,192,50462,128,0,50644:0:0:0:0:
320,192,50462,1,0,0:0:0:0:
192,192,50644,1,0,0:0:0:0:
448,192,50644,1,0,0:0:0:0:
64,192,50689,1,0,0:0:0:0:
320,192,50735,1,0,0:0:0:0:
192,192,50780,1,0,0:0:0:0:
64,192,50826,1,0,0:0:0:0:
448,192,50826,1,0,0:0:0:0:
64,192,50917,1,0,0:0:0:0:
320,192,50917,1,0,0:0:0:0:
448,192,51008,1,0,0:0:0:0:
192,192,51008,1,0,0:0:0:0:
320,192,51008,1,0,0:0:0:0:
64,192,51189,128,0,51462:0:0:0:0:
448,192,51189,128,0,51462:0:0:0:0:
320,192,51189,128,0,51462:0:0:0:0:
192,192,51371,128,0,52099:0:0:0:0:
320,192,52462,128,0,52826:0:0:0:0:
64,192,52826,1,0,0:0:0:0:
192,192,52826,1,0,0:0:0:0:
448,192,52826,1,0,0:0:0:0:
64,192,52917,1,0,0:0:0:0:
64,192,53008,1,0,0:0:0:0:
192,192,53008,1,0,0:0:0:0:
192,192,53099,1,0,0:0:0:0:
64,192,53189,1,0,0:0:0:0:
320,192,53189,1,0,0:0:0:0:
448,192,53189,1,0,0:0:0:0:
448,192,53280,1,0,0:0:0:0:
320,192,53371,1,0,0:0:0:0:
448,192,53371,1,0,0:0:0:0:
320,192,53462,1,0,0:0:0:0:
192,192,53553,1,0,0:0:0:0:
448,192,53553,1,0,0:0:0:0:
64,192,53553,1,0,0:0:0:0:
192,192,53644,1,0,0:0:0:0:
448,192,53735,1,0,0:0:0:0:
320,192,53735,1,0,0:0:0:0:
64,192,53826,1,0,0:0:0:0:
320,192,53826,1,0,0:0:0:0:
64,192,53917,1,0,0:0:0:0:
192,192,53917,1,0,0:0:0:0:
448,192,53917,1,0,0:0:0:0:
192,192,54008,1,0,0:0:0:0:
320,192,54099,1,0,0:0:0:0:
448,192,54099,1,0,0:0:0:0:
320,192,54189,1,0,0:0:0:0:
192,192,54280,1,0,0:0:0:0:
64,192,54280,1,0,0:0:0:0:
64,192,54371,1,0,0:0:0:0:
320,192,54462,1,0,0:0:0:0:
448,192,54462,1,0,0:0:0:0:
192,192,54553,1,0,0:0:0:0:
320,192,54644,1,0,0:0:0:0:
448,192,54644,1,0,0:0:0:0:
64,192,54644,1,0,0:0:0:0:
320,192,54735,1,0,0:0:0:0:
192,192,54826,1,0,0:0:0:0:
64,192,54826,1,0,0:0:0:0:
64,192,54917,1,0,0:0:0:0:
192,192,55008,1,0,0:0:0:0:
448,192,55008,1,0,0:0:0:0:
448,192,55099,1,0,0:0:0:0:
64,192,55099,1,0,0:0:0:0:
320,192,55099,1,0,0:0:0:0:
192,192,55189,128,0,55371:0:0:0:0:
64,192,55371,1,0,0:0:0:0:
448,192,55371,1,0,0:0:0:0:
320,192,55462,1,0,0:0:0:0:
64,192,55462,1,0,0:0:0:0:
192,192,55553,1,0,0:0:0:0:
192,192,55644,1,0,0:0:0:0:
448,192,55644,1,0,0:0:0:0:
320,192,55735,1,0,0:0:0:0:
448,192,55735,1,0,0:0:0:0:
64,192,55735,1,0,0:0:0:0:
64,192,55826,1,0,0:0:0:0:
192,192,55917,1,0,0:0:0:0:
320,192,55917,1,0,0:0:0:0:
320,192,56008,1,0,0:0:0:0:
64,192,56099,1,0,0:0:0:0:
448,192,56099,1,0,0:0:0:0:
192,192,56099,1,0,0:0:0:0:
192,192,56189,128,0,56371:0:0:0:0:
320,192,56280,1,0,0:0:0:0:
64,192,56371,1,0,0:0:0:0:
448,192,56371,1,0,0:0:0:0:
448,192,56462,1,0,0:0:0:0:
64,192,56462,1,0,0:0:0:0:
320,192,56462,1,0,0:0:0:0:
192,192,56553,1,0,0:0:0:0:
320,192,56644,1,0,0:0:0:0:
64,192,56644,1,0,0:0:0:0:
320,192,56735,1,0,0:0:0:0:
192,192,56826,1,0,0:0:0:0:
448,192,56826,1,0,0:0:0:0:
64,192,56826,1,0,0:0:0:0:
448,192,56917,1,0,0:0:0:0:
320,192,57008,1,0,0:0:0:0:
64,192,57008,1,0,0:0:0:0:
64,192,57099,1,0,0:0:0:0:
192,192,57189,1,0,0:0:0:0:
320,192,57189,1,0,0:0:0:0:
448,192,57189,1,0,0:0:0:0:
448,192,57280,1,0,0:0:0:0:
320,192,57371,1,0,0:0:0:0:
64,192,57371,1,0,0:0:0:0:
64,192,57462,1,0,0:0:0:0:
448,192,57553,1,0,0:0:0:0:
192,192,57553,1,0,0:0:0:0:
64,192,57553,1,0,0:0:0:0:
320,192,57644,1,0,0:0:0:0:
192,192,57644,1,0,0:0:0:0:
320,192,57735,1,0,0:0:0:0:
448,192,57735,128,0,57917:0:0:0:0:
64,192,57917,1,0,0:0:0:0:
192,192,57917,1,0,0:0:0:0:
320,192,57917,1,0,0:0:0:0:
192,192,58008,1,0,0:0:0:0:
64,192,58099,1,0,0:0:0:0:
320,192,58189,1,0,0:0:0:0:
448,192,58280,1,0,0:0:0:0:
320,192,58280,128,0,58462:0:0:0:0:
192,192,58280,128,0,58462:0:0:0:0:
64,192,58462,1,0,0:0:0:0:
192,192,58644,1,0,0:0:0:0:
64,192,58644,1,0,0:0:0:0:
448,192,58644,1,0,0:0:0:0:
64,192,58735,1,0,0:0:0:0:
192,192,58826,1,0,0:0:0:0:
320,192,58826,1,0,0:0:0:0:
320,192,58917,1,0,0:0:0:0:
448,192,59008,1,0,0:0:0:0:
192,192,59008,1,0,0:0:0:0:
64,192,59008,1,0,0:0:0:0:
448,192,59099,1,0,0:0:0:0:
320,192,59189,1,0,0:0:0:0:
192,192,59189,1,0,0:0:0:0:
192,192,59280,1,0,0:0:0:0:
64,192,59371,1,0,0:0:0:0:
320,192,59371,1,0,0:0:0:0:
448,192,59462,1,0,0:0:0:0:
192,192,59553,1,0,0:0:0:0:
64,192,59553,1,0,0:0:0:0:
320,192,59644,1,0,0:0:0:0:
448,192,59644,1,0,0:0:0:0:
448,192,59735,1,0,0:0:0:0:
192,192,59735,1,0,0:0:0:0:
64,192,59735,1,0,0:0:0:0:
320,192,59826,1,0,0:0:0:0:
320,192,59917,1,0,0:0:0:0:
64,192,59917,128,0,60099:0:0:0:0:
192,192,60099,1,0,0:0:0:0:
448,192,60099,1,0,0:0:0:0:
448,192,60189,1,0,0:0:0:0:
192,192,60280,1,0,0:0:0:0:
320,192,60280,1,0,0:0:0:0:
64,192,60371,1,0,0:0:0:0:
64,192,60462,1,0,0:0:0:0:
320,192,60462,1,0,0:0:0:0:
448,192,60462,1,0,0:0:0:0:
192,192,60553,1,0,0:0:0:0:
192,192,60644,1,0,0:0:0:0:
320,192,60644,1,0,0:0:0:0:
448,192,60735,1,0,0:0:0:0:
320,192,60826,1,0,0:0:0:0:
64,192,60826,1,0,0:0:0:0:
192,192,60917,1,0,0:0:0:0:
64,192,60917,1,0,0:0:0:0:
448,192,60917,1,0,0:0:0:0:
320,192,61008,1,0,0:0:0:0:
320,192,61189,1,0,0:0:0:0:
192,192,61189,1,0,0:0:0:0:
64,192,61189,1,0,0:0:0:0:
192,192,61280,1,0,0:0:0:0:
64,192,61371,1,0,0:0:0:0:
320,192,61371,1,0,0:0:0:0:
320,192,61462,1,0,0:0:0:0:
192,192,61553,1,0,0:0:0:0:
448,192,61553,1,0,0:0:0:0:
64,192,61644,1,0,0:0:0:0:
320,192,61735,1,0,0:0:0:0:
192,192,61735,1,0,0:0:0:0:
192,192,61826,1,0,0:0:0:0:
64,192,61917,1,0,0:0:0:0:
320,192,61917,1,0,0:0:0:0:
448,192,61917,1,0,0:0:0:0:
448,192,62008,1,0,0:0:0:0:
448,192,62099,1,0,0:0:0:0:
64,192,62099,1,0,0:0:0:0:
192,192,62189,1,0,0:0:0:0:
192,192,62280,1,0,0:0:0:0:
64,192,62280,1,0,0:0:0:0:
448,192,62280,1,0,0:0:0:0:
320,192,62371,1,0,0:0:0:0:
448,192,62371,1,0,0:0:0:0:
320,192,62462,1,0,0:0:0:0:
64,192,62462,1,0,0:0:0:0:
192,192,62553,1,0,0:0:0:0:
64,192,62644,1,0,0:0:0:0:
320,192,62644,1,0,0:0:0:0:
448,192,62644,1,0,0:0:0:0:
64,192,62735,1,0,0:0:0:0:
192,192,62826,1,0,0:0:0:0:
320,192,62826,1,0,0:0:0:0:
448,192,62826,1,0,0:0:0:0:
320,192,62917,1,0,0:0:0:0:
192,192,63008,1,0,0:0:0:0:
64,192,63008,1,0,0:0:0:0:
448,192,63008,1,0,0:0:0:0:
320,192,63099,1,0,0:0:0:0:
64,192,63099,1,0,0:0:0:0:
192,192,63189,1,0,0:0:0:0:
320,192,63189,1,0,0:0:0:0:
192,192,63280,1,0,0:0:0:0:
64,192,63371,1,0,0:0:0:0:
448,192,63371,1,0,0:0:0:0:
320,192,63431,1,0,0:0:0:0:
192,192,63492,1,0,0:0:0:0:
64,192,63553,1,0,0:0:0:0:
448,192,63553,1,0,0:0:0:0:
320,192,63613,1,0,0:0:0:0:
64,192,63674,1,0,0:0:0:0:
192,192,63735,1,0,0:0:0:0:
320,192,63735,1,0,0:0:0:0:
448,192,63795,1,0,0:0:0:0:
192,192,63856,1,0,0:0:0:0:
64,192,63917,1,0,0:0:0:0:
320,192,63917,1,0,0:0:0:0:
448,192,63977,1,0,0:0:0:0:
64,192,64038,1,0,0:0:0:0:
192,192,64099,1,0,0:0:0:0:
320,192,64099,1,0,0:0:0:0:
448,192,64159,1,0,0:0:0:0:
320,192,64219,1,0,0:0:0:0:
192,192,64280,1,0,0:0:0:0:
64,192,64280,1,0,0:0:0:0:
448,192,64340,1,0,0:0:0:0:
192,192,64401,1,0,0:0:0:0:
64,192,64462,1,0,0:0:0:0:
448,192,64462,1,0,0:0:0:0:
320,192,64462,1,0,0:0:0:0:
320,192,64553,1,0,0:0:0:0:
448,192,64644,1,0,0:0:0:0:
64,192,64644,1,0,0:0:0:0:
64,192,64735,1,0,0:0:0:0:
448,192,64826,1,0,0:0:0:0:
192,192,64826,1,0,0:0:0:0:
320,192,64826,1,0,0:0:0:0:
448,192,64917,1,0,0:0:0:0:
320,192,65008,1,0,0:0:0:0:
192,192,65008,1,0,0:0:0:0:
64,192,65099,1,0,0:0:0:0:
448,192,65189,1,0,0:0:0:0:
64,192,65189,1,0,0:0:0:0:
320,192,65189,1,0,0:0:0:0:
320,192,65280,1,0,0:0:0:0:
192,192,65280,1,0,0:0:0:0:
192,192,65371,1,0,0:0:0:0:
64,192,65371,1,0,0:0:0:0:
448,192,65462,1,0,0:0:0:0:
64,192,65462,1,0,0:0:0:0:
320,192,65462,1,0,0:0:0:0:
320,192,65553,1,0,0:0:0:0:
448,192,65553,1,0,0:0:0:0:
192,192,65553,1,0,0:0:0:0:
320,192,65644,1,0,0:0:0:0:
64,192,65735,1,0,0:0:0:0:
448,192,65735,1,0,0:0:0:0:
192,192,65735,1,0,0:0:0:0:
64,192,65826,1,0,0:0:0:0:
320,192,65826,1,0,0:0:0:0:
192,192,65917,1,0,0:0:0:0:
320,192,65917,1,0,0:0:0:0:
448,192,65917,1,0,0:0:0:0:
192,192,66008,1,0,0:0:0:0:
64,192,66099,1,0,0:0:0:0:
320,192,66099,1,0,0:0:0:0:
448,192,66099,1,0,0:0:0:0:
192,192,66190,1,0,0:0:0:0:
64,192,66190,1,0,0:0:0:0:
192,192,66280,1,0,0:0:0:0:
320,192,66280,1,0,0:0:0:0:
448,192,66280,1,0,0:0:0:0:
320,192,66371,1,0,0:0:0:0:
64,192,66462,1,0,0:0:0:0:
448,192,66462,1,0,0:0:0:0:
64,192,66553,1,0,0:0:0:0:
192,192,66553,1,0,0:0:0:0:
192,192,66644,1,0,0:0:0:0:
448,192,66644,1,0,0:0:0:0:
320,192,66735,1,0,0:0:0:0:
448,192,66735,1,0,0:0:0:0:
64,192,66735,1,0,0:0:0:0:
192,192,66826,1,0,0:0:0:0:
64,192,66917,1,0,0:0:0:0:
448,192,66917,1,0,0:0:0:0:
192,192,66917,1,0,0:0:0:0:
320,192,67008,1,0,0:0:0:0:
448,192,67008,1,0,0:0:0:0:
192,192,67008,1,0,0:0:0:0:
320,192,67099,1,0,0:0:0:0:
192,192,67190,1,0,0:0:0:0:
64,192,67190,1,0,0:0:0:0:
448,192,67190,1,0,0:0:0:0:
192,192,67280,1,0,0:0:0:0:
64,192,67371,1,0,0:0:0:0:
320,192,67371,1,0,0:0:0:0:
448,192,67371,1,0,0:0:0:0:
320,192,67462,1,0,0:0:0:0:
192,192,67553,1,0,0:0:0:0:
64,192,67553,1,0,0:0:0:0:
64,192,67644,1,0,0:0:0:0:
192,192,67735,1,0,0:0:0:0:
448,192,67735,1,0,0:0:0:0:
320,192,67735,1,0,0:0:0:0:
320,192,67826,1,0,0:0:0:0:
192,192,67917,1,0,0:0:0:0:
64,192,67917,1,0,0:0:0:0:
192,192,68008,1,0,0:0:0:0:
64,192,68099,1,0,0:0:0:0:
320,192,68099,1,0,0:0:0:0:
448,192,68099,1,0,0:0:0:0:
448,192,68190,1,0,0:0:0:0:
192,192,68190,1,0,0:0:0:0:
320,192,68280,1,0,0:0:0:0:
192,192,68280,1,0,0:0:0:0:
64,192,68371,1,0,0:0:0:0:
448,192,68371,1,0,0:0:0:0:
320,192,68371,1,0,0:0:0:0:
320,192,68462,1,0,0:0:0:0:
448,192,68462,1,0,0:0:0:0:
192,192,68462,1,0,0:0:0:0:
64,192,68553,1,0,0:0:0:0:
192,192,68553,1,0,0:0:0:0:
64,192,68644,1,0,0:0:0:0:
448,192,68644,1,0,0:0:0:0:
320,192,68644,1,0,0:0:0:0:
320,192,68735,1,0,0:0:0:0:
64,192,68826,1,0,0:0:0:0:
448,192,68826,1,0,0:0:0:0:
192,192,68826,1,0,0:0:0:0:
192,192,68917,1,0,0:0:0:0:
64,192,69008,1,0,0:0:0:0:
320,192,69008,1,0,0:0:0:0:
448,192,69099,1,0,0:0:0:0:
448,192,69190,1,0,0:0:0:0:
320,192,69190,1,0,0:0:0:0:
64,192,69190,1,0,0:0:0:0:
64,192,69280,1,0,0:0:0:0:
64,192,69371,1,0,0:0:0:0:
192,192,69371,1,0,0:0:0:0:
192,192,69462,1,0,0:0:0:0:
64,192,69553,1,0,0:0:0:0:
320,192,69553,1,0,0:0:0:0:
448,192,69644,1,0,0:0:0:0:
64,192,69644,1,0,0:0:0:0:
320,192,69644,1,0,0:0:0:0:
192,192,69735,1,0,0:0:0:0:
192,192,69826,1,0,0:0:0:0:
448,192,69826,1,0,0:0:0:0:
320,192,69917,128,0,70099:0:0:0:0:
448,192,69917,128,0,70099:0:0:0:0:
64,192,69917,1,0,0:0:0:0:
192,192,70099,1,0,0:0:0:0:
64,192,70099,1,0,0:0:0:0:
64,192,70190,1,0,0:0:0:0:
192,192,70190,1,0,0:0:0:0:
64,192,70280,1,0,0:0:0:0:
320,192,70280,1,0,0:0:0:0:
448,192,70280,1,0,0:0:0:0:
320,192,70371,1,0,0:0:0:0:
192,192,70462,1,0,0:0:0:0:
64,192,70462,1,0,0:0:0:0:
192,192,70553,1,0,0:0:0:0:
64,192,70644,1,0,0:0:0:0:
320,192,70644,1,0,0:0:0:0:
448,192,70644,1,0,0:0:0:0:
448,192,70735,1,0,0:0:0:0:
320,192,70826,1,0,0:0:0:0:
64,192,70826,1,0,0:0:0:0:
64,192,70917,1,0,0:0:0:0:
192,192,71008,1,0,0:0:0:0:
448,192,71008,1,0,0:0:0:0:
448,192,71099,1,0,0:0:0:0:
320,192,71099,1,0,0:0:0:0:
320,192,71190,1,0,0:0:0:0:
64,192,71190,1,0,0:0:0:0:
192,192,71280,1,0,0:0:0:0:
448,192,71280,1,0,0:0:0:0:
64,192,71280,1,0,0:0:0:0:
448,192,71371,1,0,0:0:0:0:
320,192,71371,1,0,0:0:0:0:
192,192,71371,1,0,0:0:0:0:
64,192,71462,1,0,0:0:0:0:
64,192,71553,1,0,0:0:0:0:
448,192,71553,1,0,0:0:0:0:
320,192,71553,1,0,0:0:0:0:
192,192,71644,1,0,0:0:0:0:
192,192,71735,1,0,0:0:0:0:
64,192,71735,1,0,0:0:0:0:
448,192,71735,1,0,0:0:0:0:
320,192,71826,1,0,0:0:0:0:
320,192,71917,1,0,0:0:0:0:
64,192,71917,1,0,0:0:0:0:
64,192,72008,1,0,0:0:0:0:
192,192,72099,1,0,0:0:0:0:
320,192,72099,1,0,0:0:0:0:
448,192,72099,1,0,0:0:0:0:
320,192,72190,1,0,0:0:0:0:
64,192,72280,1,0,0:0:0:0:
192,192,72280,1,0,0:0:0:0:
448,192,72371,1,0,0:0:0:0:
192,192,72371,1,0,0:0:0:0:
448,192,72462,1,0,0:0:0:0:
320,192,72462,1,0,0:0:0:0:
64,192,72462,1,0,0:0:0:0:
320,192,72553,1,0,0:0:0:0:
192,192,72644,1,0,0:0:0:0:
64,192,72644,1,0,0:0:0:0:
64,192,72826,1,0,0:0:0:0:
448,192,72826,1,0,0:0:0:0:
320,192,72826,128,0,73008:0:0:0:0:
192,192,73008,128,0,73190:0:0:0:0:
64,192,73190,1,0,0:0:0:0:
320,192,73190,1,0,0:0:0:0:
448,192,73190,1,0,0:0:0:0:
192,192,73371,1,0,0:0:0:0:
64,192,73371,1,0,0:0:0:0:
64,192,73553,1,0,0:0:0:0:
320,192,73553,1,0,0:0:0:0:
448,192,73553,1,0,0:0:0:0:
192,192,73644,1,0,0:0:0:0:
320,192,73644,1,0,0:0:0:0:
192,192,73735,1,0,0:0:0:0:
448,192,73735,1,0,0:0:0:0:
64,192,73826,1,0,0:0:0:0:
320,192,73826,1,0,0:0:0:0:
64,192,73917,1,0,0:0:0:0:
448,192,73917,1,0,0:0:0:0:
192,192,74008,1,0,0:0:0:0:
448,192,74008,1,0,0:0:0:0:
320,192,74099,1,0,0:0:0:0:
192,192,74099,1,0,0:0:0:0:
320,192,74190,1,0,0:0:0:0:
192,192,74280,1,0,0:0:0:0:
64,192,74280,1,0,0:0:0:0:
448,192,74280,1,0,0:0:0:0:
320,192,74371,1,0,0:0:0:0:
64,192,74371,1,0,0:0:0:0:
192,192,74462,1,0,0:0:0:0:
320,192,74462,1,0,0:0:0:0:
192,192,74553,1,0,0:0:0:0:
64,192,74553,1,0,0:0:0:0:
64,192,74644,1,0,0:0:0:0:
320,192,74644,128,0,74917:0:0:0:0:
448,192,74644,128,0,74917:0:0:0:0:
320,192,75008,1,0,0:0:0:0:
192,192,75190,1,0,0:0:0:0:
192,192,75371,128,0,75735:0:0:0:0:
448,192,75371,128,0,75735:0:0:0:0:
64,192,75371,1,0,0:0:0:0:
320,192,75553,1,0,0:0:0:0:
64,192,75735,128,0,75871:0:0:0:0:
192,192,75962,128,0,76099:0:0:0:0:
320,192,76099,1,0,0:0:0:0:
448,192,76099,1,0,0:0:0:0:
64,192,76099,1,0,0:0:0:0:
64,192,76280,1,0,0:0:0:0:
192,192,76280,1,0,0:0:0:0:
320,192,76280,1,0,0:0:0:0:
192,192,76462,1,0,0:0:0:0:
64,192,76462,1,0,0:0:0:0:
448,192,76462,1,0,0:0:0:0:
192,192,76553,1,0,0:0:0:0:
320,192,76553,1,0,0:0:0:0:
448,192,76644,1,0,0:0:0:0:
192,192,76735,1,0,0:0:0:0:
64,192,76735,1,0,0:0:0:0:
64,192,76826,1,0,0:0:0:0:
448,192,76826,1,0,0:0:0:0:
320,192,76826,128,0,77053:0:0:0:0:
64,192,77099,1,0,0:0:0:0:
320,192,77099,1,0,0:0:0:0:
192,192,77099,128,0,77326:0:0:0:0:
192,192,77371,1,0,0:0:0:0:
448,192,77371,1,0,0:0:0:0:
64,192,77371,128,0,77599:0:0:0:0:
64,192,77644,1,0,0:0:0:0:
192,192,77644,1,0,0:0:0:0:
320,192,77735,128,0,77917:0:0:0:0:
448,192,77735,1,0,0:0:0:0:
192,192,77917,128,0,78099:0:0:0:0:
64,192,77917,1,0,0:0:0:0:
448,192,77917,1,0,0:0:0:0:
320,192,78008,1,0,0:0:0:0:
64,192,78099,1,0,0:0:0:0:
448,192,78099,128,0,78235:0:0:0:0:
192,192,78190,1,0,0:0:0:0:
64,192,78280,1,0,0:0:0:0:
320,192,78280,128,0,78508:0:0:0:0:
448,192,78280,128,0,78508:0:0:0:0:
448,192,78553,1,0,0:0:0:0:
320,192,78553,128,0,78780:0:0:0:0:
192,192,78553,128,0,78780:0:0:0:0:
448,192,78826,1,0,0:0:0:0:
192,192,78826,128,0,78962:0:0:0:0:
64,192,78826,128,0,78962:0:0:0:0:
64,192,79008,1,0,0:0:0:0:
192,192,79008,1,0,0:0:0:0:
448,192,79008,1,0,0:0:0:0:
320,192,79280,1,0,0:0:0:0:
192,192,79371,1,0,0:0:0:0:
64,192,79371,1,0,0:0:0:0:
448,192,79371,1,0,0:0:0:0:
192,192,79553,1,0,0:0:0:0:
320,192,79553,1,0,0:0:0:0:
192,192,79735,1,0,0:0:0:0:
320,192,79735,128,0,79962:0:0:0:0:
448,192,79735,128,0,79962:0:0:0:0:
64,192,79917,128,0,80008:0:0:0:0:
320,192,80008,128,0,80235:0:0:0:0:
192,192,80008,128,0,80235:0:0:0:0:
448,192,80008,1,0,0:0:0:0:
448,192,80190,128,0,80280:0:0:0:0:
192,192,80280,1,0,0:0:0:0:
64,192,80280,128,0,80508:0:0:0:0:
320,192,80280,128,0,80508:0:0:0:0:
64,192,80553,1,0,0:0:0:0:
320,192,80553,1,0,0:0:0:0:
192,192,80644,1,0,0:0:0:0:
64,192,80644,1,0,0:0:0:0:
192,192,80826,1,0,0:0:0:0:
320,192,80826,1,0,0:0:0:0:
448,192,80826,128,0,81008:0:0:0:0:
64,192,81008,1,0,0:0:0:0:
192,192,81008,128,0,81099:0:0:0:0:
448,192,81099,1,0,0:0:0:0:
320,192,81099,1,0,0:0:0:0:
448,192,81190,1,0,0:0:0:0:
64,192,81190,1,0,0:0:0:0:
192,192,81190,1,0,0:0:0:0:
320,192,81371,1,0,0:0:0:0:
192,192,81371,1,0,0:0:0:0:
320,192,81462,1,0,0:0:0:0:
448,192,81462,1,0,0:0:0:0:
64,192,81462,1,0,0:0:0:0:
64,192,81553,1,0,0:0:0:0:
192,192,81553,1,0,0:0:0:0:
448,192,81553,1,0,0:0:0:0:
448,192,81735,1,0,0:0:0:0:
192,192,81735,128,0,81917:0:0:0:0:
320,192,81735,128,0,81917:0:0:0:0:
320,192,82099,128,0,82190:0:0:0:0:
192,192,82099,128,0,82190:0:0:0:0:
192,192,82280,128,0,82371:0:0:0:0:
320,192,82280,128,0,82371:0:0:0:0:
320,192,82623,128,0,82807:0:0:0:0:
448,192,82623,128,0,82807:0:0:0:0:
192,192,82623,1,0,0:0:0:0:
192,192,82900,128,0,83083:0:0:0:0:
448,192,82900,128,0,83083:0:0:0:0:
64,192,82900,1,0,0:0:0:0:
192,192,83176,128,0,83360:0:0:0:0:
64,192,83176,128,0,83360:0:0:0:0:
448,192,83176,1,0,0:0:0:0:
320,192,83544,128,0,83636:0:0:0:0:
64,192,83544,1,0,0:0:0:0:
192,192,83544,128,0,83636:0:0:0:0:
320,192,83729,128,0,83820:0:0:0:0:
448,192,83729,128,0,83820:0:0:0:0:
192,192,83729,1,0,0:0:0:0:
64,192,83729,1,0,0:0:0:0:
64,192,83820,128,0,83912:0:0:0:0:
192,192,83912,1,0,0:0:0:0:
320,192,83912,128,0,84050:0:0:0:0:
64,192,84097,1,0,0:0:0:0:
192,192,84097,128,0,84279:0:0:0:0:
448,192,84097,128,0,84279:0:0:0:0:
320,192,84097,1,0,0:0:0:0:
448,192,84370,128,0,84551:0:0:0:0:
64,192,84370,128,0,84551:0:0:0:0:
192,192,84370,1,0,0:0:0:0:
192,192,84642,128,0,84824:0:0:0:0:
448,192,84642,1,0,0:0:0:0:
64,192,84642,128,0,84824:0:0:0:0:
320,192,84824,1,0,0:0:0:0:
448,192,84824,1,0,0:0:0:0:
192,192,84915,1,0,0:0:0:0:
64,192,85006,1,0,0:0:0:0:
320,192,85006,1,0,0:0:0:0:
448,192,85097,1,0,0:0:0:0:
192,192,85188,1,0,0:0:0:0:
64,192,85188,1,0,0:0:0:0:
192,192,85279,1,0,0:0:0:0:
448,192,85279,1,0,0:0:0:0:
320,192,85370,1,0,0:0:0:0:
448,192,85370,1,0,0:0:0:0:
320,192,85460,1,0,0:0:0:0:
64,192,85460,1,0,0:0:0:0:
192,192,85551,1,0,0:0:0:0:
64,192,85551,1,0,0:0:0:0:
448,192,85551,1,0,0:0:0:0:
448,192,85642,1,0,0:0:0:0:
320,192,85642,1,0,0:0:0:0:
192,192,85733,1,0,0:0:0:0:
64,192,85733,1,0,0:0:0:0:
64,192,85824,1,0,0:0:0:0:
320,192,85824,1,0,0:0:0:0:
448,192,85915,1,0,0:0:0:0:
320,192,85915,1,0,0:0:0:0:
448,192,86006,1,0,0:0:0:0:
192,192,86006,1,0,0:0:0:0:
64,192,86097,1,0,0:0:0:0:
320,192,86097,1,0,0:0:0:0:
192,192,86188,1,0,0:0:0:0:
64,192,86188,1,0,0:0:0:0:
320,192,86279,1,0,0:0:0:0:
448,192,86279,1,0,0:0:0:0:
192,192,86279,1,0,0:0:0:0:
320,192,86370,1,0,0:0:0:0:
64,192,86460,1,0,0:0:0:0:
192,192,86460,1,0,0:0:0:0:
320,192,86551,1,0,0:0:0:0:
448,192,86551,1,0,0:0:0:0:
192,192,86642,1,0,0:0:0:0:
64,192,86642,1,0,0:0:0:0:
192,192,86733,1,0,0:0:0:0:
448,192,86733,1,0,0:0:0:0:
320,192,86824,1,0,0:0:0:0:
448,192,86824,1,0,0:0:0:0:
64,192,86915,1,0,0:0:0:0:
192,192,86915,1,0,0:0:0:0:
192,192,87006,128,0,87188:0:0:0:0:
320,192,87006,128,0,87188:0:0:0:0:
448,192,87006,128,0,87188:0:0:0:0:
192,192,87279,128,0,87460:0:0:0:0:
320,192,87279,128,0,87460:0:0:0:0:
448,192,87279,128,0,87460:0:0:0:0:
64,192,87279,1,0,0:0:0:0:
192,192,87551,128,0,87688:0:0:0:0:
64,192,87551,128,0,87688:0:0:0:0:
448,192,87551,1,0,0:0:0:0:
320,192,87551,128,0,87688:0:0:0:0:
64,192,87725,1,0,0:0:0:0:
192,192,87725,1,0,0:0:0:0:
320,192,87725,1,0,0:0:0:0:
192,192,87846,1,0,0:0:0:0:
64,192,87846,1,0,0:0:0:0:
192,192,87937,1,0,0:0:0:0:
64,192,88089,1,0,0:0:0:0:
320,192,88089,128,0,88327:0:0:0:0:
448,192,88089,128,0,88327:0:0:0:0:
64,192,88361,1,0,0:0:0:0:
448,192,88361,128,0,88590:0:0:0:0:
192,192,88361,128,0,88590:0:0:0:0:
448,192,88622,128,0,88811:0:0:0:0:
64,192,88622,128,0,88811:0:0:0:0:
192,192,88622,1,0,0:0:0:0:
64,192,88850,128,0,89050:0:0:0:0:
192,192,88850,128,0,89050:0:0:0:0:
320,192,88850,1,0,0:0:0:0:
64,192,89090,128,0,89170:0:0:0:0:
192,192,89090,1,0,0:0:0:0:
320,192,89170,1,0,0:0:0:0:
448,192,89170,1,0,0:0:0:0:
192,192,89379,1,0,0:0:0:0:
192,192,89470,1,0,0:0:0:0:
320,192,89560,1,0,0:0:0:0:
448,192,89742,1,0,0:0:0:0:
64,192,89924,128,0,90151:0:0:0:0:
192,192,90197,128,0,90424:0:0:0:0:
320,192,90469,128,0,90651:0:0:0:0:
64,192,90560,1,0,0:0:0:0:
448,192,90606,1,0,0:0:0:0:
192,192,90651,1,0,0:0:0:0:
64,192,90697,1,0,0:0:0:0:
320,192,90742,1,0,0:0:0:0:
448,192,90833,1,0,0:0:0:0:
448,192,90924,1,0,0:0:0:0:
192,192,91015,1,0,0:0:0:0:
320,192,91106,1,0,0:0:0:0:
64,192,91197,1,0,0:0:0:0:
192,192,91288,1,0,0:0:0:0:
448,192,91379,128,0,91606:0:0:0:0:
320,192,91379,1,0,0:0:0:0:
320,192,91651,128,0,91879:0:0:0:0:
192,192,91924,128,0,92106:0:0:0:0:
64,192,92106,1,0,0:0:0:0:
320,192,92106,1,0,0:0:0:0:
192,192,92288,1,0,0:0:0:0:
448,192,92469,1,0,0:0:0:0:
320,192,92651,1,0,0:0:0:0:
64,192,92833,128,0,92924:0:0:0:0:
192,192,93015,128,0,93151:0:0:0:0:
320,192,93197,128,0,93333:0:0:0:0:
448,192,93379,128,0,93515:0:0:0:0:
448,192,93560,1,0,0:0:0:0:
64,192,93560,1,0,0:0:0:0:
320,192,93742,1,0,0:0:0:0:
64,192,93924,1,0,0:0:0:0:
192,192,94106,1,0,0:0:0:0:
320,192,94197,1,0,0:0:0:0:
448,192,94242,1,0,0:0:0:0:
64,192,94288,1,0,0:0:0:0:
192,192,94333,1,0,0:0:0:0:
320,192,94469,1,0,0:0:0:0:
192,192,94651,128,0,95015:0:0:0:0:
64,192,95015,1,0,0:0:0:0:
448,192,95015,1,0,0:0:0:0:
448,192,95197,1,0,0:0:0:0:
192,192,95197,1,0,0:0:0:0:
192,192,95288,1,0,0:0:0:0:
320,192,95379,1,0,0:0:0:0:
64,192,95469,1,0,0:0:0:0:
192,192,95560,1,0,0:0:0:0:
448,192,95651,1,0,0:0:0:0:
320,192,95742,128,0,95969:0:0:0:0:
64,192,96015,128,0,96242:0:0:0:0:
192,192,96288,128,0,96469:0:0:0:0:
64,192,96469,1,0,0:0:0:0:
320,192,96469,1,0,0:0:0:0:
192,192,96651,1,0,0:0:0:0:
64,192,96742,128,0,96924:0:0:0:0:
192,192,96924,128,0,97106:0:0:0:0:
320,192,97197,128,0,97333:0:0:0:0:
192,192,97469,128,0,97697:0:0:0:0:
64,192,97742,128,0,97924:0:0:0:0:
192,192,97924,1,0,0:0:0:0:
448,192,97924,1,0,0:0:0:0:
320,192,98106,1,0,0:0:0:0:
64,192,98151,1,0,0:0:0:0:
64,192,98288,1,0,0:0:0:0:
192,192,98469,1,0,0:0:0:0:
192,192,98651,1,0,0:0:0:0:
448,192,98651,1,0,0:0:0:0:
448,192,98833,1,0,0:0:0:0:
320,192,99015,1,0,0:0:0:0:
64,192,99015,1,0,0:0:0:0:
64,192,99197,1,0,0:0:0:0:
192,192,99379,1,0,0:0:0:0:
320,192,99379,1,0,0:0:0:0:
448,192,99379,1,0,0:0:0:0:
64,192,99560,1,0,0:0:0:0:
320,192,99560,1,0,0:0:0:0:
64,192,99742,1,0,0:0:0:0:
448,192,99742,1,0,0:0:0:0:
192,192,99742,1,0,0:0:0:0:
64,192,100106,1,0,0:0:0:0:
320,192,100106,1,0,0:0:0:0:
448,192,100106,1,0,0:0:0:0:
64,192,100227,1,0,0:0:0:0:
192,192,100227,1,0,0:0:0:0:
448,192,100227,1,0,0:0:0:0:
192,192,100348,1,0,0:0:0:0:
320,192,100348,1,0,0:0:0:0:
64,192,100469,1,0,0:0:0:0:
320,192,100469,1,0,0:0:0:0:
448,192,100469,1,0,0:0:0:0:
192,192,100590,1,0,0:0:0:0:
64,192,100590,1,0,0:0:0:0:
192,192,100711,1,0,0:0:0:0:
320,192,100711,1,0,0:0:0:0:
64,192,100833,1,0,0:0:0:0:
448,192,100833,1,0,0:0:0:0:
192,192,100833,1,0,0:0:0:0:
320,192,100833,128,0,101015:0:0:0:0:
64,192,101015,1,0,0:0:0:0:
192,192,101197,1,0,0:0:0:0:
448,192,101197,128,0,101379:0:0:0:0:
320,192,101379,1,0,0:0:0:0:
64,192,101560,1,0,0:0:0:0:
448,192,101560,1,0,0:0:0:0:
192,192,101560,128,0,101742:0:0:0:0:
448,192,101742,1,0,0:0:0:0:
320,192,101924,1,0,0:0:0:0:
64,192,101924,128,0,102106:0:0:0:0:
192,192,102106,1,0,0:0:0:0:
64,192,102288,1,0,0:0:0:0:
320,192,102288,1,0,0:0:0:0:
448,192,102288,1,0,0:0:0:0:
192,192,102379,1,0,0:0:0:0:
64,192,102379,1,0,0:0:0:0:
192,192,102469,1,0,0:0:0:0:
448,192,102469,1,0,0:0:0:0:
448,192,102560,1,0,0:0:0:0:
64,192,102560,1,0,0:0:0:0:
320,192,102651,1,0,0:0:0:0:
64,192,102651,1,0,0:0:0:0:
192,192,102742,1,0,0:0:0:0:
320,192,102742,1,0,0:0:0:0:
192,192,102833,1,0,0:0:0:0:
448,192,102833,1,0,0:0:0:0:
320,192,102924,1,0,0:0:0:0:
64,192,102924,1,0,0:0:0:0:
448,192,102924,1,0,0:0:0:0:
320,192,103015,1,0,0:0:0:0:
192,192,103015,128,0,103197:0:0:0:0:
64,192,103015,128,0,103197:0:0:0:0:
448,192,103197,1,0,0:0:0:0:
320,192,103288,128,0,103469:0:0:0:0:
192,192,103288,128,0,103469:0:0:0:0:
64,192,103288,1,0,0:0:0:0:
64,192,103469,1,0,0:0:0:0:
320,192,103560,128,0,104015:0:0:0:0:
448,192,103560,128,0,103742:0:0:0:0:
192,192,103924,1,0,0:0:0:0:
64,192,103924,1,0,0:0:0:0:
192,192,104106,1,0,0:0:0:0:
320,192,104106,1,0,0:0:0:0:
192,192,104288,1,0,0:0:0:0:
448,192,104288,1,0,0:0:0:0:
448,192,104469,1,0,0:0:0:0:
64,192,104469,1,0,0:0:0:0:
320,192,104469,1,0,0:0:0:0:
192,192,104560,1,0,0:0:0:0:
64,192,104560,1,0,0:0:0:0:
192,192,104651,1,0,0:0:0:0:
448,192,104651,1,0,0:0:0:0:
448,192,104742,1,0,0:0:0:0:
320,192,104742,1,0,0:0:0:0:
320,192,104833,1,0,0:0:0:0:
64,192,104833,1,0,0:0:0:0:
192,192,104924,128,0,105015:0:0:0:0:
448,192,105015,1,0,0:0:0:0:
64,192,105015,1,0,0:0:0:0:
192,192,105106,1,0,0:0:0:0:
320,192,105197,1,0,0:0:0:0:
448,192,105197,1,0,0:0:0:0:
64,192,105197,1,0,0:0:0:0:
320,192,105288,1,0,0:0:0:0:
448,192,105288,1,0,0:0:0:0:
320,192,105379,1,0,0:0:0:0:
64,192,105379,1,0,0:0:0:0:
192,192,105469,1,0,0:0:0:0:
64,192,105469,1,0,0:0:0:0:
192,192,105560,1,0,0:0:0:0:
320,192,105560,1,0,0:0:0:0:
448,192,105560,1,0,0:0:0:0:
320,192,105651,1,0,0:0:0:0:
448,192,105651,1,0,0:0:0:0:
64,192,105742,1,0,0:0:0:0:
192,192,105833,1,0,0:0:0:0:
64,192,105924,1,0,0:0:0:0:
320,192,105924,128,0,106106:0:0:0:0:
448,192,105924,128,0,106106:0:0:0:0:
192,192,106106,1,0,0:0:0:0:
320,192,106197,128,0,106379:0:0:0:0:
64,192,106197,128,0,106379:0:0:0:0:
448,192,106197,1,0,0:0:0:0:
192,192,106379,1,0,0:0:0:0:
448,192,106469,128,0,106651:0:0:0:0:
320,192,106469,1,0,0:0:0:0:
64,192,106469,128,0,106833:0:0:0:0:
192,192,106651,1,0,0:0:0:0:
320,192,106833,1,0,0:0:0:0:
448,192,106833,1,0,0:0:0:0:
64,192,107015,1,0,0:0:0:0:
448,192,107015,1,0,0:0:0:0:
320,192,107106,1,0,0:0:0:0:
192,192,107106,1,0,0:0:0:0:
320,192,107197,1,0,0:0:0:0:
64,192,107197,1,0,0:0:0:0:
192,192,107288,1,0,0:0:0:0:
192,192,107379,1,0,0:0:0:0:
448,192,107379,1,0,0:0:0:0:
64,192,107379,1,0,0:0:0:0:
320,192,107469,1,0,0:0:0:0:
448,192,107469,1,0,0:0:0:0:
320,192,107560,1,0,0:0:0:0:
64,192,107560,1,0,0:0:0:0:
448,192,107651,1,0,0:0:0:0:
192,192,107651,1,0,0:0:0:0:
192,192,107742,1,0,0:0:0:0:
64,192,107742,1,0,0:0:0:0:
320,192,107833,1,0,0:0:0:0:
448,192,107833,1,0,0:0:0:0:
64,192,107924,1,0,0:0:0:0:
448,192,107924,1,0,0:0:0:0:
192,192,108015,1,0,0:0:0:0:
320,192,108015,1,0,0:0:0:0:
448,192,108106,1,0,0:0:0:0:
64,192,108106,1,0,0:0:0:0:
320,192,108106,1,0,0:0:0:0:
192,192,108197,1,0,0:0:0:0:
192,192,108288,1,0,0:0:0:0:
448,192,108288,1,0,0:0:0:0:
320,192,108379,1,0,0:0:0:0:
320,192,108469,1,0,0:0:0:0:
448,192,108469,1,0,0:0:0:0:
64,192,108469,1,0,0:0:0:0:
64,192,108560,1,0,0:0:0:0:
448,192,108651,1,0,0:0:0:0:
192,192,108651,1,0,0:0:0:0:
320,192,108742,1,0,0:0:0:0:
448,192,108833,1,0,0:0:0:0:
192,192,108833,128,0,109015:0:0:0:0:
64,192,108833,128,0,109015:0:0:0:0:
320,192,109015,1,0,0:0:0:0:
192,192,109106,128,0,109288:0:0:0:0:
64,192,109106,128,0,109288:0:0:0:0:
448,192,109106,1,0,0:0:0:0:
448,192,109288,1,0,0:0:0:0:
320,192,109379,128,0,109560:0:0:0:0:
448,192,109379,128,0,109560:0:0:0:0:
64,192,109379,1,0,0:0:0:0:
192,192,109560,1,0,0:0:0:0:
64,192,109560,1,0,0:0:0:0:
64,192,109742,1,0,0:0:0:0:
448,192,109742,1,0,0:0:0:0:
64,192,109924,1,0,0:0:0:0:
448,192,109924,1,0,0:0:0:0:
320,192,109924,1,0,0:0:0:0:
320,192,110106,1,0,0:0:0:0:
64,192,110106,1,0,0:0:0:0:
192,192,110288,1,0,0:0:0:0:
448,192,110288,1,0,0:0:0:0:
192,192,110469,1,0,0:0:0:0:
448,192,110469,1,0,0:0:0:0:
320,192,110560,1,0,0:0:0:0:
320,192,110651,1,0,0:0:0:0:
448,192,110651,1,0,0:0:0:0:
64,192,110651,1,0,0:0:0:0:
192,192,110742,1,0,0:0:0:0:
192,192,110833,1,0,0:0:0:0:
64,192,110833,1,0,0:0:0:0:
64,192,111015,1,0,0:0:0:0:
320,192,111015,1,0,0:0:0:0:
448,192,111015,1,0,0:0:0:0:
192,192,111106,1,0,0:0:0:0:
448,192,111106,1,0,0:0:0:0:
64,192,111197,1,0,0:0:0:0:
192,192,111197,1,0,0:0:0:0:
320,192,111288,1,0,0:0:0:0:
320,192,111379,1,0,0:0:0:0:
448,192,111379,1,0,0:0:0:0:
64,192,111379,1,0,0:0:0:0:
192,192,111469,1,0,0:0:0:0:
64,192,111469,1,0,0:0:0:0:
320,192,111560,1,0,0:0:0:0:
192,192,111651,1,0,0:0:0:0:
64,192,111742,128,0,111924:0:0:0:0:
192,192,111742,1,0,0:0:0:0:
448,192,111742,128,0,111924:0:0:0:0:
192,192,111924,1,0,0:0:0:0:
448,192,112015,128,0,112197:0:0:0:0:
320,192,112015,128,0,112106:0:0:0:0:
64,192,112106,128,0,112424:0:0:0:0:
320,192,112197,1,0,0:0:0:0:
448,192,112288,128,0,112424:0:0:0:0:
192,192,112288,128,0,112424:0:0:0:0:
320,192,112469,1,0,0:0:0:0:
448,192,112469,1,0,0:0:0:0:
64,192,112469,1,0,0:0:0:0:
192,192,112469,1,0,0:0:0:0:
320,192,112560,1,0,0:0:0:0:
192,192,112651,1,0,0:0:0:0:
64,192,112651,1,0,0:0:0:0:
64,192,112742,1,0,0:0:0:0:
192,192,112833,1,0,0:0:0:0:
448,192,112833,1,0,0:0:0:0:
320,192,112833,1,0,0:0:0:0:
192,192,112924,1,0,0:0:0:0:
320,192,113015,1,0,0:0:0:0:
448,192,113015,1,0,0:0:0:0:
448,192,113106,1,0,0:0:0:0:
192,192,113197,1,0,0:0:0:0:
64,192,113197,1,0,0:0:0:0:
192,192,113288,1,0,0:0:0:0:
448,192,113288,1,0,0:0:0:0:
320,192,113379,1,0,0:0:0:0:
448,192,113379,1,0,0:0:0:0:
64,192,113469,1,0,0:0:0:0:
320,192,113469,1,0,0:0:0:0:
64,192,113560,1,0,0:0:0:0:
192,192,113560,1,0,0:0:0:0:
448,192,113560,1,0,0:0:0:0:
448,192,113651,1,0,0:0:0:0:
320,192,113742,1,0,0:0:0:0:
192,192,113742,1,0,0:0:0:0:
64,192,113833,1,0,0:0:0:0:
192,192,113924,1,0,0:0:0:0:
64,192,113924,1,0,0:0:0:0:
448,192,113924,1,0,0:0:0:0:
192,192,114015,1,0,0:0:0:0:
448,192,114106,1,0,0:0:0:0:
192,192,114106,1,0,0:0:0:0:
320,192,114197,1,0,0:0:0:0:
320,192,114288,1,0,0:0:0:0:
64,192,114288,1,0,0:0:0:0:
448,192,114288,1,0,0:0:0:0:
192,192,114379,1,0,0:0:0:0:
64,192,114469,1,0,0:0:0:0:
192,192,114469,1,0,0:0:0:0:
64,192,114560,1,0,0:0:0:0:
320,192,114560,1,0,0:0:0:0:
192,192,114651,1,0,0:0:0:0:
448,192,114651,1,0,0:0:0:0:
448,192,114742,1,0,0:0:0:0:
320,192,114742,1,0,0:0:0:0:
64,192,114742,1,0,0:0:0:0:
320,192,114833,1,0,0:0:0:0:
192,192,114924,1,0,0:0:0:0:
64,192,115015,1,0,0:0:0:0:
192,192,115015,1,0,0:0:0:0:
448,192,115015,1,0,0:0:0:0:
448,192,115106,1,0,0:0:0:0:
320,192,115197,1,0,0:0:0:0:
64,192,115197,1,0,0:0:0:0:
448,192,115288,1,0,0:0:0:0:
192,192,115288,1,0,0:0:0:0:
320,192,115379,1,0,0:0:0:0:
448,192,115379,1,0,0:0:0:0:
64,192,115379,1,0,0:0:0:0:
320,192,115469,1,0,0:0:0:0:
192,192,115560,1,0,0:0:0:0:
64,192,115560,1,0,0:0:0:0:
448,192,115651,1,0,0:0:0:0:
320,192,115651,1,0,0:0:0:0:
448,192,115742,1,0,0:0:0:0:
192,192,115742,1,0,0:0:0:0:
64,192,115742,1,0,0:0:0:0:
320,192,115833,1,0,0:0:0:0:
64,192,115833,1,0,0:0:0:0:
192,192,115924,1,0,0:0:0:0:
448,192,115924,1,0,0:0:0:0:
320,192,116015,1,0,0:0:0:0:
192,192,116015,1,0,0:0:0:0:
448,192,116106,1,0,0:0:0:0:
64,192,116106,1,0,0:0:0:0:
320,192,116106,1,0,0:0:0:0:
192,192,116197,1,0,0:0:0:0:
192,192,116288,1,0,0:0:0:0:
64,192,116288,1,0,0:0:0:0:
448,192,116379,1,0,0:0:0:0:
320,192,116379,1,0,0:0:0:0:
320,192,116469,1,0,0:0:0:0:
448,192,116469,1,0,0:0:0:0:
64,192,116469,1,0,0:0:0:0:
192,192,116560,1,0,0:0:0:0:
64,192,116651,1,0,0:0:0:0:
448,192,116651,1,0,0:0:0:0:
320,192,116742,1,0,0:0:0:0:
320,192,116833,1,0,0:0:0:0:
192,192,116833,1,0,0:0:0:0:
64,192,116833,1,0,0:0:0:0:
64,192,116924,1,0,0:0:0:0:
192,192,117015,1,0,0:0:0:0:
320,192,117015,1,0,0:0:0:0:
192,192,117106,1,0,0:0:0:0:
64,192,117197,1,0,0:0:0:0:
320,192,117197,1,0,0:0:0:0:
448,192,117197,1,0,0:0:0:0:
192,192,117288,1,0,0:0:0:0:
320,192,117379,1,0,0:0:0:0:
192,192,117379,1,0,0:0:0:0:
320,192,117469,1,0,0:0:0:0:
64,192,117469,1,0,0:0:0:0:
64,192,117560,1,0,0:0:0:0:
448,192,117560,1,0,0:0:0:0:
192,192,117651,1,0,0:0:0:0:
320,192,117651,1,0,0:0:0:0:
448,192,117651,1,0,0:0:0:0:
192,192,117742,1,0,0:0:0:0:
64,192,117833,1,0,0:0:0:0:
320,192,117833,1,0,0:0:0:0:
64,192,117924,1,0,0:0:0:0:
448,192,117924,1,0,0:0:0:0:
320,192,117924,1,0,0:0:0:0:
192,192,118015,1,0,0:0:0:0:
192,192,118106,1,0,0:0:0:0:
448,192,118106,1,0,0:0:0:0:
64,192,118197,1,0,0:0:0:0:
192,192,118288,1,0,0:0:0:0:
320,192,118288,1,0,0:0:0:0:
448,192,118288,1,0,0:0:0:0:
320,192,118379,1,0,0:0:0:0:
320,192,118469,1,0,0:0:0:0:
192,192,118469,1,0,0:0:0:0:
192,192,118560,1,0,0:0:0:0:
64,192,118651,1,0,0:0:0:0:
320,192,118651,1,0,0:0:0:0:
448,192,118651,1,0,0:0:0:0:
192,192,118742,1,0,0:0:0:0:
192,192,118833,1,0,0:0:0:0:
320,192,118833,1,0,0:0:0:0:
320,192,118924,1,0,0:0:0:0:
192,192,119015,1,0,0:0:0:0:
64,192,119015,1,0,0:0:0:0:
448,192,119015,1,0,0:0:0:0:
64,192,119106,1,0,0:0:0:0:
320,192,119106,1,0,0:0:0:0:
320,192,119197,1,0,0:0:0:0:
192,192,119288,1,0,0:0:0:0:
448,192,119288,1,0,0:0:0:0:
64,192,119379,1,0,0:0:0:0:
320,192,119379,1,0,0:0:0:0:
448,192,119379,1,0,0:0:0:0:
320,192,119469,1,0,0:0:0:0:
192,192,119560,1,0,0:0:0:0:
64,192,119560,1,0,0:0:0:0:
64,192,119651,1,0,0:0:0:0:
192,192,119742,1,0,0:0:0:0:
320,192,119742,1,0,0:0:0:0:
448,192,119742,1,0,0:0:0:0:
320,192,119833,1,0,0:0:0:0:
64,192,119924,1,0,0:0:0:0:
192,192,119924,1,0,0:0:0:0:
448,192,120015,1,0,0:0:0:0:
448,192,120106,1,0,0:0:0:0:
320,192,120106,1,0,0:0:0:0:
64,192,120106,1,0,0:0:0:0:
320,192,120197,1,0,0:0:0:0:
192,192,120197,1,0,0:0:0:0:
64,192,120288,1,0,0:0:0:0:
64,192,120379,1,0,0:0:0:0:
320,192,120379,1,0,0:0:0:0:
320,192,120469,1,0,0:0:0:0:
448,192,120469,1,0,0:0:0:0:
192,192,120560,1,0,0:0:0:0:
64,192,120560,1,0,0:0:0:0:
448,192,120560,1,0,0:0:0:0:
192,192,120651,1,0,0:0:0:0:
320,192,120742,1,0,0:0:0:0:
64,192,120742,1,0,0:0:0:0:
320,192,120833,1,0,0:0:0:0:
448,192,120833,1,0,0:0:0:0:
192,192,120833,1,0,0:0:0:0:
192,192,120924,1,0,0:0:0:0:
64,192,121015,1,0,0:0:0:0:
448,192,121015,1,0,0:0:0:0:
64,192,121106,1,0,0:0:0:0:
448,192,121197,1,0,0:0:0:0:
192,192,121197,1,0,0:0:0:0:
64,192,121197,1,0,0:0:0:0:
320,192,121288,1,0,0:0:0:0:
192,192,121379,1,0,0:0:0:0:
192,192,121469,1,0,0:0:0:0:
64,192,121560,1,0,0:0:0:0:
448,192,121560,1,0,0:0:0:0:
320,192,121560,1,0,0:0:0:0:
64,192,121651,1,0,0:0:0:0:
192,192,121742,1,0,0:0:0:0:
448,192,121742,1,0,0:0:0:0:
320,192,121833,1,0,0:0:0:0:
448,192,121833,1,0,0:0:0:0:
320,192,121924,1,0,0:0:0:0:
192,192,121924,1,0,0:0:0:0:
64,192,121924,1,0,0:0:0:0:
192,192,122015,1,0,0:0:0:0:
448,192,122106,1,0,0:0:0:0:
320,192,122106,1,0,0:0:0:0:
448,192,122197,1,0,0:0:0:0:
320,192,122288,1,0,0:0:0:0:
64,192,122288,1,0,0:0:0:0:
192,192,122379,1,0,0:0:0:0:
320,192,122379,1,0,0:0:0:0:
192,192,122469,1,0,0:0:0:0:
64,192,122560,1,0,0:0:0:0:
320,192,122560,1,0,0:0:0:0:
192,192,122651,1,0,0:0:0:0:
64,192,122651,1,0,0:0:0:0:
448,192,122651,1,0,0:0:0:0:
192,192,122742,1,0,0:0:0:0:
320,192,122833,1,0,0:0:0:0:
448,192,122833,1,0,0:0:0:0:
64,192,122833,1,0,0:0:0:0:
448,192,122924,1,0,0:0:0:0:
64,192,123015,1,0,0:0:0:0:
192,192,123015,1,0,0:0:0:0:
320,192,123075,1,0,0:0:0:0:
64,192,123136,1,0,0:0:0:0:
192,192,123197,1,0,0:0:0:0:
320,192,123197,1,0,0:0:0:0:
448,192,123257,1,0,0:0:0:0:
192,192,123318,1,0,0:0:0:0:
64,192,123379,1,0,0:0:0:0:
320,192,123379,1,0,0:0:0:0:
192,192,123439,1,0,0:0:0:0:
320,192,123499,1,0,0:0:0:0:
448,192,123560,1,0,0:0:0:0:
64,192,123560,1,0,0:0:0:0:
320,192,123651,1,0,0:0:0:0:
64,192,123651,1,0,0:0:0:0:
192,192,123742,1,0,0:0:0:0:
448,192,123742,1,0,0:0:0:0:
64,192,123802,1,0,0:0:0:0:
320,192,123863,1,0,0:0:0:0:
192,192,123924,1,0,0:0:0:0:
64,192,123924,1,0,0:0:0:0:
448,192,123984,1,0,0:0:0:0:
192,192,124045,1,0,0:0:0:0:
64,192,124106,1,0,0:0:0:0:
448,192,124106,1,0,0:0:0:0:
320,192,124106,1,0,0:0:0:0:
320,192,124197,1,0,0:0:0:0:
448,192,124288,1,0,0:0:0:0:
64,192,124288,1,0,0:0:0:0:
64,192,124379,1,0,0:0:0:0:
448,192,124469,1,0,0:0:0:0:
192,192,124469,1,0,0:0:0:0:
320,192,124469,1,0,0:0:0:0:
448,192,124560,1,0,0:0:0:0:
320,192,124651,1,0,0:0:0:0:
192,192,124651,1,0,0:0:0:0:
64,192,124742,1,0,0:0:0:0:
448,192,124833,1,0,0:0:0:0:
64,192,124833,1,0,0:0:0:0:
320,192,124833,1,0,0:0:0:0:
320,192,124924,1,0,0:0:0:0:
192,192,124924,1,0,0:0:0:0:
192,192,125015,1,0,0:0:0:0:
64,192,125015,1,0,0:0:0:0:
448,192,125106,1,0,0:0:0:0:
64,192,125106,1,0,0:0:0:0:
320,192,125106,1,0,0:0:0:0:
320,192,125197,1,0,0:0:0:0:
448,192,125197,1,0,0:0:0:0:
192,192,125197,1,0,0:0:0:0:
320,192,125288,1,0,0:0:0:0:
64,192,125379,1,0,0:0:0:0:
448,192,125379,1,0,0:0:0:0:
192,192,125379,1,0,0:0:0:0:
64,192,125469,1,0,0:0:0:0:
320,192,125469,1,0,0:0:0:0:
192,192,125560,1,0,0:0:0:0:
320,192,125560,1,0,0:0:0:0:
448,192,125560,1,0,0:0:0:0:
192,192,125651,1,0,0:0:0:0:
64,192,125742,1,0,0:0:0:0:
320,192,125742,1,0,0:0:0:0:
448,192,125742,1,0,0:0:0:0:
192,192,125833,1,0,0:0:0:0:
64,192,125833,1,0,0:0:0:0:
192,192,125924,1,0,0:0:0:0:
320,192,125924,1,0,0:0:0:0:
448,192,125924,1,0,0:0:0:0:
320,192,126015,1,0,0:0:0:0:
64,192,126106,1,0,0:0:0:0:
448,192,126106,1,0,0:0:0:0:
64,192,126197,1,0,0:0:0:0:
192,192,126197,1,0,0:0:0:0:
192,192,126288,1,0,0:0:0:0:
448,192,126288,1,0,0:0:0:0:
320,192,126379,1,0,0:0:0:0:
448,192,126379,1,0,0:0:0:0:
64,192,126379,1,0,0:0:0:0:
192,192,126469,1,0,0:0:0:0:
64,192,126560,1,0,0:0:0:0:
448,192,126560,1,0,0:0:0:0:
192,192,126560,1,0,0:0:0:0:
320,192,126651,1,0,0:0:0:0:
448,192,126651,1,0,0:0:0:0:
192,192,126651,1,0,0:0:0:0:
320,192,126742,1,0,0:0:0:0:
192,192,126833,1,0,0:0:0:0:
64,192,126833,1,0,0:0:0:0:
448,192,126833,1,0,0:0:0:0:
192,192,126924,1,0,0:0:0:0:
64,192,127015,1,0,0:0:0:0:
320,192,127015,1,0,0:0:0:0:
448,192,127015,1,0,0:0:0:0:
320,192,127106,1,0,0:0:0:0:
192,192,127197,1,0,0:0:0:0:
64,192,127197,1,0,0:0:0:0:
64,192,127288,1,0,0:0:0:0:
192,192,127379,1,0,0:0:0:0:
448,192,127379,1,0,0:0:0:0:
320,192,127379,1,0,0:0:0:0:
320,192,127469,1,0,0:0:0:0:
192,192,127560,1,0,0:0:0:0:
64,192,127560,1,0,0:0:0:0:
192,192,127651,1,0,0:0:0:0:
64,192,127742,1,0,0:0:0:0:
320,192,127742,1,0,0:0:0:0:
448,192,127742,1,0,0:0:0:0:
448,192,127833,1,0,0:0:0:0:
192,192,127833,1,0,0:0:0:0:
320,192,127924,1,0,0:0:0:0:
192,192,127924,1,0,0:0:0:0:
64,192,128015,1,0,0:0:0:0:
448,192,128015,1,0,0:0:0:0:
320,192,128015,1,0,0:0:0:0:
320,192,128106,1,0,0:0:0:0:
448,192,128106,1,0,0:0:0:0:
192,192,128106,1,0,0:0:0:0:
64,192,128197,1,0,0:0:0:0:
192,192,128197,1,0,0:0:0:0:
64,192,128288,1,0,0:0:0:0:
448,192,128288,1,0,0:0:0:0:
320,192,128288,1,0,0:0:0:0:
320,192,128379,1,0,0:0:0:0:
64,192,128469,1,0,0:0:0:0:
448,192,128469,1,0,0:0:0:0:
192,192,128469,1,0,0:0:0:0:
192,192,128560,1,0,0:0:0:0:
64,192,128651,1,0,0:0:0:0:
320,192,128651,1,0,0:0:0:0:
448,192,128742,1,0,0:0:0:0:
448,192,128833,1,0,0:0:0:0:
320,192,128833,1,0,0:0:0:0:
64,192,128833,1,0,0:0:0:0:
64,192,128924,1,0,0:0:0:0:
64,192,129015,1,0,0:0:0:0:
192,192,129015,1,0,0:0:0:0:
192,192,129106,1,0,0:0:0:0:
64,192,129197,1,0,0:0:0:0:
320,192,129197,1,0,0:0:0:0:
448,192,129288,1,0,0:0:0:0:
64,192,129288,1,0,0:0:0:0:
320,192,129288,1,0,0:0:0:0:
192,192,129379,1,0,0:0:0:0:
192,192,129469,1,0,0:0:0:0:
448,192,129469,1,0,0:0:0:0:
320,192,129560,128,0,129742:0:0:0:0:
448,192,129560,128,0,129742:0:0:0:0:
64,192,129560,1,0,0:0:0:0:
192,192,129742,1,0,0:0:0:0:
64,192,129742,1,0,0:0:0:0:
64,192,129833,1,0,0:0:0:0:
192,192,129833,1,0,0:0:0:0:
64,192,129924,1,0,0:0:0:0:
320,192,129924,1,0,0:0:0:0:
448,192,129924,1,0,0:0:0:0:
320,192,130015,1,0,0:0:0:0:
192,192,130106,1,0,0:0:0:0:
64,192,130106,1,0,0:0:0:0:
192,192,130197,1,0,0:0:0:0:
64,192,130288,1,0,0:0:0:0:
320,192,130288,1,0,0:0:0:0:
448,192,130288,1,0,0:0:0:0:
448,192,130379,1,0,0:0:0:0:
320,192,130469,1,0,0:0:0:0:
64,192,130469,1,0,0:0:0:0:
64,192,130560,1,0,0:0:0:0:
192,192,130651,1,0,0:0:0:0:
448,192,130651,1,0,0:0:0:0:
64,192,130651,1,0,0:0:0:0:
448,192,130742,1,0,0:0:0:0:
320,192,130742,1,0,0:0:0:0:
320,192,130833,1,0,0:0:0:0:
64,192,130833,1,0,0:0:0:0:
192,192,130924,1,0,0:0:0:0:
448,192,130924,1,0,0:0:0:0:
64,192,130924,1,0,0:0:0:0:
448,192,131015,1,0,0:0:0:0:
320,192,131015,1,0,0:0:0:0:
192,192,131015,1,0,0:0:0:0:
64,192,131106,1,0,0:0:0:0:
64,192,131197,1,0,0:0:0:0:
448,192,131197,1,0,0:0:0:0:
320,192,131197,1,0,0:0:0:0:
192,192,131288,1,0,0:0:0:0:
192,192,131379,1,0,0:0:0:0:
64,192,131379,1,0,0:0:0:0:
448,192,131379,1,0,0:0:0:0:
320,192,131470,1,0,0:0:0:0:
320,192,131560,1,0,0:0:0:0:
64,192,131560,1,0,0:0:0:0:
448,192,131560,1,0,0:0:0:0:
64,192,131651,1,0,0:0:0:0:
192,192,131742,1,0,0:0:0:0:
320,192,131742,1,0,0:0:0:0:
448,192,131742,1,0,0:0:0:0:
320,192,131833,1,0,0:0:0:0:
64,192,131924,1,0,0:0:0:0:
192,192,131924,1,0,0:0:0:0:
448,192,131924,1,0,0:0:0:0:
448,192,132015,1,0,0:0:0:0:
192,192,132015,1,0,0:0:0:0:
448,192,132106,1,0,0:0:0:0:
320,192,132106,1,0,0:0:0:0:
64,192,132106,1,0,0:0:0:0:
320,192,132197,1,0,0:0:0:0:
192,192,132288,1,0,0:0:0:0:
64,192,132288,1,0,0:0:0:0:
448,192,132379,1,0,0:0:0:0:
320,192,132379,1,0,0:0:0:0:
64,192,132379,1,0,0:0:0:0:
64,192,132470,1,0,0:0:0:0:
448,192,132470,1,0,0:0:0:0:
320,192,132470,128,0,132651:0:0:0:0:
192,192,132651,128,0,132833:0:0:0:0:
64,192,132651,1,0,0:0:0:0:
64,192,132833,1,0,0:0:0:0:
320,192,132833,1,0,0:0:0:0:
448,192,132833,1,0,0:0:0:0:
448,192,132924,1,0,0:0:0:0:
192,192,133015,1,0,0:0:0:0:
64,192,133015,1,0,0:0:0:0:
192,192,133106,1,0,0:0:0:0:
64,192,133197,1,0,0:0:0:0:
320,192,133197,1,0,0:0:0:0:
448,192,133197,1,0,0:0:0:0:
192,192,133288,1,0,0:0:0:0:
320,192,133288,1,0,0:0:0:0:
192,192,133379,1,0,0:0:0:0:
448,192,133379,1,0,0:0:0:0:
64,192,133470,1,0,0:0:0:0:
320,192,133470,1,0,0:0:0:0:
64,192,133560,1,0,0:0:0:0:
448,192,133560,1,0,0:0:0:0:
320,192,133560,1,0,0:0:0:0:
192,192,133651,1,0,0:0:0:0:
448,192,133651,1,0,0:0:0:0:
320,192,133742,1,0,0:0:0:0:
192,192,133742,1,0,0:0:0:0:
320,192,133833,1,0,0:0:0:0:
64,192,133833,1,0,0:0:0:0:
192,192,133924,1,0,0:0:0:0:
64,192,133924,1,0,0:0:0:0:
448,192,133924,1,0,0:0:0:0:
320,192,134015,1,0,0:0:0:0:
64,192,134015,1,0,0:0:0:0:
192,192,134106,1,0,0:0:0:0:
320,192,134106,1,0,0:0:0:0:
448,192,134106,1,0,0:0:0:0:
192,192,134197,1,0,0:0:0:0:
64,192,134197,1,0,0:0:0:0:
320,192,134197,1,0,0:0:0:0:
64,192,134288,1,0,0:0:0:0:
320,192,134288,128,0,134560:0:0:0:0:
448,192,134288,128,0,134560:0:0:0:0:
320,192,134651,1,0,0:0:0:0:
192,192,134833,1,0,0:0:0:0:
192,192,135015,128,0,135379:0:0:0:0:
448,192,135015,128,0,135379:0:0:0:0:
64,192,135015,1,0,0:0:0:0:
320,192,135197,1,0,0:0:0:0:
64,192,135379,128,0,135515:0:0:0:0:
192,192,135606,128,0,135742:0:0:0:0:
320,192,135742,1,0,0:0:0:0:
448,192,135742,1,0,0:0:0:0:
64,192,135742,1,0,0:0:0:0:
320,192,135924,1,0,0:0:0:0:
448,192,136015,1,0,0:0:0:0:
64,192,136015,1,0,0:0:0:0:
192,192,136015,1,0,0:0:0:0:
448,192,136197,1,0,0:0:0:0:
320,192,136288,1,0,0:0:0:0:
192,192,136288,1,0,0:0:0:0:
64,192,136288,1,0,0:0:0:0:
192,192,136470,1,0,0:0:0:0:
320,192,136560,1,0,0:0:0:0:
448,192,136560,1,0,0:0:0:0:
64,192,136560,1,0,0:0:0:0:
320,192,136742,1,0,0:0:0:0:
64,192,136833,128,0,137015:0:0:0:0:
192,192,136833,128,0,137015:0:0:0:0:
448,192,136833,128,0,136970:0:0:0:0:
448,192,137015,1,0,0:0:0:0:
192,192,137197,1,0,0:0:0:0:
64,192,137197,1,0,0:0:0:0:
448,192,137197,1,0,0:0:0:0:
192,192,137379,1,0,0:0:0:0:
64,192,137470,1,0,0:0:0:0:
320,192,137470,1,0,0:0:0:0:
448,192,137470,1,0,0:0:0:0:
448,192,137651,1,0,0:0:0:0:
192,192,137742,1,0,0:0:0:0:
64,192,137742,1,0,0:0:0:0:
320,192,137742,1,0,0:0:0:0:
64,192,137924,1,0,0:0:0:0:
192,192,138015,1,0,0:0:0:0:
320,192,138015,1,0,0:0:0:0:
448,192,138015,1,0,0:0:0:0:
320,192,138197,1,0,0:0:0:0:
192,192,138288,128,0,138470:0:0:0:0:
64,192,138288,128,0,138470:0:0:0:0:
448,192,138288,128,0,138424:0:0:0:0:
448,192,138470,1,0,0:0:0:0:
448,192,138651,1,0,0:0:0:0:
320,192,138651,1,0,0:0:0:0:
192,192,138651,1,0,0:0:0:0:
320,192,138833,1,0,0:0:0:0:
192,192,138924,1,0,0:0:0:0:
64,192,138924,1,0,0:0:0:0:
448,192,138924,1,0,0:0:0:0:
448,192,139106,1,0,0:0:0:0:
320,192,139197,1,0,0:0:0:0:
192,192,139197,1,0,0:0:0:0:
64,192,139197,1,0,0:0:0:0:
64,192,139379,1,0,0:0:0:0:
320,192,139470,1,0,0:0:0:0:
448,192,139470,1,0,0:0:0:0:
192,192,139470,128,0,139651:0:0:0:0:
320,192,139651,1,0,0:0:0:0:
64,192,139742,128,0,139924:0:0:0:0:
192,192,139742,128,0,139924:0:0:0:0:
448,192,139742,128,0,139879:0:0:0:0:
448,192,139924,1,0,0:0:0:0:
320,192,140106,1,0,0:0:0:0:
448,192,140106,1,0,0:0:0:0:
64,192,140106,1,0,0:0:0:0:
192,192,140288,1,0,0:0:0:0:
64,192,140288,1,0,0:0:0:0:
320,192,140288,1,0,0:0:0:0:
64,192,140379,1,0,0:0:0:0:
448,192,140379,1,0,0:0:0:0:
192,192,140470,1,0,0:0:0:0:
448,192,140470,1,0,0:0:0:0:
320,192,140470,1,0,0:0:0:0:
320,192,140560,1,0,0:0:0:0:
64,192,140560,1,0,0:0:0:0:
192,192,140651,1,0,0:0:0:0:
64,192,140651,1,0,0:0:0:0:
192,192,140742,1,0,0:0:0:0:
448,192,140742,1,0,0:0:0:0:
320,192,140833,1,0,0:0:0:0:
448,192,140833,1,0,0:0:0:0:
64,192,140833,1,0,0:0:0:0:
64,192,140924,1,0,0:0:0:0:
448,192,140924,1,0,0:0:0:0:
192,192,141015,1,0,0:0:0:0:
320,192,141015,1,0,0:0:0:0:
320,192,141106,1,0,0:0:0:0:
192,192,141197,1,0,0:0:0:0:
64,192,141197,1,0,0:0:0:0:
448,192,141197,1,0,0:0:0:0:
320,192,141288,1,0,0:0:0:0:
448,192,141288,1,0,0:0:0:0:
320,192,141379,1,0,0:0:0:0:
64,192,141379,1,0,0:0:0:0:
64,192,141470,1,0,0:0:0:0:
192,192,141470,1,0,0:0:0:0:
320,192,141521,1,0,0:0:0:0:
448,192,141521,1,0,0:0:0:0:
64,192,141703,128,0,141856:0:0:0:0:
192,192,141703,1,0,0:0:0:0:
192,192,141918,128,0,142281:0:0:0:0:
64,192,142100,1,0,0:0:0:0:
320,192,142281,1,0,0:0:0:0:
192,192,142463,1,0,0:0:0:0:
448,192,142554,1,0,0:0:0:0:
320,192,142645,128,0,142918:0:0:0:0:
192,192,142827,1,0,0:0:0:0:
448,192,143009,128,0,143236:0:0:0:0:
320,192,143009,1,0,0:0:0:0:
64,192,143190,1,0,0:0:0:0:
192,192,143372,128,0,143645:0:0:0:0:
448,192,143372,1,0,0:0:0:0:
320,192,143463,1,0,0:0:0:0:
64,192,143736,128,0,144054:0:0:0:0:
192,192,143736,1,0,0:0:0:0:
448,192,143827,1,0,0:0:0:0:
320,192,144009,1,0,0:0:0:0:
192,192,144100,128,0,144236:0:0:0:0:
64,192,144100,1,0,0:0:0:0:
320,192,144281,128,0,144418:0:0:0:0:
192,192,144281,1,0,0:0:0:0:
448,192,144463,1,0,0:0:0:0:
320,192,144463,1,0,0:0:0:0:
192,192,144463,128,0,144918:0:0:0:0:
64,192,144645,1,0,0:0:0:0:
320,192,144827,1,0,0:0:0:0:
448,192,144918,1,0,0:0:0:0:
64,192,145009,128,0,145190:0:0:0:0:
320,192,145190,128,0,146645:0:0:0:0:
192,192,145190,1,0,0:0:0:0:
64,192,145463,1,0,0:0:0:0:
448,192,145736,1,0,0:0:0:0:
192,192,145918,1,0,0:0:0:0:
64,192,145918,1,0,0:0:0:0:
448,192,146100,1,0,0:0:0:0:
192,192,146281,1,0,0:0:0:0:
448,192,146372,1,0,0:0:0:0:
64,192,146463,1,0,0:0:0:0:
192,192,146645,128,0,146781:0:0:0:0:
64,192,146645,128,0,146781:0:0:0:0:
448,192,146827,1,0,0:0:0:0:
192,192,146918,128,0,147054:0:0:0:0:
320,192,146918,128,0,147054:0:0:0:0:
64,192,146918,1,0,0:0:0:0:
320,192,147190,128,0,147327:0:0:0:0:
448,192,147190,128,0,147327:0:0:0:0:
192,192,147190,1,0,0:0:0:0:
448,192,147372,1,0,0:0:0:0:
320,192,147372,1,0,0:0:0:0:
64,192,147372,128,0,147600:0:0:0:0:
320,192,147736,1,0,0:0:0:0:
448,192,147736,1,0,0:0:0:0:
192,192,147736,128,0,148009:0:0:0:0:
448,192,148100,1,0,0:0:0:0:
320,192,148100,128,0,148281:0:0:0:0:
192,192,148372,1,0,0:0:0:0:
64,192,148372,1,0,0:0:0:0:
448,192,148463,128,0,148600:0:0:0:0:
448,192,148645,1,0,0:0:0:0:
320,192,148645,128,0,148827:0:0:0:0:
64,192,148827,1,0,0:0:0:0:
192,192,148827,128,0,149100:0:0:0:0:
320,192,149190,128,0,149463:0:0:0:0:
192,192,149190,1,0,0:0:0:0:
64,192,149190,1,0,0:0:0:0:
320,192,149554,1,0,0:0:0:0:
448,192,149554,128,0,149827:0:0:0:0:
192,192,149827,1,0,0:0:0:0:
320,192,149827,1,0,0:0:0:0:
64,192,149918,128,0,150145:0:0:0:0:
320,192,150100,1,0,0:0:0:0:
448,192,150100,1,0,0:0:0:0:
64,192,150281,1,0,0:0:0:0:
192,192,150281,128,0,150736:0:0:0:0:
448,192,150645,1,0,0:0:0:0:
320,192,150645,1,0,0:0:0:0:
320,192,150827,128,0,151009:0:0:0:0:
448,192,151009,128,0,151645:0:0:0:0:
192,192,151009,1,0,0:0:0:0:
64,192,151009,1,0,0:0:0:0:
192,192,151281,1,0,0:0:0:0:
320,192,151281,1,0,0:0:0:0:
192,192,151554,1,0,0:0:0:0:
320,192,151554,1,0,0:0:0:0:
64,192,151736,1,0,0:0:0:0:
448,192,151736,1,0,0:0:0:0:
192,192,151736,128,0,152190:0:0:0:0:
192,192,152281,1,0,0:0:0:0:
192,192,152463,1,0,0:0:0:0:
448,192,152463,1,0,0:0:0:0:
320,192,152463,128,0,152736:0:0:0:0:
64,192,152736,128,0,152827:0:0:0:0:
448,192,152736,1,0,0:0:0:0:
192,192,152827,128,0,153190:0:0:0:0:
320,192,153009,1,0,0:0:0:0:
64,192,153009,1,0,0:0:0:0:
64,192,153190,1,0,0:0:0:0:
320,192,153190,1,0,0:0:0:0:
448,192,153190,1,0,0:0:0:0:
192,192,153372,1,0,0:0:0:0:
64,192,153372,1,0,0:0:0:0:
192,192,153554,1,0,0:0:0:0:
320,192,153554,1,0,0:0:0:0:
448,192,153554,1,0,0:0:0:0:
320,192,153736,128,0,153918:0:0:0:0:
448,192,153918,1,0,0:0:0:0:
64,192,153918,1,0,0:0:0:0:
320,192,154100,1,0,0:0:0:0:
192,192,154190,1,0,0:0:0:0:
64,192,154190,1,0,0:0:0:0:
448,192,154281,128,0,154554:0:0:0:0:
320,192,154463,1,0,0:0:0:0:
192,192,154463,1,0,0:0:0:0:
64,192,154463,1,0,0:0:0:0:
320,192,154645,1,0,0:0:0:0:
64,192,154645,1,0,0:0:0:0:
448,192,154645,128,0,154918:0:0:0:0:
192,192,154827,1,0,0:0:0:0:
320,192,154827,1,0,0:0:0:0:
64,192,154918,1,0,0:0:0:0:
448,192,155009,1,0,0:0:0:0:
192,192,155009,128,0,155190:0:0:0:0:
320,192,155190,1,0,0:0:0:0:
64,192,155190,1,0,0:0:0:0:
64,192,155372,1,0,0:0:0:0:
320,192,155372,128,0,155645:0:0:0:0:
192,192,155372,1,0,0:0:0:0:
64,192,155554,1,0,0:0:0:0:
192,192,155645,1,0,0:0:0:0:
448,192,155645,1,0,0:0:0:0:
320,192,155736,1,0,0:0:0:0:
64,192,155736,128,0,155872:0:0:0:0:
320,192,155918,128,0,156100:0:0:0:0:
192,192,155918,1,0,0:0:0:0:
64,192,155918,1,0,0:0:0:0:
64,192,156100,1,0,0:0:0:0:
448,192,156100,1,0,0:0:0:0:
192,192,156281,1,0,0:0:0:0:
448,192,156281,1,0,0:0:0:0:
320,192,156463,1,0,0:0:0:0:
448,192,156463,1,0,0:0:0:0:
64,192,156645,1,0,0:0:0:0:
448,192,156645,128,0,156963:0:0:0:0:
320,192,156736,1,0,0:0:0:0:
64,192,156736,1,0,0:0:0:0:
192,192,156827,1,0,0:0:0:0:
448,192,157009,1,0,0:0:0:0:
320,192,157009,128,0,157190:0:0:0:0:
64,192,157009,128,0,157100:0:0:0:0:
192,192,157100,1,0,0:0:0:0:
448,192,157190,128,0,157463:0:0:0:0:
64,192,157372,128,0,157736:0:0:0:0:
192,192,157372,128,0,157736:0:0:0:0:
320,192,157372,1,0,0:0:0:0:
320,192,157736,1,0,0:0:0:0:
320,192,157827,1,0,0:0:0:0:
64,192,157827,1,0,0:0:0:0:
192,192,157918,1,0,0:0:0:0:
64,192,157918,1,0,0:0:0:0:
448,192,157918,1,0,0:0:0:0:
192,192,158009,1,0,0:0:0:0:
320,192,158009,1,0,0:0:0:0:
448,192,158100,1,0,0:0:0:0:
64,192,158100,1,0,0:0:0:0:
320,192,158145,1,0,0:0:0:0:
192,192,158190,1,0,0:0:0:0:
64,192,158236,1,0,0:0:0:0:
448,192,158281,1,0,0:0:0:0:
320,192,158327,1,0,0:0:0:0:
192,192,158372,1,0,0:0:0:0:
64,192,158418,1,0,0:0:0:0:
320,192,158463,1,0,0:0:0:0:
448,192,158463,1,0,0:0:0:0:
64,192,158554,1,0,0:0:0:0:
320,192,158554,1,0,0:0:0:0:
192,192,158645,1,0,0:0:0:0:
448,192,158645,1,0,0:0:0:0:
64,192,158645,1,0,0:0:0:0:
192,192,158736,1,0,0:0:0:0:
320,192,158736,1,0,0:0:0:0:
64,192,158827,1,0,0:0:0:0:
448,192,158827,1,0,0:0:0:0:
320,192,158918,1,0,0:0:0:0:
448,192,158918,1,0,0:0:0:0:
192,192,158918,1,0,0:0:0:0:
320,192,159009,1,0,0:0:0:0:
64,192,159009,1,0,0:0:0:0:
192,192,159009,128,0,159190:0:0:0:0:
192,192,159281,1,0,0:0:0:0:
448,192,159372,1,0,0:0:0:0:
64,192,159372,1,0,0:0:0:0:
320,192,159372,128,0,159554:0:0:0:0:
192,192,159554,1,0,0:0:0:0:
448,192,159736,128,0,159918:0:0:0:0:
64,192,159736,128,0,159918:0:0:0:0:
192,192,159736,128,0,159872:0:0:0:0:
192,192,159918,1,0,0:0:0:0:
320,192,159918,1,0,0:0:0:0:
448,192,160009,128,0,160190:0:0:0:0:
320,192,160009,128,0,160145:0:0:0:0:
64,192,160009,128,0,160145:0:0:0:0:
64,192,160190,1,0,0:0:0:0:
320,192,160190,1,0,0:0:0:0:
64,192,160281,128,0,160372:0:0:0:0:
192,192,160281,128,0,160372:0:0:0:0:
320,192,160281,128,0,160372:0:0:0:0:
192,192,160463,1,0,0:0:0:0:
448,192,160463,1,0,0:0:0:0:
64,192,160463,128,0,160690:0:0:0:0:
320,192,160554,1,0,0:0:0:0:
192,192,160554,1,0,0:0:0:0:
448,192,160554,1,0,0:0:0:0:
64,192,160736,1,0,0:0:0:0:
64,192,160827,1,0,0:0:0:0:
448,192,160827,1,0,0:0:0:0:
192,192,160827,128,0,161054:0:0:0:0:
320,192,161009,1,0,0:0:0:0:
192,192,161100,1,0,0:0:0:0:
64,192,161100,1,0,0:0:0:0:
64,192,161190,128,0,161372:0:0:0:0:
320,192,161190,128,0,161327:0:0:0:0:
448,192,161190,128,0,161327:0:0:0:0:
448,192,161372,1,0,0:0:0:0:
320,192,161372,1,0,0:0:0:0:
320,192,161463,128,0,161645:0:0:0:0:
192,192,161463,128,0,161600:0:0:0:0:
64,192,161463,128,0,161600:0:0:0:0:
64,192,161645,1,0,0:0:0:0:
192,192,161645,1,0,0:0:0:0:
320,192,161736,128,0,161872:0:0:0:0:
448,192,161736,128,0,161872:0:0:0:0:
64,192,161736,128,0,161872:0:0:0:0:
64,192,161918,1,0,0:0:0:0:
448,192,161918,1,0,0:0:0:0:
320,192,161918,1,0,0:0:0:0:
192,192,162009,1,0,0:0:0:0:
64,192,162009,1,0,0:0:0:0:
192,192,162100,1,0,0:0:0:0:
448,192,162100,1,0,0:0:0:0:
320,192,162190,1,0,0:0:0:0:
64,192,162190,1,0,0:0:0:0:
192,192,162281,1,0,0:0:0:0:
64,192,162281,1,0,0:0:0:0:
448,192,162281,1,0,0:0:0:0:
320,192,162372,1,0,0:0:0:0:
192,192,162372,1,0,0:0:0:0:
320,192,162463,1,0,0:0:0:0:
64,192,162463,1,0,0:0:0:0:
192,192,162554,1,0,0:0:0:0:
448,192,162645,128,0,162827:0:0:0:0:
64,192,162645,128,0,162827:0:0:0:0:
320,192,162645,128,0,162827:0:0:0:0:
64,192,162918,128,0,163100:0:0:0:0:
192,192,162918,128,0,163100:0:0:0:0:
448,192,162918,128,0,163100:0:0:0:0:
192,192,163190,128,0,163327:0:0:0:0:
320,192,163190,128,0,163327:0:0:0:0:
64,192,163190,128,0,163327:0:0:0:0:
64,192,163372,1,0,0:0:0:0:
192,192,163372,1,0,0:0:0:0:
320,192,163372,128,0,163645:0:0:0:0:
192,192,163736,128,0,163872:0:0:0:0:
64,192,163918,128,0,164054:0:0:0:0:
448,192,163963,1,0,0:0:0:0:
320,192,164054,1,0,0:0:0:0:
448,192,164100,1,0,0:0:0:0:
192,192,164190,128,0,164327:0:0:0:0:
320,192,164372,128,0,164509:0:0:0:0:
448,192,164554,128,0,164736:0:0:0:0:
320,192,164736,128,0,164918:0:0:0:0:
64,192,164781,1,0,0:0:0:0:
192,192,164781,1,0,0:0:0:0:
448,192,164781,1,0,0:0:0:0:
192,192,164918,128,0,165736:0:0:0:0:
64,192,165509,128,0,165736:0:0:0:0:
64,192,165827,128,0,165963:0:0:0:0:
192,192,166009,128,0,166145:0:0:0:0:
320,192,166190,128,0,166327:0:0:0:0:
64,192,166190,128,0,166281:0:0:0:0:
192,192,166281,1,0,0:0:0:0:
64,192,166327,1,0,0:0:0:0:
320,192,166372,1,0,0:0:0:0:
448,192,166418,128,0,167009:0:0:0:0:
320,192,166918,1,0,0:0:0:0:
192,192,166963,1,0,0:0:0:0:
64,192,167009,128,0,167281:0:0:0:0:
320,192,167190,1,0,0:0:0:0:
448,192,167190,1,0,0:0:0:0:
192,192,167372,1,0,0:0:0:0:
64,192,167372,1,0,0:0:0:0:
320,192,167372,1,0,0:0:0:0:
64,192,167736,1,0,0:0:0:0:
320,192,167736,1,0,0:0:0:0:
448,192,167736,1,0,0:0:0:0:
64,192,167827,1,0,0:0:0:0:
320,192,167827,1,0,0:0:0:0:
448,192,167827,1,0,0:0:0:0:
64,192,168009,1,0,0:0:0:0:
192,192,168009,1,0,0:0:0:0:
448,192,168009,1,0,0:0:0:0:
192,192,168190,1,0,0:0:0:0:
64,192,168190,1,0,0:0:0:0:
448,192,168190,1,0,0:0:0:0:
320,192,168372,1,0,0:0:0:0:
192,192,168372,1,0,0:0:0:0:
64,192,168372,1,0,0:0:0:0:
448,192,168372,1,0,0:0:0:0:
448,192,168463,1,0,0:0:0:0:
320,192,168463,1,0,0:0:0:0:
64,192,168463,1,0,0:0:0:0:
192,192,168463,1,0,0:0:0:0:
192,192,168645,128,0,168736:0:0:0:0:
64,192,168645,128,0,168736:0:0:0:0:
64,192,168827,128,0,169100:0:0:0:0:
320,192,168827,128,0,169100:0:0:0:0:
192,192,169190,1,0,0:0:0:0:
64,192,169190,1,0,0:0:0:0:
448,192,169190,1,0,0:0:0:0:
320,192,169190,1,0,0:0:0:0:
192,192,169281,1,0,0:0:0:0:
192,192,169372,1,0,0:0:0:0:
64,192,169372,1,0,0:0:0:0:
64,192,169463,1,0,0:0:0:0:
64,192,169554,1,0,0:0:0:0:
320,192,169554,1,0,0:0:0:0:
448,192,169554,1,0,0:0:0:0:
320,192,169645,1,0,0:0:0:0:
448,192,169736,1,0,0:0:0:0:
192,192,169736,1,0,0:0:0:0:
192,192,169827,1,0,0:0:0:0:
64,192,169918,1,0,0:0:0:0:
448,192,169918,1,0,0:0:0:0:
320,192,169918,1,0,0:0:0:0:
320,192,170009,1,0,0:0:0:0:
192,192,170009,1,0,0:0:0:0:
192,192,170100,1,0,0:0:0:0:
64,192,170190,1,0,0:0:0:0:
448,192,170190,1,0,0:0:0:0:
320,192,170281,1,0,0:0:0:0:
448,192,170281,1,0,0:0:0:0:
192,192,170281,1,0,0:0:0:0:
320,192,170372,1,0,0:0:0:0:
64,192,170372,1,0,0:0:0:0:
192,192,170463,1,0,0:0:0:0:
448,192,170463,1,0,0:0:0:0:
448,192,170554,1,0,0:0:0:0:
320,192,170645,1,0,0:0:0:0:
64,192,170645,1,0,0:0:0:0:
192,192,170645,1,0,0:0:0:0:
192,192,170736,1,0,0:0:0:0:
64,192,170827,1,0,0:0:0:0:
448,192,170827,1,0,0:0:0:0:
448,192,170918,1,0,0:0:0:0:
320,192,170918,1,0,0:0:0:0:
320,192,171009,1,0,0:0:0:0:
192,192,171009,1,0,0:0:0:0:
64,192,171009,1,0,0:0:0:0:
192,192,171100,1,0,0:0:0:0:
64,192,171190,1,0,0:0:0:0:
448,192,171190,1,0,0:0:0:0:
448,192,171281,1,0,0:0:0:0:
320,192,171372,1,0,0:0:0:0:
64,192,171372,1,0,0:0:0:0:
64,192,171463,1,0,0:0:0:0:
192,192,171463,1,0,0:0:0:0:
448,192,171463,1,0,0:0:0:0:
320,192,171554,1,0,0:0:0:0:
64,192,171645,1,0,0:0:0:0:
192,192,171645,1,0,0:0:0:0:
64,192,171736,1,0,0:0:0:0:
448,192,171736,1,0,0:0:0:0:
320,192,171736,1,0,0:0:0:0:
320,192,171827,1,0,0:0:0:0:
192,192,171918,1,0,0:0:0:0:
64,192,171918,1,0,0:0:0:0:
320,192,172009,1,0,0:0:0:0:
448,192,172100,1,0,0:0:0:0:
320,192,172100,1,0,0:0:0:0:
64,192,172100,1,0,0:0:0:0:
64,192,172190,1,0,0:0:0:0:
192,192,172281,1,0,0:0:0:0:
448,192,172281,1,0,0:0:0:0:
448,192,172372,1,0,0:0:0:0:
192,192,172372,1,0,0:0:0:0:
320,192,172463,1,0,0:0:0:0:
64,192,172463,1,0,0:0:0:0:
192,192,172463,1,0,0:0:0:0:
320,192,172554,1,0,0:0:0:0:
64,192,172645,1,0,0:0:0:0:
192,192,172645,1,0,0:0:0:0:
448,192,172736,1,0,0:0:0:0:
320,192,172827,1,0,0:0:0:0:
448,192,172827,1,0,0:0:0:0:
192,192,172827,1,0,0:0:0:0:
192,192,172918,1,0,0:0:0:0:
64,192,173009,1,0,0:0:0:0:
320,192,173009,1,0,0:0:0:0:
320,192,173100,1,0,0:0:0:0:
192,192,173190,1,0,0:0:0:0:
64,192,173190,1,0,0:0:0:0:
448,192,173190,1,0,0:0:0:0:
192,192,173281,1,0,0:0:0:0:
64,192,173372,1,0,0:0:0:0:
448,192,173372,1,0,0:0:0:0:
320,192,173463,1,0,0:0:0:0:
64,192,173554,1,0,0:0:0:0:
448,192,173554,1,0,0:0:0:0:
320,192,173645,1,0,0:0:0:0:
192,192,173645,1,0,0:0:0:0:
64,192,173645,1,0,0:0:0:0:
192,192,173736,1,0,0:0:0:0:
448,192,173736,1,0,0:0:0:0:
320,192,173827,1,0,0:0:0:0:
448,192,173918,1,0,0:0:0:0:
320,192,173918,1,0,0:0:0:0:
64,192,173918,1,0,0:0:0:0:
64,192,174009,1,0,0:0:0:0:
192,192,174100,1,0,0:0:0:0:
320,192,174100,1,0,0:0:0:0:
448,192,174100,1,0,0:0:0:0:
448,192,174190,1,0,0:0:0:0:
320,192,174281,1,0,0:0:0:0:
192,192,174281,1,0,0:0:0:0:
64,192,174281,1,0,0:0:0:0:
64,192,174372,1,0,0:0:0:0:
448,192,174372,1,0,0:0:0:0:
320,192,174463,1,0,0:0:0:0:
192,192,174463,1,0,0:0:0:0:
448,192,174554,1,0,0:0:0:0:
192,192,174554,1,0,0:0:0:0:
320,192,174645,1,0,0:0:0:0:
448,192,174645,1,0,0:0:0:0:
64,192,174645,1,0,0:0:0:0:
192,192,174736,1,0,0:0:0:0:
320,192,174827,1,0,0:0:0:0:
448,192,174827,1,0,0:0:0:0:
320,192,174918,1,0,0:0:0:0:
448,192,174918,1,0,0:0:0:0:
192,192,175009,1,0,0:0:0:0:
64,192,175009,1,0,0:0:0:0:
448,192,175009,1,0,0:0:0:0:
192,192,175100,1,0,0:0:0:0:
64,192,175190,1,0,0:0:0:0:
320,192,175190,1,0,0:0:0:0:
448,192,175281,1,0,0:0:0:0:
448,192,175372,1,0,0:0:0:0:
320,192,175372,1,0,0:0:0:0:
64,192,175372,1,0,0:0:0:0:
320,192,175463,1,0,0:0:0:0:
192,192,175554,1,0,0:0:0:0:
448,192,175554,1,0,0:0:0:0:
64,192,175645,1,0,0:0:0:0:
320,192,175645,1,0,0:0:0:0:
192,192,175736,1,0,0:0:0:0:
64,192,175736,1,0,0:0:0:0:
448,192,175736,1,0,0:0:0:0:
192,192,175827,1,0,0:0:0:0:
64,192,175918,1,0,0:0:0:0:
448,192,175918,1,0,0:0:0:0:
320,192,176009,1,0,0:0:0:0:
320,192,176100,1,0,0:0:0:0:
64,192,176100,1,0,0:0:0:0:
448,192,176100,1,0,0:0:0:0:
192,192,176190,1,0,0:0:0:0:
192,192,176281,1,0,0:0:0:0:
448,192,176281,1,0,0:0:0:0:
320,192,176372,1,0,0:0:0:0:
320,192,176463,1,0,0:0:0:0:
448,192,176463,1,0,0:0:0:0:
64,192,176463,1,0,0:0:0:0:
64,192,176554,1,0,0:0:0:0:
192,192,176645,1,0,0:0:0:0:
320,192,176645,1,0,0:0:0:0:
448,192,176736,1,0,0:0:0:0:
320,192,176827,1,0,0:0:0:0:
192,192,176827,1,0,0:0:0:0:
64,192,176827,1,0,0:0:0:0:
192,192,176918,1,0,0:0:0:0:
64,192,177009,1,0,0:0:0:0:
448,192,177009,1,0,0:0:0:0:
320,192,177100,1,0,0:0:0:0:
320,192,177190,1,0,0:0:0:0:
64,192,177190,1,0,0:0:0:0:
192,192,177281,1,0,0:0:0:0:
64,192,177281,1,0,0:0:0:0:
448,192,177281,1,0,0:0:0:0:
192,192,177372,1,0,0:0:0:0:
448,192,177463,1,0,0:0:0:0:
64,192,177463,1,0,0:0:0:0:
64,192,177554,1,0,0:0:0:0:
448,192,177554,1,0,0:0:0:0:
320,192,177554,1,0,0:0:0:0:
320,192,177645,1,0,0:0:0:0:
448,192,177736,1,0,0:0:0:0:
64,192,177736,1,0,0:0:0:0:
192,192,177827,1,0,0:0:0:0:
64,192,177918,1,0,0:0:0:0:
320,192,177918,1,0,0:0:0:0:
448,192,177918,1,0,0:0:0:0:
320,192,178009,1,0,0:0:0:0:
192,192,178100,1,0,0:0:0:0:
64,192,178100,1,0,0:0:0:0:
64,192,178190,1,0,0:0:0:0:
192,192,178281,1,0,0:0:0:0:
320,192,178281,1,0,0:0:0:0:
448,192,178281,1,0,0:0:0:0:
448,192,178372,1,0,0:0:0:0:
64,192,178372,1,0,0:0:0:0:
192,192,178463,1,0,0:0:0:0:
320,192,178463,1,0,0:0:0:0:
320,192,178554,1,0,0:0:0:0:
192,192,178645,1,0,0:0:0:0:
64,192,178645,1,0,0:0:0:0:
448,192,178645,1,0,0:0:0:0:
192,192,178736,1,0,0:0:0:0:
64,192,178827,1,0,0:0:0:0:
320,192,178827,1,0,0:0:0:0:
64,192,178918,1,0,0:0:0:0:
448,192,178918,1,0,0:0:0:0:
448,192,179009,1,0,0:0:0:0:
320,192,179009,1,0,0:0:0:0:
192,192,179009,1,0,0:0:0:0:
192,192,179100,1,0,0:0:0:0:
320,192,179190,1,0,0:0:0:0:
448,192,179190,1,0,0:0:0:0:
64,192,179281,1,0,0:0:0:0:
192,192,179372,1,0,0:0:0:0:
448,192,179372,1,0,0:0:0:0:
64,192,179372,1,0,0:0:0:0:
192,192,179463,1,0,0:0:0:0:
320,192,179463,1,0,0:0:0:0:
320,192,179554,1,0,0:0:0:0:
64,192,179554,1,0,0:0:0:0:
192,192,179645,1,0,0:0:0:0:
64,192,179645,1,0,0:0:0:0:
448,192,179645,1,0,0:0:0:0:
448,192,179736,1,0,0:0:0:0:
320,192,179736,1,0,0:0:0:0:
192,192,179736,1,0,0:0:0:0:
64,192,179796,1,0,0:0:0:0:
320,192,179857,1,0,0:0:0:0:
192,192,179918,1,0,0:0:0:0:
64,192,179918,1,0,0:0:0:0:
448,192,179978,1,0,0:0:0:0:
192,192,180039,1,0,0:0:0:0:
320,192,180100,1,0,0:0:0:0:
448,192,180100,1,0,0:0:0:0:
64,192,180160,1,0,0:0:0:0:
448,192,180220,1,0,0:0:0:0:
320,192,180281,1,0,0:0:0:0:
192,192,180281,1,0,0:0:0:0:
64,192,180341,1,0,0:0:0:0:
320,192,180402,1,0,0:0:0:0:
448,192,180463,1,0,0:0:0:0:
64,192,180463,1,0,0:0:0:0:
192,192,180523,1,0,0:0:0:0:
320,192,180584,1,0,0:0:0:0:
64,192,180645,1,0,0:0:0:0:
192,192,180645,1,0,0:0:0:0:
320,192,180705,1,0,0:0:0:0:
448,192,180766,1,0,0:0:0:0:
192,192,180827,1,0,0:0:0:0:
64,192,180827,1,0,0:0:0:0:
320,192,180827,1,0,0:0:0:0:
64,192,180918,1,0,0:0:0:0:
192,192,181009,1,0,0:0:0:0:
448,192,181009,1,0,0:0:0:0:
448,192,181099,1,0,0:0:0:0:
320,192,181190,1,0,0:0:0:0:
64,192,181190,1,0,0:0:0:0:
448,192,181190,1,0,0:0:0:0:
192,192,181281,1,0,0:0:0:0:
448,192,181281,1,0,0:0:0:0:
320,192,181372,1,0,0:0:0:0:
64,192,181372,1,0,0:0:0:0:
192,192,181463,1,0,0:0:0:0:
448,192,181463,1,0,0:0:0:0:
320,192,181554,1,0,0:0:0:0:
448,192,181554,1,0,0:0:0:0:
64,192,181554,1,0,0:0:0:0:
320,192,181645,1,0,0:0:0:0:
192,192,181645,1,0,0:0:0:0:
64,192,181645,1,0,0:0:0:0:
192,192,181736,1,0,0:0:0:0:
64,192,181827,1,0,0:0:0:0:
320,192,181827,1,0,0:0:0:0:
448,192,181827,1,0,0:0:0:0:
192,192,181918,1,0,0:0:0:0:
64,192,181918,1,0,0:0:0:0:
448,192,181918,1,0,0:0:0:0:
320,192,182009,1,0,0:0:0:0:
320,192,182099,1,0,0:0:0:0:
448,192,182099,1,0,0:0:0:0:
64,192,182099,1,0,0:0:0:0:
64,192,182190,1,0,0:0:0:0:
192,192,182190,1,0,0:0:0:0:
192,192,182281,1,0,0:0:0:0:
320,192,182281,1,0,0:0:0:0:
448,192,182281,1,0,0:0:0:0:
448,192,182372,1,0,0:0:0:0:
64,192,182372,1,0,0:0:0:0:
320,192,182463,1,0,0:0:0:0:
192,192,182463,1,0,0:0:0:0:
192,192,182554,1,0,0:0:0:0:
64,192,182645,1,0,0:0:0:0:
320,192,182645,1,0,0:0:0:0:
448,192,182645,1,0,0:0:0:0:
448,192,182736,1,0,0:0:0:0:
320,192,182827,1,0,0:0:0:0:
192,192,182827,1,0,0:0:0:0:
64,192,182827,1,0,0:0:0:0:
64,192,182918,1,0,0:0:0:0:
192,192,182918,1,0,0:0:0:0:
64,192,183009,1,0,0:0:0:0:
320,192,183009,1,0,0:0:0:0:
448,192,183009,1,0,0:0:0:0:
192,192,183099,1,0,0:0:0:0:
448,192,183099,1,0,0:0:0:0:
320,192,183099,1,0,0:0:0:0:
192,192,183190,1,0,0:0:0:0:
448,192,183281,1,0,0:0:0:0:
64,192,183281,1,0,0:0:0:0:
320,192,183281,1,0,0:0:0:0:
192,192,183372,1,0,0:0:0:0:
64,192,183372,1,0,0:0:0:0:
448,192,183372,1,0,0:0:0:0:
448,192,183463,1,0,0:0:0:0:
320,192,183463,1,0,0:0:0:0:
320,192,183554,1,0,0:0:0:0:
64,192,183554,1,0,0:0:0:0:
192,192,183554,1,0,0:0:0:0:
192,192,183645,1,0,0:0:0:0:
64,192,183736,1,0,0:0:0:0:
320,192,183736,1,0,0:0:0:0:
448,192,183736,1,0,0:0:0:0:
320,192,183827,1,0,0:0:0:0:
192,192,183918,1,0,0:0:0:0:
64,192,183918,1,0,0:0:0:0:
192,192,184009,1,0,0:0:0:0:
64,192,184099,1,0,0:0:0:0:
320,192,184099,1,0,0:0:0:0:
448,192,184099,1,0,0:0:0:0:
448,192,184190,1,0,0:0:0:0:
192,192,184190,1,0,0:0:0:0:
192,192,184281,1,0,0:0:0:0:
64,192,184281,1,0,0:0:0:0:
64,192,184372,1,0,0:0:0:0:
320,192,184372,1,0,0:0:0:0:
192,192,184463,1,0,0:0:0:0:
448,192,184463,1,0,0:0:0:0:
320,192,184463,1,0,0:0:0:0:
448,192,184554,1,0,0:0:0:0:
64,192,184554,1,0,0:0:0:0:
192,192,184554,1,0,0:0:0:0:
320,192,184645,1,0,0:0:0:0:
64,192,184736,1,0,0:0:0:0:
320,192,184736,1,0,0:0:0:0:
448,192,184736,1,0,0:0:0:0:
192,192,184827,1,0,0:0:0:0:
64,192,184827,1,0,0:0:0:0:
448,192,184827,1,0,0:0:0:0:
192,192,184918,1,0,0:0:0:0:
320,192,184918,1,0,0:0:0:0:
448,192,185009,1,0,0:0:0:0:
320,192,185009,1,0,0:0:0:0:
64,192,185009,1,0,0:0:0:0:
192,192,185099,1,0,0:0:0:0:
448,192,185190,1,0,0:0:0:0:
192,192,185190,1,0,0:0:0:0:
64,192,185281,1,0,0:0:0:0:
448,192,185281,1,0,0:0:0:0:
320,192,185281,1,0,0:0:0:0:
64,192,185372,1,0,0:0:0:0:
192,192,185372,1,0,0:0:0:0:
320,192,185463,1,0,0:0:0:0:
192,192,185554,1,0,0:0:0:0:
320,192,185554,1,0,0:0:0:0:
448,192,185554,1,0,0:0:0:0:
192,192,185645,1,0,0:0:0:0:
64,192,185736,1,0,0:0:0:0:
448,192,185736,1,0,0:0:0:0:
448,192,185827,1,0,0:0:0:0:
320,192,185827,1,0,0:0:0:0:
320,192,185918,1,0,0:0:0:0:
192,192,185918,1,0,0:0:0:0:
64,192,185918,1,0,0:0:0:0:
192,192,186009,1,0,0:0:0:0:
64,192,186009,1,0,0:0:0:0:
448,192,186009,1,0,0:0:0:0:
320,192,186099,1,0,0:0:0:0:
448,192,186099,1,0,0:0:0:0:
448,192,186190,1,0,0:0:0:0:
64,192,186190,1,0,0:0:0:0:
192,192,186190,1,0,0:0:0:0:
320,192,186281,1,0,0:0:0:0:
64,192,186281,1,0,0:0:0:0:
448,192,186281,1,0,0:0:0:0:
192,192,186372,1,0,0:0:0:0:
320,192,186372,1,0,0:0:0:0:
192,192,186463,1,0,0:0:0:0:
64,192,186463,1,0,0:0:0:0:
448,192,186463,1,0,0:0:0:0:
448,192,186554,1,0,0:0:0:0:
64,192,186554,1,0,0:0:0:0:
320,192,186645,1,0,0:0:0:0:
448,192,186645,1,0,0:0:0:0:
192,192,186645,1,0,0:0:0:0:
192,192,186736,1,0,0:0:0:0:
64,192,186827,1,0,0:0:0:0:
320,192,186827,1,0,0:0:0:0:
320,192,186918,1,0,0:0:0:0:
192,192,187009,1,0,0:0:0:0:
64,192,187009,1,0,0:0:0:0:
448,192,187009,1,0,0:0:0:0:
64,192,187099,1,0,0:0:0:0:
192,192,187190,1,0,0:0:0:0:
320,192,187190,1,0,0:0:0:0:
448,192,187190,1,0,0:0:0:0:
320,192,187281,1,0,0:0:0:0:
64,192,187281,1,0,0:0:0:0:
192,192,187372,1,0,0:0:0:0:
64,192,187372,1,0,0:0:0:0:
448,192,187372,1,0,0:0:0:0:
192,192,187463,1,0,0:0:0:0:
320,192,187463,1,0,0:0:0:0:
448,192,187463,1,0,0:0:0:0:
320,192,187554,1,0,0:0:0:0:
64,192,187645,1,0,0:0:0:0:
192,192,187645,1,0,0:0:0:0:
448,192,187645,1,0,0:0:0:0:
320,192,187736,1,0,0:0:0:0:
64,192,187736,1,0,0:0:0:0:
192,192,187736,1,0,0:0:0:0:
448,192,187827,1,0,0:0:0:0:
64,192,187918,1,0,0:0:0:0:
320,192,187918,1,0,0:0:0:0:
448,192,187918,1,0,0:0:0:0:
192,192,188009,1,0,0:0:0:0:
64,192,188009,1,0,0:0:0:0:
192,192,188099,1,0,0:0:0:0:
448,192,188099,1,0,0:0:0:0:
320,192,188099,1,0,0:0:0:0:
320,192,188190,1,0,0:0:0:0:
64,192,188190,1,0,0:0:0:0:
192,192,188281,1,0,0:0:0:0:
64,192,188281,1,0,0:0:0:0:
448,192,188281,1,0,0:0:0:0:
192,192,188372,1,0,0:0:0:0:
320,192,188463,1,0,0:0:0:0:
448,192,188463,1,0,0:0:0:0:
64,192,188463,1,0,0:0:0:0:
192,192,188554,1,0,0:0:0:0:
320,192,188645,1,0,0:0:0:0:
448,192,188645,1,0,0:0:0:0:
320,192,188736,1,0,0:0:0:0:
64,192,188736,1,0,0:0:0:0:
448,192,188827,1,0,0:0:0:0:
64,192,188827,1,0,0:0:0:0:
192,192,188827,1,0,0:0:0:0:
192,192,188918,1,0,0:0:0:0:
320,192,188918,1,0,0:0:0:0:
192,192,189009,1,0,0:0:0:0:
448,192,189009,1,0,0:0:0:0:
320,192,189009,1,0,0:0:0:0:
320,192,189099,1,0,0:0:0:0:
64,192,189099,1,0,0:0:0:0:
192,192,189190,1,0,0:0:0:0:
64,192,189190,1,0,0:0:0:0:
448,192,189190,1,0,0:0:0:0:
192,192,189281,1,0,0:0:0:0:
320,192,189281,1,0,0:0:0:0:
448,192,189372,1,0,0:0:0:0:
64,192,189372,1,0,0:0:0:0:
320,192,189463,1,0,0:0:0:0:
64,192,189463,1,0,0:0:0:0:
192,192,189554,1,0,0:0:0:0:
320,192,189554,1,0,0:0:0:0:
448,192,189554,1,0,0:0:0:0:
192,192,189736,1,0,0:0:0:0:
64,192,189736,1,0,0:0:0:0:
320,192,189736,1,0,0:0:0:0:
64,192,189918,1,0,0:0:0:0:
320,192,189918,1,0,0:0:0:0:
448,192,189918,1,0,0:0:0:0:
192,192,190099,1,0,0:0:0:0:
192,192,190281,1,0,0:0:0:0:
64,192,190281,1,0,0:0:0:0:
448,192,190281,1,0,0:0:0:0:
320,192,190463,1,0,0:0:0:0:
448,192,190463,1,0,0:0:0:0:
192,192,190554,1,0,0:0:0:0:
448,192,190554,1,0,0:0:0:0:
320,192,190645,1,0,0:0:0:0:
64,192,190645,1,0,0:0:0:0:
448,192,190736,1,0,0:0:0:0:
448,192,190827,1,0,0:0:0:0:
64,192,190827,1,0,0:0:0:0:
192,192,190827,1,0,0:0:0:0:
64,192,190918,1,0,0:0:0:0:
320,192,190918,1,0,0:0:0:0:
320,192,191009,1,0,0:0:0:0:
448,192,191009,1,0,0:0:0:0:
192,192,191009,1,0,0:0:0:0:
192,192,191190,1,0,0:0:0:0:
64,192,191190,1,0,0:0:0:0:
320,192,191190,1,0,0:0:0:0:
64,192,191372,1,0,0:0:0:0:
320,192,191372,1,0,0:0:0:0:
448,192,191372,1,0,0:0:0:0:
192,192,191554,1,0,0:0:0:0:
320,192,191554,1,0,0:0:0:0:
448,192,191554,1,0,0:0:0:0:
192,192,191736,1,0,0:0:0:0:
64,192,191736,1,0,0:0:0:0:
448,192,191736,1,0,0:0:0:0:
192,192,191918,1,0,0:0:0:0:
64,192,191918,1,0,0:0:0:0:
320,192,191918,1,0,0:0:0:0:
64,192,192099,1,0,0:0:0:0:
320,192,192099,1,0,0:0:0:0:
448,192,192099,1,0,0:0:0:0:
192,192,192190,1,0,0:0:0:0:
320,192,192190,1,0,0:0:0:0:
192,192,192281,1,0,0:0:0:0:
320,192,192281,1,0,0:0:0:0:
448,192,192281,1,0,0:0:0:0:
64,192,192372,1,0,0:0:0:0:
448,192,192372,1,0,0:0:0:0:
192,192,192463,1,0,0:0:0:0:
64,192,192463,1,0,0:0:0:0:
448,192,192463,1,0,0:0:0:0:
320,192,192554,1,0,0:0:0:0:
320,192,192645,1,0,0:0:0:0:
64,192,192645,1,0,0:0:0:0:
192,192,192736,1,0,0:0:0:0:
64,192,192736,1,0,0:0:0:0:
192,192,192827,1,0,0:0:0:0:
448,192,192827,1,0,0:0:0:0:
320,192,192827,1,0,0:0:0:0:
320,192,192918,1,0,0:0:0:0:
64,192,193009,1,0,0:0:0:0:
448,192,193009,1,0,0:0:0:0:
192,192,193099,1,0,0:0:0:0:
192,192,193190,1,0,0:0:0:0:
448,192,193190,1,0,0:0:0:0:
64,192,193281,1,0,0:0:0:0:
320,192,193281,1,0,0:0:0:0:
448,192,193281,1,0,0:0:0:0:
320,192,193372,1,0,0:0:0:0:
192,192,193372,1,0,0:0:0:0:
64,192,193463,1,0,0:0:0:0:
192,192,193554,1,0,0:0:0:0:
320,192,193554,1,0,0:0:0:0:
448,192,193554,1,0,0:0:0:0:
448,192,193645,1,0,0:0:0:0:
192,192,193645,1,0,0:0:0:0:
320,192,193736,1,0,0:0:0:0:
64,192,193736,1,0,0:0:0:0:
64,192,193827,1,0,0:0:0:0:
320,192,193918,1,0,0:0:0:0:
448,192,193918,1,0,0:0:0:0:
192,192,193918,1,0,0:0:0:0:
320,192,194009,1,0,0:0:0:0:
64,192,194099,1,0,0:0:0:0:
448,192,194099,1,0,0:0:0:0:
192,192,194190,1,0,0:0:0:0:
448,192,194281,1,0,0:0:0:0:
192,192,194281,1,0,0:0:0:0:
64,192,194281,1,0,0:0:0:0:
448,192,194372,1,0,0:0:0:0:
320,192,194463,1,0,0:0:0:0:
64,192,194463,1,0,0:0:0:0:
192,192,194554,1,0,0:0:0:0:
192,192,194645,1,0,0:0:0:0:
64,192,194645,1,0,0:0:0:0:
448,192,194645,1,0,0:0:0:0:
320,192,194736,1,0,0:0:0:0:
448,192,194736,1,0,0:0:0:0:
64,192,194827,1,0,0:0:0:0:
448,192,194918,1,0,0:0:0:0:
192,192,194918,1,0,0:0:0:0:
64,192,195009,1,0,0:0:0:0:
192,192,195009,1,0,0:0:0:0:
320,192,195009,1,0,0:0:0:0:
320,192,195099,1,0,0:0:0:0:
448,192,195099,1,0,0:0:0:0:
64,192,195190,1,0,0:0:0:0:
192,192,195190,1,0,0:0:0:0:
448,192,195190,1,0,0:0:0:0:
64,192,195281,1,0,0:0:0:0:
320,192,195281,1,0,0:0:0:0:
192,192,195372,1,0,0:0:0:0:
448,192,195372,1,0,0:0:0:0:
320,192,195372,1,0,0:0:0:0:
448,192,195463,1,0,0:0:0:0:
64,192,195554,1,0,0:0:0:0:
192,192,195554,1,0,0:0:0:0:
320,192,195645,1,0,0:0:0:0:
448,192,195736,1,0,0:0:0:0:
192,192,195736,1,0,0:0:0:0:
320,192,195736,1,0,0:0:0:0:
64,192,195827,1,0,0:0:0:0:
448,192,195827,1,0,0:0:0:0:
320,192,195918,1,0,0:0:0:0:
64,192,195918,1,0,0:0:0:0:
192,192,196009,1,0,0:0:0:0:
448,192,196099,1,0,0:0:0:0:
192,192,196099,1,0,0:0:0:0:
64,192,196099,1,0,0:0:0:0:
320,192,196190,1,0,0:0:0:0:
320,192,196281,1,0,0:0:0:0:
64,192,196281,1,0,0:0:0:0:
192,192,196372,1,0,0:0:0:0:
192,192,196463,1,0,0:0:0:0:
448,192,196463,1,0,0:0:0:0:
320,192,196463,1,0,0:0:0:0:
320,192,196554,1,0,0:0:0:0:
64,192,196645,1,0,0:0:0:0:
448,192,196645,1,0,0:0:0:0:
192,192,196736,1,0,0:0:0:0:
192,192,196827,1,0,0:0:0:0:
448,192,196827,1,0,0:0:0:0:
64,192,196827,1,0,0:0:0:0:
320,192,196918,1,0,0:0:0:0:
64,192,196918,1,0,0:0:0:0:
192,192,197009,1,0,0:0:0:0:
448,192,197099,1,0,0:0:0:0:
448,192,197190,1,0,0:0:0:0:
320,192,197190,1,0,0:0:0:0:
64,192,197190,1,0,0:0:0:0:
320,192,197281,1,0,0:0:0:0:
192,192,197281,1,0,0:0:0:0:
448,192,197372,1,0,0:0:0:0:
192,192,197372,1,0,0:0:0:0:
64,192,197463,1,0,0:0:0:0:
64,192,197554,1,0,0:0:0:0:
320,192,197554,1,0,0:0:0:0:
192,192,197645,1,0,0:0:0:0:
448,192,197645,1,0,0:0:0:0:
320,192,197645,1,0,0:0:0:0:
192,192,197736,1,0,0:0:0:0:
64,192,197736,1,0,0:0:0:0:
320,192,197827,1,0,0:0:0:0:
448,192,197918,1,0,0:0:0:0:
320,192,197918,1,0,0:0:0:0:
64,192,197918,1,0,0:0:0:0:
448,192,198009,1,0,0:0:0:0:
320,192,198099,1,0,0:0:0:0:
192,192,198099,1,0,0:0:0:0:
64,192,198190,1,0,0:0:0:0:
192,192,198281,1,0,0:0:0:0:
64,192,198281,1,0,0:0:0:0:
448,192,198281,1,0,0:0:0:0:
192,192,198372,1,0,0:0:0:0:
64,192,198463,1,0,0:0:0:0:
320,192,198463,1,0,0:0:0:0:
448,192,198554,1,0,0:0:0:0:
320,192,198645,1,0,0:0:0:0:
448,192,198645,1,0,0:0:0:0:
192,192,198645,1,0,0:0:0:0:
192,192,198736,1,0,0:0:0:0:
64,192,198827,1,0,0:0:0:0:
320,192,198827,1,0,0:0:0:0:
192,192,198918,1,0,0:0:0:0:
320,192,198918,1,0,0:0:0:0:
64,192,199009,1,0,0:0:0:0:
448,192,199009,1,0,0:0:0:0:
320,192,199099,1,0,0:0:0:0:
64,192,199099,1,0,0:0:0:0:
192,192,199099,1,0,0:0:0:0:
192,192,199190,1,0,0:0:0:0:
320,192,199281,1,0,0:0:0:0:
448,192,199281,1,0,0:0:0:0:
448,192,199372,1,0,0:0:0:0:
192,192,199372,1,0,0:0:0:0:
64,192,199372,1,0,0:0:0:0:
320,192,199463,1,0,0:0:0:0:
320,192,199554,1,0,0:0:0:0:
64,192,199554,1,0,0:0:0:0:
448,192,199645,1,0,0:0:0:0:
320,192,199736,1,0,0:0:0:0:
448,192,199736,1,0,0:0:0:0:
192,192,199736,1,0,0:0:0:0:
192,192,199827,1,0,0:0:0:0:
64,192,199918,1,0,0:0:0:0:
320,192,199918,1,0,0:0:0:0:
320,192,200009,1,0,0:0:0:0:
192,192,200099,1,0,0:0:0:0:
64,192,200099,1,0,0:0:0:0:
448,192,200099,1,0,0:0:0:0:
64,192,200190,1,0,0:0:0:0:
448,192,200281,1,0,0:0:0:0:
320,192,200281,1,0,0:0:0:0:
192,192,200281,1,0,0:0:0:0:
192,192,200372,1,0,0:0:0:0:
192,192,200463,1,0,0:0:0:0:
448,192,200463,1,0,0:0:0:0:
64,192,200554,1,0,0:0:0:0:
320,192,200554,1,0,0:0:0:0:
448,192,200554,1,0,0:0:0:0:
320,192,200645,1,0,0:0:0:0:
64,192,200736,1,0,0:0:0:0:
192,192,200736,1,0,0:0:0:0:
448,192,200736,1,0,0:0:0:0:
320,192,200827,1,0,0:0:0:0:
64,192,200827,1,0,0:0:0:0:
448,192,200827,1,0,0:0:0:0:
192,192,200918,1,0,0:0:0:0:
320,192,201009,1,0,0:0:0:0:
448,192,201009,1,0,0:0:0:0:
192,192,201009,1,0,0:0:0:0:
64,192,201099,1,0,0:0:0:0:
192,192,201190,1,0,0:0:0:0:
64,192,201190,1,0,0:0:0:0:
448,192,201190,1,0,0:0:0:0:
320,192,201281,1,0,0:0:0:0:
320,192,201372,1,0,0:0:0:0:
448,192,201372,1,0,0:0:0:0:
64,192,201372,1,0,0:0:0:0:
192,192,201463,1,0,0:0:0:0:
64,192,201463,1,0,0:0:0:0:
320,192,201554,1,0,0:0:0:0:
448,192,201554,1,0,0:0:0:0:
192,192,201554,1,0,0:0:0:0:
320,192,201645,1,0,0:0:0:0:
64,192,201645,1,0,0:0:0:0:
192,192,201736,1,0,0:0:0:0:
64,192,201736,1,0,0:0:0:0:
320,192,201827,1,0,0:0:0:0:
448,192,201827,1,0,0:0:0:0:
448,192,201918,1,0,0:0:0:0:
192,192,201918,1,0,0:0:0:0:
64,192,201918,1,0,0:0:0:0:
192,192,202009,1,0,0:0:0:0:
320,192,202009,1,0,0:0:0:0:
320,192,202099,1,0,0:0:0:0:
64,192,202099,1,0,0:0:0:0:
192,192,202190,1,0,0:0:0:0:
448,192,202281,1,0,0:0:0:0:
64,192,202281,1,0,0:0:0:0:
320,192,202281,1,0,0:0:0:0:
448,192,202372,1,0,0:0:0:0:
320,192,202463,1,0,0:0:0:0:
192,192,202463,1,0,0:0:0:0:
64,192,202463,1,0,0:0:0:0:
192,192,202554,1,0,0:0:0:0:
64,192,202645,1,0,0:0:0:0:
320,192,202645,1,0,0:0:0:0:
448,192,202645,1,0,0:0:0:0:
192,192,202736,1,0,0:0:0:0:
64,192,202736,1,0,0:0:0:0:
192,192,202827,1,0,0:0:0:0:
448,192,202827,1,0,0:0:0:0:
320,192,202918,1,0,0:0:0:0:
192,192,202918,1,0,0:0:0:0:
320,192,203009,1,0,0:0:0:0:
448,192,203009,1,0,0:0:0:0:
64,192,203009,1,0,0:0:0:0:
192,192,203099,1,0,0:0:0:0:
64,192,203099,1,0,0:0:0:0:
64,192,203190,1,0,0:0:0:0:
320,192,203190,1,0,0:0:0:0:
192,192,203281,1,0,0:0:0:0:
448,192,203281,1,0,0:0:0:0:
320,192,203372,1,0,0:0:0:0:
448,192,203372,1,0,0:0:0:0:
64,192,203372,1,0,0:0:0:0:
320,192,203463,1,0,0:0:0:0:
192,192,203463,1,0,0:0:0:0:
64,192,203554,1,0,0:0:0:0:
320,192,203554,1,0,0:0:0:0:
192,192,203645,1,0,0:0:0:0:
64,192,203645,1,0,0:0:0:0:
64,192,203736,1,0,0:0:0:0:
448,192,203736,1,0,0:0:0:0:
320,192,203736,1,0,0:0:0:0:
192,192,203827,1,0,0:0:0:0:
448,192,203827,1,0,0:0:0:0:
192,192,203918,1,0,0:0:0:0:
448,192,203918,1,0,0:0:0:0:
320,192,203918,1,0,0:0:0:0:
320,192,204009,1,0,0:0:0:0:
64,192,204009,1,0,0:0:0:0:
192,192,204099,1,0,0:0:0:0:
64,192,204099,1,0,0:0:0:0:
448,192,204099,1,0,0:0:0:0:
320,192,204190,1,0,0:0:0:0:
320,192,204281,1,0,0:0:0:0:
64,192,204281,1,0,0:0:0:0:
192,192,204372,1,0,0:0:0:0:
448,192,204372,1,0,0:0:0:0:
192,192,204463,1,0,0:0:0:0:
64,192,204463,1,0,0:0:0:0:
448,192,204463,1,0,0:0:0:0:
320,192,204554,1,0,0:0:0:0:
320,192,204645,1,0,0:0:0:0:
448,192,204645,1,0,0:0:0:0:
64,192,204736,1,0,0:0:0:0:
192,192,204827,1,0,0:0:0:0:
320,192,204827,1,0,0:0:0:0:
448,192,204827,1,0,0:0:0:0:
320,192,204918,1,0,0:0:0:0:
192,192,205009,1,0,0:0:0:0:
64,192,205009,1,0,0:0:0:0:
64,192,205099,1,0,0:0:0:0:
448,192,205099,1,0,0:0:0:0:
320,192,205190,1,0,0:0:0:0:
448,192,205190,1,0,0:0:0:0:
192,192,205190,1,0,0:0:0:0:
320,192,205281,1,0,0:0:0:0:
192,192,205281,1,0,0:0:0:0:
64,192,205372,1,0,0:0:0:0:
448,192,205372,1,0,0:0:0:0:
192,192,205463,1,0,0:0:0:0:
448,192,205463,1,0,0:0:0:0:
320,192,205554,1,0,0:0:0:0:
448,192,205554,1,0,0:0:0:0:
64,192,205554,1,0,0:0:0:0:
64,192,205645,1,0,0:0:0:0:
192,192,205645,1,0,0:0:0:0:
192,192,205736,1,0,0:0:0:0:
448,192,205736,1,0,0:0:0:0:
320,192,205827,1,0,0:0:0:0:
320,192,205918,1,0,0:0:0:0:
448,192,205918,1,0,0:0:0:0:
64,192,205918,1,0,0:0:0:0:
448,192,206009,1,0,0:0:0:0:
448,192,206099,1,0,0:0:0:0:
192,192,206099,1,0,0:0:0:0:
64,192,206190,1,0,0:0:0:0:
192,192,206190,1,0,0:0:0:0:
64,192,206281,1,0,0:0:0:0:
320,192,206281,1,0,0:0:0:0:
448,192,206281,1,0,0:0:0:0:
320,192,206372,1,0,0:0:0:0:
192,192,206372,1,0,0:0:0:0:
64,192,206463,1,0,0:0:0:0:
448,192,206463,1,0,0:0:0:0:
448,192,206554,1,0,0:0:0:0:
192,192,206645,1,0,0:0:0:0:
64,192,206645,1,0,0:0:0:0:
320,192,206645,1,0,0:0:0:0:
320,192,206736,1,0,0:0:0:0:
64,192,206827,1,0,0:0:0:0:
192,192,206827,1,0,0:0:0:0:
64,192,206918,1,0,0:0:0:0:
320,192,207009,1,0,0:0:0:0:
448,192,207009,1,0,0:0:0:0:
192,192,207009,1,0,0:0:0:0:
320,192,207099,1,0,0:0:0:0:
192,192,207190,1,0,0:0:0:0:
64,192,207190,1,0,0:0:0:0:
64,192,207281,1,0,0:0:0:0:
320,192,207281,1,0,0:0:0:0:
192,192,207372,1,0,0:0:0:0:
448,192,207372,1,0,0:0:0:0:
320,192,207372,1,0,0:0:0:0:
192,192,207463,1,0,0:0:0:0:
64,192,207463,1,0,0:0:0:0:
320,192,207463,1,0,0:0:0:0:
64,192,207554,1,0,0:0:0:0:
448,192,207554,1,0,0:0:0:0:
192,192,207645,1,0,0:0:0:0:
320,192,207645,1,0,0:0:0:0:
320,192,207736,1,0,0:0:0:0:
448,192,207736,1,0,0:0:0:0:
64,192,207736,1,0,0:0:0:0:
448,192,207827,1,0,0:0:0:0:
192,192,207918,1,0,0:0:0:0:
64,192,207918,1,0,0:0:0:0:
320,192,207918,1,0,0:0:0:0:
64,192,208009,1,0,0:0:0:0:
192,192,208099,1,0,0:0:0:0:
320,192,208099,1,0,0:0:0:0:
448,192,208099,1,0,0:0:0:0:
320,192,208190,1,0,0:0:0:0:
192,192,208281,1,0,0:0:0:0:
64,192,208281,1,0,0:0:0:0:
448,192,208281,1,0,0:0:0:0:
192,192,208463,1,0,0:0:0:0:
64,192,208463,1,0,0:0:0:0:
320,192,208463,1,0,0:0:0:0:
448,192,208463,1,0,0:0:0:0:
320,192,208827,1,0,0:0:0:0:
448,192,208827,1,0,0:0:0:0:
64,192,208827,1,0,0:0:0:0:
192,192,209009,1,0,0:0:0:0:
320,192,209009,1,0,0:0:0:0:
448,192,209009,1,0,0:0:0:0:
448,192,209190,1,0,0:0:0:0:
64,192,209190,128,0,209509:0:0:0:0:
192,192,209190,128,0,209509:0:0:0:0:
320,192,209281,1,0,0:0:0:0:
320,192,209463,1,0,0:0:0:0:
192,192,209554,128,0,209872:0:0:0:0:
64,192,209554,128,0,209872:0:0:0:0:
448,192,209554,1,0,0:0:0:0:
320,192,209736,1,0,0:0:0:0:
64,192,209943,5,0,0:0:0:0:
192,192,209943,1,0,0:0:0:0:
448,192,209943,1,0,0:0:0:0:
320,192,210125,1,0,0:0:0:0:
448,192,210125,1,0,0:0:0:0:
192,192,210125,1,0,0:0:0:0:
64,192,210307,1,0,0:0:0:0:
320,192,210307,1,0,0:0:0:0:
448,192,210307,1,0,0:0:0:0:
192,192,210489,1,0,0:0:0:0:
64,192,210489,1,0,0:0:0:0:
320,192,210489,1,0,0:0:0:0:
64,192,210669,1,0,0:0:0:0:
192,192,210669,1,0,0:0:0:0:
448,192,210669,1,0,0:0:0:0:
320,192,210849,1,0,0:0:0:0:
448,192,210849,1,0,0:0:0:0:
64,192,210849,1,0,0:0:0:0:
448,192,211030,5,0,0:0:0:0:
320,192,211030,1,0,0:0:0:0:
192,192,211030,1,0,0:0:0:0:
64,192,211210,128,0,211933:0:0:0:0:
192,192,211210,128,0,211752:0:0:0:0:
320,192,211210,128,0,211843:0:0:0:0:
448,192,211210,1,0,0:0:0:0:
