osu file format v14

[General]
AudioFilename: audio_0.9.mp3
AudioLeadIn: 0
PreviewTime: 150352
Countdown: 0
SampleSet: None
StackLeniency: 0.7
Mode: 3
LetterboxInBreaks: 0
SpecialStyle: 0
WidescreenStoryboard: 0

[Editor]
DistanceSpacing: 0.3
BeatDivisor: 16
GridSize: 8
TimelineZoom: 2.4

[Metadata]
Title:Kan Saete Kuyashiiwa
TitleUnicode:勘冴えて悔しいわ
Artist:ZUTOMAYO
ArtistUnicode:ずっと真夜中でいいのに。
Creator:Rio1-
Version:Dum Bam x0.9
Source:
Tags:
BeatmapID:3074658
BeatmapSetID:1500407

[Difficulty]
HPDrainRate:7
CircleSize:4
OverallDifficulty:6
ApproachRate:5
SliderMultiplier:1.4
SliderTickRate:1

[Events]
//Background and Video events
0,0,"20200303184850_ruc3Nkjh.jpg",0,0
//Break Periods
//Storyboard Layer 0 (Background)
//Storyboard Layer 1 (Fail)
//Storyboard Layer 2 (Pass)
//Storyboard Layer 3 (Foreground)
//Storyboard Layer 4 (Overlay)
//Storyboard Sound Samples

[TimingPoints]
343,444.444444444444,4,1,1,0,1,0
343,-100,4,1,1,0,0,0
565,444.444444444444,4,1,1,0,1,0
565,-100,4,1,1,0,0,0
64565,-100,4,1,1,0,0,1
64898,-100,4,1,1,0,0,0
65010,-100,4,1,1,0,0,1
65343,-100,4,1,1,0,0,0
65454,-100,4,1,1,0,0,1
65787,-100,4,1,1,0,0,0
71676,-100,4,1,1,0,0,1
72010,-100,4,1,1,0,0,0
72121,-100,4,1,1,0,0,1
72454,-100,4,1,1,0,0,0
72565,-100,4,1,1,0,0,1
72898,-100,4,1,1,0,0,0
78787,-100,4,1,1,0,0,1
91232,-100,4,1,1,0,0,0
100984,450.45045045045,4,1,1,0,1,0
100984,-99.009900990099,4,1,1,0,0,0
102785,444.444444444444,4,1,1,0,1,0
102785,-100,4,1,1,0,0,0
107220,444.444444444444,4,1,1,0,1,0
107220,-100,4,1,1,0,0,0
107367,444.444444444444,4,1,1,0,1,0
107367,-100,4,1,1,0,0,0
107664,333.333333333333,4,1,1,0,1,0
107664,-133.333333333333,4,1,1,0,0,0
108081,314.465408805031,4,1,1,0,1,0
108081,-140.845070422535,4,1,1,0,0,0
108316,370.37037037037,4,1,1,0,1,0
108316,-120.481927710843,4,1,1,0,0,0
108594,392.156862745098,4,1,1,0,1,0
108594,-113.636363636364,4,1,1,0,0,0
108985,512.820512820513,4,1,1,0,1,0
108985,-86.9565217391304,4,1,1,0,0,0
109241,444.444444444444,4,1,1,0,1,0
109241,-100,4,1,1,0,0,0
110796,444.444444444444,4,1,1,0,1,0
110796,-100,4,1,1,0,0,0
137463,-100,4,1,1,0,0,1
137796,-100,4,1,1,0,0,0
137907,-100,4,1,1,0,0,1
138241,-100,4,1,1,0,0,0
138352,-100,4,1,1,0,0,1
138685,-100,4,1,1,0,0,0
144574,-100,4,1,1,0,0,1
144907,-100,4,1,1,0,0,0
145018,-100,4,1,1,0,0,1
145352,-100,4,1,1,0,0,0
145463,-100,4,1,1,0,0,1
145796,-100,4,1,1,0,0,0
151685,-100,4,1,1,0,0,1
164130,-100,4,1,1,0,0,0
172971,444.444444444444,4,1,1,0,1,0
172971,-100,4,1,1,0,0,0
173304,606.060606060607,4,1,1,0,1,0
173304,-73.5294117647059,4,1,1,0,0,0
173455,444.444444444444,4,1,1,0,1,0
173455,-100,4,1,1,0,0,0
174788,444.444444444444,4,1,1,0,1,0
174788,-100,4,1,1,0,0,0
206788,-100,4,1,1,0,0,1
207122,-100,4,1,1,0,0,0
207233,-100,4,1,1,0,0,1
207566,-100,4,1,1,0,0,0
207677,-100,4,1,1,0,0,1
208011,-100,4,1,1,0,0,0
213900,-100,4,1,1,0,0,1
214233,-100,4,1,1,0,0,0
214344,-100,4,1,1,0,0,1
214677,-100,4,1,1,0,0,0
214788,-100,4,1,1,0,0,1
215122,-100,4,1,1,0,0,0
221011,-100,4,1,1,0,0,1
234788,-100,4,1,1,0,0,0
256597,444.444444444444,4,1,1,0,1,0
256597,-100,4,1,1,0,0,0
257264,441.501103752759,4,1,1,0,1,0
257264,-101.010101010101,4,1,1,0,0,0

[HitObjects]
192,192,343,5,0,0:0:0:0:
320,192,343,1,0,0:0:0:0:
64,192,416,1,0,0:0:0:0:
320,192,454,1,0,0:0:0:0:
448,192,565,1,0,0:0:0:0:
64,192,565,1,0,0:0:0:0:
192,192,565,128,0,621:0:0:0:0:
192,192,676,1,0,0:0:0:0:
64,192,787,128,0,843:0:0:0:0:
192,192,1010,128,0,1065:0:0:0:0:
448,192,1232,128,0,1287:0:0:0:0:
320,192,1454,128,0,1510:0:0:0:0:
192,192,1454,128,0,1565:0:0:0:0:
64,192,1454,128,0,1676:0:0:0:0:
320,192,1565,1,0,0:0:0:0:
192,192,1676,1,0,0:0:0:0:
320,192,1787,128,0,1898:0:0:0:0:
448,192,1787,128,0,2010:0:0:0:0:
192,192,1787,128,0,1843:0:0:0:0:
64,192,1787,1,0,0:0:0:0:
192,192,1898,1,0,0:0:0:0:
320,192,2010,1,0,0:0:0:0:
448,192,2121,128,0,2232:0:0:0:0:
64,192,2121,128,0,2232:0:0:0:0:
192,192,2121,128,0,2565:0:0:0:0:
192,192,3232,128,0,3343:0:0:0:0:
320,192,3232,128,0,3343:0:0:0:0:
320,192,3565,128,0,3676:0:0:0:0:
448,192,3565,128,0,3676:0:0:0:0:
320,192,3898,128,0,3954:0:0:0:0:
192,192,3898,128,0,3954:0:0:0:0:
192,192,4121,128,0,4232:0:0:0:0:
448,192,4121,128,0,4315:0:0:0:0:
64,192,4121,128,0,4176:0:0:0:0:
320,192,4121,128,0,4287:0:0:0:0:
192,192,4343,128,0,4398:0:0:0:0:
448,192,4565,128,0,4787:0:0:0:0:
192,192,4787,128,0,4898:0:0:0:0:
64,192,5010,1,0,0:0:0:0:
320,192,5010,128,0,5065:0:0:0:0:
192,192,5010,128,0,5176:0:0:0:0:
448,192,5010,128,0,5121:0:0:0:0:
320,192,5121,1,0,0:0:0:0:
448,192,5232,1,0,0:0:0:0:
64,192,5232,128,0,5287:0:0:0:0:
320,192,5343,1,0,0:0:0:0:
192,192,5343,128,0,5398:0:0:0:0:
64,192,5343,128,0,5510:0:0:0:0:
192,192,5454,1,0,0:0:0:0:
64,192,5565,1,0,0:0:0:0:
448,192,5676,1,0,0:0:0:0:
320,192,5676,128,0,5843:0:0:0:0:
192,192,5676,128,0,5954:0:0:0:0:
64,192,5898,128,0,6010:0:0:0:0:
320,192,5898,1,0,0:0:0:0:
192,192,6010,1,0,0:0:0:0:
320,192,6065,1,0,0:0:0:0:
64,192,6121,1,0,0:0:0:0:
192,192,6121,128,0,6287:0:0:0:0:
448,192,6176,128,0,6343:0:0:0:0:
320,192,6343,1,0,0:0:0:0:
192,192,6343,1,0,0:0:0:0:
192,192,6454,1,0,0:0:0:0:
64,192,6454,128,0,6621:0:0:0:0:
64,192,6676,1,0,0:0:0:0:
320,192,6704,1,0,0:0:0:0:
64,192,6787,1,0,0:0:0:0:
192,192,6787,1,0,0:0:0:0:
448,192,6787,1,0,0:0:0:0:
192,192,6898,1,0,0:0:0:0:
320,192,6898,1,0,0:0:0:0:
448,192,7010,1,0,0:0:0:0:
192,192,7010,1,0,0:0:0:0:
320,192,7121,1,0,0:0:0:0:
64,192,7121,1,0,0:0:0:0:
448,192,7121,1,0,0:0:0:0:
448,192,7232,1,0,0:0:0:0:
192,192,7232,128,0,7398:0:0:0:0:
64,192,7232,128,0,7398:0:0:0:0:
448,192,7454,128,0,7510:0:0:0:0:
192,192,7454,1,0,0:0:0:0:
64,192,7510,128,0,7565:0:0:0:0:
320,192,7527,1,0,0:0:0:0:
192,192,7565,128,0,7621:0:0:0:0:
448,192,7602,128,0,7676:0:0:0:0:
320,192,7676,128,0,7732:0:0:0:0:
192,192,7676,128,0,7843:0:0:0:0:
64,192,7704,128,0,7760:0:0:0:0:
64,192,7898,128,0,7954:0:0:0:0:
320,192,7898,128,0,8065:0:0:0:0:
192,192,7926,128,0,7982:0:0:0:0:
448,192,8010,1,0,0:0:0:0:
64,192,8093,1,0,0:0:0:0:
448,192,8121,128,0,8287:0:0:0:0:
320,192,8121,128,0,8176:0:0:0:0:
192,192,8148,128,0,8204:0:0:0:0:
192,192,8343,1,0,0:0:0:0:
448,192,8343,1,0,0:0:0:0:
64,192,8343,128,0,8454:0:0:0:0:
320,192,8454,1,0,0:0:0:0:
192,192,8454,128,0,8676:0:0:0:0:
320,192,8565,128,0,8787:0:0:0:0:
64,192,8565,1,0,0:0:0:0:
448,192,8676,1,0,0:0:0:0:
64,192,8787,1,0,0:0:0:0:
448,192,8787,1,0,0:0:0:0:
64,192,8898,1,0,0:0:0:0:
192,192,8898,128,0,9065:0:0:0:0:
320,192,9010,1,0,0:0:0:0:
448,192,9010,1,0,0:0:0:0:
192,192,9121,1,0,0:0:0:0:
192,192,9232,1,0,0:0:0:0:
64,192,9232,128,0,9343:0:0:0:0:
448,192,9232,128,0,9287:0:0:0:0:
320,192,9260,128,0,9398:0:0:0:0:
192,192,9343,128,0,9621:0:0:0:0:
64,192,9454,1,0,0:0:0:0:
448,192,9454,128,0,9510:0:0:0:0:
320,192,9482,128,0,9537:0:0:0:0:
192,192,9676,1,0,0:0:0:0:
320,192,9676,128,0,9843:0:0:0:0:
448,192,9676,128,0,9732:0:0:0:0:
64,192,9704,128,0,9760:0:0:0:0:
320,192,9898,1,0,0:0:0:0:
448,192,9898,128,0,10065:0:0:0:0:
64,192,9898,128,0,9954:0:0:0:0:
192,192,9926,128,0,9982:0:0:0:0:
448,192,10121,1,0,0:0:0:0:
192,192,10121,1,0,0:0:0:0:
64,192,10121,128,0,10287:0:0:0:0:
320,192,10232,1,0,0:0:0:0:
64,192,10343,1,0,0:0:0:0:
320,192,10343,1,0,0:0:0:0:
448,192,10454,1,0,0:0:0:0:
192,192,10454,128,0,10621:0:0:0:0:
64,192,10454,128,0,10565:0:0:0:0:
320,192,10565,1,0,0:0:0:0:
64,192,10621,128,0,10648:0:0:0:0:
448,192,10676,128,0,10732:0:0:0:0:
192,192,10676,128,0,10843:0:0:0:0:
64,192,10787,1,0,0:0:0:0:
448,192,10787,1,0,0:0:0:0:
320,192,10787,1,0,0:0:0:0:
192,192,10898,1,0,0:0:0:0:
448,192,11010,128,0,11121:0:0:0:0:
192,192,11010,128,0,11121:0:0:0:0:
320,192,11121,1,0,0:0:0:0:
64,192,11232,1,0,0:0:0:0:
192,192,11232,1,0,0:0:0:0:
448,192,11232,128,0,11343:0:0:0:0:
64,192,11343,1,0,0:0:0:0:
192,192,11398,1,0,0:0:0:0:
320,192,11454,128,0,11565:0:0:0:0:
448,192,11454,128,0,11621:0:0:0:0:
64,192,11565,1,0,0:0:0:0:
320,192,11621,1,0,0:0:0:0:
192,192,11676,1,0,0:0:0:0:
448,192,11676,1,0,0:0:0:0:
64,192,11676,128,0,11815:0:0:0:0:
320,192,11787,1,0,0:0:0:0:
64,192,11898,1,0,0:0:0:0:
320,192,11898,128,0,11982:0:0:0:0:
192,192,11954,1,0,0:0:0:0:
320,192,12010,1,0,0:0:0:0:
448,192,12046,1,0,0:0:0:0:
192,192,12083,1,0,0:0:0:0:
320,192,12121,128,0,12260:0:0:0:0:
64,192,12121,128,0,12287:0:0:0:0:
192,192,12232,128,0,12343:0:0:0:0:
448,192,12343,1,0,0:0:0:0:
320,192,12343,1,0,0:0:0:0:
64,192,12454,1,0,0:0:0:0:
320,192,12454,1,0,0:0:0:0:
192,192,12510,1,0,0:0:0:0:
64,192,12565,1,0,0:0:0:0:
320,192,12565,128,0,12676:0:0:0:0:
448,192,12565,128,0,12621:0:0:0:0:
448,192,12676,128,0,12704:0:0:0:0:
64,192,12704,1,0,0:0:0:0:
320,192,12732,1,0,0:0:0:0:
64,192,12787,128,0,12935:0:0:0:0:
192,192,12787,128,0,12972:0:0:0:0:
448,192,12861,1,0,0:0:0:0:
448,192,12935,1,0,0:0:0:0:
320,192,13010,1,0,0:0:0:0:
192,192,13010,1,0,0:0:0:0:
64,192,13010,1,0,0:0:0:0:
192,192,13121,1,0,0:0:0:0:
448,192,13232,128,0,13343:0:0:0:0:
192,192,13232,128,0,13343:0:0:0:0:
64,192,13343,1,0,0:0:0:0:
64,192,13454,1,0,0:0:0:0:
448,192,13454,1,0,0:0:0:0:
192,192,13454,1,0,0:0:0:0:
320,192,13454,128,0,13621:0:0:0:0:
64,192,13565,128,0,13713:0:0:0:0:
448,192,13676,128,0,13824:0:0:0:0:
192,192,13676,1,0,0:0:0:0:
320,192,13676,1,0,0:0:0:0:
64,192,13750,1,0,0:0:0:0:
192,192,13787,128,0,13898:0:0:0:0:
320,192,13824,1,0,0:0:0:0:
448,192,13898,1,0,0:0:0:0:
64,192,13898,128,0,13954:0:0:0:0:
192,192,14010,1,0,0:0:0:0:
64,192,14010,128,0,14176:0:0:0:0:
448,192,14010,128,0,14454:0:0:0:0:
64,192,14232,1,0,0:0:0:0:
320,192,14232,128,0,14287:0:0:0:0:
192,192,14343,1,0,0:0:0:0:
320,192,14343,128,0,14565:0:0:0:0:
64,192,14343,1,0,0:0:0:0:
192,192,14454,1,0,0:0:0:0:
448,192,14565,1,0,0:0:0:0:
64,192,14565,128,0,14621:0:0:0:0:
320,192,14621,1,0,0:0:0:0:
64,192,14676,1,0,0:0:0:0:
192,192,14676,128,0,14732:0:0:0:0:
192,192,14787,1,0,0:0:0:0:
448,192,14787,1,0,0:0:0:0:
320,192,14787,128,0,14954:0:0:0:0:
64,192,14898,128,0,14954:0:0:0:0:
192,192,14898,1,0,0:0:0:0:
448,192,15010,128,0,15121:0:0:0:0:
64,192,15010,1,0,0:0:0:0:
320,192,15010,128,0,15083:0:0:0:0:
192,192,15121,1,0,0:0:0:0:
320,192,15121,1,0,0:0:0:0:
192,192,15232,128,0,15343:0:0:0:0:
448,192,15232,128,0,15305:0:0:0:0:
64,192,15232,1,0,0:0:0:0:
320,192,15343,128,0,15602:0:0:0:0:
192,192,15380,1,0,0:0:0:0:
448,192,15454,128,0,15676:0:0:0:0:
64,192,15454,1,0,0:0:0:0:
192,192,15527,1,0,0:0:0:0:
64,192,15602,128,0,15676:0:0:0:0:
320,192,15676,1,0,0:0:0:0:
192,192,15676,128,0,15972:0:0:0:0:
64,192,15750,1,0,0:0:0:0:
448,192,15824,1,0,0:0:0:0:
320,192,15898,1,0,0:0:0:0:
448,192,15972,1,0,0:0:0:0:
192,192,16010,1,0,0:0:0:0:
64,192,16010,128,0,16268:0:0:0:0:
320,192,16121,1,0,0:0:0:0:
448,192,16121,1,0,0:0:0:0:
192,192,16194,1,0,0:0:0:0:
320,192,16232,1,0,0:0:0:0:
64,192,16343,1,0,0:0:0:0:
448,192,16343,1,0,0:0:0:0:
192,192,16343,128,0,16491:0:0:0:0:
320,192,16454,128,0,16565:0:0:0:0:
192,192,16565,1,0,0:0:0:0:
448,192,16565,1,0,0:0:0:0:
64,192,16565,1,0,0:0:0:0:
192,192,16676,128,0,16787:0:0:0:0:
448,192,16676,128,0,16750:0:0:0:0:
320,192,16787,1,0,0:0:0:0:
448,192,16787,1,0,0:0:0:0:
64,192,16898,1,0,0:0:0:0:
192,192,16898,1,0,0:0:0:0:
192,192,17010,1,0,0:0:0:0:
448,192,17010,128,0,17121:0:0:0:0:
320,192,17010,128,0,17121:0:0:0:0:
64,192,17121,1,0,0:0:0:0:
64,192,17232,128,0,17343:0:0:0:0:
320,192,17232,128,0,17287:0:0:0:0:
192,192,17343,1,0,0:0:0:0:
448,192,17343,1,0,0:0:0:0:
320,192,17454,1,0,0:0:0:0:
64,192,17454,1,0,0:0:0:0:
448,192,17454,128,0,17621:0:0:0:0:
320,192,17565,1,0,0:0:0:0:
192,192,17565,128,0,17676:0:0:0:0:
64,192,17565,128,0,17732:0:0:0:0:
448,192,17676,1,0,0:0:0:0:
448,192,17787,128,0,17898:0:0:0:0:
320,192,17898,128,0,17954:0:0:0:0:
192,192,17898,128,0,17926:0:0:0:0:
64,192,17898,128,0,18065:0:0:0:0:
320,192,18010,1,0,0:0:0:0:
448,192,18010,1,0,0:0:0:0:
192,192,18121,128,0,18232:0:0:0:0:
64,192,18121,1,0,0:0:0:0:
448,192,18121,128,0,18232:0:0:0:0:
320,192,18232,128,0,18260:0:0:0:0:
64,192,18268,1,0,0:0:0:0:
192,192,18305,1,0,0:0:0:0:
320,192,18343,1,0,0:0:0:0:
448,192,18343,128,0,18676:0:0:0:0:
64,192,18565,1,0,0:0:0:0:
320,192,18565,128,0,19083:0:0:0:0:
64,192,18676,1,0,0:0:0:0:
64,192,18787,128,0,18898:0:0:0:0:
192,192,18787,1,0,0:0:0:0:
448,192,18787,1,0,0:0:0:0:
448,192,18898,1,0,0:0:0:0:
64,192,19010,128,0,19343:0:0:0:0:
448,192,19010,128,0,19157:0:0:0:0:
192,192,19010,1,0,0:0:0:0:
192,192,19232,128,0,19602:0:0:0:0:
448,192,19232,1,0,0:0:0:0:
320,192,19232,1,0,0:0:0:0:
448,192,19454,128,0,19824:0:0:0:0:
64,192,19454,1,0,0:0:0:0:
64,192,19565,1,0,0:0:0:0:
192,192,19676,1,0,0:0:0:0:
320,192,19676,128,0,19972:0:0:0:0:
64,192,19676,1,0,0:0:0:0:
448,192,19898,128,0,20046:0:0:0:0:
192,192,19898,1,0,0:0:0:0:
64,192,19898,128,0,19972:0:0:0:0:
320,192,20010,1,0,0:0:0:0:
64,192,20010,1,0,0:0:0:0:
64,192,20121,1,0,0:0:0:0:
192,192,20121,1,0,0:0:0:0:
448,192,20121,1,0,0:0:0:0:
192,192,20232,1,0,0:0:0:0:
448,192,20232,1,0,0:0:0:0:
448,192,20343,1,0,0:0:0:0:
320,192,20343,128,0,20454:0:0:0:0:
64,192,20343,128,0,20380:0:0:0:0:
192,192,20454,1,0,0:0:0:0:
64,192,20454,1,0,0:0:0:0:
320,192,20565,1,0,0:0:0:0:
448,192,20565,1,0,0:0:0:0:
192,192,20565,1,0,0:0:0:0:
64,192,20676,1,0,0:0:0:0:
320,192,20676,1,0,0:0:0:0:
320,192,20787,1,0,0:0:0:0:
448,192,20787,1,0,0:0:0:0:
64,192,20787,1,0,0:0:0:0:
192,192,20898,1,0,0:0:0:0:
64,192,20898,1,0,0:0:0:0:
192,192,21010,128,0,21232:0:0:0:0:
448,192,21010,128,0,21232:0:0:0:0:
320,192,21010,1,0,0:0:0:0:
192,192,21343,1,0,0:0:0:0:
320,192,21343,128,0,21565:0:0:0:0:
64,192,21343,128,0,21565:0:0:0:0:
448,192,21676,1,0,0:0:0:0:
192,192,21676,128,0,21824:0:0:0:0:
64,192,21676,128,0,21824:0:0:0:0:
64,192,21898,1,0,0:0:0:0:
192,192,21898,1,0,0:0:0:0:
320,192,21898,1,0,0:0:0:0:
64,192,22121,1,0,0:0:0:0:
448,192,22121,1,0,0:0:0:0:
320,192,22232,1,0,0:0:0:0:
448,192,22232,1,0,0:0:0:0:
192,192,22268,1,0,0:0:0:0:
64,192,22343,1,0,0:0:0:0:
448,192,22343,1,0,0:0:0:0:
320,192,22343,1,0,0:0:0:0:
64,192,22454,1,0,0:0:0:0:
192,192,22454,1,0,0:0:0:0:
192,192,22565,1,0,0:0:0:0:
320,192,22565,1,0,0:0:0:0:
448,192,22638,1,0,0:0:0:0:
64,192,22676,1,0,0:0:0:0:
320,192,22676,1,0,0:0:0:0:
192,192,22737,1,0,0:0:0:0:
448,192,22787,128,0,22984:0:0:0:0:
64,192,22787,128,0,22954:0:0:0:0:
320,192,22898,1,0,0:0:0:0:
192,192,23010,1,0,0:0:0:0:
64,192,23010,1,0,0:0:0:0:
192,192,23121,128,0,23343:0:0:0:0:
448,192,23121,128,0,23287:0:0:0:0:
320,192,23121,1,0,0:0:0:0:
64,192,23232,1,0,0:0:0:0:
320,192,23343,1,0,0:0:0:0:
448,192,23343,1,0,0:0:0:0:
320,192,23454,128,0,23621:0:0:0:0:
448,192,23454,128,0,23676:0:0:0:0:
64,192,23454,1,0,0:0:0:0:
64,192,23565,1,0,0:0:0:0:
320,192,23676,1,0,0:0:0:0:
192,192,23676,1,0,0:0:0:0:
192,192,23898,1,0,0:0:0:0:
448,192,23898,1,0,0:0:0:0:
448,192,24010,1,0,0:0:0:0:
320,192,24046,1,0,0:0:0:0:
320,192,24121,1,0,0:0:0:0:
192,192,24121,1,0,0:0:0:0:
64,192,24121,1,0,0:0:0:0:
192,192,24232,1,0,0:0:0:0:
64,192,24343,1,0,0:0:0:0:
192,192,24343,1,0,0:0:0:0:
320,192,24380,1,0,0:0:0:0:
448,192,24416,1,0,0:0:0:0:
64,192,24454,1,0,0:0:0:0:
192,192,24491,1,0,0:0:0:0:
64,192,24565,1,0,0:0:0:0:
320,192,24565,128,0,24676:0:0:0:0:
448,192,24565,128,0,24750:0:0:0:0:
192,192,24638,1,0,0:0:0:0:
320,192,24713,1,0,0:0:0:0:
448,192,24787,1,0,0:0:0:0:
320,192,24861,1,0,0:0:0:0:
192,192,24898,128,0,24972:0:0:0:0:
64,192,24898,128,0,25046:0:0:0:0:
448,192,24935,1,0,0:0:0:0:
192,192,25010,1,0,0:0:0:0:
64,192,25083,1,0,0:0:0:0:
192,192,25157,1,0,0:0:0:0:
320,192,25232,128,0,25380:0:0:0:0:
64,192,25232,128,0,25380:0:0:0:0:
448,192,25232,1,0,0:0:0:0:
192,192,25287,1,0,0:0:0:0:
448,192,25343,1,0,0:0:0:0:
192,192,25398,1,0,0:0:0:0:
320,192,25454,1,0,0:0:0:0:
448,192,25454,1,0,0:0:0:0:
192,192,25676,1,0,0:0:0:0:
64,192,25676,1,0,0:0:0:0:
320,192,25676,1,0,0:0:0:0:
320,192,25787,1,0,0:0:0:0:
192,192,25898,1,0,0:0:0:0:
64,192,25898,1,0,0:0:0:0:
448,192,25898,1,0,0:0:0:0:
320,192,25954,1,0,0:0:0:0:
192,192,26010,1,0,0:0:0:0:
448,192,26065,1,0,0:0:0:0:
64,192,26121,1,0,0:0:0:0:
192,192,26121,1,0,0:0:0:0:
448,192,26176,1,0,0:0:0:0:
320,192,26204,1,0,0:0:0:0:
64,192,26232,1,0,0:0:0:0:
192,192,26287,1,0,0:0:0:0:
448,192,26343,1,0,0:0:0:0:
320,192,26343,128,0,26510:0:0:0:0:
64,192,26343,128,0,26510:0:0:0:0:
192,192,26454,1,0,0:0:0:0:
192,192,26565,1,0,0:0:0:0:
320,192,26565,128,0,26621:0:0:0:0:
448,192,26676,1,0,0:0:0:0:
64,192,26676,128,0,26843:0:0:0:0:
192,192,26676,128,0,26898:0:0:0:0:
320,192,26787,1,0,0:0:0:0:
320,192,26898,1,0,0:0:0:0:
448,192,27010,128,0,27176:0:0:0:0:
64,192,27010,1,0,0:0:0:0:
192,192,27010,128,0,27176:0:0:0:0:
448,192,27232,1,0,0:0:0:0:
192,192,27232,1,0,0:0:0:0:
320,192,27232,128,0,27398:0:0:0:0:
64,192,27305,1,0,0:0:0:0:
448,192,27380,1,0,0:0:0:0:
192,192,27454,1,0,0:0:0:0:
320,192,27454,1,0,0:0:0:0:
64,192,27527,1,0,0:0:0:0:
320,192,27602,1,0,0:0:0:0:
64,192,27676,1,0,0:0:0:0:
192,192,27676,1,0,0:0:0:0:
448,192,27676,1,0,0:0:0:0:
320,192,27732,1,0,0:0:0:0:
64,192,27787,1,0,0:0:0:0:
192,192,27787,1,0,0:0:0:0:
448,192,27843,1,0,0:0:0:0:
64,192,27898,1,0,0:0:0:0:
320,192,27898,1,0,0:0:0:0:
192,192,27954,1,0,0:0:0:0:
448,192,28010,1,0,0:0:0:0:
192,192,28046,1,0,0:0:0:0:
64,192,28083,1,0,0:0:0:0:
320,192,28121,1,0,0:0:0:0:
448,192,28121,1,0,0:0:0:0:
320,192,28232,1,0,0:0:0:0:
64,192,28232,128,0,28343:0:0:0:0:
192,192,28343,128,0,28676:0:0:0:0:
448,192,28343,1,0,0:0:0:0:
448,192,28454,1,0,0:0:0:0:
64,192,28454,1,0,0:0:0:0:
320,192,28565,128,0,28861:0:0:0:0:
64,192,28565,1,0,0:0:0:0:
448,192,28676,1,0,0:0:0:0:
64,192,28787,128,0,28935:0:0:0:0:
192,192,28787,128,0,28935:0:0:0:0:
448,192,28824,128,0,29121:0:0:0:0:
320,192,29010,1,0,0:0:0:0:
192,192,29010,1,0,0:0:0:0:
64,192,29083,1,0,0:0:0:0:
192,192,29157,1,0,0:0:0:0:
448,192,29232,1,0,0:0:0:0:
320,192,29232,1,0,0:0:0:0:
320,192,29343,1,0,0:0:0:0:
64,192,29454,1,0,0:0:0:0:
192,192,29454,1,0,0:0:0:0:
448,192,29454,1,0,0:0:0:0:
192,192,29565,1,0,0:0:0:0:
320,192,29621,1,0,0:0:0:0:
448,192,29676,1,0,0:0:0:0:
64,192,29676,1,0,0:0:0:0:
192,192,29732,1,0,0:0:0:0:
320,192,29787,1,0,0:0:0:0:
64,192,29824,1,0,0:0:0:0:
320,192,29898,1,0,0:0:0:0:
192,192,29898,1,0,0:0:0:0:
448,192,29898,128,0,30046:0:0:0:0:
192,192,30010,1,0,0:0:0:0:
64,192,30010,1,0,0:0:0:0:
448,192,30121,1,0,0:0:0:0:
64,192,30121,1,0,0:0:0:0:
320,192,30232,1,0,0:0:0:0:
64,192,30232,1,0,0:0:0:0:
320,192,30343,1,0,0:0:0:0:
192,192,30343,128,0,30602:0:0:0:0:
64,192,30454,1,0,0:0:0:0:
448,192,30454,1,0,0:0:0:0:
64,192,30565,128,0,30713:0:0:0:0:
320,192,30565,128,0,30750:0:0:0:0:
448,192,30565,1,0,0:0:0:0:
320,192,30787,1,0,0:0:0:0:
192,192,30787,1,0,0:0:0:0:
64,192,31010,1,0,0:0:0:0:
192,192,31010,1,0,0:0:0:0:
192,192,31121,1,0,0:0:0:0:
320,192,31232,1,0,0:0:0:0:
448,192,31232,1,0,0:0:0:0:
64,192,31232,1,0,0:0:0:0:
192,192,31287,1,0,0:0:0:0:
448,192,31343,1,0,0:0:0:0:
320,192,31343,1,0,0:0:0:0:
192,192,31398,1,0,0:0:0:0:
320,192,31454,1,0,0:0:0:0:
64,192,31454,1,0,0:0:0:0:
192,192,31510,1,0,0:0:0:0:
448,192,31565,1,0,0:0:0:0:
64,192,31565,1,0,0:0:0:0:
320,192,31621,1,0,0:0:0:0:
192,192,31648,1,0,0:0:0:0:
64,192,31676,128,0,31843:0:0:0:0:
448,192,31676,128,0,31843:0:0:0:0:
320,192,31787,1,0,0:0:0:0:
192,192,31898,1,0,0:0:0:0:
320,192,32010,128,0,32232:0:0:0:0:
64,192,32010,128,0,32176:0:0:0:0:
192,192,32010,1,0,0:0:0:0:
448,192,32232,1,0,0:0:0:0:
192,192,32343,128,0,32482:0:0:0:0:
64,192,32343,128,0,32565:0:0:0:0:
448,192,32343,1,0,0:0:0:0:
320,192,32343,1,0,0:0:0:0:
320,192,32454,1,0,0:0:0:0:
320,192,32565,1,0,0:0:0:0:
448,192,32565,128,0,32648:0:0:0:0:
192,192,32787,1,0,0:0:0:0:
64,192,32787,1,0,0:0:0:0:
320,192,32787,128,0,32954:0:0:0:0:
64,192,32898,1,0,0:0:0:0:
192,192,33010,1,0,0:0:0:0:
320,192,33010,1,0,0:0:0:0:
448,192,33010,1,0,0:0:0:0:
64,192,33065,1,0,0:0:0:0:
320,192,33121,1,0,0:0:0:0:
192,192,33176,1,0,0:0:0:0:
64,192,33232,1,0,0:0:0:0:
448,192,33232,1,0,0:0:0:0:
320,192,33287,1,0,0:0:0:0:
64,192,33343,1,0,0:0:0:0:
320,192,33398,1,0,0:0:0:0:
448,192,33454,1,0,0:0:0:0:
192,192,33454,128,0,33621:0:0:0:0:
64,192,33454,128,0,33676:0:0:0:0:
320,192,33510,1,0,0:0:0:0:
192,192,33676,1,0,0:0:0:0:
320,192,33787,128,0,33954:0:0:0:0:
192,192,33787,128,0,33898:0:0:0:0:
448,192,33787,1,0,0:0:0:0:
64,192,33898,1,0,0:0:0:0:
448,192,33898,1,0,0:0:0:0:
448,192,34121,128,0,34260:0:0:0:0:
192,192,34121,128,0,34176:0:0:0:0:
64,192,34121,1,0,0:0:0:0:
320,192,34121,1,0,0:0:0:0:
192,192,34232,1,0,0:0:0:0:
448,192,34343,1,0,0:0:0:0:
320,192,34343,128,0,34510:0:0:0:0:
64,192,34565,128,0,34732:0:0:0:0:
320,192,34565,1,0,0:0:0:0:
192,192,34565,1,0,0:0:0:0:
192,192,34676,1,0,0:0:0:0:
192,192,34787,128,0,35065:0:0:0:0:
448,192,34787,1,0,0:0:0:0:
64,192,34787,1,0,0:0:0:0:
320,192,34843,1,0,0:0:0:0:
64,192,34898,1,0,0:0:0:0:
320,192,34954,1,0,0:0:0:0:
448,192,35010,1,0,0:0:0:0:
64,192,35083,1,0,0:0:0:0:
192,192,35121,1,0,0:0:0:0:
448,192,35157,1,0,0:0:0:0:
64,192,35232,128,0,35343:0:0:0:0:
320,192,35232,128,0,35287:0:0:0:0:
192,192,35232,1,0,0:0:0:0:
320,192,35343,1,0,0:0:0:0:
320,192,35454,1,0,0:0:0:0:
64,192,35565,128,0,35648:0:0:0:0:
192,192,35565,128,0,35732:0:0:0:0:
448,192,35565,1,0,0:0:0:0:
448,192,35676,1,0,0:0:0:0:
320,192,35676,1,0,0:0:0:0:
320,192,35787,1,0,0:0:0:0:
64,192,35787,1,0,0:0:0:0:
192,192,35843,1,0,0:0:0:0:
320,192,35898,128,0,36065:0:0:0:0:
64,192,35898,1,0,0:0:0:0:
448,192,35898,1,0,0:0:0:0:
320,192,36121,1,0,0:0:0:0:
192,192,36121,128,0,36287:0:0:0:0:
64,192,36121,128,0,36260:0:0:0:0:
64,192,36343,1,0,0:0:0:0:
192,192,36343,1,0,0:0:0:0:
448,192,36343,1,0,0:0:0:0:
192,192,36454,1,0,0:0:0:0:
448,192,36454,1,0,0:0:0:0:
64,192,36482,1,0,0:0:0:0:
320,192,36565,1,0,0:0:0:0:
192,192,36565,1,0,0:0:0:0:
448,192,36565,1,0,0:0:0:0:
64,192,36621,1,0,0:0:0:0:
320,192,36676,1,0,0:0:0:0:
448,192,36676,1,0,0:0:0:0:
320,192,36787,1,0,0:0:0:0:
64,192,36787,1,0,0:0:0:0:
192,192,36843,1,0,0:0:0:0:
320,192,36898,1,0,0:0:0:0:
448,192,36954,1,0,0:0:0:0:
64,192,37010,1,0,0:0:0:0:
320,192,37010,1,0,0:0:0:0:
192,192,37010,128,0,37176:0:0:0:0:
64,192,37121,1,0,0:0:0:0:
192,192,37232,1,0,0:0:0:0:
448,192,37232,1,0,0:0:0:0:
64,192,37287,1,0,0:0:0:0:
192,192,37343,1,0,0:0:0:0:
320,192,37343,1,0,0:0:0:0:
448,192,37343,128,0,37510:0:0:0:0:
320,192,37454,1,0,0:0:0:0:
64,192,37454,1,0,0:0:0:0:
64,192,37565,1,0,0:0:0:0:
448,192,37565,1,0,0:0:0:0:
192,192,37565,1,0,0:0:0:0:
320,192,37676,1,0,0:0:0:0:
448,192,37676,1,0,0:0:0:0:
64,192,37676,128,0,38065:0:0:0:0:
320,192,37787,1,0,0:0:0:0:
192,192,37898,1,0,0:0:0:0:
64,192,38121,1,0,0:0:0:0:
320,192,38121,1,0,0:0:0:0:
448,192,38121,1,0,0:0:0:0:
320,192,38232,128,0,38343:0:0:0:0:
192,192,38343,1,0,0:0:0:0:
64,192,38343,1,0,0:0:0:0:
448,192,38343,1,0,0:0:0:0:
64,192,38454,1,0,0:0:0:0:
320,192,38454,1,0,0:0:0:0:
192,192,38565,1,0,0:0:0:0:
320,192,38565,1,0,0:0:0:0:
64,192,38621,1,0,0:0:0:0:
448,192,38676,1,0,0:0:0:0:
320,192,38676,1,0,0:0:0:0:
192,192,38732,1,0,0:0:0:0:
448,192,38787,1,0,0:0:0:0:
64,192,38787,1,0,0:0:0:0:
320,192,38787,1,0,0:0:0:0:
192,192,38861,1,0,0:0:0:0:
64,192,38898,1,0,0:0:0:0:
320,192,38935,1,0,0:0:0:0:
192,192,39010,1,0,0:0:0:0:
64,192,39010,1,0,0:0:0:0:
448,192,39010,1,0,0:0:0:0:
320,192,39121,1,0,0:0:0:0:
448,192,39121,1,0,0:0:0:0:
192,192,39121,1,0,0:0:0:0:
64,192,39176,1,0,0:0:0:0:
320,192,39232,1,0,0:0:0:0:
192,192,39287,1,0,0:0:0:0:
320,192,39343,1,0,0:0:0:0:
64,192,39343,1,0,0:0:0:0:
448,192,39454,1,0,0:0:0:0:
192,192,39454,128,0,39787:0:0:0:0:
64,192,39454,128,0,39676:0:0:0:0:
320,192,39787,1,0,0:0:0:0:
64,192,39787,128,0,39898:0:0:0:0:
448,192,39787,1,0,0:0:0:0:
448,192,39898,128,0,40065:0:0:0:0:
320,192,39898,128,0,40121:0:0:0:0:
192,192,39898,1,0,0:0:0:0:
64,192,40010,1,0,0:0:0:0:
192,192,40121,1,0,0:0:0:0:
448,192,40121,1,0,0:0:0:0:
64,192,40121,1,0,0:0:0:0:
192,192,40232,1,0,0:0:0:0:
64,192,40343,1,0,0:0:0:0:
320,192,40343,1,0,0:0:0:0:
448,192,40343,128,0,40510:0:0:0:0:
192,192,40454,1,0,0:0:0:0:
320,192,40510,1,0,0:0:0:0:
448,192,40565,1,0,0:0:0:0:
192,192,40565,1,0,0:0:0:0:
64,192,40565,128,0,40787:0:0:0:0:
320,192,40787,128,0,41010:0:0:0:0:
448,192,40787,1,0,0:0:0:0:
448,192,40898,1,0,0:0:0:0:
64,192,40898,1,0,0:0:0:0:
192,192,40898,1,0,0:0:0:0:
192,192,41010,128,0,41176:0:0:0:0:
64,192,41010,1,0,0:0:0:0:
320,192,41065,1,0,0:0:0:0:
448,192,41121,1,0,0:0:0:0:
64,192,41176,1,0,0:0:0:0:
448,192,41232,128,0,41510:0:0:0:0:
320,192,41232,1,0,0:0:0:0:
192,192,41232,1,0,0:0:0:0:
320,192,41343,1,0,0:0:0:0:
192,192,41454,128,0,41621:0:0:0:0:
64,192,41454,128,0,41621:0:0:0:0:
64,192,41676,1,0,0:0:0:0:
192,192,41676,1,0,0:0:0:0:
320,192,41676,128,0,41843:0:0:0:0:
448,192,41676,128,0,41843:0:0:0:0:
448,192,41898,1,0,0:0:0:0:
320,192,41898,1,0,0:0:0:0:
64,192,41898,1,0,0:0:0:0:
192,192,42010,1,0,0:0:0:0:
320,192,42121,1,0,0:0:0:0:
448,192,42121,1,0,0:0:0:0:
192,192,42176,1,0,0:0:0:0:
64,192,42232,1,0,0:0:0:0:
448,192,42287,1,0,0:0:0:0:
320,192,42343,1,0,0:0:0:0:
64,192,42343,1,0,0:0:0:0:
192,192,42343,128,0,42565:0:0:0:0:
64,192,42454,1,0,0:0:0:0:
320,192,42565,1,0,0:0:0:0:
448,192,42565,128,0,42676:0:0:0:0:
192,192,42676,1,0,0:0:0:0:
320,192,42676,128,0,42954:0:0:0:0:
64,192,42676,1,0,0:0:0:0:
448,192,42787,128,0,42954:0:0:0:0:
320,192,43010,1,0,0:0:0:0:
448,192,43010,128,0,43343:0:0:0:0:
64,192,43010,128,0,43510:0:0:0:0:
448,192,43454,1,0,0:0:0:0:
192,192,43454,1,0,0:0:0:0:
448,192,43565,1,0,0:0:0:0:
320,192,43565,1,0,0:0:0:0:
64,192,43676,1,0,0:0:0:0:
192,192,43676,1,0,0:0:0:0:
320,192,43676,1,0,0:0:0:0:
448,192,43732,1,0,0:0:0:0:
64,192,43787,1,0,0:0:0:0:
192,192,43787,1,0,0:0:0:0:
320,192,43843,1,0,0:0:0:0:
64,192,43898,1,0,0:0:0:0:
448,192,43898,1,0,0:0:0:0:
192,192,43954,1,0,0:0:0:0:
320,192,44010,1,0,0:0:0:0:
448,192,44010,1,0,0:0:0:0:
192,192,44065,1,0,0:0:0:0:
448,192,44121,1,0,0:0:0:0:
64,192,44121,1,0,0:0:0:0:
320,192,44121,128,0,44398:0:0:0:0:
64,192,44232,1,0,0:0:0:0:
192,192,44232,1,0,0:0:0:0:
192,192,44343,1,0,0:0:0:0:
448,192,44454,1,0,0:0:0:0:
320,192,44454,1,0,0:0:0:0:
192,192,44454,128,0,44732:0:0:0:0:
448,192,44565,1,0,0:0:0:0:
320,192,44676,1,0,0:0:0:0:
64,192,44676,128,0,44732:0:0:0:0:
320,192,44787,1,0,0:0:0:0:
192,192,44787,1,0,0:0:0:0:
448,192,44787,128,0,44954:0:0:0:0:
64,192,44787,128,0,45176:0:0:0:0:
448,192,45010,1,0,0:0:0:0:
320,192,45010,128,0,45176:0:0:0:0:
448,192,45121,1,0,0:0:0:0:
192,192,45232,1,0,0:0:0:0:
64,192,45232,1,0,0:0:0:0:
320,192,45232,1,0,0:0:0:0:
192,192,45343,1,0,0:0:0:0:
64,192,45454,1,0,0:0:0:0:
320,192,45454,1,0,0:0:0:0:
448,192,45454,1,0,0:0:0:0:
448,192,45510,1,0,0:0:0:0:
192,192,45565,1,0,0:0:0:0:
64,192,45565,1,0,0:0:0:0:
192,192,45676,1,0,0:0:0:0:
448,192,45676,1,0,0:0:0:0:
320,192,45732,1,0,0:0:0:0:
64,192,45750,1,0,0:0:0:0:
192,192,45824,1,0,0:0:0:0:
448,192,45898,1,0,0:0:0:0:
64,192,45898,1,0,0:0:0:0:
320,192,45898,128,0,46176:0:0:0:0:
64,192,46010,1,0,0:0:0:0:
192,192,46121,1,0,0:0:0:0:
448,192,46176,1,0,0:0:0:0:
192,192,46232,1,0,0:0:0:0:
320,192,46232,1,0,0:0:0:0:
64,192,46232,128,0,46510:0:0:0:0:
320,192,46343,1,0,0:0:0:0:
448,192,46454,1,0,0:0:0:0:
320,192,46454,1,0,0:0:0:0:
448,192,46565,1,0,0:0:0:0:
192,192,46565,128,0,46898:0:0:0:0:
64,192,46565,128,0,47121:0:0:0:0:
320,192,46787,128,0,46843:0:0:0:0:
448,192,46843,128,0,46954:0:0:0:0:
192,192,47010,1,0,0:0:0:0:
448,192,47010,1,0,0:0:0:0:
192,192,47121,1,0,0:0:0:0:
320,192,47121,1,0,0:0:0:0:
320,192,47232,1,0,0:0:0:0:
448,192,47232,1,0,0:0:0:0:
64,192,47232,1,0,0:0:0:0:
64,192,47287,1,0,0:0:0:0:
192,192,47343,1,0,0:0:0:0:
448,192,47454,1,0,0:0:0:0:
192,192,47454,1,0,0:0:0:0:
320,192,47454,128,0,47593:0:0:0:0:
64,192,47565,1,0,0:0:0:0:
192,192,47676,1,0,0:0:0:0:
64,192,47676,128,0,47843:0:0:0:0:
448,192,47676,128,0,47954:0:0:0:0:
320,192,47787,1,0,0:0:0:0:
320,192,47898,1,0,0:0:0:0:
64,192,47898,1,0,0:0:0:0:
448,192,48010,1,0,0:0:0:0:
64,192,48010,1,0,0:0:0:0:
192,192,48010,128,0,48065:0:0:0:0:
448,192,48121,1,0,0:0:0:0:
192,192,48121,1,0,0:0:0:0:
320,192,48121,128,0,48287:0:0:0:0:
64,192,48232,1,0,0:0:0:0:
192,192,48343,1,0,0:0:0:0:
320,192,48343,1,0,0:0:0:0:
448,192,48343,128,0,48787:0:0:0:0:
192,192,48565,128,0,48732:0:0:0:0:
320,192,48565,1,0,0:0:0:0:
64,192,48621,1,0,0:0:0:0:
320,192,48676,1,0,0:0:0:0:
192,192,48787,1,0,0:0:0:0:
64,192,48787,128,0,48954:0:0:0:0:
448,192,48843,1,0,0:0:0:0:
320,192,48898,1,0,0:0:0:0:
64,192,49010,1,0,0:0:0:0:
320,192,49010,128,0,49176:0:0:0:0:
448,192,49010,1,0,0:0:0:0:
192,192,49121,1,0,0:0:0:0:
320,192,49232,1,0,0:0:0:0:
448,192,49232,1,0,0:0:0:0:
192,192,49232,128,0,49371:0:0:0:0:
64,192,49343,1,0,0:0:0:0:
320,192,49398,1,0,0:0:0:0:
64,192,49454,5,0,0:0:0:0:
448,192,49454,1,0,0:0:0:0:
192,192,49491,1,0,0:0:0:0:
320,192,49527,1,0,0:0:0:0:
448,192,49565,1,0,0:0:0:0:
64,192,49602,1,0,0:0:0:0:
192,192,49638,1,0,0:0:0:0:
320,192,49676,1,0,0:0:0:0:
320,192,49787,1,0,0:0:0:0:
448,192,49787,1,0,0:0:0:0:
192,192,49787,1,0,0:0:0:0:
64,192,49898,1,0,0:0:0:0:
448,192,49898,1,0,0:0:0:0:
320,192,49935,1,0,0:0:0:0:
192,192,49972,1,0,0:0:0:0:
64,192,50010,1,0,0:0:0:0:
448,192,50046,1,0,0:0:0:0:
320,192,50083,1,0,0:0:0:0:
192,192,50121,1,0,0:0:0:0:
64,192,50121,1,0,0:0:0:0:
320,192,50176,1,0,0:0:0:0:
448,192,50232,1,0,0:0:0:0:
192,192,50287,1,0,0:0:0:0:
320,192,50343,1,0,0:0:0:0:
448,192,50343,1,0,0:0:0:0:
64,192,50343,1,0,0:0:0:0:
192,192,50565,1,0,0:0:0:0:
64,192,50565,1,0,0:0:0:0:
192,192,50787,128,0,50954:0:0:0:0:
448,192,50787,128,0,51010:0:0:0:0:
320,192,51010,1,0,0:0:0:0:
192,192,51010,1,0,0:0:0:0:
448,192,51121,1,0,0:0:0:0:
192,192,51232,1,0,0:0:0:0:
64,192,51232,1,0,0:0:0:0:
448,192,51232,1,0,0:0:0:0:
320,192,51343,1,0,0:0:0:0:
192,192,51454,1,0,0:0:0:0:
320,192,51454,1,0,0:0:0:0:
448,192,51510,1,0,0:0:0:0:
64,192,51565,1,0,0:0:0:0:
192,192,51676,128,0,51898:0:0:0:0:
448,192,51676,128,0,51843:0:0:0:0:
64,192,51676,1,0,0:0:0:0:
320,192,51898,1,0,0:0:0:0:
448,192,51898,1,0,0:0:0:0:
64,192,51898,1,0,0:0:0:0:
64,192,52010,1,0,0:0:0:0:
192,192,52010,1,0,0:0:0:0:
448,192,52010,1,0,0:0:0:0:
192,192,52121,1,0,0:0:0:0:
320,192,52121,1,0,0:0:0:0:
448,192,52121,1,0,0:0:0:0:
64,192,52176,1,0,0:0:0:0:
320,192,52232,1,0,0:0:0:0:
448,192,52232,1,0,0:0:0:0:
192,192,52343,1,0,0:0:0:0:
320,192,52343,1,0,0:0:0:0:
64,192,52398,1,0,0:0:0:0:
448,192,52454,1,0,0:0:0:0:
320,192,52454,1,0,0:0:0:0:
320,192,52565,1,0,0:0:0:0:
448,192,52565,1,0,0:0:0:0:
64,192,52565,1,0,0:0:0:0:
192,192,52676,1,0,0:0:0:0:
64,192,52676,1,0,0:0:0:0:
64,192,52787,1,0,0:0:0:0:
320,192,52787,1,0,0:0:0:0:
192,192,52843,1,0,0:0:0:0:
320,192,52898,1,0,0:0:0:0:
448,192,52898,1,0,0:0:0:0:
192,192,53010,128,0,53287:0:0:0:0:
64,192,53010,128,0,53343:0:0:0:0:
448,192,53010,128,0,53287:0:0:0:0:
192,192,53343,128,0,53621:0:0:0:0:
320,192,53343,128,0,53593:0:0:0:0:
448,192,53343,128,0,53676:0:0:0:0:
320,192,53676,128,0,54010:0:0:0:0:
192,192,53676,128,0,54065:0:0:0:0:
64,192,53676,128,0,54121:0:0:0:0:
448,192,53898,1,0,0:0:0:0:
192,192,54121,1,0,0:0:0:0:
320,192,54121,1,0,0:0:0:0:
320,192,54343,1,0,0:0:0:0:
192,192,54343,1,0,0:0:0:0:
64,192,54343,1,0,0:0:0:0:
64,192,54565,1,0,0:0:0:0:
192,192,54565,1,0,0:0:0:0:
192,192,54787,1,0,0:0:0:0:
448,192,54787,1,0,0:0:0:0:
320,192,54787,1,0,0:0:0:0:
320,192,54898,1,0,0:0:0:0:
192,192,54898,1,0,0:0:0:0:
192,192,55010,1,0,0:0:0:0:
64,192,55010,1,0,0:0:0:0:
320,192,55065,1,0,0:0:0:0:
64,192,55121,1,0,0:0:0:0:
448,192,55121,1,0,0:0:0:0:
192,192,55232,1,0,0:0:0:0:
448,192,55232,1,0,0:0:0:0:
64,192,55232,1,0,0:0:0:0:
192,192,55343,1,0,0:0:0:0:
320,192,55343,1,0,0:0:0:0:
320,192,55454,1,0,0:0:0:0:
64,192,55454,1,0,0:0:0:0:
64,192,55565,1,0,0:0:0:0:
448,192,55565,1,0,0:0:0:0:
192,192,55621,1,0,0:0:0:0:
320,192,55676,1,0,0:0:0:0:
448,192,55676,1,0,0:0:0:0:
64,192,55676,1,0,0:0:0:0:
192,192,55732,1,0,0:0:0:0:
320,192,55787,1,0,0:0:0:0:
448,192,55787,1,0,0:0:0:0:
320,192,55898,1,0,0:0:0:0:
192,192,55898,1,0,0:0:0:0:
448,192,55954,1,0,0:0:0:0:
192,192,56010,1,0,0:0:0:0:
64,192,56010,1,0,0:0:0:0:
64,192,56121,1,0,0:0:0:0:
192,192,56121,1,0,0:0:0:0:
448,192,56121,1,0,0:0:0:0:
320,192,56232,1,0,0:0:0:0:
448,192,56232,1,0,0:0:0:0:
64,192,56232,1,0,0:0:0:0:
192,192,56343,1,0,0:0:0:0:
320,192,56343,1,0,0:0:0:0:
448,192,56398,1,0,0:0:0:0:
192,192,56454,1,0,0:0:0:0:
320,192,56565,128,0,56843:0:0:0:0:
64,192,56565,128,0,56898:0:0:0:0:
448,192,56565,128,0,56787:0:0:0:0:
320,192,56898,128,0,57148:0:0:0:0:
448,192,56898,128,0,57232:0:0:0:0:
192,192,56898,128,0,57093:0:0:0:0:
192,192,57232,128,0,57454:0:0:0:0:
64,192,57232,128,0,57593:0:0:0:0:
320,192,57232,128,0,57398:0:0:0:0:
320,192,57454,1,0,0:0:0:0:
448,192,57454,1,0,0:0:0:0:
64,192,57676,1,0,0:0:0:0:
320,192,57676,1,0,0:0:0:0:
192,192,57898,1,0,0:0:0:0:
64,192,57898,1,0,0:0:0:0:
448,192,57898,1,0,0:0:0:0:
192,192,58121,1,0,0:0:0:0:
320,192,58121,1,0,0:0:0:0:
64,192,58121,128,0,58287:0:0:0:0:
64,192,58343,1,0,0:0:0:0:
320,192,58343,1,0,0:0:0:0:
448,192,58343,1,0,0:0:0:0:
192,192,58454,1,0,0:0:0:0:
64,192,58454,1,0,0:0:0:0:
320,192,58510,1,0,0:0:0:0:
192,192,58565,1,0,0:0:0:0:
448,192,58565,1,0,0:0:0:0:
64,192,58676,1,0,0:0:0:0:
320,192,58676,1,0,0:0:0:0:
448,192,58676,1,0,0:0:0:0:
320,192,58787,1,0,0:0:0:0:
192,192,58787,1,0,0:0:0:0:
64,192,58787,1,0,0:0:0:0:
192,192,58898,1,0,0:0:0:0:
64,192,58898,1,0,0:0:0:0:
64,192,59010,1,0,0:0:0:0:
448,192,59010,1,0,0:0:0:0:
320,192,59010,1,0,0:0:0:0:
192,192,59065,1,0,0:0:0:0:
320,192,59121,1,0,0:0:0:0:
448,192,59121,1,0,0:0:0:0:
64,192,59176,1,0,0:0:0:0:
320,192,59232,1,0,0:0:0:0:
192,192,59232,1,0,0:0:0:0:
448,192,59232,128,0,59565:0:0:0:0:
192,192,59343,1,0,0:0:0:0:
320,192,59454,1,0,0:0:0:0:
64,192,59454,1,0,0:0:0:0:
64,192,59565,1,0,0:0:0:0:
192,192,59621,1,0,0:0:0:0:
320,192,59676,1,0,0:0:0:0:
448,192,59676,1,0,0:0:0:0:
64,192,59676,1,0,0:0:0:0:
192,192,59750,1,0,0:0:0:0:
320,192,59787,1,0,0:0:0:0:
64,192,59898,1,0,0:0:0:0:
448,192,59898,1,0,0:0:0:0:
320,192,59972,1,0,0:0:0:0:
192,192,60010,1,0,0:0:0:0:
64,192,60010,1,0,0:0:0:0:
64,192,60121,1,0,0:0:0:0:
320,192,60121,1,0,0:0:0:0:
448,192,60121,1,0,0:0:0:0:
448,192,60232,1,0,0:0:0:0:
64,192,60268,1,0,0:0:0:0:
192,192,60268,1,0,0:0:0:0:
320,192,60268,1,0,0:0:0:0:
192,192,60343,1,0,0:0:0:0:
64,192,60454,1,0,0:0:0:0:
320,192,60454,1,0,0:0:0:0:
448,192,60454,1,0,0:0:0:0:
192,192,60565,1,0,0:0:0:0:
320,192,60565,1,0,0:0:0:0:
448,192,60565,1,0,0:0:0:0:
192,192,60621,1,0,0:0:0:0:
320,192,60676,1,0,0:0:0:0:
448,192,60732,1,0,0:0:0:0:
64,192,60787,1,0,0:0:0:0:
320,192,60787,128,0,61176:0:0:0:0:
192,192,60787,128,0,60954:0:0:0:0:
192,192,61010,1,0,0:0:0:0:
64,192,61121,1,0,0:0:0:0:
192,192,61121,1,0,0:0:0:0:
64,192,61232,1,0,0:0:0:0:
320,192,61232,1,0,0:0:0:0:
448,192,61232,1,0,0:0:0:0:
320,192,61343,1,0,0:0:0:0:
192,192,61454,1,0,0:0:0:0:
64,192,61454,1,0,0:0:0:0:
448,192,61454,1,0,0:0:0:0:
64,192,61565,1,0,0:0:0:0:
192,192,61676,1,0,0:0:0:0:
320,192,61676,1,0,0:0:0:0:
448,192,61676,1,0,0:0:0:0:
64,192,61750,1,0,0:0:0:0:
192,192,61787,1,0,0:0:0:0:
320,192,61824,1,0,0:0:0:0:
192,192,61898,1,0,0:0:0:0:
64,192,61898,1,0,0:0:0:0:
448,192,61898,1,0,0:0:0:0:
320,192,61972,1,0,0:0:0:0:
192,192,62046,1,0,0:0:0:0:
320,192,62121,128,0,62380:0:0:0:0:
64,192,62121,1,0,0:0:0:0:
448,192,62121,1,0,0:0:0:0:
192,192,62194,1,0,0:0:0:0:
448,192,62232,1,0,0:0:0:0:
64,192,62343,1,0,0:0:0:0:
192,192,62343,1,0,0:0:0:0:
448,192,62343,128,0,62491:0:0:0:0:
320,192,62416,1,0,0:0:0:0:
64,192,62454,1,0,0:0:0:0:
192,192,62565,128,0,62638:0:0:0:0:
320,192,62565,1,0,0:0:0:0:
448,192,62565,1,0,0:0:0:0:
64,192,62565,1,0,0:0:0:0:
320,192,62676,1,0,0:0:0:0:
64,192,62787,128,0,63565:0:0:0:0:
448,192,62787,128,0,63676:0:0:0:0:
192,192,62787,128,0,63305:0:0:0:0:
320,192,63898,128,0,64010:0:0:0:0:
192,192,64121,128,0,64454:0:0:0:0:
192,192,64565,1,0,0:0:0:0:
448,192,64565,1,0,0:0:0:0:
64,192,64565,1,0,0:0:0:0:
192,192,64676,1,0,0:0:0:0:
64,192,64787,1,0,0:0:0:0:
320,192,64787,1,0,0:0:0:0:
448,192,64787,1,0,0:0:0:0:
192,192,64843,1,0,0:0:0:0:
448,192,64898,1,0,0:0:0:0:
320,192,64935,1,0,0:0:0:0:
192,192,64972,1,0,0:0:0:0:
448,192,65010,1,0,0:0:0:0:
64,192,65010,1,0,0:0:0:0:
320,192,65121,1,0,0:0:0:0:
64,192,65121,1,0,0:0:0:0:
192,192,65232,1,0,0:0:0:0:
320,192,65232,1,0,0:0:0:0:
448,192,65232,1,0,0:0:0:0:
64,192,65305,1,0,0:0:0:0:
448,192,65343,1,0,0:0:0:0:
320,192,65398,1,0,0:0:0:0:
64,192,65454,1,0,0:0:0:0:
192,192,65454,1,0,0:0:0:0:
448,192,65510,1,0,0:0:0:0:
192,192,65565,1,0,0:0:0:0:
64,192,65676,1,0,0:0:0:0:
320,192,65676,1,0,0:0:0:0:
192,192,65732,1,0,0:0:0:0:
448,192,65787,1,0,0:0:0:0:
64,192,65787,1,0,0:0:0:0:
192,192,65898,1,0,0:0:0:0:
320,192,65898,1,0,0:0:0:0:
448,192,65898,1,0,0:0:0:0:
192,192,66010,1,0,0:0:0:0:
64,192,66121,1,0,0:0:0:0:
320,192,66121,1,0,0:0:0:0:
192,192,66176,1,0,0:0:0:0:
320,192,66232,1,0,0:0:0:0:
448,192,66287,1,0,0:0:0:0:
64,192,66343,1,0,0:0:0:0:
192,192,66343,1,0,0:0:0:0:
320,192,66343,1,0,0:0:0:0:
64,192,66454,1,0,0:0:0:0:
192,192,66565,1,0,0:0:0:0:
448,192,66565,1,0,0:0:0:0:
64,192,66565,1,0,0:0:0:0:
320,192,66676,1,0,0:0:0:0:
192,192,66732,1,0,0:0:0:0:
64,192,66787,1,0,0:0:0:0:
448,192,66787,1,0,0:0:0:0:
320,192,66787,1,0,0:0:0:0:
448,192,66898,1,0,0:0:0:0:
320,192,67010,1,0,0:0:0:0:
192,192,67010,1,0,0:0:0:0:
64,192,67010,1,0,0:0:0:0:
192,192,67121,1,0,0:0:0:0:
64,192,67232,1,0,0:0:0:0:
320,192,67232,1,0,0:0:0:0:
448,192,67232,1,0,0:0:0:0:
64,192,67343,1,0,0:0:0:0:
192,192,67343,1,0,0:0:0:0:
320,192,67343,1,0,0:0:0:0:
192,192,67454,1,0,0:0:0:0:
448,192,67454,1,0,0:0:0:0:
320,192,67565,1,0,0:0:0:0:
64,192,67565,1,0,0:0:0:0:
192,192,67638,1,0,0:0:0:0:
448,192,67676,1,0,0:0:0:0:
320,192,67676,1,0,0:0:0:0:
64,192,67676,1,0,0:0:0:0:
64,192,67750,1,0,0:0:0:0:
192,192,67787,1,0,0:0:0:0:
320,192,67824,1,0,0:0:0:0:
192,192,67898,1,0,0:0:0:0:
64,192,67898,1,0,0:0:0:0:
320,192,67972,1,0,0:0:0:0:
64,192,68010,1,0,0:0:0:0:
448,192,68046,1,0,0:0:0:0:
192,192,68065,1,0,0:0:0:0:
320,192,68121,1,0,0:0:0:0:
448,192,68121,1,0,0:0:0:0:
64,192,68121,1,0,0:0:0:0:
192,192,68194,1,0,0:0:0:0:
64,192,68343,1,0,0:0:0:0:
320,192,68343,1,0,0:0:0:0:
192,192,68343,1,0,0:0:0:0:
320,192,68454,1,0,0:0:0:0:
448,192,68454,1,0,0:0:0:0:
192,192,68565,1,0,0:0:0:0:
64,192,68565,1,0,0:0:0:0:
448,192,68565,1,0,0:0:0:0:
320,192,68638,1,0,0:0:0:0:
64,192,68713,1,0,0:0:0:0:
192,192,68750,1,0,0:0:0:0:
320,192,68787,1,0,0:0:0:0:
448,192,68787,1,0,0:0:0:0:
192,192,68898,1,0,0:0:0:0:
320,192,68898,1,0,0:0:0:0:
64,192,69010,1,0,0:0:0:0:
192,192,69010,1,0,0:0:0:0:
448,192,69010,1,0,0:0:0:0:
320,192,69083,1,0,0:0:0:0:
64,192,69121,1,0,0:0:0:0:
448,192,69157,1,0,0:0:0:0:
64,192,69232,1,0,0:0:0:0:
192,192,69232,1,0,0:0:0:0:
320,192,69268,1,0,0:0:0:0:
448,192,69305,1,0,0:0:0:0:
192,192,69343,1,0,0:0:0:0:
64,192,69454,1,0,0:0:0:0:
448,192,69454,1,0,0:0:0:0:
320,192,69454,1,0,0:0:0:0:
192,192,69565,1,0,0:0:0:0:
448,192,69565,1,0,0:0:0:0:
320,192,69621,1,0,0:0:0:0:
64,192,69676,1,0,0:0:0:0:
192,192,69676,1,0,0:0:0:0:
320,192,69732,1,0,0:0:0:0:
448,192,69787,1,0,0:0:0:0:
64,192,69787,1,0,0:0:0:0:
192,192,69861,1,0,0:0:0:0:
320,192,69898,1,0,0:0:0:0:
448,192,69898,1,0,0:0:0:0:
64,192,69898,1,0,0:0:0:0:
320,192,70010,1,0,0:0:0:0:
192,192,70010,1,0,0:0:0:0:
64,192,70010,1,0,0:0:0:0:
192,192,70121,1,0,0:0:0:0:
448,192,70121,1,0,0:0:0:0:
320,192,70121,1,0,0:0:0:0:
320,192,70232,1,0,0:0:0:0:
448,192,70232,1,0,0:0:0:0:
192,192,70343,1,0,0:0:0:0:
64,192,70343,1,0,0:0:0:0:
448,192,70343,1,0,0:0:0:0:
192,192,70454,1,0,0:0:0:0:
64,192,70454,1,0,0:0:0:0:
320,192,70454,1,0,0:0:0:0:
64,192,70565,1,0,0:0:0:0:
320,192,70565,1,0,0:0:0:0:
192,192,70621,1,0,0:0:0:0:
448,192,70676,1,0,0:0:0:0:
320,192,70676,1,0,0:0:0:0:
64,192,70787,1,0,0:0:0:0:
192,192,70787,1,0,0:0:0:0:
448,192,70787,1,0,0:0:0:0:
320,192,70843,1,0,0:0:0:0:
64,192,70898,1,0,0:0:0:0:
192,192,70954,1,0,0:0:0:0:
320,192,71010,1,0,0:0:0:0:
448,192,71010,1,0,0:0:0:0:
64,192,71065,1,0,0:0:0:0:
320,192,71121,1,0,0:0:0:0:
192,192,71176,1,0,0:0:0:0:
64,192,71232,1,0,0:0:0:0:
320,192,71232,1,0,0:0:0:0:
448,192,71232,1,0,0:0:0:0:
192,192,71343,1,0,0:0:0:0:
320,192,71343,1,0,0:0:0:0:
448,192,71454,1,0,0:0:0:0:
64,192,71454,1,0,0:0:0:0:
320,192,71510,1,0,0:0:0:0:
192,192,71565,1,0,0:0:0:0:
448,192,71638,1,0,0:0:0:0:
320,192,71676,1,0,0:0:0:0:
192,192,71676,1,0,0:0:0:0:
64,192,71676,1,0,0:0:0:0:
448,192,71750,1,0,0:0:0:0:
192,192,71787,1,0,0:0:0:0:
64,192,71861,1,0,0:0:0:0:
192,192,71898,1,0,0:0:0:0:
320,192,71898,1,0,0:0:0:0:
448,192,71954,1,0,0:0:0:0:
64,192,72010,1,0,0:0:0:0:
320,192,72065,1,0,0:0:0:0:
192,192,72121,1,0,0:0:0:0:
64,192,72121,1,0,0:0:0:0:
448,192,72121,1,0,0:0:0:0:
192,192,72232,1,0,0:0:0:0:
320,192,72232,1,0,0:0:0:0:
64,192,72343,1,0,0:0:0:0:
320,192,72343,1,0,0:0:0:0:
192,192,72398,1,0,0:0:0:0:
448,192,72454,1,0,0:0:0:0:
320,192,72454,1,0,0:0:0:0:
192,192,72565,1,0,0:0:0:0:
64,192,72565,1,0,0:0:0:0:
320,192,72565,1,0,0:0:0:0:
64,192,72638,1,0,0:0:0:0:
192,192,72676,1,0,0:0:0:0:
448,192,72676,1,0,0:0:0:0:
320,192,72732,1,0,0:0:0:0:
192,192,72787,1,0,0:0:0:0:
64,192,72787,1,0,0:0:0:0:
448,192,72843,1,0,0:0:0:0:
64,192,72898,1,0,0:0:0:0:
320,192,72898,1,0,0:0:0:0:
192,192,72954,1,0,0:0:0:0:
320,192,73010,1,0,0:0:0:0:
448,192,73010,1,0,0:0:0:0:
64,192,73065,1,0,0:0:0:0:
448,192,73121,1,0,0:0:0:0:
192,192,73176,1,0,0:0:0:0:
64,192,73232,1,0,0:0:0:0:
320,192,73232,1,0,0:0:0:0:
192,192,73305,1,0,0:0:0:0:
320,192,73343,1,0,0:0:0:0:
448,192,73343,1,0,0:0:0:0:
64,192,73380,1,0,0:0:0:0:
192,192,73454,1,0,0:0:0:0:
320,192,73454,1,0,0:0:0:0:
448,192,73454,1,0,0:0:0:0:
64,192,73527,1,0,0:0:0:0:
192,192,73565,1,0,0:0:0:0:
448,192,73565,1,0,0:0:0:0:
320,192,73621,1,0,0:0:0:0:
64,192,73676,1,0,0:0:0:0:
448,192,73676,1,0,0:0:0:0:
192,192,73732,1,0,0:0:0:0:
320,192,73750,1,0,0:0:0:0:
64,192,73787,1,0,0:0:0:0:
448,192,73815,1,0,0:0:0:0:
320,192,73871,1,0,0:0:0:0:
64,192,73898,1,0,0:0:0:0:
192,192,73898,1,0,0:0:0:0:
192,192,74010,1,0,0:0:0:0:
448,192,74010,1,0,0:0:0:0:
320,192,74121,1,0,0:0:0:0:
64,192,74121,1,0,0:0:0:0:
448,192,74121,1,0,0:0:0:0:
192,192,74232,1,0,0:0:0:0:
64,192,74343,1,0,0:0:0:0:
192,192,74343,1,0,0:0:0:0:
448,192,74343,1,0,0:0:0:0:
64,192,74454,1,0,0:0:0:0:
192,192,74454,1,0,0:0:0:0:
320,192,74454,1,0,0:0:0:0:
320,192,74565,1,0,0:0:0:0:
448,192,74565,1,0,0:0:0:0:
192,192,74621,1,0,0:0:0:0:
64,192,74676,1,0,0:0:0:0:
448,192,74676,1,0,0:0:0:0:
192,192,74787,1,0,0:0:0:0:
64,192,74787,1,0,0:0:0:0:
320,192,74787,1,0,0:0:0:0:
192,192,74843,1,0,0:0:0:0:
64,192,74898,1,0,0:0:0:0:
320,192,74954,1,0,0:0:0:0:
192,192,75010,1,0,0:0:0:0:
448,192,75010,1,0,0:0:0:0:
64,192,75065,1,0,0:0:0:0:
320,192,75083,1,0,0:0:0:0:
192,192,75157,1,0,0:0:0:0:
320,192,75232,1,0,0:0:0:0:
448,192,75232,1,0,0:0:0:0:
64,192,75232,1,0,0:0:0:0:
448,192,75343,1,0,0:0:0:0:
320,192,75454,1,0,0:0:0:0:
192,192,75454,1,0,0:0:0:0:
64,192,75454,1,0,0:0:0:0:
192,192,75565,1,0,0:0:0:0:
64,192,75676,1,0,0:0:0:0:
320,192,75676,1,0,0:0:0:0:
448,192,75676,1,0,0:0:0:0:
448,192,75787,1,0,0:0:0:0:
192,192,75898,1,0,0:0:0:0:
448,192,75898,1,0,0:0:0:0:
64,192,75898,1,0,0:0:0:0:
320,192,76010,1,0,0:0:0:0:
192,192,76010,1,0,0:0:0:0:
64,192,76121,1,0,0:0:0:0:
448,192,76121,1,0,0:0:0:0:
320,192,76121,1,0,0:0:0:0:
64,192,76232,1,0,0:0:0:0:
192,192,76232,1,0,0:0:0:0:
320,192,76287,1,0,0:0:0:0:
192,192,76343,1,0,0:0:0:0:
448,192,76343,1,0,0:0:0:0:
64,192,76398,1,0,0:0:0:0:
192,192,76416,1,0,0:0:0:0:
448,192,76454,1,0,0:0:0:0:
320,192,76491,1,0,0:0:0:0:
448,192,76565,1,0,0:0:0:0:
192,192,76565,1,0,0:0:0:0:
64,192,76565,1,0,0:0:0:0:
192,192,76676,1,0,0:0:0:0:
64,192,76787,1,0,0:0:0:0:
448,192,76787,1,0,0:0:0:0:
320,192,76787,1,0,0:0:0:0:
192,192,76898,1,0,0:0:0:0:
64,192,76898,1,0,0:0:0:0:
448,192,76954,1,0,0:0:0:0:
320,192,77010,5,0,0:0:0:0:
64,192,77010,1,0,0:0:0:0:
192,192,77065,1,0,0:0:0:0:
448,192,77083,1,0,0:0:0:0:
64,192,77121,1,0,0:0:0:0:
320,192,77157,1,0,0:0:0:0:
64,192,77232,1,0,0:0:0:0:
448,192,77232,1,0,0:0:0:0:
192,192,77268,5,0,0:0:0:0:
320,192,77343,5,0,0:0:0:0:
64,192,77343,1,0,0:0:0:0:
448,192,77416,1,0,0:0:0:0:
192,192,77454,1,0,0:0:0:0:
320,192,77454,1,0,0:0:0:0:
64,192,77527,1,0,0:0:0:0:
320,192,77565,1,0,0:0:0:0:
192,192,77602,1,0,0:0:0:0:
448,192,77638,1,0,0:0:0:0:
320,192,77676,1,0,0:0:0:0:
64,192,77713,1,0,0:0:0:0:
192,192,77750,1,0,0:0:0:0:
448,192,77787,1,0,0:0:0:0:
320,192,77787,1,0,0:0:0:0:
64,192,77824,1,0,0:0:0:0:
192,192,77898,1,0,0:0:0:0:
448,192,77898,1,0,0:0:0:0:
320,192,77972,1,0,0:0:0:0:
192,192,78010,1,0,0:0:0:0:
64,192,78010,1,0,0:0:0:0:
448,192,78083,1,0,0:0:0:0:
64,192,78121,1,0,0:0:0:0:
192,192,78176,1,0,0:0:0:0:
448,192,78232,1,0,0:0:0:0:
320,192,78232,1,0,0:0:0:0:
192,192,78287,1,0,0:0:0:0:
64,192,78343,1,0,0:0:0:0:
448,192,78343,1,0,0:0:0:0:
320,192,78398,1,0,0:0:0:0:
64,192,78454,1,0,0:0:0:0:
448,192,78454,1,0,0:0:0:0:
192,192,78491,1,0,0:0:0:0:
448,192,78565,5,0,0:0:0:0:
320,192,78565,1,0,0:0:0:0:
64,192,78565,1,0,0:0:0:0:
320,192,78676,1,0,0:0:0:0:
192,192,78676,1,0,0:0:0:0:
192,192,78787,1,0,0:0:0:0:
64,192,78787,1,0,0:0:0:0:
448,192,78787,1,0,0:0:0:0:
320,192,78787,1,0,0:0:0:0:
448,192,78898,1,0,0:0:0:0:
320,192,79010,1,0,0:0:0:0:
448,192,79010,1,0,0:0:0:0:
64,192,79010,1,0,0:0:0:0:
64,192,79121,1,0,0:0:0:0:
192,192,79232,1,0,0:0:0:0:
320,192,79232,1,0,0:0:0:0:
448,192,79232,1,0,0:0:0:0:
192,192,79343,1,0,0:0:0:0:
64,192,79454,1,0,0:0:0:0:
448,192,79454,1,0,0:0:0:0:
192,192,79454,1,0,0:0:0:0:
320,192,79565,1,0,0:0:0:0:
64,192,79565,1,0,0:0:0:0:
192,192,79621,1,0,0:0:0:0:
64,192,79676,1,0,0:0:0:0:
448,192,79676,1,0,0:0:0:0:
448,192,79787,1,0,0:0:0:0:
192,192,79787,1,0,0:0:0:0:
320,192,79824,1,0,0:0:0:0:
320,192,79898,1,0,0:0:0:0:
64,192,79898,1,0,0:0:0:0:
192,192,79898,1,0,0:0:0:0:
448,192,79972,1,0,0:0:0:0:
64,192,80010,1,0,0:0:0:0:
192,192,80010,1,0,0:0:0:0:
64,192,80121,1,0,0:0:0:0:
320,192,80121,1,0,0:0:0:0:
448,192,80121,1,0,0:0:0:0:
192,192,80176,1,0,0:0:0:0:
448,192,80232,1,0,0:0:0:0:
320,192,80287,1,0,0:0:0:0:
192,192,80343,1,0,0:0:0:0:
64,192,80343,1,0,0:0:0:0:
320,192,80416,1,0,0:0:0:0:
192,192,80454,1,0,0:0:0:0:
448,192,80454,1,0,0:0:0:0:
64,192,80510,1,0,0:0:0:0:
448,192,80565,1,0,0:0:0:0:
320,192,80565,1,0,0:0:0:0:
192,192,80565,1,0,0:0:0:0:
320,192,80676,1,0,0:0:0:0:
192,192,80787,1,0,0:0:0:0:
64,192,80787,1,0,0:0:0:0:
448,192,80787,1,0,0:0:0:0:
192,192,80898,1,0,0:0:0:0:
64,192,81010,1,0,0:0:0:0:
320,192,81010,1,0,0:0:0:0:
448,192,81010,1,0,0:0:0:0:
320,192,81121,1,0,0:0:0:0:
192,192,81121,1,0,0:0:0:0:
320,192,81232,1,0,0:0:0:0:
64,192,81232,1,0,0:0:0:0:
192,192,81305,1,0,0:0:0:0:
448,192,81380,1,0,0:0:0:0:
320,192,81454,1,0,0:0:0:0:
448,192,81454,1,0,0:0:0:0:
64,192,81454,1,0,0:0:0:0:
320,192,81565,1,0,0:0:0:0:
64,192,81565,1,0,0:0:0:0:
192,192,81565,1,0,0:0:0:0:
192,192,81676,1,0,0:0:0:0:
320,192,81676,1,0,0:0:0:0:
64,192,81732,1,0,0:0:0:0:
448,192,81787,1,0,0:0:0:0:
192,192,81843,1,0,0:0:0:0:
320,192,81898,1,0,0:0:0:0:
448,192,81898,1,0,0:0:0:0:
64,192,81898,1,0,0:0:0:0:
448,192,82010,1,0,0:0:0:0:
192,192,82010,1,0,0:0:0:0:
320,192,82065,1,0,0:0:0:0:
64,192,82121,1,0,0:0:0:0:
192,192,82121,1,0,0:0:0:0:
448,192,82121,1,0,0:0:0:0:
64,192,82232,1,0,0:0:0:0:
192,192,82287,1,0,0:0:0:0:
320,192,82343,1,0,0:0:0:0:
448,192,82343,1,0,0:0:0:0:
64,192,82343,1,0,0:0:0:0:
320,192,82454,1,0,0:0:0:0:
192,192,82565,1,0,0:0:0:0:
64,192,82565,1,0,0:0:0:0:
320,192,82565,1,0,0:0:0:0:
192,192,82676,1,0,0:0:0:0:
192,192,82787,1,0,0:0:0:0:
64,192,82787,1,0,0:0:0:0:
448,192,82787,1,0,0:0:0:0:
64,192,82898,1,0,0:0:0:0:
64,192,83010,1,0,0:0:0:0:
192,192,83010,1,0,0:0:0:0:
320,192,83010,1,0,0:0:0:0:
320,192,83121,1,0,0:0:0:0:
448,192,83121,1,0,0:0:0:0:
192,192,83232,1,0,0:0:0:0:
64,192,83232,1,0,0:0:0:0:
448,192,83232,1,0,0:0:0:0:
320,192,83343,1,0,0:0:0:0:
64,192,83398,1,0,0:0:0:0:
448,192,83454,1,0,0:0:0:0:
320,192,83454,1,0,0:0:0:0:
192,192,83454,1,0,0:0:0:0:
192,192,83565,1,0,0:0:0:0:
448,192,83565,1,0,0:0:0:0:
64,192,83565,1,0,0:0:0:0:
320,192,83676,1,0,0:0:0:0:
192,192,83676,1,0,0:0:0:0:
64,192,83676,1,0,0:0:0:0:
320,192,83787,1,0,0:0:0:0:
64,192,83898,1,0,0:0:0:0:
448,192,83898,1,0,0:0:0:0:
192,192,84010,1,0,0:0:0:0:
448,192,84010,1,0,0:0:0:0:
320,192,84121,1,0,0:0:0:0:
448,192,84121,1,0,0:0:0:0:
64,192,84121,1,0,0:0:0:0:
192,192,84176,1,0,0:0:0:0:
320,192,84232,1,0,0:0:0:0:
448,192,84268,1,0,0:0:0:0:
192,192,84343,1,0,0:0:0:0:
64,192,84343,1,0,0:0:0:0:
448,192,84343,1,0,0:0:0:0:
320,192,84416,1,0,0:0:0:0:
192,192,84454,1,0,0:0:0:0:
64,192,84565,1,0,0:0:0:0:
448,192,84565,1,0,0:0:0:0:
320,192,84565,1,0,0:0:0:0:
64,192,84676,1,0,0:0:0:0:
192,192,84676,1,0,0:0:0:0:
448,192,84713,1,0,0:0:0:0:
320,192,84787,1,0,0:0:0:0:
192,192,84861,1,0,0:0:0:0:
64,192,84898,1,0,0:0:0:0:
320,192,84935,1,0,0:0:0:0:
448,192,84972,1,0,0:0:0:0:
192,192,85010,1,0,0:0:0:0:
64,192,85010,1,0,0:0:0:0:
320,192,85010,1,0,0:0:0:0:
192,192,85121,1,0,0:0:0:0:
64,192,85121,1,0,0:0:0:0:
64,192,85232,1,0,0:0:0:0:
448,192,85232,1,0,0:0:0:0:
320,192,85305,1,0,0:0:0:0:
192,192,85380,1,0,0:0:0:0:
320,192,85454,1,0,0:0:0:0:
448,192,85454,1,0,0:0:0:0:
64,192,85454,1,0,0:0:0:0:
192,192,85510,1,0,0:0:0:0:
320,192,85565,1,0,0:0:0:0:
448,192,85565,1,0,0:0:0:0:
64,192,85676,1,0,0:0:0:0:
192,192,85676,1,0,0:0:0:0:
448,192,85676,1,0,0:0:0:0:
64,192,85787,1,0,0:0:0:0:
192,192,85787,1,0,0:0:0:0:
320,192,85787,1,0,0:0:0:0:
64,192,85898,1,0,0:0:0:0:
320,192,85898,1,0,0:0:0:0:
448,192,85898,1,0,0:0:0:0:
192,192,85898,1,0,0:0:0:0:
320,192,86010,1,0,0:0:0:0:
64,192,86121,1,0,0:0:0:0:
192,192,86121,1,0,0:0:0:0:
448,192,86121,1,0,0:0:0:0:
192,192,86232,1,0,0:0:0:0:
64,192,86343,1,0,0:0:0:0:
320,192,86343,1,0,0:0:0:0:
448,192,86343,1,0,0:0:0:0:
192,192,86416,1,0,0:0:0:0:
448,192,86454,1,0,0:0:0:0:
320,192,86565,1,0,0:0:0:0:
192,192,86565,1,0,0:0:0:0:
64,192,86565,1,0,0:0:0:0:
448,192,86638,1,0,0:0:0:0:
64,192,86676,1,0,0:0:0:0:
192,192,86713,1,0,0:0:0:0:
448,192,86787,1,0,0:0:0:0:
320,192,86787,1,0,0:0:0:0:
64,192,86787,1,0,0:0:0:0:
192,192,86843,1,0,0:0:0:0:
320,192,86898,1,0,0:0:0:0:
192,192,86935,1,0,0:0:0:0:
64,192,87010,1,0,0:0:0:0:
448,192,87010,1,0,0:0:0:0:
192,192,87046,1,0,0:0:0:0:
320,192,87083,1,0,0:0:0:0:
64,192,87121,1,0,0:0:0:0:
192,192,87157,1,0,0:0:0:0:
320,192,87232,1,0,0:0:0:0:
448,192,87232,1,0,0:0:0:0:
64,192,87232,1,0,0:0:0:0:
192,192,87287,1,0,0:0:0:0:
320,192,87343,1,0,0:0:0:0:
192,192,87454,1,0,0:0:0:0:
64,192,87454,1,0,0:0:0:0:
448,192,87454,1,0,0:0:0:0:
320,192,87565,1,0,0:0:0:0:
192,192,87565,1,0,0:0:0:0:
64,192,87621,1,0,0:0:0:0:
192,192,87676,1,0,0:0:0:0:
320,192,87676,1,0,0:0:0:0:
448,192,87676,1,0,0:0:0:0:
448,192,87787,1,0,0:0:0:0:
320,192,87898,1,0,0:0:0:0:
192,192,87898,1,0,0:0:0:0:
64,192,87898,1,0,0:0:0:0:
64,192,88010,1,0,0:0:0:0:
64,192,88121,1,0,0:0:0:0:
320,192,88121,1,0,0:0:0:0:
448,192,88121,1,0,0:0:0:0:
448,192,88232,1,0,0:0:0:0:
192,192,88232,1,0,0:0:0:0:
192,192,88343,1,0,0:0:0:0:
320,192,88343,1,0,0:0:0:0:
64,192,88398,1,0,0:0:0:0:
448,192,88454,1,0,0:0:0:0:
192,192,88510,1,0,0:0:0:0:
320,192,88565,1,0,0:0:0:0:
448,192,88565,1,0,0:0:0:0:
64,192,88565,1,0,0:0:0:0:
320,192,88676,1,0,0:0:0:0:
64,192,88676,1,0,0:0:0:0:
192,192,88787,1,0,0:0:0:0:
64,192,88787,1,0,0:0:0:0:
448,192,88787,1,0,0:0:0:0:
192,192,88898,1,0,0:0:0:0:
320,192,88898,1,0,0:0:0:0:
320,192,89010,1,0,0:0:0:0:
448,192,89010,1,0,0:0:0:0:
64,192,89010,1,0,0:0:0:0:
192,192,89121,1,0,0:0:0:0:
64,192,89121,1,0,0:0:0:0:
448,192,89232,1,0,0:0:0:0:
64,192,89232,1,0,0:0:0:0:
320,192,89343,1,0,0:0:0:0:
448,192,89343,1,0,0:0:0:0:
320,192,89454,1,0,0:0:0:0:
192,192,89454,1,0,0:0:0:0:
64,192,89454,1,0,0:0:0:0:
448,192,89454,1,0,0:0:0:0:
64,192,89565,1,0,0:0:0:0:
320,192,89676,1,0,0:0:0:0:
192,192,89676,1,0,0:0:0:0:
320,192,89787,1,0,0:0:0:0:
448,192,89787,1,0,0:0:0:0:
64,192,89898,1,0,0:0:0:0:
192,192,89898,1,0,0:0:0:0:
448,192,89898,1,0,0:0:0:0:
320,192,90010,1,0,0:0:0:0:
192,192,90010,1,0,0:0:0:0:
64,192,90010,1,0,0:0:0:0:
64,192,90121,1,0,0:0:0:0:
320,192,90121,1,0,0:0:0:0:
448,192,90121,1,0,0:0:0:0:
192,192,90232,1,0,0:0:0:0:
320,192,90232,1,0,0:0:0:0:
448,192,90232,1,0,0:0:0:0:
192,192,90343,1,0,0:0:0:0:
64,192,90343,1,0,0:0:0:0:
448,192,90343,1,0,0:0:0:0:
192,192,90454,1,0,0:0:0:0:
64,192,90454,1,0,0:0:0:0:
320,192,90454,1,0,0:0:0:0:
192,192,90565,1,0,0:0:0:0:
448,192,90565,1,0,0:0:0:0:
320,192,90565,1,0,0:0:0:0:
64,192,90676,1,0,0:0:0:0:
320,192,90676,1,0,0:0:0:0:
448,192,90676,1,0,0:0:0:0:
192,192,90787,1,0,0:0:0:0:
64,192,90787,1,0,0:0:0:0:
320,192,90787,1,0,0:0:0:0:
448,192,90843,1,0,0:0:0:0:
64,192,90898,1,0,0:0:0:0:
192,192,90898,1,0,0:0:0:0:
320,192,90954,1,0,0:0:0:0:
64,192,91010,1,0,0:0:0:0:
192,192,91010,1,0,0:0:0:0:
448,192,91065,1,0,0:0:0:0:
320,192,91121,1,0,0:0:0:0:
192,192,91121,1,0,0:0:0:0:
64,192,91176,1,0,0:0:0:0:
448,192,91232,1,0,0:0:0:0:
192,192,91232,1,0,0:0:0:0:
320,192,91232,128,0,91787:0:0:0:0:
64,192,91676,1,0,0:0:0:0:
320,192,91898,1,0,0:0:0:0:
448,192,92065,128,0,92287:0:0:0:0:
64,192,92121,128,0,92454:0:0:0:0:
192,192,92121,128,0,92343:0:0:0:0:
320,192,92121,1,0,0:0:0:0:
448,192,92343,1,0,0:0:0:0:
192,192,92565,1,0,0:0:0:0:
64,192,92565,1,0,0:0:0:0:
64,192,92787,128,0,92898:0:0:0:0:
192,192,92898,128,0,93010:0:0:0:0:
448,192,92898,128,0,92954:0:0:0:0:
448,192,93010,1,0,0:0:0:0:
64,192,93010,1,0,0:0:0:0:
320,192,93010,128,0,93148:0:0:0:0:
192,192,93232,1,0,0:0:0:0:
448,192,93232,128,0,93371:0:0:0:0:
64,192,93287,1,0,0:0:0:0:
320,192,93343,1,0,0:0:0:0:
192,192,93371,1,0,0:0:0:0:
64,192,93454,1,0,0:0:0:0:
192,192,93454,1,0,0:0:0:0:
448,192,93454,1,0,0:0:0:0:
320,192,93565,1,0,0:0:0:0:
448,192,93565,1,0,0:0:0:0:
320,192,93676,1,0,0:0:0:0:
64,192,93676,1,0,0:0:0:0:
448,192,93713,1,0,0:0:0:0:
64,192,93750,1,0,0:0:0:0:
320,192,93787,1,0,0:0:0:0:
192,192,93824,1,0,0:0:0:0:
64,192,93898,1,0,0:0:0:0:
448,192,93898,128,0,94065:0:0:0:0:
320,192,93926,128,0,94093:0:0:0:0:
192,192,94010,1,0,0:0:0:0:
192,192,94121,1,0,0:0:0:0:
448,192,94121,1,0,0:0:0:0:
320,192,94232,128,0,94343:0:0:0:0:
448,192,94232,1,0,0:0:0:0:
64,192,94260,128,0,94398:0:0:0:0:
192,192,94343,1,0,0:0:0:0:
320,192,94454,1,0,0:0:0:0:
64,192,94454,1,0,0:0:0:0:
448,192,94565,1,0,0:0:0:0:
192,192,94565,128,0,94760:0:0:0:0:
320,192,94565,128,0,94732:0:0:0:0:
320,192,94787,1,0,0:0:0:0:
448,192,94787,1,0,0:0:0:0:
64,192,94898,1,0,0:0:0:0:
192,192,94898,1,0,0:0:0:0:
320,192,94898,1,0,0:0:0:0:
192,192,95010,128,0,95232:0:0:0:0:
320,192,95010,128,0,95148:0:0:0:0:
320,192,95232,1,0,0:0:0:0:
64,192,95232,1,0,0:0:0:0:
448,192,95232,128,0,95454:0:0:0:0:
320,192,95343,1,0,0:0:0:0:
64,192,95454,1,0,0:0:0:0:
192,192,95454,1,0,0:0:0:0:
320,192,95454,128,0,95621:0:0:0:0:
448,192,95565,1,0,0:0:0:0:
192,192,95565,128,0,95676:0:0:0:0:
64,192,95676,128,0,95898:0:0:0:0:
448,192,95676,1,0,0:0:0:0:
320,192,95676,128,0,95954:0:0:0:0:
192,192,95898,128,0,96010:0:0:0:0:
64,192,96010,1,0,0:0:0:0:
448,192,96010,128,0,96343:0:0:0:0:
320,192,96010,128,0,96232:0:0:0:0:
192,192,96232,1,0,0:0:0:0:
192,192,96343,128,0,96565:0:0:0:0:
64,192,96343,1,0,0:0:0:0:
320,192,96343,128,0,96510:0:0:0:0:
448,192,96565,1,0,0:0:0:0:
320,192,96621,1,0,0:0:0:0:
192,192,96676,1,0,0:0:0:0:
448,192,96676,1,0,0:0:0:0:
64,192,96732,1,0,0:0:0:0:
320,192,96760,1,0,0:0:0:0:
192,192,96787,1,0,0:0:0:0:
64,192,96843,1,0,0:0:0:0:
192,192,96898,1,0,0:0:0:0:
448,192,96898,1,0,0:0:0:0:
320,192,96954,1,0,0:0:0:0:
64,192,97010,1,0,0:0:0:0:
448,192,97010,1,0,0:0:0:0:
192,192,97065,1,0,0:0:0:0:
320,192,97121,1,0,0:0:0:0:
64,192,97176,1,0,0:0:0:0:
192,192,97232,1,0,0:0:0:0:
448,192,97232,1,0,0:0:0:0:
64,192,97287,1,0,0:0:0:0:
192,192,97343,1,0,0:0:0:0:
320,192,97343,1,0,0:0:0:0:
448,192,97398,1,0,0:0:0:0:
64,192,97454,1,0,0:0:0:0:
192,192,97454,1,0,0:0:0:0:
320,192,97510,1,0,0:0:0:0:
448,192,97565,1,0,0:0:0:0:
192,192,97593,1,0,0:0:0:0:
64,192,97621,1,0,0:0:0:0:
320,192,97676,1,0,0:0:0:0:
192,192,97732,1,0,0:0:0:0:
448,192,97787,1,0,0:0:0:0:
320,192,97787,1,0,0:0:0:0:
64,192,97843,1,0,0:0:0:0:
192,192,97898,1,0,0:0:0:0:
448,192,97898,1,0,0:0:0:0:
320,192,97954,1,0,0:0:0:0:
64,192,98010,1,0,0:0:0:0:
192,192,98037,1,0,0:0:0:0:
448,192,98065,1,0,0:0:0:0:
320,192,98121,1,0,0:0:0:0:
64,192,98121,1,0,0:0:0:0:
448,192,98176,1,0,0:0:0:0:
192,192,98232,1,0,0:0:0:0:
320,192,98232,1,0,0:0:0:0:
64,192,98287,1,0,0:0:0:0:
192,192,98343,1,0,0:0:0:0:
448,192,98343,1,0,0:0:0:0:
320,192,98398,1,0,0:0:0:0:
64,192,98454,1,0,0:0:0:0:
192,192,98510,1,0,0:0:0:0:
320,192,98565,1,0,0:0:0:0:
64,192,98565,1,0,0:0:0:0:
448,192,98621,1,0,0:0:0:0:
320,192,98676,1,0,0:0:0:0:
64,192,98676,1,0,0:0:0:0:
192,192,98732,1,0,0:0:0:0:
448,192,98787,1,0,0:0:0:0:
320,192,98787,1,0,0:0:0:0:
64,192,98843,1,0,0:0:0:0:
192,192,98898,1,0,0:0:0:0:
64,192,98954,1,0,0:0:0:0:
448,192,98954,1,0,0:0:0:0:
320,192,99010,1,0,0:0:0:0:
192,192,99010,1,0,0:0:0:0:
448,192,99065,1,0,0:0:0:0:
192,192,99121,1,0,0:0:0:0:
64,192,99121,1,0,0:0:0:0:
320,192,99176,1,0,0:0:0:0:
64,192,99232,1,0,0:0:0:0:
448,192,99232,1,0,0:0:0:0:
192,192,99260,1,0,0:0:0:0:
320,192,99287,1,0,0:0:0:0:
64,192,99343,1,0,0:0:0:0:
448,192,99343,1,0,0:0:0:0:
192,192,99380,1,0,0:0:0:0:
320,192,99416,1,0,0:0:0:0:
448,192,99454,1,0,0:0:0:0:
64,192,99454,1,0,0:0:0:0:
192,192,99510,1,0,0:0:0:0:
320,192,99527,1,0,0:0:0:0:
64,192,99565,1,0,0:0:0:0:
448,192,99565,1,0,0:0:0:0:
320,192,99638,1,0,0:0:0:0:
192,192,99676,1,0,0:0:0:0:
448,192,99713,1,0,0:0:0:0:
64,192,99713,1,0,0:0:0:0:
320,192,99750,1,0,0:0:0:0:
192,192,99787,1,0,0:0:0:0:
320,192,99898,128,0,100037:0:0:0:0:
448,192,99898,128,0,100121:0:0:0:0:
64,192,99898,1,0,0:0:0:0:
192,192,99898,128,0,100232:0:0:0:0:
192,192,100343,1,0,0:0:0:0:
320,192,100343,128,0,100426:0:0:0:0:
448,192,100343,128,0,100454:0:0:0:0:
320,192,100565,128,0,100732:0:0:0:0:
448,192,100565,128,0,100732:0:0:0:0:
64,192,100565,128,0,100787:0:0:0:0:
320,192,100787,1,0,0:0:0:0:
192,192,100787,1,0,0:0:0:0:
192,192,100984,128,0,101208:0:0:0:0:
64,192,100984,128,0,101153:0:0:0:0:
448,192,100984,128,0,101153:0:0:0:0:
64,192,101208,1,0,0:0:0:0:
448,192,101208,1,0,0:0:0:0:
320,192,101322,128,0,101546:0:0:0:0:
192,192,101322,128,0,101491:0:0:0:0:
448,192,101322,128,0,101546:0:0:0:0:
192,192,101546,1,0,0:0:0:0:
64,192,101660,128,0,101884:0:0:0:0:
320,192,101660,128,0,101828:0:0:0:0:
192,192,101660,128,0,101884:0:0:0:0:
320,192,101884,1,0,0:0:0:0:
320,192,102110,1,0,0:0:0:0:
64,192,102110,1,0,0:0:0:0:
64,192,102222,128,0,102335:0:0:0:0:
192,192,102335,1,0,0:0:0:0:
320,192,102335,1,0,0:0:0:0:
448,192,102335,1,0,0:0:0:0:
320,192,102447,1,0,0:0:0:0:
448,192,102447,128,0,102673:0:0:0:0:
64,192,102560,1,0,0:0:0:0:
320,192,102560,1,0,0:0:0:0:
192,192,102673,1,0,0:0:0:0:
64,192,102673,1,0,0:0:0:0:
448,192,102785,1,0,0:0:0:0:
320,192,102785,128,0,103035:0:0:0:0:
192,192,102813,128,0,103063:0:0:0:0:
64,192,102896,1,0,0:0:0:0:
320,192,103118,128,0,103368:0:0:0:0:
192,192,103118,1,0,0:0:0:0:
448,192,103146,128,0,103396:0:0:0:0:
64,192,103230,1,0,0:0:0:0:
448,192,103452,128,0,103674:0:0:0:0:
320,192,103452,1,0,0:0:0:0:
64,192,103452,1,0,0:0:0:0:
192,192,103563,1,0,0:0:0:0:
192,192,103674,1,0,0:0:0:0:
320,192,103674,1,0,0:0:0:0:
320,192,103785,1,0,0:0:0:0:
448,192,103785,1,0,0:0:0:0:
192,192,103896,1,0,0:0:0:0:
64,192,103896,1,0,0:0:0:0:
320,192,103952,1,0,0:0:0:0:
64,192,104007,1,0,0:0:0:0:
448,192,104007,1,0,0:0:0:0:
448,192,104118,1,0,0:0:0:0:
192,192,104118,1,0,0:0:0:0:
320,192,104230,1,0,0:0:0:0:
192,192,104230,1,0,0:0:0:0:
64,192,104341,1,0,0:0:0:0:
320,192,104341,1,0,0:0:0:0:
192,192,104396,1,0,0:0:0:0:
448,192,104452,1,0,0:0:0:0:
64,192,104452,1,0,0:0:0:0:
192,192,104563,1,0,0:0:0:0:
64,192,104563,1,0,0:0:0:0:
448,192,104563,1,0,0:0:0:0:
320,192,104674,1,0,0:0:0:0:
448,192,104674,1,0,0:0:0:0:
320,192,104785,1,0,0:0:0:0:
64,192,104785,1,0,0:0:0:0:
192,192,104785,1,0,0:0:0:0:
192,192,104896,1,0,0:0:0:0:
64,192,104896,1,0,0:0:0:0:
320,192,104952,1,0,0:0:0:0:
64,192,105007,1,0,0:0:0:0:
448,192,105007,1,0,0:0:0:0:
192,192,105118,1,0,0:0:0:0:
320,192,105118,1,0,0:0:0:0:
448,192,105118,1,0,0:0:0:0:
320,192,105230,1,0,0:0:0:0:
448,192,105230,1,0,0:0:0:0:
64,192,105230,1,0,0:0:0:0:
64,192,105341,1,0,0:0:0:0:
192,192,105341,1,0,0:0:0:0:
64,192,105452,1,0,0:0:0:0:
448,192,105452,1,0,0:0:0:0:
192,192,105452,1,0,0:0:0:0:
320,192,105525,1,0,0:0:0:0:
192,192,105563,1,0,0:0:0:0:
448,192,105600,1,0,0:0:0:0:
192,192,105674,1,0,0:0:0:0:
64,192,105674,1,0,0:0:0:0:
320,192,105747,1,0,0:0:0:0:
448,192,105785,1,0,0:0:0:0:
192,192,105785,1,0,0:0:0:0:
64,192,105822,1,0,0:0:0:0:
192,192,105896,1,0,0:0:0:0:
320,192,105896,1,0,0:0:0:0:
448,192,105970,1,0,0:0:0:0:
320,192,106007,1,0,0:0:0:0:
64,192,106044,1,0,0:0:0:0:
192,192,106118,1,0,0:0:0:0:
448,192,106118,1,0,0:0:0:0:
320,192,106192,1,0,0:0:0:0:
192,192,106230,1,0,0:0:0:0:
64,192,106266,1,0,0:0:0:0:
192,192,106341,128,0,106507:0:0:0:0:
320,192,106341,128,0,106563:0:0:0:0:
448,192,106341,128,0,106563:0:0:0:0:
192,192,106563,1,0,0:0:0:0:
320,192,106674,128,0,106841:0:0:0:0:
192,192,106674,128,0,106896:0:0:0:0:
64,192,106674,128,0,106896:0:0:0:0:
320,192,106896,1,0,0:0:0:0:
320,192,107007,128,0,107220:0:0:0:0:
64,192,107007,128,0,107174:0:0:0:0:
448,192,107007,128,0,107220:0:0:0:0:
64,192,107220,1,0,0:0:0:0:
192,192,107220,1,0,0:0:0:0:
192,192,107367,1,0,0:0:0:0:
64,192,107367,1,0,0:0:0:0:
320,192,107478,128,0,107664:0:0:0:0:
448,192,107664,1,0,0:0:0:0:
64,192,107664,128,0,107997:0:0:0:0:
192,192,107664,128,0,107914:0:0:0:0:
192,192,107997,128,0,108237:0:0:0:0:
320,192,107997,128,0,108316:0:0:0:0:
448,192,107997,128,0,108158:0:0:0:0:
448,192,108316,128,0,108455:0:0:0:0:
64,192,108316,128,0,108547:0:0:0:0:
192,192,108316,128,0,108501:0:0:0:0:
64,192,108594,128,0,108790:0:0:0:0:
320,192,108594,128,0,108887:0:0:0:0:
192,192,108594,128,0,108838:0:0:0:0:
448,192,108887,1,0,0:0:0:0:
192,192,108887,128,0,108985:0:0:0:0:
320,192,108985,1,0,0:0:0:0:
448,192,108985,1,0,0:0:0:0:
64,192,108985,128,0,110574:0:0:0:0:
192,192,109241,1,0,0:0:0:0:
192,192,109352,1,0,0:0:0:0:
448,192,109463,128,0,109630:0:0:0:0:
320,192,109685,1,0,0:0:0:0:
192,192,109907,128,0,110185:0:0:0:0:
320,192,110241,128,0,110463:0:0:0:0:
448,192,110574,128,0,110796:0:0:0:0:
64,192,110685,128,0,110796:0:0:0:0:
320,192,110741,128,0,110852:0:0:0:0:
192,192,110796,128,0,111463:0:0:0:0:
320,192,111018,1,0,0:0:0:0:
64,192,111130,128,0,111241:0:0:0:0:
448,192,111241,1,0,0:0:0:0:
448,192,111352,128,0,111463:0:0:0:0:
320,192,111463,1,0,0:0:0:0:
192,192,111574,1,0,0:0:0:0:
64,192,111685,128,0,112241:0:0:0:0:
320,192,111685,128,0,111907:0:0:0:0:
192,192,112018,128,0,112296:0:0:0:0:
320,192,112074,1,0,0:0:0:0:
320,192,112352,128,0,112630:0:0:0:0:
448,192,112574,128,0,113352:0:0:0:0:
192,192,112796,1,0,0:0:0:0:
320,192,113018,1,0,0:0:0:0:
64,192,113241,1,0,0:0:0:0:
448,192,113463,128,0,113630:0:0:0:0:
448,192,113685,1,0,0:0:0:0:
192,192,113907,128,0,114074:0:0:0:0:
192,192,114130,1,0,0:0:0:0:
320,192,114130,1,0,0:0:0:0:
64,192,114352,128,0,114963:0:0:0:0:
448,192,114352,128,0,114518:0:0:0:0:
448,192,114574,1,0,0:0:0:0:
320,192,114796,128,0,114963:0:0:0:0:
192,192,114796,128,0,114963:0:0:0:0:
448,192,115018,128,0,115185:0:0:0:0:
192,192,115018,1,0,0:0:0:0:
320,192,115018,1,0,0:0:0:0:
192,192,115130,128,0,115296:0:0:0:0:
320,192,115241,128,0,115352:0:0:0:0:
64,192,115296,128,0,115352:0:0:0:0:
448,192,115352,128,0,115796:0:0:0:0:
192,192,115463,1,0,0:0:0:0:
64,192,115463,1,0,0:0:0:0:
64,192,115685,128,0,116130:0:0:0:0:
320,192,115685,128,0,116018:0:0:0:0:
192,192,115907,1,0,0:0:0:0:
448,192,116018,1,0,0:0:0:0:
320,192,116130,1,0,0:0:0:0:
448,192,116130,1,0,0:0:0:0:
192,192,116130,1,0,0:0:0:0:
64,192,116352,1,0,0:0:0:0:
192,192,116352,128,0,116407:0:0:0:0:
192,192,116463,1,0,0:0:0:0:
320,192,116574,1,0,0:0:0:0:
320,192,116685,1,0,0:0:0:0:
64,192,116741,1,0,0:0:0:0:
192,192,116796,1,0,0:0:0:0:
448,192,116796,1,0,0:0:0:0:
448,192,116907,1,0,0:0:0:0:
64,192,117018,1,0,0:0:0:0:
192,192,117018,128,0,117352:0:0:0:0:
64,192,117241,128,0,117352:0:0:0:0:
320,192,117352,128,0,117630:0:0:0:0:
64,192,117463,1,0,0:0:0:0:
448,192,117463,1,0,0:0:0:0:
448,192,117685,128,0,117852:0:0:0:0:
320,192,117685,1,0,0:0:0:0:
448,192,117907,1,0,0:0:0:0:
64,192,117907,128,0,118852:0:0:0:0:
192,192,118055,1,0,0:0:0:0:
320,192,118203,128,0,118352:0:0:0:0:
192,192,118352,1,0,0:0:0:0:
448,192,118463,128,0,118685:0:0:0:0:
192,192,118574,1,0,0:0:0:0:
320,192,118685,1,0,0:0:0:0:
192,192,118796,128,0,119407:0:0:0:0:
448,192,118796,1,0,0:0:0:0:
320,192,118796,128,0,119018:0:0:0:0:
64,192,119130,128,0,119574:0:0:0:0:
320,192,119241,128,0,119518:0:0:0:0:
448,192,119463,128,0,119685:0:0:0:0:
320,192,119685,1,0,0:0:0:0:
64,192,119685,1,0,0:0:0:0:
192,192,119685,128,0,120500:0:0:0:0:
64,192,119907,1,0,0:0:0:0:
64,192,120018,1,0,0:0:0:0:
320,192,120130,1,0,0:0:0:0:
448,192,120130,1,0,0:0:0:0:
320,192,120352,1,0,0:0:0:0:
64,192,120463,1,0,0:0:0:0:
448,192,120574,1,0,0:0:0:0:
192,192,120574,128,0,120758:0:0:0:0:
448,192,120796,128,0,120981:0:0:0:0:
320,192,120796,1,0,0:0:0:0:
320,192,121018,128,0,121166:0:0:0:0:
192,192,121018,128,0,121388:0:0:0:0:
64,192,121018,1,0,0:0:0:0:
320,192,121241,1,0,0:0:0:0:
448,192,121241,128,0,121463:0:0:0:0:
320,192,121463,1,0,0:0:0:0:
192,192,121463,1,0,0:0:0:0:
64,192,121463,1,0,0:0:0:0:
192,192,121685,128,0,121796:0:0:0:0:
320,192,121685,128,0,121796:0:0:0:0:
64,192,121907,1,0,0:0:0:0:
448,192,121907,128,0,122241:0:0:0:0:
320,192,121907,1,0,0:0:0:0:
320,192,122018,128,0,122241:0:0:0:0:
192,192,122241,128,0,122352:0:0:0:0:
64,192,122352,1,0,0:0:0:0:
320,192,122352,1,0,0:0:0:0:
448,192,122352,1,0,0:0:0:0:
192,192,122500,1,0,0:0:0:0:
64,192,122500,1,0,0:0:0:0:
448,192,122500,1,0,0:0:0:0:
320,192,122647,1,0,0:0:0:0:
448,192,122647,1,0,0:0:0:0:
192,192,122647,1,0,0:0:0:0:
192,192,122796,1,0,0:0:0:0:
64,192,122796,1,0,0:0:0:0:
448,192,122796,1,0,0:0:0:0:
320,192,122944,1,0,0:0:0:0:
448,192,122944,1,0,0:0:0:0:
64,192,122944,1,0,0:0:0:0:
192,192,123092,1,0,0:0:0:0:
320,192,123092,1,0,0:0:0:0:
448,192,123092,1,0,0:0:0:0:
448,192,123241,1,0,0:0:0:0:
320,192,123241,1,0,0:0:0:0:
192,192,123241,1,0,0:0:0:0:
64,192,123241,128,0,123463:0:0:0:0:
320,192,123463,128,0,123907:0:0:0:0:
192,192,123685,128,0,124130:0:0:0:0:
448,192,123685,128,0,123907:0:0:0:0:
64,192,123685,1,0,0:0:0:0:
64,192,123907,1,0,0:0:0:0:
64,192,124130,128,0,124352:0:0:0:0:
320,192,124352,128,0,124796:0:0:0:0:
192,192,124574,128,0,124796:0:0:0:0:
448,192,124574,128,0,125018:0:0:0:0:
64,192,124574,1,0,0:0:0:0:
64,192,124796,1,0,0:0:0:0:
320,192,125018,1,0,0:0:0:0:
192,192,125018,1,0,0:0:0:0:
64,192,125018,1,0,0:0:0:0:
64,192,125130,1,0,0:0:0:0:
192,192,125130,1,0,0:0:0:0:
192,192,125241,1,0,0:0:0:0:
448,192,125241,1,0,0:0:0:0:
320,192,125352,1,0,0:0:0:0:
448,192,125352,1,0,0:0:0:0:
320,192,125463,1,0,0:0:0:0:
64,192,125463,1,0,0:0:0:0:
64,192,125574,1,0,0:0:0:0:
192,192,125574,1,0,0:0:0:0:
448,192,125685,1,0,0:0:0:0:
192,192,125685,1,0,0:0:0:0:
64,192,125796,1,0,0:0:0:0:
448,192,125796,1,0,0:0:0:0:
320,192,125796,1,0,0:0:0:0:
320,192,125907,1,0,0:0:0:0:
192,192,125907,128,0,126018:0:0:0:0:
64,192,125907,128,0,126130:0:0:0:0:
192,192,126130,1,0,0:0:0:0:
192,192,126241,1,0,0:0:0:0:
448,192,126241,128,0,126463:0:0:0:0:
320,192,126241,128,0,126352:0:0:0:0:
192,192,126463,128,0,126574:0:0:0:0:
64,192,126574,128,0,126796:0:0:0:0:
320,192,126574,128,0,126685:0:0:0:0:
448,192,126574,128,0,126796:0:0:0:0:
320,192,126796,1,0,0:0:0:0:
64,192,127018,1,0,0:0:0:0:
192,192,127018,1,0,0:0:0:0:
192,192,127241,1,0,0:0:0:0:
448,192,127241,1,0,0:0:0:0:
320,192,127241,1,0,0:0:0:0:
448,192,127463,1,0,0:0:0:0:
192,192,127463,1,0,0:0:0:0:
64,192,127685,1,0,0:0:0:0:
320,192,127685,1,0,0:0:0:0:
448,192,127685,1,0,0:0:0:0:
64,192,127796,1,0,0:0:0:0:
192,192,127796,1,0,0:0:0:0:
192,192,127907,1,0,0:0:0:0:
448,192,127907,1,0,0:0:0:0:
320,192,128018,1,0,0:0:0:0:
64,192,128018,1,0,0:0:0:0:
448,192,128130,1,0,0:0:0:0:
64,192,128130,1,0,0:0:0:0:
320,192,128241,1,0,0:0:0:0:
448,192,128241,1,0,0:0:0:0:
320,192,128352,1,0,0:0:0:0:
64,192,128352,1,0,0:0:0:0:
64,192,128463,1,0,0:0:0:0:
192,192,128463,1,0,0:0:0:0:
448,192,128463,1,0,0:0:0:0:
192,192,128574,1,0,0:0:0:0:
320,192,128574,1,0,0:0:0:0:
448,192,128574,1,0,0:0:0:0:
320,192,128685,1,0,0:0:0:0:
64,192,128685,1,0,0:0:0:0:
64,192,128796,1,0,0:0:0:0:
192,192,128796,1,0,0:0:0:0:
192,192,128907,1,0,0:0:0:0:
320,192,128907,1,0,0:0:0:0:
64,192,129018,1,0,0:0:0:0:
448,192,129018,1,0,0:0:0:0:
320,192,129018,1,0,0:0:0:0:
320,192,129130,1,0,0:0:0:0:
448,192,129130,1,0,0:0:0:0:
64,192,129241,1,0,0:0:0:0:
320,192,129241,1,0,0:0:0:0:
192,192,129352,1,0,0:0:0:0:
64,192,129352,1,0,0:0:0:0:
320,192,129463,128,0,129611:0:0:0:0:
448,192,129463,128,0,129685:0:0:0:0:
192,192,129463,128,0,129685:0:0:0:0:
320,192,129685,1,0,0:0:0:0:
192,192,129796,128,0,130018:0:0:0:0:
64,192,129796,128,0,129963:0:0:0:0:
448,192,129796,128,0,129963:0:0:0:0:
448,192,130018,1,0,0:0:0:0:
64,192,130018,1,0,0:0:0:0:
320,192,130130,128,0,130296:0:0:0:0:
448,192,130130,128,0,130352:0:0:0:0:
192,192,130130,128,0,130352:0:0:0:0:
320,192,130352,1,0,0:0:0:0:
64,192,130574,1,0,0:0:0:0:
320,192,130574,1,0,0:0:0:0:
64,192,130796,1,0,0:0:0:0:
448,192,130796,1,0,0:0:0:0:
192,192,130907,1,0,0:0:0:0:
448,192,130907,1,0,0:0:0:0:
320,192,131018,1,0,0:0:0:0:
64,192,131018,1,0,0:0:0:0:
192,192,131130,1,0,0:0:0:0:
64,192,131130,1,0,0:0:0:0:
64,192,131241,1,0,0:0:0:0:
448,192,131241,1,0,0:0:0:0:
320,192,131241,1,0,0:0:0:0:
192,192,131352,1,0,0:0:0:0:
448,192,131352,1,0,0:0:0:0:
320,192,131463,1,0,0:0:0:0:
64,192,131463,1,0,0:0:0:0:
64,192,131574,1,0,0:0:0:0:
448,192,131574,1,0,0:0:0:0:
192,192,131685,1,0,0:0:0:0:
448,192,131685,1,0,0:0:0:0:
320,192,131796,1,0,0:0:0:0:
448,192,131796,1,0,0:0:0:0:
320,192,131907,1,0,0:0:0:0:
64,192,131907,1,0,0:0:0:0:
64,192,132018,1,0,0:0:0:0:
192,192,132018,1,0,0:0:0:0:
192,192,132130,1,0,0:0:0:0:
448,192,132130,1,0,0:0:0:0:
64,192,132185,1,0,0:0:0:0:
320,192,132241,1,0,0:0:0:0:
448,192,132241,1,0,0:0:0:0:
192,192,132352,1,0,0:0:0:0:
448,192,132352,1,0,0:0:0:0:
320,192,132463,1,0,0:0:0:0:
64,192,132463,1,0,0:0:0:0:
192,192,132518,1,0,0:0:0:0:
64,192,132574,1,0,0:0:0:0:
448,192,132574,1,0,0:0:0:0:
192,192,132685,1,0,0:0:0:0:
448,192,132685,1,0,0:0:0:0:
64,192,132741,1,0,0:0:0:0:
192,192,132796,1,0,0:0:0:0:
320,192,133018,128,0,133185:0:0:0:0:
448,192,133018,128,0,133241:0:0:0:0:
64,192,133018,128,0,133241:0:0:0:0:
320,192,133241,1,0,0:0:0:0:
192,192,133352,128,0,133574:0:0:0:0:
64,192,133352,128,0,133574:0:0:0:0:
448,192,133352,128,0,133518:0:0:0:0:
448,192,133574,1,0,0:0:0:0:
192,192,133685,128,0,133907:0:0:0:0:
320,192,133685,128,0,133907:0:0:0:0:
64,192,133685,1,0,0:0:0:0:
64,192,133907,1,0,0:0:0:0:
448,192,133907,1,0,0:0:0:0:
448,192,134130,1,0,0:0:0:0:
192,192,134130,1,0,0:0:0:0:
448,192,134352,1,0,0:0:0:0:
192,192,134352,1,0,0:0:0:0:
64,192,134352,1,0,0:0:0:0:
64,192,134574,1,0,0:0:0:0:
448,192,134574,1,0,0:0:0:0:
320,192,134574,1,0,0:0:0:0:
64,192,134796,1,0,0:0:0:0:
448,192,134796,1,0,0:0:0:0:
192,192,134796,1,0,0:0:0:0:
192,192,135018,128,0,135185:0:0:0:0:
448,192,135018,1,0,0:0:0:0:
320,192,135018,1,0,0:0:0:0:
64,192,135241,1,0,0:0:0:0:
192,192,135241,1,0,0:0:0:0:
448,192,135241,128,0,135352:0:0:0:0:
320,192,135296,1,0,0:0:0:0:
64,192,135352,1,0,0:0:0:0:
192,192,135407,1,0,0:0:0:0:
448,192,135463,1,0,0:0:0:0:
320,192,135463,1,0,0:0:0:0:
64,192,135536,1,0,0:0:0:0:
192,192,135611,1,0,0:0:0:0:
64,192,135685,1,0,0:0:0:0:
448,192,135685,1,0,0:0:0:0:
320,192,135685,1,0,0:0:0:0:
320,192,135796,1,0,0:0:0:0:
192,192,135796,1,0,0:0:0:0:
64,192,135852,1,0,0:0:0:0:
192,192,135907,1,0,0:0:0:0:
448,192,135963,1,0,0:0:0:0:
64,192,136018,1,0,0:0:0:0:
320,192,136018,1,0,0:0:0:0:
448,192,136130,1,0,0:0:0:0:
64,192,136130,1,0,0:0:0:0:
192,192,136130,1,0,0:0:0:0:
320,192,136241,1,0,0:0:0:0:
448,192,136241,1,0,0:0:0:0:
192,192,136296,1,0,0:0:0:0:
320,192,136352,1,0,0:0:0:0:
64,192,136352,1,0,0:0:0:0:
192,192,136463,1,0,0:0:0:0:
64,192,136463,1,0,0:0:0:0:
320,192,136463,1,0,0:0:0:0:
320,192,136574,128,0,136741:0:0:0:0:
448,192,136574,128,0,136796:0:0:0:0:
64,192,136574,128,0,136796:0:0:0:0:
320,192,136796,1,0,0:0:0:0:
192,192,136907,128,0,137074:0:0:0:0:
64,192,136907,128,0,137130:0:0:0:0:
320,192,136907,128,0,137130:0:0:0:0:
448,192,137018,128,0,137352:0:0:0:0:
192,192,137130,1,0,0:0:0:0:
64,192,137241,128,0,137407:0:0:0:0:
192,192,137241,128,0,137463:0:0:0:0:
64,192,137463,1,0,0:0:0:0:
448,192,137463,1,0,0:0:0:0:
320,192,137518,1,0,0:0:0:0:
192,192,137574,1,0,0:0:0:0:
448,192,137630,1,0,0:0:0:0:
192,192,137685,1,0,0:0:0:0:
64,192,137685,1,0,0:0:0:0:
320,192,137741,1,0,0:0:0:0:
64,192,137796,1,0,0:0:0:0:
448,192,137796,1,0,0:0:0:0:
192,192,137833,1,0,0:0:0:0:
320,192,137870,1,0,0:0:0:0:
448,192,137907,1,0,0:0:0:0:
64,192,137907,1,0,0:0:0:0:
320,192,137963,1,0,0:0:0:0:
192,192,138018,1,0,0:0:0:0:
64,192,138074,1,0,0:0:0:0:
448,192,138130,1,0,0:0:0:0:
192,192,138130,1,0,0:0:0:0:
320,192,138203,1,0,0:0:0:0:
448,192,138241,1,0,0:0:0:0:
64,192,138241,1,0,0:0:0:0:
192,192,138277,1,0,0:0:0:0:
320,192,138314,1,0,0:0:0:0:
448,192,138352,1,0,0:0:0:0:
64,192,138352,1,0,0:0:0:0:
448,192,138463,1,0,0:0:0:0:
192,192,138463,1,0,0:0:0:0:
64,192,138518,1,0,0:0:0:0:
320,192,138574,1,0,0:0:0:0:
192,192,138574,1,0,0:0:0:0:
448,192,138630,1,0,0:0:0:0:
64,192,138685,1,0,0:0:0:0:
320,192,138722,1,0,0:0:0:0:
64,192,138796,1,0,0:0:0:0:
448,192,138796,1,0,0:0:0:0:
192,192,138796,1,0,0:0:0:0:
192,192,138907,1,0,0:0:0:0:
64,192,138963,1,0,0:0:0:0:
320,192,139018,1,0,0:0:0:0:
448,192,139018,1,0,0:0:0:0:
192,192,139074,1,0,0:0:0:0:
320,192,139130,1,0,0:0:0:0:
64,192,139130,1,0,0:0:0:0:
448,192,139185,1,0,0:0:0:0:
192,192,139241,1,0,0:0:0:0:
64,192,139241,1,0,0:0:0:0:
320,192,139241,1,0,0:0:0:0:
448,192,139314,1,0,0:0:0:0:
192,192,139352,1,0,0:0:0:0:
320,192,139388,1,0,0:0:0:0:
64,192,139407,1,0,0:0:0:0:
448,192,139463,1,0,0:0:0:0:
192,192,139463,1,0,0:0:0:0:
320,192,139574,1,0,0:0:0:0:
64,192,139685,1,0,0:0:0:0:
320,192,139685,1,0,0:0:0:0:
448,192,139685,1,0,0:0:0:0:
192,192,139796,1,0,0:0:0:0:
64,192,139796,1,0,0:0:0:0:
192,192,139907,1,0,0:0:0:0:
320,192,139907,1,0,0:0:0:0:
320,192,140018,1,0,0:0:0:0:
64,192,140130,1,0,0:0:0:0:
192,192,140130,1,0,0:0:0:0:
448,192,140130,1,0,0:0:0:0:
192,192,140241,1,0,0:0:0:0:
64,192,140241,1,0,0:0:0:0:
320,192,140241,1,0,0:0:0:0:
320,192,140296,1,0,0:0:0:0:
448,192,140352,1,0,0:0:0:0:
64,192,140352,1,0,0:0:0:0:
192,192,140407,1,0,0:0:0:0:
448,192,140463,1,0,0:0:0:0:
320,192,140518,1,0,0:0:0:0:
64,192,140574,1,0,0:0:0:0:
192,192,140574,1,0,0:0:0:0:
320,192,140647,1,0,0:0:0:0:
448,192,140685,1,0,0:0:0:0:
64,192,140685,1,0,0:0:0:0:
192,192,140722,1,0,0:0:0:0:
320,192,140796,1,0,0:0:0:0:
448,192,140852,1,0,0:0:0:0:
64,192,140870,1,0,0:0:0:0:
192,192,140907,1,0,0:0:0:0:
448,192,140944,1,0,0:0:0:0:
320,192,141018,1,0,0:0:0:0:
192,192,141018,1,0,0:0:0:0:
64,192,141018,1,0,0:0:0:0:
320,192,141130,1,0,0:0:0:0:
448,192,141241,1,0,0:0:0:0:
64,192,141241,1,0,0:0:0:0:
192,192,141296,1,0,0:0:0:0:
320,192,141352,1,0,0:0:0:0:
448,192,141352,1,0,0:0:0:0:
448,192,141463,1,0,0:0:0:0:
64,192,141463,1,0,0:0:0:0:
192,192,141463,1,0,0:0:0:0:
320,192,141536,1,0,0:0:0:0:
192,192,141574,1,0,0:0:0:0:
448,192,141611,1,0,0:0:0:0:
320,192,141685,1,0,0:0:0:0:
64,192,141685,1,0,0:0:0:0:
64,192,141796,1,0,0:0:0:0:
192,192,141796,1,0,0:0:0:0:
320,192,141852,1,0,0:0:0:0:
448,192,141907,1,0,0:0:0:0:
64,192,141907,1,0,0:0:0:0:
192,192,141963,1,0,0:0:0:0:
320,192,142018,1,0,0:0:0:0:
448,192,142018,1,0,0:0:0:0:
320,192,142130,1,0,0:0:0:0:
64,192,142130,1,0,0:0:0:0:
448,192,142185,1,0,0:0:0:0:
192,192,142241,1,0,0:0:0:0:
64,192,142241,1,0,0:0:0:0:
320,192,142296,1,0,0:0:0:0:
448,192,142352,1,0,0:0:0:0:
64,192,142352,1,0,0:0:0:0:
192,192,142463,1,0,0:0:0:0:
448,192,142463,1,0,0:0:0:0:
320,192,142574,1,0,0:0:0:0:
192,192,142574,1,0,0:0:0:0:
64,192,142630,1,0,0:0:0:0:
192,192,142685,1,0,0:0:0:0:
448,192,142741,1,0,0:0:0:0:
320,192,142796,1,0,0:0:0:0:
192,192,142796,1,0,0:0:0:0:
64,192,142796,1,0,0:0:0:0:
64,192,142907,1,0,0:0:0:0:
64,192,143018,1,0,0:0:0:0:
320,192,143018,1,0,0:0:0:0:
320,192,143130,1,0,0:0:0:0:
192,192,143241,1,0,0:0:0:0:
64,192,143241,1,0,0:0:0:0:
448,192,143241,1,0,0:0:0:0:
320,192,143296,1,0,0:0:0:0:
192,192,143352,1,0,0:0:0:0:
448,192,143463,1,0,0:0:0:0:
64,192,143463,1,0,0:0:0:0:
192,192,143463,1,0,0:0:0:0:
320,192,143574,1,0,0:0:0:0:
192,192,143685,1,0,0:0:0:0:
64,192,143685,1,0,0:0:0:0:
448,192,143685,1,0,0:0:0:0:
448,192,143796,1,0,0:0:0:0:
64,192,143796,1,0,0:0:0:0:
320,192,143796,1,0,0:0:0:0:
192,192,143852,1,0,0:0:0:0:
320,192,143907,1,0,0:0:0:0:
448,192,143963,1,0,0:0:0:0:
192,192,144018,1,0,0:0:0:0:
64,192,144018,1,0,0:0:0:0:
192,192,144130,1,0,0:0:0:0:
320,192,144130,1,0,0:0:0:0:
448,192,144130,1,0,0:0:0:0:
448,192,144241,1,0,0:0:0:0:
64,192,144241,1,0,0:0:0:0:
320,192,144296,1,0,0:0:0:0:
192,192,144352,1,0,0:0:0:0:
64,192,144352,1,0,0:0:0:0:
192,192,144463,1,0,0:0:0:0:
448,192,144463,1,0,0:0:0:0:
320,192,144518,1,0,0:0:0:0:
448,192,144574,1,0,0:0:0:0:
64,192,144574,1,0,0:0:0:0:
192,192,144574,1,0,0:0:0:0:
64,192,144685,1,0,0:0:0:0:
320,192,144685,1,0,0:0:0:0:
192,192,144796,1,0,0:0:0:0:
320,192,144796,1,0,0:0:0:0:
448,192,144852,1,0,0:0:0:0:
320,192,144907,1,0,0:0:0:0:
192,192,144963,1,0,0:0:0:0:
64,192,145018,1,0,0:0:0:0:
448,192,145018,1,0,0:0:0:0:
320,192,145074,1,0,0:0:0:0:
192,192,145102,1,0,0:0:0:0:
64,192,145130,1,0,0:0:0:0:
448,192,145157,1,0,0:0:0:0:
320,192,145185,1,0,0:0:0:0:
192,192,145213,1,0,0:0:0:0:
64,192,145241,1,0,0:0:0:0:
448,192,145296,1,0,0:0:0:0:
192,192,145352,1,0,0:0:0:0:
320,192,145407,1,0,0:0:0:0:
64,192,145463,1,0,0:0:0:0:
448,192,145463,1,0,0:0:0:0:
192,192,145463,1,0,0:0:0:0:
320,192,145574,1,0,0:0:0:0:
64,192,145574,1,0,0:0:0:0:
192,192,145630,1,0,0:0:0:0:
64,192,145685,1,0,0:0:0:0:
448,192,145685,1,0,0:0:0:0:
192,192,145796,1,0,0:0:0:0:
448,192,145796,1,0,0:0:0:0:
64,192,145907,1,0,0:0:0:0:
192,192,145907,1,0,0:0:0:0:
320,192,145907,1,0,0:0:0:0:
448,192,145963,1,0,0:0:0:0:
64,192,146018,1,0,0:0:0:0:
192,192,146018,1,0,0:0:0:0:
64,192,146130,1,0,0:0:0:0:
448,192,146130,1,0,0:0:0:0:
320,192,146203,1,0,0:0:0:0:
192,192,146241,1,0,0:0:0:0:
64,192,146277,1,0,0:0:0:0:
448,192,146314,1,0,0:0:0:0:
192,192,146352,1,0,0:0:0:0:
320,192,146352,1,0,0:0:0:0:
64,192,146425,1,0,0:0:0:0:
192,192,146500,1,0,0:0:0:0:
64,192,146574,1,0,0:0:0:0:
320,192,146574,1,0,0:0:0:0:
448,192,146647,1,0,0:0:0:0:
320,192,146685,1,0,0:0:0:0:
192,192,146722,1,0,0:0:0:0:
64,192,146796,1,0,0:0:0:0:
448,192,146796,1,0,0:0:0:0:
320,192,146796,1,0,0:0:0:0:
192,192,146870,1,0,0:0:0:0:
64,192,146907,1,0,0:0:0:0:
320,192,146944,1,0,0:0:0:0:
192,192,147018,1,0,0:0:0:0:
448,192,147018,1,0,0:0:0:0:
320,192,147092,1,0,0:0:0:0:
64,192,147130,1,0,0:0:0:0:
448,192,147166,1,0,0:0:0:0:
192,192,147241,1,0,0:0:0:0:
64,192,147241,1,0,0:0:0:0:
320,192,147241,1,0,0:0:0:0:
64,192,147352,1,0,0:0:0:0:
192,192,147352,1,0,0:0:0:0:
448,192,147352,1,0,0:0:0:0:
320,192,147388,1,0,0:0:0:0:
192,192,147463,1,0,0:0:0:0:
448,192,147536,1,0,0:0:0:0:
64,192,147574,1,0,0:0:0:0:
320,192,147574,1,0,0:0:0:0:
192,192,147630,1,0,0:0:0:0:
320,192,147685,1,0,0:0:0:0:
448,192,147685,1,0,0:0:0:0:
320,192,147796,1,0,0:0:0:0:
448,192,147796,1,0,0:0:0:0:
320,192,147907,1,0,0:0:0:0:
64,192,147907,1,0,0:0:0:0:
192,192,147963,1,0,0:0:0:0:
64,192,148018,1,0,0:0:0:0:
320,192,148018,1,0,0:0:0:0:
448,192,148074,1,0,0:0:0:0:
320,192,148130,1,0,0:0:0:0:
192,192,148130,1,0,0:0:0:0:
64,192,148130,1,0,0:0:0:0:
192,192,148241,1,0,0:0:0:0:
320,192,148352,1,0,0:0:0:0:
448,192,148352,1,0,0:0:0:0:
192,192,148407,1,0,0:0:0:0:
64,192,148463,1,0,0:0:0:0:
320,192,148518,1,0,0:0:0:0:
64,192,148574,1,0,0:0:0:0:
192,192,148574,1,0,0:0:0:0:
448,192,148574,1,0,0:0:0:0:
192,192,148685,1,0,0:0:0:0:
448,192,148685,1,0,0:0:0:0:
192,192,148796,1,0,0:0:0:0:
448,192,148796,1,0,0:0:0:0:
320,192,148907,1,0,0:0:0:0:
320,192,149018,1,0,0:0:0:0:
448,192,149018,1,0,0:0:0:0:
64,192,149018,1,0,0:0:0:0:
192,192,149074,1,0,0:0:0:0:
64,192,149130,1,0,0:0:0:0:
320,192,149185,1,0,0:0:0:0:
192,192,149241,1,0,0:0:0:0:
448,192,149241,1,0,0:0:0:0:
64,192,149352,1,0,0:0:0:0:
320,192,149407,1,0,0:0:0:0:
64,192,149463,1,0,0:0:0:0:
448,192,149463,1,0,0:0:0:0:
192,192,149463,1,0,0:0:0:0:
192,192,149574,1,0,0:0:0:0:
320,192,149574,1,0,0:0:0:0:
320,192,149685,1,0,0:0:0:0:
64,192,149685,1,0,0:0:0:0:
192,192,149796,1,0,0:0:0:0:
192,192,149907,1,0,0:0:0:0:
64,192,149907,1,0,0:0:0:0:
448,192,149907,1,0,0:0:0:0:
320,192,149981,1,0,0:0:0:0:
64,192,150055,1,0,0:0:0:0:
192,192,150130,1,0,0:0:0:0:
320,192,150130,1,0,0:0:0:0:
448,192,150130,1,0,0:0:0:0:
64,192,150203,1,0,0:0:0:0:
320,192,150241,1,0,0:0:0:0:
192,192,150277,1,0,0:0:0:0:
64,192,150314,1,0,0:0:0:0:
320,192,150352,1,0,0:0:0:0:
448,192,150352,1,0,0:0:0:0:
192,192,150425,1,0,0:0:0:0:
320,192,150500,1,0,0:0:0:0:
64,192,150574,1,0,0:0:0:0:
192,192,150574,1,0,0:0:0:0:
448,192,150574,1,0,0:0:0:0:
320,192,150647,1,0,0:0:0:0:
64,192,150685,1,0,0:0:0:0:
192,192,150722,1,0,0:0:0:0:
448,192,150758,1,0,0:0:0:0:
320,192,150796,1,0,0:0:0:0:
64,192,150796,1,0,0:0:0:0:
192,192,150870,1,0,0:0:0:0:
448,192,150944,1,0,0:0:0:0:
320,192,151018,1,0,0:0:0:0:
192,192,151018,1,0,0:0:0:0:
64,192,151018,1,0,0:0:0:0:
64,192,151130,1,0,0:0:0:0:
192,192,151130,1,0,0:0:0:0:
448,192,151130,1,0,0:0:0:0:
320,192,151185,1,0,0:0:0:0:
64,192,151241,1,0,0:0:0:0:
448,192,151241,1,0,0:0:0:0:
192,192,151296,1,0,0:0:0:0:
320,192,151352,1,0,0:0:0:0:
448,192,151407,1,0,0:0:0:0:
64,192,151463,1,0,0:0:0:0:
320,192,151463,1,0,0:0:0:0:
192,192,151463,1,0,0:0:0:0:
448,192,151518,1,0,0:0:0:0:
320,192,151574,1,0,0:0:0:0:
192,192,151574,1,0,0:0:0:0:
64,192,151574,1,0,0:0:0:0:
320,192,151685,1,0,0:0:0:0:
448,192,151685,1,0,0:0:0:0:
64,192,151685,1,0,0:0:0:0:
192,192,151685,1,0,0:0:0:0:
64,192,151796,1,0,0:0:0:0:
192,192,151907,1,0,0:0:0:0:
64,192,151907,1,0,0:0:0:0:
448,192,151907,1,0,0:0:0:0:
448,192,152018,1,0,0:0:0:0:
320,192,152130,1,0,0:0:0:0:
192,192,152130,1,0,0:0:0:0:
64,192,152130,1,0,0:0:0:0:
320,192,152241,1,0,0:0:0:0:
448,192,152352,1,0,0:0:0:0:
64,192,152352,1,0,0:0:0:0:
320,192,152352,1,0,0:0:0:0:
192,192,152463,1,0,0:0:0:0:
448,192,152463,1,0,0:0:0:0:
320,192,152518,1,0,0:0:0:0:
448,192,152574,1,0,0:0:0:0:
64,192,152574,1,0,0:0:0:0:
64,192,152685,1,0,0:0:0:0:
320,192,152685,1,0,0:0:0:0:
192,192,152722,1,0,0:0:0:0:
192,192,152796,1,0,0:0:0:0:
448,192,152796,1,0,0:0:0:0:
320,192,152796,1,0,0:0:0:0:
64,192,152870,1,0,0:0:0:0:
448,192,152907,1,0,0:0:0:0:
320,192,152907,1,0,0:0:0:0:
448,192,153018,1,0,0:0:0:0:
192,192,153018,1,0,0:0:0:0:
64,192,153018,1,0,0:0:0:0:
320,192,153074,1,0,0:0:0:0:
64,192,153130,1,0,0:0:0:0:
192,192,153185,1,0,0:0:0:0:
320,192,153241,1,0,0:0:0:0:
448,192,153241,1,0,0:0:0:0:
192,192,153314,1,0,0:0:0:0:
320,192,153352,1,0,0:0:0:0:
64,192,153352,1,0,0:0:0:0:
448,192,153407,1,0,0:0:0:0:
64,192,153463,1,0,0:0:0:0:
192,192,153463,1,0,0:0:0:0:
320,192,153463,1,0,0:0:0:0:
192,192,153574,1,0,0:0:0:0:
320,192,153685,1,0,0:0:0:0:
448,192,153685,1,0,0:0:0:0:
64,192,153685,1,0,0:0:0:0:
320,192,153796,1,0,0:0:0:0:
448,192,153907,1,0,0:0:0:0:
192,192,153907,1,0,0:0:0:0:
64,192,153907,1,0,0:0:0:0:
192,192,154018,1,0,0:0:0:0:
320,192,154018,1,0,0:0:0:0:
192,192,154130,1,0,0:0:0:0:
448,192,154130,1,0,0:0:0:0:
320,192,154203,1,0,0:0:0:0:
64,192,154277,1,0,0:0:0:0:
192,192,154352,1,0,0:0:0:0:
64,192,154352,1,0,0:0:0:0:
448,192,154352,1,0,0:0:0:0:
192,192,154463,1,0,0:0:0:0:
448,192,154463,1,0,0:0:0:0:
320,192,154463,1,0,0:0:0:0:
320,192,154574,1,0,0:0:0:0:
192,192,154574,1,0,0:0:0:0:
448,192,154630,1,0,0:0:0:0:
64,192,154685,1,0,0:0:0:0:
320,192,154741,1,0,0:0:0:0:
192,192,154796,1,0,0:0:0:0:
64,192,154796,1,0,0:0:0:0:
448,192,154796,1,0,0:0:0:0:
64,192,154907,1,0,0:0:0:0:
320,192,154907,1,0,0:0:0:0:
192,192,154963,1,0,0:0:0:0:
448,192,155018,1,0,0:0:0:0:
320,192,155018,1,0,0:0:0:0:
64,192,155018,1,0,0:0:0:0:
448,192,155130,1,0,0:0:0:0:
320,192,155185,1,0,0:0:0:0:
192,192,155241,1,0,0:0:0:0:
64,192,155241,1,0,0:0:0:0:
448,192,155241,1,0,0:0:0:0:
192,192,155352,1,0,0:0:0:0:
320,192,155463,1,0,0:0:0:0:
448,192,155463,1,0,0:0:0:0:
192,192,155463,1,0,0:0:0:0:
320,192,155574,1,0,0:0:0:0:
320,192,155685,1,0,0:0:0:0:
448,192,155685,1,0,0:0:0:0:
64,192,155685,1,0,0:0:0:0:
448,192,155796,1,0,0:0:0:0:
448,192,155907,1,0,0:0:0:0:
320,192,155907,1,0,0:0:0:0:
192,192,155907,1,0,0:0:0:0:
192,192,156018,1,0,0:0:0:0:
64,192,156018,1,0,0:0:0:0:
320,192,156130,1,0,0:0:0:0:
448,192,156130,1,0,0:0:0:0:
64,192,156130,1,0,0:0:0:0:
192,192,156241,1,0,0:0:0:0:
448,192,156296,1,0,0:0:0:0:
64,192,156352,1,0,0:0:0:0:
192,192,156352,1,0,0:0:0:0:
320,192,156352,1,0,0:0:0:0:
320,192,156463,1,0,0:0:0:0:
64,192,156463,1,0,0:0:0:0:
448,192,156463,1,0,0:0:0:0:
192,192,156574,1,0,0:0:0:0:
320,192,156574,1,0,0:0:0:0:
448,192,156574,1,0,0:0:0:0:
192,192,156685,1,0,0:0:0:0:
448,192,156796,1,0,0:0:0:0:
64,192,156796,1,0,0:0:0:0:
320,192,156907,1,0,0:0:0:0:
64,192,156907,1,0,0:0:0:0:
192,192,157018,1,0,0:0:0:0:
64,192,157018,1,0,0:0:0:0:
448,192,157018,1,0,0:0:0:0:
320,192,157074,1,0,0:0:0:0:
192,192,157130,1,0,0:0:0:0:
64,192,157166,1,0,0:0:0:0:
320,192,157241,1,0,0:0:0:0:
448,192,157241,1,0,0:0:0:0:
64,192,157241,1,0,0:0:0:0:
192,192,157314,1,0,0:0:0:0:
320,192,157352,1,0,0:0:0:0:
448,192,157463,1,0,0:0:0:0:
64,192,157463,1,0,0:0:0:0:
192,192,157463,1,0,0:0:0:0:
448,192,157574,1,0,0:0:0:0:
320,192,157574,1,0,0:0:0:0:
64,192,157611,1,0,0:0:0:0:
192,192,157685,1,0,0:0:0:0:
320,192,157758,1,0,0:0:0:0:
448,192,157796,1,0,0:0:0:0:
192,192,157833,1,0,0:0:0:0:
64,192,157870,1,0,0:0:0:0:
320,192,157907,1,0,0:0:0:0:
448,192,157907,1,0,0:0:0:0:
192,192,157907,1,0,0:0:0:0:
320,192,158018,1,0,0:0:0:0:
448,192,158018,1,0,0:0:0:0:
448,192,158130,1,0,0:0:0:0:
64,192,158130,1,0,0:0:0:0:
192,192,158203,1,0,0:0:0:0:
320,192,158277,1,0,0:0:0:0:
192,192,158352,1,0,0:0:0:0:
64,192,158352,1,0,0:0:0:0:
448,192,158352,1,0,0:0:0:0:
320,192,158407,1,0,0:0:0:0:
192,192,158463,1,0,0:0:0:0:
64,192,158463,1,0,0:0:0:0:
448,192,158574,1,0,0:0:0:0:
320,192,158574,1,0,0:0:0:0:
64,192,158574,1,0,0:0:0:0:
448,192,158685,1,0,0:0:0:0:
320,192,158685,1,0,0:0:0:0:
192,192,158685,1,0,0:0:0:0:
448,192,158796,1,0,0:0:0:0:
192,192,158796,1,0,0:0:0:0:
64,192,158796,1,0,0:0:0:0:
320,192,158796,1,0,0:0:0:0:
192,192,158907,1,0,0:0:0:0:
448,192,159018,1,0,0:0:0:0:
320,192,159018,1,0,0:0:0:0:
64,192,159018,1,0,0:0:0:0:
320,192,159130,1,0,0:0:0:0:
448,192,159241,1,0,0:0:0:0:
192,192,159241,1,0,0:0:0:0:
64,192,159241,1,0,0:0:0:0:
320,192,159314,1,0,0:0:0:0:
64,192,159352,1,0,0:0:0:0:
192,192,159463,1,0,0:0:0:0:
320,192,159463,1,0,0:0:0:0:
448,192,159463,1,0,0:0:0:0:
64,192,159536,1,0,0:0:0:0:
448,192,159574,1,0,0:0:0:0:
320,192,159611,1,0,0:0:0:0:
64,192,159685,1,0,0:0:0:0:
192,192,159685,1,0,0:0:0:0:
448,192,159685,1,0,0:0:0:0:
320,192,159741,1,0,0:0:0:0:
192,192,159796,1,0,0:0:0:0:
320,192,159833,1,0,0:0:0:0:
448,192,159907,1,0,0:0:0:0:
64,192,159907,1,0,0:0:0:0:
320,192,159944,1,0,0:0:0:0:
192,192,159981,1,0,0:0:0:0:
448,192,160018,1,0,0:0:0:0:
320,192,160055,1,0,0:0:0:0:
192,192,160130,1,0,0:0:0:0:
64,192,160130,1,0,0:0:0:0:
448,192,160130,1,0,0:0:0:0:
320,192,160185,1,0,0:0:0:0:
192,192,160241,1,0,0:0:0:0:
320,192,160352,1,0,0:0:0:0:
448,192,160352,1,0,0:0:0:0:
64,192,160352,1,0,0:0:0:0:
192,192,160463,1,0,0:0:0:0:
320,192,160463,1,0,0:0:0:0:
448,192,160518,1,0,0:0:0:0:
320,192,160574,1,0,0:0:0:0:
192,192,160574,1,0,0:0:0:0:
64,192,160574,1,0,0:0:0:0:
64,192,160685,1,0,0:0:0:0:
192,192,160796,1,0,0:0:0:0:
320,192,160796,1,0,0:0:0:0:
448,192,160796,1,0,0:0:0:0:
448,192,160907,1,0,0:0:0:0:
448,192,161018,1,0,0:0:0:0:
192,192,161018,1,0,0:0:0:0:
64,192,161018,1,0,0:0:0:0:
64,192,161130,1,0,0:0:0:0:
320,192,161130,1,0,0:0:0:0:
320,192,161241,1,0,0:0:0:0:
192,192,161241,1,0,0:0:0:0:
448,192,161296,1,0,0:0:0:0:
64,192,161352,1,0,0:0:0:0:
320,192,161407,1,0,0:0:0:0:
192,192,161463,1,0,0:0:0:0:
64,192,161463,1,0,0:0:0:0:
448,192,161463,1,0,0:0:0:0:
192,192,161574,1,0,0:0:0:0:
448,192,161574,1,0,0:0:0:0:
320,192,161685,1,0,0:0:0:0:
448,192,161685,1,0,0:0:0:0:
64,192,161685,1,0,0:0:0:0:
320,192,161796,1,0,0:0:0:0:
192,192,161796,1,0,0:0:0:0:
192,192,161907,1,0,0:0:0:0:
64,192,161907,1,0,0:0:0:0:
448,192,161907,1,0,0:0:0:0:
320,192,162018,1,0,0:0:0:0:
448,192,162018,1,0,0:0:0:0:
64,192,162130,1,0,0:0:0:0:
448,192,162130,1,0,0:0:0:0:
192,192,162241,1,0,0:0:0:0:
64,192,162241,1,0,0:0:0:0:
192,192,162352,1,0,0:0:0:0:
320,192,162352,1,0,0:0:0:0:
448,192,162352,1,0,0:0:0:0:
64,192,162352,1,0,0:0:0:0:
448,192,162463,1,0,0:0:0:0:
192,192,162574,1,0,0:0:0:0:
320,192,162574,1,0,0:0:0:0:
192,192,162685,1,0,0:0:0:0:
64,192,162685,1,0,0:0:0:0:
448,192,162796,1,0,0:0:0:0:
320,192,162796,1,0,0:0:0:0:
64,192,162796,1,0,0:0:0:0:
192,192,162907,1,0,0:0:0:0:
320,192,162907,1,0,0:0:0:0:
448,192,162907,1,0,0:0:0:0:
448,192,163018,1,0,0:0:0:0:
192,192,163018,1,0,0:0:0:0:
64,192,163018,1,0,0:0:0:0:
320,192,163130,1,0,0:0:0:0:
192,192,163130,1,0,0:0:0:0:
64,192,163130,1,0,0:0:0:0:
320,192,163241,1,0,0:0:0:0:
448,192,163241,1,0,0:0:0:0:
64,192,163241,1,0,0:0:0:0:
320,192,163352,1,0,0:0:0:0:
448,192,163352,1,0,0:0:0:0:
192,192,163352,1,0,0:0:0:0:
320,192,163463,1,0,0:0:0:0:
64,192,163463,1,0,0:0:0:0:
192,192,163463,1,0,0:0:0:0:
448,192,163574,1,0,0:0:0:0:
192,192,163574,1,0,0:0:0:0:
64,192,163574,1,0,0:0:0:0:
320,192,163685,1,0,0:0:0:0:
448,192,163685,1,0,0:0:0:0:
192,192,163685,1,0,0:0:0:0:
64,192,163741,1,0,0:0:0:0:
448,192,163796,1,0,0:0:0:0:
320,192,163796,1,0,0:0:0:0:
192,192,163852,1,0,0:0:0:0:
448,192,163907,1,0,0:0:0:0:
320,192,163907,1,0,0:0:0:0:
64,192,163963,1,0,0:0:0:0:
192,192,164018,1,0,0:0:0:0:
320,192,164018,1,0,0:0:0:0:
448,192,164074,1,0,0:0:0:0:
192,192,164130,1,0,0:0:0:0:
320,192,164130,128,0,164685:0:0:0:0:
64,192,164130,1,0,0:0:0:0:
64,192,164574,1,0,0:0:0:0:
320,192,164796,1,0,0:0:0:0:
448,192,164963,128,0,165185:0:0:0:0:
64,192,165018,128,0,165352:0:0:0:0:
192,192,165018,128,0,165241:0:0:0:0:
320,192,165018,1,0,0:0:0:0:
448,192,165241,1,0,0:0:0:0:
192,192,165463,1,0,0:0:0:0:
64,192,165463,1,0,0:0:0:0:
192,192,165685,128,0,165796:0:0:0:0:
320,192,165796,128,0,165852:0:0:0:0:
448,192,165796,128,0,165852:0:0:0:0:
192,192,165907,1,0,0:0:0:0:
64,192,165907,1,0,0:0:0:0:
448,192,165907,128,0,166130:0:0:0:0:
320,192,166130,1,0,0:0:0:0:
64,192,166130,1,0,0:0:0:0:
320,192,166241,128,0,166463:0:0:0:0:
192,192,166241,1,0,0:0:0:0:
448,192,166241,1,0,0:0:0:0:
192,192,166463,1,0,0:0:0:0:
64,192,166463,1,0,0:0:0:0:
448,192,166574,1,0,0:0:0:0:
320,192,166574,1,0,0:0:0:0:
64,192,166574,128,0,166796:0:0:0:0:
192,192,166796,1,0,0:0:0:0:
448,192,166796,1,0,0:0:0:0:
64,192,166907,1,0,0:0:0:0:
192,192,166907,1,0,0:0:0:0:
448,192,166907,128,0,167130:0:0:0:0:
320,192,167130,1,0,0:0:0:0:
64,192,167130,1,0,0:0:0:0:
64,192,167241,1,0,0:0:0:0:
448,192,167241,1,0,0:0:0:0:
192,192,167241,128,0,167463:0:0:0:0:
320,192,167463,1,0,0:0:0:0:
320,192,167685,1,0,0:0:0:0:
448,192,167685,1,0,0:0:0:0:
64,192,167685,128,0,167907:0:0:0:0:
192,192,167907,1,0,0:0:0:0:
448,192,167907,1,0,0:0:0:0:
192,192,168018,128,0,168241:0:0:0:0:
320,192,168018,1,0,0:0:0:0:
64,192,168018,1,0,0:0:0:0:
320,192,168241,1,0,0:0:0:0:
448,192,168241,1,0,0:0:0:0:
64,192,168352,1,0,0:0:0:0:
192,192,168352,1,0,0:0:0:0:
448,192,168352,128,0,168574:0:0:0:0:
320,192,168574,1,0,0:0:0:0:
64,192,168574,1,0,0:0:0:0:
448,192,168685,1,0,0:0:0:0:
320,192,168685,1,0,0:0:0:0:
64,192,168685,128,0,168907:0:0:0:0:
192,192,168907,1,0,0:0:0:0:
448,192,168907,1,0,0:0:0:0:
448,192,169018,1,0,0:0:0:0:
64,192,169018,1,0,0:0:0:0:
320,192,169018,128,0,169241:0:0:0:0:
192,192,169241,1,0,0:0:0:0:
192,192,169463,128,0,169685:0:0:0:0:
64,192,169463,1,0,0:0:0:0:
448,192,169463,1,0,0:0:0:0:
320,192,169685,1,0,0:0:0:0:
448,192,169685,1,0,0:0:0:0:
64,192,169796,1,0,0:0:0:0:
320,192,169796,128,0,170018:0:0:0:0:
192,192,169796,1,0,0:0:0:0:
64,192,170018,1,0,0:0:0:0:
448,192,170018,1,0,0:0:0:0:
320,192,170130,1,0,0:0:0:0:
448,192,170130,1,0,0:0:0:0:
192,192,170130,128,0,170352:0:0:0:0:
64,192,170352,1,0,0:0:0:0:
448,192,170352,1,0,0:0:0:0:
192,192,170463,1,0,0:0:0:0:
448,192,170463,1,0,0:0:0:0:
64,192,170463,128,0,170685:0:0:0:0:
320,192,170685,1,0,0:0:0:0:
192,192,170685,1,0,0:0:0:0:
64,192,170796,1,0,0:0:0:0:
448,192,170796,1,0,0:0:0:0:
320,192,170796,128,0,171018:0:0:0:0:
192,192,171018,1,0,0:0:0:0:
192,192,171241,1,0,0:0:0:0:
64,192,171241,1,0,0:0:0:0:
448,192,171241,1,0,0:0:0:0:
320,192,171241,128,0,171463:0:0:0:0:
64,192,171463,1,0,0:0:0:0:
192,192,171463,1,0,0:0:0:0:
320,192,171574,1,0,0:0:0:0:
448,192,171574,1,0,0:0:0:0:
64,192,171574,128,0,171796:0:0:0:0:
192,192,171685,1,0,0:0:0:0:
448,192,171685,1,0,0:0:0:0:
320,192,171796,1,0,0:0:0:0:
192,192,171796,1,0,0:0:0:0:
64,192,171907,1,0,0:0:0:0:
320,192,171907,1,0,0:0:0:0:
192,192,172018,1,0,0:0:0:0:
448,192,172018,1,0,0:0:0:0:
320,192,172130,1,0,0:0:0:0:
448,192,172130,1,0,0:0:0:0:
64,192,172130,1,0,0:0:0:0:
192,192,172241,1,0,0:0:0:0:
64,192,172241,1,0,0:0:0:0:
448,192,172241,1,0,0:0:0:0:
320,192,172352,1,0,0:0:0:0:
192,192,172352,1,0,0:0:0:0:
64,192,172463,1,0,0:0:0:0:
448,192,172463,1,0,0:0:0:0:
320,192,172463,1,0,0:0:0:0:
64,192,172574,1,0,0:0:0:0:
448,192,172574,1,0,0:0:0:0:
320,192,172630,1,0,0:0:0:0:
192,192,172685,1,0,0:0:0:0:
64,192,172685,1,0,0:0:0:0:
448,192,172685,1,0,0:0:0:0:
320,192,172796,1,0,0:0:0:0:
448,192,172796,1,0,0:0:0:0:
64,192,172852,1,0,0:0:0:0:
320,192,172907,1,0,0:0:0:0:
192,192,172907,1,0,0:0:0:0:
64,192,172971,1,0,0:0:0:0:
448,192,172971,1,0,0:0:0:0:
320,192,172971,1,0,0:0:0:0:
192,192,173193,1,0,0:0:0:0:
320,192,173193,128,0,173594:0:0:0:0:
448,192,173193,128,0,173483:0:0:0:0:
192,192,173455,128,0,173677:0:0:0:0:
64,192,173455,1,0,0:0:0:0:
64,192,173677,1,0,0:0:0:0:
320,192,173677,1,0,0:0:0:0:
192,192,173788,1,0,0:0:0:0:
320,192,173900,128,0,174150:0:0:0:0:
448,192,173900,1,0,0:0:0:0:
64,192,173900,1,0,0:0:0:0:
64,192,174011,1,0,0:0:0:0:
192,192,174233,1,0,0:0:0:0:
448,192,174344,128,0,174622:0:0:0:0:
192,192,174344,1,0,0:0:0:0:
320,192,174344,1,0,0:0:0:0:
64,192,174455,128,0,174594:0:0:0:0:
320,192,174455,1,0,0:0:0:0:
192,192,174566,1,0,0:0:0:0:
192,192,174677,128,0,174733:0:0:0:0:
448,192,174677,1,0,0:0:0:0:
192,192,174788,1,0,0:0:0:0:
64,192,174788,1,0,0:0:0:0:
448,192,174788,1,0,0:0:0:0:
320,192,174788,128,0,175094:0:0:0:0:
64,192,175011,1,0,0:0:0:0:
448,192,175011,1,0,0:0:0:0:
192,192,175122,1,0,0:0:0:0:
448,192,175233,128,0,175511:0:0:0:0:
320,192,175233,1,0,0:0:0:0:
192,192,175233,1,0,0:0:0:0:
320,192,175344,1,0,0:0:0:0:
64,192,175455,1,0,0:0:0:0:
192,192,175677,128,0,176011:0:0:0:0:
64,192,175677,1,0,0:0:0:0:
448,192,175677,1,0,0:0:0:0:
448,192,175788,1,0,0:0:0:0:
320,192,176011,1,0,0:0:0:0:
320,192,176122,128,0,176344:0:0:0:0:
64,192,176122,1,0,0:0:0:0:
192,192,176122,1,0,0:0:0:0:
64,192,176344,128,0,176455:0:0:0:0:
192,192,176344,1,0,0:0:0:0:
448,192,176344,1,0,0:0:0:0:
192,192,176566,128,0,177011:0:0:0:0:
64,192,176566,1,0,0:0:0:0:
320,192,176566,1,0,0:0:0:0:
448,192,176566,1,0,0:0:0:0:
448,192,176788,1,0,0:0:0:0:
64,192,176788,1,0,0:0:0:0:
320,192,176900,1,0,0:0:0:0:
64,192,176900,1,0,0:0:0:0:
448,192,177122,1,0,0:0:0:0:
64,192,177122,1,0,0:0:0:0:
192,192,177122,1,0,0:0:0:0:
192,192,177233,128,0,177344:0:0:0:0:
320,192,177233,1,0,0:0:0:0:
64,192,177455,1,0,0:0:0:0:
192,192,177455,1,0,0:0:0:0:
320,192,177566,128,0,178233:0:0:0:0:
448,192,177566,1,0,0:0:0:0:
192,192,177788,1,0,0:0:0:0:
448,192,177788,1,0,0:0:0:0:
64,192,178011,1,0,0:0:0:0:
192,192,178122,1,0,0:0:0:0:
64,192,178233,1,0,0:0:0:0:
448,192,178233,1,0,0:0:0:0:
448,192,178344,128,0,179233:0:0:0:0:
320,192,178344,1,0,0:0:0:0:
192,192,178344,1,0,0:0:0:0:
320,192,178566,1,0,0:0:0:0:
64,192,178566,1,0,0:0:0:0:
192,192,178677,1,0,0:0:0:0:
64,192,178900,1,0,0:0:0:0:
320,192,178900,1,0,0:0:0:0:
64,192,179233,1,0,0:0:0:0:
192,192,179233,1,0,0:0:0:0:
320,192,179233,1,0,0:0:0:0:
192,192,179566,1,0,0:0:0:0:
448,192,179566,1,0,0:0:0:0:
64,192,179566,1,0,0:0:0:0:
192,192,179900,1,0,0:0:0:0:
448,192,179900,1,0,0:0:0:0:
320,192,179900,1,0,0:0:0:0:
192,192,180122,1,0,0:0:0:0:
64,192,180122,1,0,0:0:0:0:
448,192,180122,1,0,0:0:0:0:
448,192,180344,1,0,0:0:0:0:
64,192,180344,1,0,0:0:0:0:
320,192,180455,1,0,0:0:0:0:
192,192,180566,1,0,0:0:0:0:
64,192,180566,1,0,0:0:0:0:
320,192,180566,128,0,180844:0:0:0:0:
64,192,180677,1,0,0:0:0:0:
448,192,180677,1,0,0:0:0:0:
64,192,181011,1,0,0:0:0:0:
192,192,181011,128,0,181233:0:0:0:0:
320,192,181011,1,0,0:0:0:0:
448,192,181233,1,0,0:0:0:0:
192,192,181344,1,0,0:0:0:0:
64,192,181344,1,0,0:0:0:0:
448,192,181455,128,0,181788:0:0:0:0:
320,192,181455,1,0,0:0:0:0:
192,192,181677,1,0,0:0:0:0:
320,192,181677,1,0,0:0:0:0:
448,192,181900,1,0,0:0:0:0:
320,192,181900,128,0,182233:0:0:0:0:
64,192,181900,1,0,0:0:0:0:
192,192,181900,1,0,0:0:0:0:
64,192,182122,1,0,0:0:0:0:
448,192,182122,1,0,0:0:0:0:
320,192,182344,1,0,0:0:0:0:
448,192,182344,1,0,0:0:0:0:
192,192,182344,128,0,182677:0:0:0:0:
64,192,182455,1,0,0:0:0:0:
448,192,182455,1,0,0:0:0:0:
448,192,182788,1,0,0:0:0:0:
320,192,182788,1,0,0:0:0:0:
192,192,182788,1,0,0:0:0:0:
64,192,182788,128,0,183066:0:0:0:0:
320,192,183122,1,0,0:0:0:0:
448,192,183122,1,0,0:0:0:0:
64,192,183122,1,0,0:0:0:0:
192,192,183233,128,0,183622:0:0:0:0:
64,192,183233,1,0,0:0:0:0:
448,192,183233,1,0,0:0:0:0:
320,192,183455,1,0,0:0:0:0:
448,192,183455,1,0,0:0:0:0:
192,192,183677,1,0,0:0:0:0:
320,192,183677,1,0,0:0:0:0:
448,192,183677,128,0,184344:0:0:0:0:
64,192,183677,1,0,0:0:0:0:
320,192,183900,1,0,0:0:0:0:
64,192,183900,1,0,0:0:0:0:
192,192,184122,1,0,0:0:0:0:
320,192,184122,1,0,0:0:0:0:
64,192,184233,1,0,0:0:0:0:
320,192,184233,1,0,0:0:0:0:
64,192,184344,128,0,184511:0:0:0:0:
320,192,184566,1,0,0:0:0:0:
192,192,184566,128,0,184844:0:0:0:0:
448,192,184566,1,0,0:0:0:0:
192,192,184900,1,0,0:0:0:0:
320,192,184900,1,0,0:0:0:0:
448,192,184900,1,0,0:0:0:0:
192,192,185233,1,0,0:0:0:0:
320,192,185233,1,0,0:0:0:0:
64,192,185233,1,0,0:0:0:0:
192,192,185344,1,0,0:0:0:0:
64,192,185455,1,0,0:0:0:0:
448,192,185455,1,0,0:0:0:0:
320,192,185455,1,0,0:0:0:0:
192,192,185455,128,0,186011:0:0:0:0:
448,192,185900,128,0,186177:0:0:0:0:
192,192,186122,1,0,0:0:0:0:
64,192,186122,128,0,186288:0:0:0:0:
64,192,186344,1,0,0:0:0:0:
192,192,186344,1,0,0:0:0:0:
448,192,186344,1,0,0:0:0:0:
320,192,186677,1,0,0:0:0:0:
64,192,186677,1,0,0:0:0:0:
192,192,186677,1,0,0:0:0:0:
192,192,187011,1,0,0:0:0:0:
320,192,187011,1,0,0:0:0:0:
448,192,187011,1,0,0:0:0:0:
192,192,187233,1,0,0:0:0:0:
64,192,187233,1,0,0:0:0:0:
448,192,187233,1,0,0:0:0:0:
320,192,187455,1,0,0:0:0:0:
192,192,187455,1,0,0:0:0:0:
64,192,187455,1,0,0:0:0:0:
64,192,187677,1,0,0:0:0:0:
448,192,187677,1,0,0:0:0:0:
320,192,187677,128,0,187955:0:0:0:0:
192,192,187900,1,0,0:0:0:0:
64,192,188011,1,0,0:0:0:0:
320,192,188011,1,0,0:0:0:0:
64,192,188122,1,0,0:0:0:0:
448,192,188122,1,0,0:0:0:0:
192,192,188122,128,0,188400:0:0:0:0:
64,192,188455,1,0,0:0:0:0:
192,192,188455,1,0,0:0:0:0:
320,192,188455,1,0,0:0:0:0:
64,192,188566,1,0,0:0:0:0:
448,192,188566,128,0,188844:0:0:0:0:
320,192,188566,1,0,0:0:0:0:
192,192,188788,1,0,0:0:0:0:
64,192,188788,1,0,0:0:0:0:
320,192,189011,1,0,0:0:0:0:
448,192,189011,1,0,0:0:0:0:
192,192,189011,128,0,189344:0:0:0:0:
64,192,189233,1,0,0:0:0:0:
448,192,189233,1,0,0:0:0:0:
320,192,189344,1,0,0:0:0:0:
320,192,189455,128,0,189677:0:0:0:0:
192,192,189455,1,0,0:0:0:0:
448,192,189455,1,0,0:0:0:0:
64,192,189566,1,0,0:0:0:0:
64,192,189677,1,0,0:0:0:0:
192,192,189677,1,0,0:0:0:0:
64,192,189900,1,0,0:0:0:0:
320,192,189900,1,0,0:0:0:0:
448,192,189900,128,0,190177:0:0:0:0:
192,192,190122,1,0,0:0:0:0:
64,192,190122,1,0,0:0:0:0:
448,192,190233,1,0,0:0:0:0:
64,192,190233,1,0,0:0:0:0:
320,192,190233,1,0,0:0:0:0:
448,192,190344,1,0,0:0:0:0:
192,192,190344,128,0,190622:0:0:0:0:
320,192,190344,1,0,0:0:0:0:
64,192,190566,1,0,0:0:0:0:
320,192,190566,1,0,0:0:0:0:
192,192,190788,1,0,0:0:0:0:
64,192,190788,1,0,0:0:0:0:
448,192,190788,1,0,0:0:0:0:
192,192,191011,1,0,0:0:0:0:
448,192,191011,1,0,0:0:0:0:
320,192,191011,1,0,0:0:0:0:
64,192,191122,1,0,0:0:0:0:
192,192,191233,1,0,0:0:0:0:
320,192,191233,1,0,0:0:0:0:
448,192,191233,1,0,0:0:0:0:
64,192,191455,1,0,0:0:0:0:
320,192,191455,1,0,0:0:0:0:
448,192,191455,1,0,0:0:0:0:
320,192,191566,1,0,0:0:0:0:
192,192,191566,1,0,0:0:0:0:
192,192,191677,1,0,0:0:0:0:
64,192,191677,1,0,0:0:0:0:
64,192,191900,1,0,0:0:0:0:
320,192,191900,1,0,0:0:0:0:
448,192,191900,1,0,0:0:0:0:
192,192,192011,128,0,192177:0:0:0:0:
320,192,192177,128,0,193177:0:0:0:0:
64,192,192344,1,0,0:0:0:0:
192,192,192344,1,0,0:0:0:0:
448,192,192344,1,0,0:0:0:0:
64,192,193011,1,0,0:0:0:0:
448,192,193011,1,0,0:0:0:0:
192,192,193122,1,0,0:0:0:0:
64,192,193122,1,0,0:0:0:0:
448,192,193177,1,0,0:0:0:0:
192,192,193233,1,0,0:0:0:0:
320,192,193233,1,0,0:0:0:0:
64,192,193288,1,0,0:0:0:0:
448,192,193344,1,0,0:0:0:0:
320,192,193344,1,0,0:0:0:0:
192,192,193400,1,0,0:0:0:0:
448,192,193455,1,0,0:0:0:0:
64,192,193455,128,0,193733:0:0:0:0:
192,192,193511,1,0,0:0:0:0:
320,192,193566,1,0,0:0:0:0:
448,192,193622,1,0,0:0:0:0:
192,192,193677,1,0,0:0:0:0:
320,192,193733,1,0,0:0:0:0:
192,192,193788,128,0,193844:0:0:0:0:
64,192,193788,1,0,0:0:0:0:
448,192,193844,1,0,0:0:0:0:
320,192,193900,128,0,194011:0:0:0:0:
64,192,193900,1,0,0:0:0:0:
192,192,193900,1,0,0:0:0:0:
448,192,193955,1,0,0:0:0:0:
192,192,194011,1,0,0:0:0:0:
64,192,194066,1,0,0:0:0:0:
448,192,194122,128,0,194177:0:0:0:0:
320,192,194122,1,0,0:0:0:0:
192,192,194122,1,0,0:0:0:0:
64,192,194177,1,0,0:0:0:0:
192,192,194233,1,0,0:0:0:0:
320,192,194288,1,0,0:0:0:0:
448,192,194344,1,0,0:0:0:0:
192,192,194344,1,0,0:0:0:0:
64,192,194344,128,0,194566:0:0:0:0:
64,192,194677,1,0,0:0:0:0:
192,192,194677,1,0,0:0:0:0:
64,192,194788,1,0,0:0:0:0:
448,192,194788,1,0,0:0:0:0:
320,192,194788,128,0,195011:0:0:0:0:
192,192,195011,1,0,0:0:0:0:
64,192,195011,1,0,0:0:0:0:
64,192,195233,1,0,0:0:0:0:
448,192,195233,1,0,0:0:0:0:
192,192,195233,128,0,195511:0:0:0:0:
320,192,195344,1,0,0:0:0:0:
64,192,195455,1,0,0:0:0:0:
64,192,195566,1,0,0:0:0:0:
192,192,195566,1,0,0:0:0:0:
448,192,195566,128,0,195844:0:0:0:0:
320,192,195677,1,0,0:0:0:0:
64,192,195788,1,0,0:0:0:0:
192,192,195788,1,0,0:0:0:0:
448,192,195900,1,0,0:0:0:0:
64,192,195900,1,0,0:0:0:0:
320,192,195900,128,0,196066:0:0:0:0:
64,192,196122,1,0,0:0:0:0:
320,192,196122,1,0,0:0:0:0:
448,192,196122,128,0,196344:0:0:0:0:
64,192,196233,1,0,0:0:0:0:
192,192,196233,128,0,196455:0:0:0:0:
320,192,196455,1,0,0:0:0:0:
448,192,196455,1,0,0:0:0:0:
192,192,196566,1,0,0:0:0:0:
448,192,196566,1,0,0:0:0:0:
64,192,196566,128,0,196788:0:0:0:0:
192,192,196677,1,0,0:0:0:0:
448,192,196788,1,0,0:0:0:0:
320,192,196788,128,0,196900:0:0:0:0:
448,192,196900,1,0,0:0:0:0:
64,192,196900,1,0,0:0:0:0:
64,192,197011,1,0,0:0:0:0:
192,192,197011,128,0,197288:0:0:0:0:
320,192,197011,1,0,0:0:0:0:
320,192,197122,1,0,0:0:0:0:
448,192,197233,1,0,0:0:0:0:
64,192,197344,1,0,0:0:0:0:
192,192,197344,1,0,0:0:0:0:
448,192,197344,128,0,197622:0:0:0:0:
320,192,197455,1,0,0:0:0:0:
320,192,197566,1,0,0:0:0:0:
448,192,197677,1,0,0:0:0:0:
192,192,197677,1,0,0:0:0:0:
64,192,197677,128,0,197844:0:0:0:0:
64,192,197900,1,0,0:0:0:0:
192,192,197900,1,0,0:0:0:0:
320,192,197900,128,0,198177:0:0:0:0:
192,192,198011,1,0,0:0:0:0:
448,192,198122,1,0,0:0:0:0:
64,192,198122,1,0,0:0:0:0:
192,192,198233,1,0,0:0:0:0:
448,192,198233,1,0,0:0:0:0:
320,192,198344,1,0,0:0:0:0:
192,192,198344,1,0,0:0:0:0:
64,192,198344,128,0,198511:0:0:0:0:
320,192,198455,1,0,0:0:0:0:
448,192,198455,1,0,0:0:0:0:
64,192,198566,1,0,0:0:0:0:
192,192,198566,1,0,0:0:0:0:
448,192,198677,1,0,0:0:0:0:
192,192,198677,128,0,198788:0:0:0:0:
320,192,198788,128,0,199066:0:0:0:0:
64,192,198788,128,0,199066:0:0:0:0:
448,192,198788,128,0,199066:0:0:0:0:
192,192,199122,128,0,199400:0:0:0:0:
320,192,199122,128,0,199400:0:0:0:0:
64,192,199122,128,0,199400:0:0:0:0:
320,192,199455,128,0,199622:0:0:0:0:
448,192,199455,128,0,199622:0:0:0:0:
64,192,199455,128,0,199622:0:0:0:0:
320,192,199677,1,0,0:0:0:0:
448,192,199677,1,0,0:0:0:0:
64,192,199677,1,0,0:0:0:0:
192,192,199677,128,0,200344:0:0:0:0:
64,192,200233,128,0,200344:0:0:0:0:
320,192,200344,1,0,0:0:0:0:
448,192,200400,1,0,0:0:0:0:
192,192,200455,128,0,200566:0:0:0:0:
64,192,200511,1,0,0:0:0:0:
448,192,200566,128,0,200788:0:0:0:0:
320,192,200788,128,0,201011:0:0:0:0:
192,192,201011,128,0,201233:0:0:0:0:
64,192,201233,128,0,201400:0:0:0:0:
64,192,201455,1,0,0:0:0:0:
192,192,201455,1,0,0:0:0:0:
448,192,201455,1,0,0:0:0:0:
320,192,201455,128,0,202344:0:0:0:0:
192,192,202233,128,0,202455:0:0:0:0:
192,192,202677,128,0,202900:0:0:0:0:
64,192,202900,128,0,203122:0:0:0:0:
320,192,203122,128,0,203233:0:0:0:0:
64,192,203177,1,0,0:0:0:0:
448,192,203233,1,0,0:0:0:0:
320,192,203288,1,0,0:0:0:0:
192,192,203344,128,0,203900:0:0:0:0:
192,192,204011,1,0,0:0:0:0:
320,192,204066,1,0,0:0:0:0:
448,192,204122,128,0,204288:0:0:0:0:
320,192,204344,1,0,0:0:0:0:
192,192,204344,1,0,0:0:0:0:
448,192,204344,1,0,0:0:0:0:
192,192,204566,1,0,0:0:0:0:
320,192,204566,1,0,0:0:0:0:
64,192,204566,1,0,0:0:0:0:
64,192,205011,1,0,0:0:0:0:
192,192,205011,1,0,0:0:0:0:
320,192,205011,1,0,0:0:0:0:
448,192,205011,1,0,0:0:0:0:
448,192,205122,1,0,0:0:0:0:
320,192,205122,1,0,0:0:0:0:
192,192,205122,1,0,0:0:0:0:
64,192,205122,1,0,0:0:0:0:
448,192,205344,1,0,0:0:0:0:
320,192,205344,1,0,0:0:0:0:
192,192,205344,1,0,0:0:0:0:
64,192,205344,1,0,0:0:0:0:
448,192,205566,1,0,0:0:0:0:
192,192,205566,1,0,0:0:0:0:
64,192,205566,1,0,0:0:0:0:
320,192,205566,1,0,0:0:0:0:
448,192,205788,1,0,0:0:0:0:
192,192,205788,1,0,0:0:0:0:
64,192,205788,1,0,0:0:0:0:
320,192,205788,1,0,0:0:0:0:
448,192,205900,1,0,0:0:0:0:
320,192,205900,1,0,0:0:0:0:
192,192,205900,1,0,0:0:0:0:
64,192,205900,1,0,0:0:0:0:
192,192,206122,1,0,0:0:0:0:
64,192,206122,128,0,206455:0:0:0:0:
192,192,206344,1,0,0:0:0:0:
320,192,206344,128,0,206733:0:0:0:0:
448,192,206400,1,0,0:0:0:0:
64,192,206566,1,0,0:0:0:0:
64,192,206788,1,0,0:0:0:0:
192,192,206788,1,0,0:0:0:0:
320,192,206788,1,0,0:0:0:0:
448,192,206788,1,0,0:0:0:0:
320,192,206900,1,0,0:0:0:0:
64,192,207011,1,0,0:0:0:0:
448,192,207011,1,0,0:0:0:0:
192,192,207066,1,0,0:0:0:0:
320,192,207122,1,0,0:0:0:0:
64,192,207177,1,0,0:0:0:0:
192,192,207233,1,0,0:0:0:0:
320,192,207233,1,0,0:0:0:0:
448,192,207233,1,0,0:0:0:0:
64,192,207288,1,0,0:0:0:0:
448,192,207344,1,0,0:0:0:0:
192,192,207381,1,0,0:0:0:0:
320,192,207455,1,0,0:0:0:0:
64,192,207455,1,0,0:0:0:0:
448,192,207511,1,0,0:0:0:0:
64,192,207566,1,0,0:0:0:0:
192,192,207603,1,0,0:0:0:0:
320,192,207640,1,0,0:0:0:0:
64,192,207677,1,0,0:0:0:0:
448,192,207677,1,0,0:0:0:0:
192,192,207788,1,0,0:0:0:0:
64,192,207788,1,0,0:0:0:0:
320,192,207900,1,0,0:0:0:0:
64,192,207955,1,0,0:0:0:0:
192,192,208011,1,0,0:0:0:0:
448,192,208011,1,0,0:0:0:0:
320,192,208066,1,0,0:0:0:0:
192,192,208122,1,0,0:0:0:0:
64,192,208122,1,0,0:0:0:0:
448,192,208122,1,0,0:0:0:0:
320,192,208233,1,0,0:0:0:0:
64,192,208233,1,0,0:0:0:0:
192,192,208344,1,0,0:0:0:0:
448,192,208344,1,0,0:0:0:0:
64,192,208417,1,0,0:0:0:0:
320,192,208492,1,0,0:0:0:0:
64,192,208566,1,0,0:0:0:0:
448,192,208566,1,0,0:0:0:0:
192,192,208566,1,0,0:0:0:0:
192,192,208677,1,0,0:0:0:0:
320,192,208677,1,0,0:0:0:0:
64,192,208788,1,0,0:0:0:0:
320,192,208788,1,0,0:0:0:0:
192,192,208844,1,0,0:0:0:0:
448,192,208862,1,0,0:0:0:0:
192,192,208936,1,0,0:0:0:0:
448,192,209011,1,0,0:0:0:0:
64,192,209011,1,0,0:0:0:0:
320,192,209011,1,0,0:0:0:0:
192,192,209122,1,0,0:0:0:0:
64,192,209122,1,0,0:0:0:0:
320,192,209177,1,0,0:0:0:0:
192,192,209233,1,0,0:0:0:0:
448,192,209233,1,0,0:0:0:0:
64,192,209288,1,0,0:0:0:0:
320,192,209344,1,0,0:0:0:0:
320,192,209455,1,0,0:0:0:0:
448,192,209455,1,0,0:0:0:0:
64,192,209455,1,0,0:0:0:0:
192,192,209566,1,0,0:0:0:0:
64,192,209566,1,0,0:0:0:0:
448,192,209566,1,0,0:0:0:0:
192,192,209677,1,0,0:0:0:0:
320,192,209677,1,0,0:0:0:0:
64,192,209733,1,0,0:0:0:0:
448,192,209788,1,0,0:0:0:0:
320,192,209844,1,0,0:0:0:0:
64,192,209900,1,0,0:0:0:0:
192,192,209900,1,0,0:0:0:0:
448,192,209900,1,0,0:0:0:0:
320,192,209973,1,0,0:0:0:0:
64,192,210047,1,0,0:0:0:0:
192,192,210084,1,0,0:0:0:0:
320,192,210122,1,0,0:0:0:0:
448,192,210122,1,0,0:0:0:0:
64,192,210177,1,0,0:0:0:0:
320,192,210233,1,0,0:0:0:0:
192,192,210288,1,0,0:0:0:0:
64,192,210344,1,0,0:0:0:0:
320,192,210344,1,0,0:0:0:0:
448,192,210344,1,0,0:0:0:0:
192,192,210400,1,0,0:0:0:0:
64,192,210455,1,0,0:0:0:0:
320,192,210511,1,0,0:0:0:0:
64,192,210566,1,0,0:0:0:0:
192,192,210566,1,0,0:0:0:0:
448,192,210622,1,0,0:0:0:0:
192,192,210677,1,0,0:0:0:0:
320,192,210677,1,0,0:0:0:0:
320,192,210788,1,0,0:0:0:0:
448,192,210788,1,0,0:0:0:0:
64,192,210788,1,0,0:0:0:0:
192,192,210844,1,0,0:0:0:0:
448,192,210900,1,0,0:0:0:0:
320,192,210955,1,0,0:0:0:0:
192,192,211011,1,0,0:0:0:0:
64,192,211011,1,0,0:0:0:0:
448,192,211122,1,0,0:0:0:0:
320,192,211122,1,0,0:0:0:0:
64,192,211233,1,0,0:0:0:0:
320,192,211233,1,0,0:0:0:0:
448,192,211233,1,0,0:0:0:0:
320,192,211344,1,0,0:0:0:0:
192,192,211344,1,0,0:0:0:0:
64,192,211400,1,0,0:0:0:0:
448,192,211455,1,0,0:0:0:0:
320,192,211455,1,0,0:0:0:0:
192,192,211511,1,0,0:0:0:0:
64,192,211566,1,0,0:0:0:0:
448,192,211566,1,0,0:0:0:0:
448,192,211677,1,0,0:0:0:0:
64,192,211677,1,0,0:0:0:0:
192,192,211677,1,0,0:0:0:0:
320,192,211788,1,0,0:0:0:0:
192,192,211788,1,0,0:0:0:0:
64,192,211900,1,0,0:0:0:0:
320,192,211900,1,0,0:0:0:0:
448,192,211900,1,0,0:0:0:0:
192,192,211955,1,0,0:0:0:0:
448,192,212011,1,0,0:0:0:0:
320,192,212047,1,0,0:0:0:0:
64,192,212122,1,0,0:0:0:0:
192,192,212122,1,0,0:0:0:0:
448,192,212122,1,0,0:0:0:0:
320,192,212233,1,0,0:0:0:0:
192,192,212233,1,0,0:0:0:0:
64,192,212233,1,0,0:0:0:0:
448,192,212270,1,0,0:0:0:0:
64,192,212344,1,0,0:0:0:0:
320,192,212344,1,0,0:0:0:0:
192,192,212417,1,0,0:0:0:0:
320,192,212492,1,0,0:0:0:0:
64,192,212566,1,0,0:0:0:0:
192,192,212566,1,0,0:0:0:0:
448,192,212566,1,0,0:0:0:0:
448,192,212677,1,0,0:0:0:0:
320,192,212677,1,0,0:0:0:0:
320,192,212788,1,0,0:0:0:0:
192,192,212788,1,0,0:0:0:0:
64,192,212788,1,0,0:0:0:0:
448,192,212862,1,0,0:0:0:0:
64,192,212936,1,0,0:0:0:0:
320,192,213011,1,0,0:0:0:0:
192,192,213011,1,0,0:0:0:0:
448,192,213011,1,0,0:0:0:0:
64,192,213066,1,0,0:0:0:0:
320,192,213122,1,0,0:0:0:0:
448,192,213122,1,0,0:0:0:0:
64,192,213233,1,0,0:0:0:0:
192,192,213233,1,0,0:0:0:0:
320,192,213288,1,0,0:0:0:0:
64,192,213344,1,0,0:0:0:0:
448,192,213344,1,0,0:0:0:0:
192,192,213455,1,0,0:0:0:0:
320,192,213455,1,0,0:0:0:0:
64,192,213455,1,0,0:0:0:0:
448,192,213511,1,0,0:0:0:0:
192,192,213566,1,0,0:0:0:0:
320,192,213622,1,0,0:0:0:0:
64,192,213677,1,0,0:0:0:0:
448,192,213677,1,0,0:0:0:0:
192,192,213733,1,0,0:0:0:0:
64,192,213788,1,0,0:0:0:0:
320,192,213844,1,0,0:0:0:0:
192,192,213900,1,0,0:0:0:0:
64,192,213900,1,0,0:0:0:0:
448,192,213900,1,0,0:0:0:0:
320,192,213973,1,0,0:0:0:0:
192,192,214047,1,0,0:0:0:0:
448,192,214122,1,0,0:0:0:0:
64,192,214122,1,0,0:0:0:0:
192,192,214177,1,0,0:0:0:0:
320,192,214233,1,0,0:0:0:0:
448,192,214288,1,0,0:0:0:0:
64,192,214344,1,0,0:0:0:0:
192,192,214344,1,0,0:0:0:0:
320,192,214344,1,0,0:0:0:0:
192,192,214455,1,0,0:0:0:0:
320,192,214511,1,0,0:0:0:0:
448,192,214566,1,0,0:0:0:0:
64,192,214566,1,0,0:0:0:0:
192,192,214640,1,0,0:0:0:0:
64,192,214677,1,0,0:0:0:0:
320,192,214714,1,0,0:0:0:0:
448,192,214751,1,0,0:0:0:0:
192,192,214788,1,0,0:0:0:0:
64,192,214788,1,0,0:0:0:0:
320,192,214862,1,0,0:0:0:0:
192,192,214900,1,0,0:0:0:0:
64,192,214955,1,0,0:0:0:0:
448,192,215011,1,0,0:0:0:0:
320,192,215011,1,0,0:0:0:0:
192,192,215066,1,0,0:0:0:0:
320,192,215122,1,0,0:0:0:0:
64,192,215122,1,0,0:0:0:0:
448,192,215233,1,0,0:0:0:0:
64,192,215233,1,0,0:0:0:0:
192,192,215233,1,0,0:0:0:0:
192,192,215344,1,0,0:0:0:0:
320,192,215344,1,0,0:0:0:0:
64,192,215455,1,0,0:0:0:0:
448,192,215455,1,0,0:0:0:0:
192,192,215511,1,0,0:0:0:0:
320,192,215566,1,0,0:0:0:0:
448,192,215622,1,0,0:0:0:0:
192,192,215677,1,0,0:0:0:0:
64,192,215677,1,0,0:0:0:0:
320,192,215677,1,0,0:0:0:0:
64,192,215788,1,0,0:0:0:0:
192,192,215900,1,0,0:0:0:0:
320,192,215900,1,0,0:0:0:0:
448,192,215900,1,0,0:0:0:0:
448,192,216011,1,0,0:0:0:0:
64,192,216011,1,0,0:0:0:0:
192,192,216122,1,0,0:0:0:0:
64,192,216122,1,0,0:0:0:0:
320,192,216122,1,0,0:0:0:0:
192,192,216233,1,0,0:0:0:0:
192,192,216344,1,0,0:0:0:0:
448,192,216344,1,0,0:0:0:0:
320,192,216344,1,0,0:0:0:0:
64,192,216400,1,0,0:0:0:0:
320,192,216455,1,0,0:0:0:0:
448,192,216511,1,0,0:0:0:0:
192,192,216566,1,0,0:0:0:0:
64,192,216566,1,0,0:0:0:0:
320,192,216566,1,0,0:0:0:0:
320,192,216677,1,0,0:0:0:0:
64,192,216677,1,0,0:0:0:0:
448,192,216677,1,0,0:0:0:0:
192,192,216788,1,0,0:0:0:0:
64,192,216844,1,0,0:0:0:0:
320,192,216900,1,0,0:0:0:0:
448,192,216900,1,0,0:0:0:0:
192,192,217011,1,0,0:0:0:0:
64,192,217011,1,0,0:0:0:0:
320,192,217011,1,0,0:0:0:0:
448,192,217066,1,0,0:0:0:0:
64,192,217122,1,0,0:0:0:0:
320,192,217177,1,0,0:0:0:0:
192,192,217233,1,0,0:0:0:0:
64,192,217233,1,0,0:0:0:0:
320,192,217306,1,0,0:0:0:0:
64,192,217381,1,0,0:0:0:0:
192,192,217455,1,0,0:0:0:0:
320,192,217455,1,0,0:0:0:0:
448,192,217455,1,0,0:0:0:0:
192,192,217566,1,0,0:0:0:0:
320,192,217622,1,0,0:0:0:0:
64,192,217677,1,0,0:0:0:0:
448,192,217677,1,0,0:0:0:0:
320,192,217751,1,0,0:0:0:0:
64,192,217788,1,0,0:0:0:0:
192,192,217825,1,0,0:0:0:0:
64,192,217900,1,0,0:0:0:0:
320,192,217900,1,0,0:0:0:0:
448,192,217900,1,0,0:0:0:0:
448,192,218011,1,0,0:0:0:0:
192,192,218011,1,0,0:0:0:0:
448,192,218122,1,0,0:0:0:0:
192,192,218122,1,0,0:0:0:0:
64,192,218122,1,0,0:0:0:0:
64,192,218233,1,0,0:0:0:0:
320,192,218233,1,0,0:0:0:0:
64,192,218344,1,0,0:0:0:0:
448,192,218344,1,0,0:0:0:0:
320,192,218344,1,0,0:0:0:0:
192,192,218455,1,0,0:0:0:0:
64,192,218455,1,0,0:0:0:0:
320,192,218566,1,0,0:0:0:0:
448,192,218566,1,0,0:0:0:0:
64,192,218566,1,0,0:0:0:0:
320,192,218677,1,0,0:0:0:0:
192,192,218677,1,0,0:0:0:0:
192,192,218788,1,0,0:0:0:0:
64,192,218788,1,0,0:0:0:0:
448,192,218788,1,0,0:0:0:0:
448,192,218900,1,0,0:0:0:0:
320,192,218900,1,0,0:0:0:0:
64,192,219011,1,0,0:0:0:0:
192,192,219011,1,0,0:0:0:0:
320,192,219011,1,0,0:0:0:0:
320,192,219122,1,0,0:0:0:0:
192,192,219122,1,0,0:0:0:0:
64,192,219233,1,0,0:0:0:0:
448,192,219233,1,0,0:0:0:0:
320,192,219233,1,0,0:0:0:0:
64,192,219344,1,0,0:0:0:0:
192,192,219344,1,0,0:0:0:0:
64,192,219455,1,0,0:0:0:0:
448,192,219455,1,0,0:0:0:0:
320,192,219455,1,0,0:0:0:0:
192,192,219511,1,0,0:0:0:0:
320,192,219566,1,0,0:0:0:0:
448,192,219566,1,0,0:0:0:0:
64,192,219677,1,0,0:0:0:0:
448,192,219677,1,0,0:0:0:0:
192,192,219677,1,0,0:0:0:0:
320,192,219733,1,0,0:0:0:0:
64,192,219788,1,0,0:0:0:0:
192,192,219788,1,0,0:0:0:0:
192,192,219900,1,0,0:0:0:0:
320,192,219900,1,0,0:0:0:0:
448,192,219900,1,0,0:0:0:0:
64,192,219955,1,0,0:0:0:0:
192,192,220011,1,0,0:0:0:0:
320,192,220011,1,0,0:0:0:0:
448,192,220066,1,0,0:0:0:0:
192,192,220122,1,0,0:0:0:0:
64,192,220122,1,0,0:0:0:0:
320,192,220177,1,0,0:0:0:0:
448,192,220233,1,0,0:0:0:0:
64,192,220233,1,0,0:0:0:0:
192,192,220288,1,0,0:0:0:0:
320,192,220344,1,0,0:0:0:0:
448,192,220344,1,0,0:0:0:0:
192,192,220400,1,0,0:0:0:0:
64,192,220455,1,0,0:0:0:0:
320,192,220455,1,0,0:0:0:0:
448,192,220566,1,0,0:0:0:0:
320,192,220566,1,0,0:0:0:0:
64,192,220622,1,0,0:0:0:0:
192,192,220677,1,0,0:0:0:0:
448,192,220677,1,0,0:0:0:0:
320,192,220733,1,0,0:0:0:0:
192,192,220788,1,0,0:0:0:0:
64,192,220788,1,0,0:0:0:0:
448,192,220862,1,0,0:0:0:0:
192,192,220900,1,0,0:0:0:0:
320,192,220936,1,0,0:0:0:0:
192,192,221011,5,0,0:0:0:0:
64,192,221011,1,0,0:0:0:0:
448,192,221011,1,0,0:0:0:0:
64,192,221122,1,0,0:0:0:0:
192,192,221122,1,0,0:0:0:0:
64,192,221233,1,0,0:0:0:0:
448,192,221233,1,0,0:0:0:0:
320,192,221233,1,0,0:0:0:0:
192,192,221344,1,0,0:0:0:0:
320,192,221344,1,0,0:0:0:0:
192,192,221455,1,0,0:0:0:0:
64,192,221455,1,0,0:0:0:0:
448,192,221455,1,0,0:0:0:0:
320,192,221511,1,0,0:0:0:0:
192,192,221566,1,0,0:0:0:0:
64,192,221566,1,0,0:0:0:0:
448,192,221622,1,0,0:0:0:0:
64,192,221677,1,0,0:0:0:0:
320,192,221677,1,0,0:0:0:0:
192,192,221733,1,0,0:0:0:0:
320,192,221788,1,0,0:0:0:0:
448,192,221788,1,0,0:0:0:0:
64,192,221900,1,0,0:0:0:0:
192,192,221900,1,0,0:0:0:0:
448,192,221900,1,0,0:0:0:0:
320,192,222011,1,0,0:0:0:0:
192,192,222011,1,0,0:0:0:0:
64,192,222011,1,0,0:0:0:0:
64,192,222122,1,0,0:0:0:0:
320,192,222122,1,0,0:0:0:0:
448,192,222177,1,0,0:0:0:0:
192,192,222233,1,0,0:0:0:0:
320,192,222288,1,0,0:0:0:0:
64,192,222344,1,0,0:0:0:0:
448,192,222344,1,0,0:0:0:0:
192,192,222455,1,0,0:0:0:0:
448,192,222455,1,0,0:0:0:0:
320,192,222511,1,0,0:0:0:0:
192,192,222566,1,0,0:0:0:0:
64,192,222566,1,0,0:0:0:0:
320,192,222640,1,0,0:0:0:0:
64,192,222677,1,0,0:0:0:0:
192,192,222714,1,0,0:0:0:0:
320,192,222751,1,0,0:0:0:0:
448,192,222788,1,0,0:0:0:0:
64,192,222788,1,0,0:0:0:0:
64,192,222900,1,0,0:0:0:0:
320,192,222900,1,0,0:0:0:0:
192,192,223011,1,0,0:0:0:0:
64,192,223011,1,0,0:0:0:0:
320,192,223084,1,0,0:0:0:0:
192,192,223122,1,0,0:0:0:0:
448,192,223158,1,0,0:0:0:0:
64,192,223158,1,0,0:0:0:0:
320,192,223233,1,0,0:0:0:0:
448,192,223233,1,0,0:0:0:0:
192,192,223233,1,0,0:0:0:0:
192,192,223344,1,0,0:0:0:0:
64,192,223344,1,0,0:0:0:0:
64,192,223455,1,0,0:0:0:0:
320,192,223455,1,0,0:0:0:0:
192,192,223455,1,0,0:0:0:0:
320,192,223566,1,0,0:0:0:0:
448,192,223566,1,0,0:0:0:0:
192,192,223566,1,0,0:0:0:0:
64,192,223677,1,0,0:0:0:0:
320,192,223677,1,0,0:0:0:0:
448,192,223677,1,0,0:0:0:0:
192,192,223751,1,0,0:0:0:0:
64,192,223788,1,0,0:0:0:0:
320,192,223825,1,0,0:0:0:0:
448,192,223862,1,0,0:0:0:0:
192,192,223900,1,0,0:0:0:0:
64,192,223900,1,0,0:0:0:0:
320,192,223973,1,0,0:0:0:0:
448,192,224011,1,0,0:0:0:0:
192,192,224011,1,0,0:0:0:0:
64,192,224047,1,0,0:0:0:0:
448,192,224122,1,0,0:0:0:0:
192,192,224122,1,0,0:0:0:0:
320,192,224122,1,0,0:0:0:0:
320,192,224233,1,0,0:0:0:0:
64,192,224233,1,0,0:0:0:0:
64,192,224344,1,0,0:0:0:0:
448,192,224344,1,0,0:0:0:0:
192,192,224417,1,0,0:0:0:0:
448,192,224455,1,0,0:0:0:0:
192,192,224528,1,0,0:0:0:0:
64,192,224566,1,0,0:0:0:0:
320,192,224566,1,0,0:0:0:0:
448,192,224566,1,0,0:0:0:0:
192,192,224677,1,0,0:0:0:0:
64,192,224677,1,0,0:0:0:0:
64,192,224788,1,0,0:0:0:0:
192,192,224788,1,0,0:0:0:0:
320,192,224788,1,0,0:0:0:0:
448,192,224788,1,0,0:0:0:0:
320,192,224900,1,0,0:0:0:0:
448,192,224900,1,0,0:0:0:0:
192,192,225011,1,0,0:0:0:0:
64,192,225011,1,0,0:0:0:0:
448,192,225011,1,0,0:0:0:0:
320,192,225122,1,0,0:0:0:0:
64,192,225122,1,0,0:0:0:0:
192,192,225233,1,0,0:0:0:0:
64,192,225233,1,0,0:0:0:0:
320,192,225233,1,0,0:0:0:0:
448,192,225233,1,0,0:0:0:0:
192,192,225344,1,0,0:0:0:0:
448,192,225344,1,0,0:0:0:0:
64,192,225344,1,0,0:0:0:0:
448,192,225455,1,0,0:0:0:0:
320,192,225455,1,0,0:0:0:0:
64,192,225455,1,0,0:0:0:0:
320,192,225566,1,0,0:0:0:0:
192,192,225566,1,0,0:0:0:0:
192,192,225677,1,0,0:0:0:0:
64,192,225677,1,0,0:0:0:0:
448,192,225677,1,0,0:0:0:0:
320,192,225751,1,0,0:0:0:0:
64,192,225788,1,0,0:0:0:0:
192,192,225825,1,0,0:0:0:0:
320,192,225862,1,0,0:0:0:0:
448,192,225900,1,0,0:0:0:0:
64,192,225900,1,0,0:0:0:0:
192,192,226011,1,0,0:0:0:0:
64,192,226011,1,0,0:0:0:0:
192,192,226122,1,0,0:0:0:0:
448,192,226122,1,0,0:0:0:0:
320,192,226122,1,0,0:0:0:0:
64,192,226177,1,0,0:0:0:0:
320,192,226233,1,0,0:0:0:0:
192,192,226288,1,0,0:0:0:0:
64,192,226344,1,0,0:0:0:0:
448,192,226344,1,0,0:0:0:0:
320,192,226455,1,0,0:0:0:0:
448,192,226455,1,0,0:0:0:0:
192,192,226455,1,0,0:0:0:0:
320,192,226566,1,0,0:0:0:0:
64,192,226566,1,0,0:0:0:0:
192,192,226622,1,0,0:0:0:0:
448,192,226677,1,0,0:0:0:0:
64,192,226677,1,0,0:0:0:0:
320,192,226788,1,0,0:0:0:0:
448,192,226788,1,0,0:0:0:0:
64,192,226788,1,0,0:0:0:0:
320,192,226900,1,0,0:0:0:0:
192,192,226900,1,0,0:0:0:0:
64,192,227011,1,0,0:0:0:0:
448,192,227011,1,0,0:0:0:0:
192,192,227011,1,0,0:0:0:0:
320,192,227066,1,0,0:0:0:0:
192,192,227122,1,0,0:0:0:0:
448,192,227177,1,0,0:0:0:0:
192,192,227233,1,0,0:0:0:0:
64,192,227233,1,0,0:0:0:0:
320,192,227233,1,0,0:0:0:0:
64,192,227344,1,0,0:0:0:0:
320,192,227344,1,0,0:0:0:0:
448,192,227344,1,0,0:0:0:0:
192,192,227400,1,0,0:0:0:0:
320,192,227455,1,0,0:0:0:0:
448,192,227455,1,0,0:0:0:0:
320,192,227566,1,0,0:0:0:0:
64,192,227566,1,0,0:0:0:0:
192,192,227622,1,0,0:0:0:0:
64,192,227677,1,0,0:0:0:0:
320,192,227677,1,0,0:0:0:0:
448,192,227677,1,0,0:0:0:0:
192,192,227788,1,0,0:0:0:0:
64,192,227788,1,0,0:0:0:0:
320,192,227844,1,0,0:0:0:0:
64,192,227900,1,0,0:0:0:0:
448,192,227900,1,0,0:0:0:0:
192,192,227955,1,0,0:0:0:0:
320,192,228011,1,0,0:0:0:0:
192,192,228066,1,0,0:0:0:0:
448,192,228122,1,0,0:0:0:0:
320,192,228122,1,0,0:0:0:0:
64,192,228122,1,0,0:0:0:0:
64,192,228233,1,0,0:0:0:0:
192,192,228233,1,0,0:0:0:0:
192,192,228344,1,0,0:0:0:0:
320,192,228344,1,0,0:0:0:0:
448,192,228344,1,0,0:0:0:0:
64,192,228344,1,0,0:0:0:0:
320,192,228455,1,0,0:0:0:0:
448,192,228455,1,0,0:0:0:0:
192,192,228566,1,0,0:0:0:0:
64,192,228566,1,0,0:0:0:0:
448,192,228566,1,0,0:0:0:0:
320,192,228677,1,0,0:0:0:0:
64,192,228677,1,0,0:0:0:0:
192,192,228788,1,0,0:0:0:0:
320,192,228788,1,0,0:0:0:0:
448,192,228844,1,0,0:0:0:0:
64,192,228844,1,0,0:0:0:0:
192,192,228900,1,0,0:0:0:0:
320,192,228955,1,0,0:0:0:0:
64,192,229011,1,0,0:0:0:0:
448,192,229011,1,0,0:0:0:0:
192,192,229011,1,0,0:0:0:0:
320,192,229122,1,0,0:0:0:0:
448,192,229122,1,0,0:0:0:0:
448,192,229233,1,0,0:0:0:0:
320,192,229233,1,0,0:0:0:0:
192,192,229233,1,0,0:0:0:0:
64,192,229233,1,0,0:0:0:0:
64,192,229344,1,0,0:0:0:0:
192,192,229344,1,0,0:0:0:0:
320,192,229344,1,0,0:0:0:0:
64,192,229455,1,0,0:0:0:0:
320,192,229455,1,0,0:0:0:0:
448,192,229455,1,0,0:0:0:0:
192,192,229566,1,0,0:0:0:0:
448,192,229566,1,0,0:0:0:0:
64,192,229677,1,0,0:0:0:0:
192,192,229677,1,0,0:0:0:0:
320,192,229677,1,0,0:0:0:0:
448,192,229751,1,0,0:0:0:0:
320,192,229788,1,0,0:0:0:0:
64,192,229825,1,0,0:0:0:0:
192,192,229862,1,0,0:0:0:0:
320,192,229900,1,0,0:0:0:0:
448,192,229900,1,0,0:0:0:0:
64,192,230011,1,0,0:0:0:0:
320,192,230011,1,0,0:0:0:0:
192,192,230011,1,0,0:0:0:0:
448,192,230122,1,0,0:0:0:0:
64,192,230122,1,0,0:0:0:0:
320,192,230195,1,0,0:0:0:0:
192,192,230233,1,0,0:0:0:0:
64,192,230270,1,0,0:0:0:0:
448,192,230344,1,0,0:0:0:0:
192,192,230344,1,0,0:0:0:0:
320,192,230344,1,0,0:0:0:0:
64,192,230455,1,0,0:0:0:0:
320,192,230455,1,0,0:0:0:0:
448,192,230566,1,0,0:0:0:0:
192,192,230566,1,0,0:0:0:0:
64,192,230566,1,0,0:0:0:0:
320,192,230640,1,0,0:0:0:0:
192,192,230677,1,0,0:0:0:0:
448,192,230714,1,0,0:0:0:0:
64,192,230788,1,0,0:0:0:0:
320,192,230788,1,0,0:0:0:0:
192,192,230788,1,0,0:0:0:0:
320,192,230900,1,0,0:0:0:0:
448,192,230900,1,0,0:0:0:0:
64,192,230900,1,0,0:0:0:0:
64,192,231011,1,0,0:0:0:0:
192,192,231011,1,0,0:0:0:0:
320,192,231122,1,0,0:0:0:0:
448,192,231122,1,0,0:0:0:0:
192,192,231122,1,0,0:0:0:0:
64,192,231233,1,0,0:0:0:0:
320,192,231233,1,0,0:0:0:0:
448,192,231233,1,0,0:0:0:0:
192,192,231288,1,0,0:0:0:0:
320,192,231344,1,0,0:0:0:0:
64,192,231400,1,0,0:0:0:0:
192,192,231455,1,0,0:0:0:0:
448,192,231455,1,0,0:0:0:0:
320,192,231492,1,0,0:0:0:0:
192,192,231566,1,0,0:0:0:0:
64,192,231622,1,0,0:0:0:0:
320,192,231677,1,0,0:0:0:0:
448,192,231677,1,0,0:0:0:0:
192,192,231677,1,0,0:0:0:0:
64,192,231733,1,0,0:0:0:0:
192,192,231788,1,0,0:0:0:0:
320,192,231844,1,0,0:0:0:0:
448,192,231900,1,0,0:0:0:0:
64,192,231900,1,0,0:0:0:0:
192,192,231955,1,0,0:0:0:0:
64,192,232011,1,0,0:0:0:0:
320,192,232066,1,0,0:0:0:0:
192,192,232122,1,0,0:0:0:0:
64,192,232122,1,0,0:0:0:0:
320,192,232177,1,0,0:0:0:0:
192,192,232233,1,0,0:0:0:0:
64,192,232288,1,0,0:0:0:0:
320,192,232344,1,0,0:0:0:0:
448,192,232344,1,0,0:0:0:0:
192,192,232400,1,0,0:0:0:0:
320,192,232455,1,0,0:0:0:0:
64,192,232511,1,0,0:0:0:0:
192,192,232566,128,0,232733:0:0:0:0:
448,192,232566,128,0,232733:0:0:0:0:
448,192,232788,1,0,0:0:0:0:
320,192,232788,1,0,0:0:0:0:
64,192,232788,1,0,0:0:0:0:
64,192,232900,1,0,0:0:0:0:
192,192,232900,1,0,0:0:0:0:
320,192,232900,1,0,0:0:0:0:
192,192,233011,1,0,0:0:0:0:
448,192,233011,1,0,0:0:0:0:
64,192,233066,1,0,0:0:0:0:
320,192,233122,1,0,0:0:0:0:
448,192,233122,1,0,0:0:0:0:
192,192,233177,1,0,0:0:0:0:
64,192,233233,1,0,0:0:0:0:
448,192,233233,1,0,0:0:0:0:
320,192,233288,1,0,0:0:0:0:
192,192,233344,1,0,0:0:0:0:
320,192,233400,1,0,0:0:0:0:
448,192,233455,1,0,0:0:0:0:
64,192,233455,1,0,0:0:0:0:
192,192,233455,1,0,0:0:0:0:
320,192,233566,1,0,0:0:0:0:
320,192,233677,1,0,0:0:0:0:
64,192,233677,1,0,0:0:0:0:
192,192,233677,1,0,0:0:0:0:
192,192,233788,1,0,0:0:0:0:
64,192,233900,1,0,0:0:0:0:
320,192,233900,1,0,0:0:0:0:
448,192,233900,1,0,0:0:0:0:
448,192,234011,1,0,0:0:0:0:
320,192,234122,1,0,0:0:0:0:
192,192,234122,1,0,0:0:0:0:
64,192,234122,1,0,0:0:0:0:
192,192,234233,1,0,0:0:0:0:
64,192,234344,1,0,0:0:0:0:
320,192,234344,1,0,0:0:0:0:
448,192,234344,1,0,0:0:0:0:
320,192,234455,1,0,0:0:0:0:
192,192,234566,1,0,0:0:0:0:
64,192,234566,1,0,0:0:0:0:
448,192,234566,1,0,0:0:0:0:
192,192,234677,1,0,0:0:0:0:
320,192,234677,1,0,0:0:0:0:
64,192,234788,1,0,0:0:0:0:
320,192,234788,1,0,0:0:0:0:
448,192,234788,1,0,0:0:0:0:
192,192,234844,1,0,0:0:0:0:
64,192,234900,1,0,0:0:0:0:
320,192,234900,1,0,0:0:0:0:
448,192,234955,1,0,0:0:0:0:
192,192,235011,1,0,0:0:0:0:
64,192,235011,1,0,0:0:0:0:
320,192,235066,1,0,0:0:0:0:
448,192,235066,1,0,0:0:0:0:
192,192,235122,1,0,0:0:0:0:
64,192,235122,1,0,0:0:0:0:
320,192,235177,1,0,0:0:0:0:
448,192,235177,1,0,0:0:0:0:
64,192,235233,1,0,0:0:0:0:
192,192,235233,1,0,0:0:0:0:
448,192,235233,1,0,0:0:0:0:
320,192,235344,1,0,0:0:0:0:
64,192,235455,1,0,0:0:0:0:
320,192,235455,1,0,0:0:0:0:
192,192,235511,1,0,0:0:0:0:
448,192,235566,1,0,0:0:0:0:
320,192,235603,1,0,0:0:0:0:
192,192,235640,1,0,0:0:0:0:
64,192,235677,1,0,0:0:0:0:
448,192,235677,1,0,0:0:0:0:
320,192,235788,1,0,0:0:0:0:
448,192,235788,1,0,0:0:0:0:
320,192,235900,1,0,0:0:0:0:
64,192,235900,1,0,0:0:0:0:
448,192,235955,1,0,0:0:0:0:
192,192,236011,1,0,0:0:0:0:
64,192,236011,1,0,0:0:0:0:
320,192,236122,1,0,0:0:0:0:
448,192,236122,1,0,0:0:0:0:
192,192,236122,1,0,0:0:0:0:
320,192,236233,1,0,0:0:0:0:
192,192,236233,1,0,0:0:0:0:
64,192,236233,1,0,0:0:0:0:
64,192,236344,1,0,0:0:0:0:
448,192,236344,1,0,0:0:0:0:
192,192,236400,1,0,0:0:0:0:
320,192,236455,1,0,0:0:0:0:
64,192,236511,1,0,0:0:0:0:
192,192,236566,1,0,0:0:0:0:
320,192,236566,1,0,0:0:0:0:
448,192,236566,1,0,0:0:0:0:
64,192,236640,1,0,0:0:0:0:
192,192,236677,1,0,0:0:0:0:
448,192,236677,1,0,0:0:0:0:
320,192,236733,1,0,0:0:0:0:
64,192,236788,1,0,0:0:0:0:
448,192,236788,1,0,0:0:0:0:
320,192,236844,1,0,0:0:0:0:
192,192,236900,1,0,0:0:0:0:
64,192,236955,1,0,0:0:0:0:
448,192,237011,1,0,0:0:0:0:
320,192,237011,1,0,0:0:0:0:
192,192,237011,1,0,0:0:0:0:
192,192,237122,1,0,0:0:0:0:
64,192,237233,1,0,0:0:0:0:
320,192,237233,1,0,0:0:0:0:
448,192,237233,1,0,0:0:0:0:
192,192,237288,1,0,0:0:0:0:
320,192,237344,1,0,0:0:0:0:
448,192,237400,1,0,0:0:0:0:
192,192,237455,1,0,0:0:0:0:
64,192,237455,1,0,0:0:0:0:
320,192,237455,1,0,0:0:0:0:
448,192,237511,1,0,0:0:0:0:
192,192,237566,1,0,0:0:0:0:
320,192,237566,1,0,0:0:0:0:
64,192,237622,1,0,0:0:0:0:
448,192,237677,1,0,0:0:0:0:
320,192,237677,1,0,0:0:0:0:
192,192,237788,1,0,0:0:0:0:
64,192,237900,1,0,0:0:0:0:
192,192,237900,1,0,0:0:0:0:
448,192,237900,1,0,0:0:0:0:
320,192,238011,1,0,0:0:0:0:
448,192,238011,1,0,0:0:0:0:
64,192,238011,1,0,0:0:0:0:
192,192,238066,1,0,0:0:0:0:
320,192,238122,1,0,0:0:0:0:
64,192,238122,1,0,0:0:0:0:
448,192,238177,1,0,0:0:0:0:
192,192,238233,1,0,0:0:0:0:
64,192,238233,1,0,0:0:0:0:
192,192,238344,1,0,0:0:0:0:
320,192,238344,1,0,0:0:0:0:
448,192,238344,1,0,0:0:0:0:
320,192,238455,1,0,0:0:0:0:
64,192,238455,1,0,0:0:0:0:
64,192,238566,1,0,0:0:0:0:
448,192,238566,1,0,0:0:0:0:
192,192,238622,1,0,0:0:0:0:
320,192,238640,1,0,0:0:0:0:
448,192,238677,1,0,0:0:0:0:
64,192,238714,1,0,0:0:0:0:
192,192,238751,1,0,0:0:0:0:
320,192,238788,1,0,0:0:0:0:
448,192,238788,1,0,0:0:0:0:
320,192,238900,1,0,0:0:0:0:
64,192,238900,1,0,0:0:0:0:
192,192,239011,1,0,0:0:0:0:
64,192,239011,1,0,0:0:0:0:
448,192,239011,1,0,0:0:0:0:
192,192,239122,1,0,0:0:0:0:
320,192,239158,1,0,0:0:0:0:
64,192,239233,1,0,0:0:0:0:
192,192,239233,1,0,0:0:0:0:
448,192,239233,1,0,0:0:0:0:
320,192,239344,1,0,0:0:0:0:
448,192,239344,1,0,0:0:0:0:
320,192,239455,1,0,0:0:0:0:
64,192,239455,1,0,0:0:0:0:
192,192,239566,1,0,0:0:0:0:
448,192,239566,1,0,0:0:0:0:
192,192,239677,1,0,0:0:0:0:
64,192,239677,1,0,0:0:0:0:
448,192,239677,1,0,0:0:0:0:
64,192,239788,1,0,0:0:0:0:
320,192,239825,1,0,0:0:0:0:
192,192,239900,1,0,0:0:0:0:
448,192,239900,1,0,0:0:0:0:
64,192,239973,1,0,0:0:0:0:
320,192,240011,1,0,0:0:0:0:
192,192,240011,1,0,0:0:0:0:
448,192,240047,1,0,0:0:0:0:
192,192,240122,1,0,0:0:0:0:
64,192,240122,1,0,0:0:0:0:
320,192,240122,1,0,0:0:0:0:
320,192,240233,1,0,0:0:0:0:
64,192,240344,1,0,0:0:0:0:
192,192,240344,1,0,0:0:0:0:
448,192,240344,1,0,0:0:0:0:
320,192,240400,1,0,0:0:0:0:
448,192,240455,1,0,0:0:0:0:
192,192,240511,1,0,0:0:0:0:
64,192,240566,1,0,0:0:0:0:
320,192,240566,1,0,0:0:0:0:
448,192,240566,1,0,0:0:0:0:
320,192,240677,1,0,0:0:0:0:
64,192,240733,1,0,0:0:0:0:
320,192,240788,1,0,0:0:0:0:
192,192,240788,1,0,0:0:0:0:
448,192,240844,1,0,0:0:0:0:
64,192,240900,1,0,0:0:0:0:
192,192,240900,1,0,0:0:0:0:
64,192,241011,1,0,0:0:0:0:
320,192,241011,1,0,0:0:0:0:
448,192,241011,1,0,0:0:0:0:
192,192,241066,1,0,0:0:0:0:
448,192,241122,1,0,0:0:0:0:
448,192,241233,1,0,0:0:0:0:
192,192,241233,1,0,0:0:0:0:
64,192,241233,1,0,0:0:0:0:
320,192,241288,1,0,0:0:0:0:
64,192,241344,1,0,0:0:0:0:
192,192,241400,1,0,0:0:0:0:
320,192,241455,1,0,0:0:0:0:
448,192,241455,1,0,0:0:0:0:
64,192,241566,1,0,0:0:0:0:
320,192,241566,1,0,0:0:0:0:
192,192,241566,1,0,0:0:0:0:
448,192,241677,1,0,0:0:0:0:
64,192,241677,1,0,0:0:0:0:
320,192,241714,1,0,0:0:0:0:
192,192,241751,1,0,0:0:0:0:
64,192,241788,1,0,0:0:0:0:
320,192,241825,1,0,0:0:0:0:
64,192,241900,1,0,0:0:0:0:
192,192,241900,1,0,0:0:0:0:
448,192,241900,1,0,0:0:0:0:
320,192,242011,1,0,0:0:0:0:
192,192,242011,1,0,0:0:0:0:
64,192,242122,1,0,0:0:0:0:
320,192,242122,1,0,0:0:0:0:
192,192,242177,1,0,0:0:0:0:
320,192,242233,1,0,0:0:0:0:
448,192,242233,1,0,0:0:0:0:
320,192,242344,1,0,0:0:0:0:
64,192,242344,1,0,0:0:0:0:
448,192,242344,1,0,0:0:0:0:
192,192,242455,1,0,0:0:0:0:
64,192,242566,1,0,0:0:0:0:
320,192,242566,1,0,0:0:0:0:
448,192,242622,1,0,0:0:0:0:
192,192,242677,1,0,0:0:0:0:
64,192,242733,1,0,0:0:0:0:
192,192,242788,1,0,0:0:0:0:
448,192,242788,1,0,0:0:0:0:
320,192,242788,1,0,0:0:0:0:
320,192,242900,1,0,0:0:0:0:
64,192,242900,1,0,0:0:0:0:
192,192,243011,1,0,0:0:0:0:
64,192,243011,1,0,0:0:0:0:
448,192,243011,1,0,0:0:0:0:
320,192,243066,1,0,0:0:0:0:
192,192,243122,1,0,0:0:0:0:
64,192,243122,1,0,0:0:0:0:
192,192,243233,1,0,0:0:0:0:
448,192,243233,1,0,0:0:0:0:
64,192,243233,1,0,0:0:0:0:
320,192,243344,1,0,0:0:0:0:
448,192,243344,1,0,0:0:0:0:
192,192,243344,1,0,0:0:0:0:
320,192,243455,1,0,0:0:0:0:
64,192,243455,1,0,0:0:0:0:
192,192,243511,1,0,0:0:0:0:
448,192,243566,1,0,0:0:0:0:
64,192,243603,1,0,0:0:0:0:
192,192,243640,1,0,0:0:0:0:
320,192,243677,1,0,0:0:0:0:
448,192,243677,1,0,0:0:0:0:
320,192,243788,1,0,0:0:0:0:
64,192,243788,1,0,0:0:0:0:
192,192,243900,1,0,0:0:0:0:
64,192,243900,1,0,0:0:0:0:
448,192,243900,1,0,0:0:0:0:
64,192,244011,1,0,0:0:0:0:
192,192,244011,1,0,0:0:0:0:
192,192,244122,1,0,0:0:0:0:
448,192,244122,1,0,0:0:0:0:
320,192,244195,1,0,0:0:0:0:
64,192,244233,1,0,0:0:0:0:
192,192,244270,1,0,0:0:0:0:
448,192,244344,1,0,0:0:0:0:
64,192,244344,1,0,0:0:0:0:
320,192,244400,1,0,0:0:0:0:
192,192,244455,1,0,0:0:0:0:
64,192,244455,1,0,0:0:0:0:
320,192,244566,1,0,0:0:0:0:
192,192,244566,1,0,0:0:0:0:
448,192,244566,1,0,0:0:0:0:
64,192,244622,1,0,0:0:0:0:
320,192,244677,1,0,0:0:0:0:
448,192,244733,1,0,0:0:0:0:
192,192,244788,1,0,0:0:0:0:
64,192,244788,1,0,0:0:0:0:
320,192,244844,1,0,0:0:0:0:
448,192,244900,1,0,0:0:0:0:
64,192,244900,1,0,0:0:0:0:
192,192,245011,1,0,0:0:0:0:
448,192,245011,1,0,0:0:0:0:
320,192,245011,1,0,0:0:0:0:
320,192,245122,1,0,0:0:0:0:
192,192,245122,1,0,0:0:0:0:
64,192,245122,1,0,0:0:0:0:
64,192,245233,1,0,0:0:0:0:
448,192,245233,1,0,0:0:0:0:
192,192,245288,1,0,0:0:0:0:
320,192,245344,1,0,0:0:0:0:
192,192,245400,1,0,0:0:0:0:
320,192,245455,1,0,0:0:0:0:
448,192,245455,1,0,0:0:0:0:
64,192,245455,1,0,0:0:0:0:
448,192,245566,1,0,0:0:0:0:
320,192,245677,1,0,0:0:0:0:
192,192,245677,1,0,0:0:0:0:
64,192,245677,1,0,0:0:0:0:
192,192,245788,1,0,0:0:0:0:
448,192,245788,1,0,0:0:0:0:
320,192,245844,1,0,0:0:0:0:
192,192,245900,1,0,0:0:0:0:
64,192,245900,1,0,0:0:0:0:
448,192,245900,1,0,0:0:0:0:
320,192,246011,1,0,0:0:0:0:
448,192,246066,1,0,0:0:0:0:
320,192,246122,1,0,0:0:0:0:
192,192,246122,1,0,0:0:0:0:
64,192,246122,1,0,0:0:0:0:
64,192,246233,1,0,0:0:0:0:
192,192,246233,1,0,0:0:0:0:
64,192,246344,1,0,0:0:0:0:
448,192,246344,1,0,0:0:0:0:
320,192,246400,1,0,0:0:0:0:
64,192,246455,1,0,0:0:0:0:
448,192,246455,1,0,0:0:0:0:
192,192,246511,1,0,0:0:0:0:
64,192,246566,1,0,0:0:0:0:
448,192,246566,1,0,0:0:0:0:
320,192,246622,1,0,0:0:0:0:
192,192,246677,1,0,0:0:0:0:
64,192,246677,1,0,0:0:0:0:
64,192,246788,1,0,0:0:0:0:
320,192,246788,1,0,0:0:0:0:
448,192,246788,1,0,0:0:0:0:
192,192,246900,1,0,0:0:0:0:
320,192,246900,1,0,0:0:0:0:
448,192,246900,1,0,0:0:0:0:
64,192,246955,1,0,0:0:0:0:
192,192,247011,1,0,0:0:0:0:
448,192,247011,1,0,0:0:0:0:
320,192,247084,1,0,0:0:0:0:
192,192,247122,1,0,0:0:0:0:
64,192,247158,1,0,0:0:0:0:
448,192,247233,1,0,0:0:0:0:
320,192,247233,1,0,0:0:0:0:
192,192,247233,1,0,0:0:0:0:
64,192,247344,1,0,0:0:0:0:
448,192,247344,1,0,0:0:0:0:
64,192,247455,1,0,0:0:0:0:
448,192,247455,1,0,0:0:0:0:
320,192,247455,1,0,0:0:0:0:
192,192,247528,1,0,0:0:0:0:
320,192,247603,1,0,0:0:0:0:
192,192,247677,1,0,0:0:0:0:
64,192,247677,1,0,0:0:0:0:
448,192,247677,1,0,0:0:0:0:
320,192,247788,1,0,0:0:0:0:
192,192,247788,1,0,0:0:0:0:
64,192,247788,1,0,0:0:0:0:
192,192,247900,1,0,0:0:0:0:
64,192,247900,1,0,0:0:0:0:
320,192,247955,1,0,0:0:0:0:
448,192,248011,1,0,0:0:0:0:
64,192,248011,1,0,0:0:0:0:
192,192,248066,1,0,0:0:0:0:
320,192,248122,1,0,0:0:0:0:
448,192,248122,1,0,0:0:0:0:
64,192,248122,1,0,0:0:0:0:
320,192,248233,1,0,0:0:0:0:
192,192,248233,1,0,0:0:0:0:
192,192,248344,1,0,0:0:0:0:
320,192,248344,1,0,0:0:0:0:
448,192,248344,1,0,0:0:0:0:
64,192,248400,1,0,0:0:0:0:
320,192,248455,1,0,0:0:0:0:
448,192,248455,1,0,0:0:0:0:
192,192,248511,1,0,0:0:0:0:
64,192,248566,1,0,0:0:0:0:
448,192,248566,1,0,0:0:0:0:
320,192,248566,1,0,0:0:0:0:
448,192,248677,1,0,0:0:0:0:
192,192,248677,1,0,0:0:0:0:
64,192,248677,1,0,0:0:0:0:
320,192,248788,1,0,0:0:0:0:
192,192,248788,1,0,0:0:0:0:
64,192,248788,1,0,0:0:0:0:
448,192,248844,1,0,0:0:0:0:
192,192,248900,1,0,0:0:0:0:
320,192,248900,1,0,0:0:0:0:
448,192,249011,1,0,0:0:0:0:
192,192,249011,1,0,0:0:0:0:
64,192,249011,1,0,0:0:0:0:
320,192,249066,1,0,0:0:0:0:
192,192,249122,1,0,0:0:0:0:
64,192,249122,1,0,0:0:0:0:
448,192,249177,1,0,0:0:0:0:
320,192,249233,1,0,0:0:0:0:
64,192,249233,1,0,0:0:0:0:
192,192,249288,1,0,0:0:0:0:
320,192,249344,1,0,0:0:0:0:
448,192,249344,1,0,0:0:0:0:
64,192,249400,1,0,0:0:0:0:
192,192,249455,1,0,0:0:0:0:
320,192,249455,1,0,0:0:0:0:
448,192,249455,1,0,0:0:0:0:
64,192,249511,1,0,0:0:0:0:
192,192,249566,1,0,0:0:0:0:
320,192,249622,1,0,0:0:0:0:
64,192,249677,1,0,0:0:0:0:
448,192,249677,1,0,0:0:0:0:
320,192,249733,1,0,0:0:0:0:
64,192,249788,1,0,0:0:0:0:
320,192,249844,1,0,0:0:0:0:
64,192,249900,1,0,0:0:0:0:
448,192,249900,1,0,0:0:0:0:
192,192,249900,1,0,0:0:0:0:
320,192,249955,1,0,0:0:0:0:
192,192,250011,1,0,0:0:0:0:
64,192,250066,1,0,0:0:0:0:
448,192,250122,1,0,0:0:0:0:
320,192,250122,1,0,0:0:0:0:
192,192,250122,1,0,0:0:0:0:
448,192,250233,1,0,0:0:0:0:
192,192,250233,1,0,0:0:0:0:
320,192,250288,1,0,0:0:0:0:
448,192,250344,1,0,0:0:0:0:
64,192,250344,1,0,0:0:0:0:
192,192,250344,1,0,0:0:0:0:
320,192,250455,1,0,0:0:0:0:
192,192,250455,1,0,0:0:0:0:
64,192,250455,1,0,0:0:0:0:
448,192,250511,1,0,0:0:0:0:
64,192,250566,1,0,0:0:0:0:
320,192,250566,1,0,0:0:0:0:
192,192,250622,1,0,0:0:0:0:
320,192,250677,1,0,0:0:0:0:
64,192,250733,1,0,0:0:0:0:
192,192,250788,1,0,0:0:0:0:
320,192,250788,1,0,0:0:0:0:
448,192,250788,1,0,0:0:0:0:
64,192,250862,1,0,0:0:0:0:
448,192,250900,1,0,0:0:0:0:
320,192,251011,1,0,0:0:0:0:
64,192,251011,1,0,0:0:0:0:
448,192,251066,1,0,0:0:0:0:
320,192,251122,1,0,0:0:0:0:
64,192,251122,1,0,0:0:0:0:
192,192,251122,1,0,0:0:0:0:
192,192,251233,1,0,0:0:0:0:
448,192,251233,1,0,0:0:0:0:
320,192,251233,1,0,0:0:0:0:
64,192,251344,1,0,0:0:0:0:
448,192,251344,1,0,0:0:0:0:
320,192,251344,1,0,0:0:0:0:
192,192,251400,1,0,0:0:0:0:
320,192,251455,1,0,0:0:0:0:
448,192,251455,1,0,0:0:0:0:
64,192,251511,1,0,0:0:0:0:
448,192,251566,1,0,0:0:0:0:
320,192,251603,1,0,0:0:0:0:
192,192,251640,1,0,0:0:0:0:
64,192,251677,1,0,0:0:0:0:
448,192,251677,1,0,0:0:0:0:
320,192,251788,1,0,0:0:0:0:
64,192,251788,1,0,0:0:0:0:
192,192,251844,1,0,0:0:0:0:
320,192,251900,1,0,0:0:0:0:
448,192,251900,1,0,0:0:0:0:
192,192,252011,1,0,0:0:0:0:
64,192,252011,1,0,0:0:0:0:
448,192,252011,1,0,0:0:0:0:
320,192,252122,1,0,0:0:0:0:
64,192,252122,1,0,0:0:0:0:
192,192,252233,1,0,0:0:0:0:
320,192,252233,1,0,0:0:0:0:
448,192,252233,1,0,0:0:0:0:
64,192,252288,1,0,0:0:0:0:
320,192,252344,1,0,0:0:0:0:
448,192,252344,1,0,0:0:0:0:
192,192,252400,1,0,0:0:0:0:
448,192,252455,1,0,0:0:0:0:
64,192,252455,1,0,0:0:0:0:
192,192,252566,1,0,0:0:0:0:
64,192,252566,1,0,0:0:0:0:
320,192,252566,1,0,0:0:0:0:
320,192,252677,1,0,0:0:0:0:
192,192,252733,1,0,0:0:0:0:
64,192,252788,1,0,0:0:0:0:
448,192,252788,1,0,0:0:0:0:
320,192,252900,1,0,0:0:0:0:
448,192,252900,1,0,0:0:0:0:
64,192,252955,1,0,0:0:0:0:
192,192,253011,1,0,0:0:0:0:
320,192,253011,1,0,0:0:0:0:
448,192,253011,1,0,0:0:0:0:
192,192,253122,1,0,0:0:0:0:
320,192,253233,1,0,0:0:0:0:
64,192,253233,1,0,0:0:0:0:
448,192,253233,1,0,0:0:0:0:
192,192,253306,1,0,0:0:0:0:
320,192,253381,1,0,0:0:0:0:
192,192,253455,1,0,0:0:0:0:
64,192,253455,1,0,0:0:0:0:
448,192,253455,1,0,0:0:0:0:
320,192,253566,1,0,0:0:0:0:
192,192,253566,1,0,0:0:0:0:
192,192,253677,1,0,0:0:0:0:
64,192,253677,1,0,0:0:0:0:
320,192,253677,1,0,0:0:0:0:
320,192,253788,1,0,0:0:0:0:
448,192,253788,1,0,0:0:0:0:
64,192,253900,1,0,0:0:0:0:
192,192,253900,1,0,0:0:0:0:
448,192,253900,1,0,0:0:0:0:
320,192,253973,1,0,0:0:0:0:
192,192,254047,1,0,0:0:0:0:
64,192,254122,1,0,0:0:0:0:
448,192,254122,1,0,0:0:0:0:
320,192,254122,1,0,0:0:0:0:
192,192,254177,1,0,0:0:0:0:
192,192,254344,1,0,0:0:0:0:
64,192,254344,1,0,0:0:0:0:
320,192,254344,1,0,0:0:0:0:
448,192,254344,1,0,0:0:0:0:
448,192,254455,1,0,0:0:0:0:
192,192,254566,128,0,254677:0:0:0:0:
64,192,254566,128,0,254677:0:0:0:0:
320,192,254566,1,0,0:0:0:0:
192,192,254788,5,0,0:0:0:0:
64,192,254788,1,0,0:0:0:0:
320,192,254788,1,0,0:0:0:0:
448,192,254788,128,0,255177:0:0:0:0:
192,192,255011,128,0,255233:0:0:0:0:
64,192,255233,1,0,0:0:0:0:
448,192,255233,128,0,255455:0:0:0:0:
320,192,255455,1,0,0:0:0:0:
64,192,255455,128,0,255677:0:0:0:0:
192,192,255455,1,0,0:0:0:0:
192,192,255677,1,0,0:0:0:0:
448,192,255677,1,0,0:0:0:0:
320,192,255677,128,0,255955:0:0:0:0:
320,192,256011,1,0,0:0:0:0:
192,192,256122,128,0,256455:0:0:0:0:
64,192,256122,1,0,0:0:0:0:
448,192,256122,1,0,0:0:0:0:
320,192,256455,1,0,0:0:0:0:
320,192,256597,1,0,0:0:0:0:
448,192,256597,1,0,0:0:0:0:
192,192,256597,128,0,256764:0:0:0:0:
64,192,256597,128,0,256764:0:0:0:0:
448,192,256708,1,0,0:0:0:0:
192,192,256820,128,0,256986:0:0:0:0:
320,192,256820,128,0,256986:0:0:0:0:
64,192,256820,1,0,0:0:0:0:
448,192,256820,1,0,0:0:0:0:
64,192,256931,1,0,0:0:0:0:
320,192,257042,128,0,257208:0:0:0:0:
448,192,257042,128,0,257208:0:0:0:0:
64,192,257042,1,0,0:0:0:0:
192,192,257042,1,0,0:0:0:0:
192,192,257153,1,0,0:0:0:0:
192,192,257264,128,0,257430:0:0:0:0:
64,192,257264,128,0,257430:0:0:0:0:
448,192,257264,1,0,0:0:0:0:
320,192,257264,1,0,0:0:0:0:
320,192,257374,1,0,0:0:0:0:
448,192,257484,1,0,0:0:0:0:
320,192,257484,1,0,0:0:0:0:
64,192,257484,1,0,0:0:0:0:
192,192,257484,1,0,0:0:0:0:
64,192,257595,1,0,0:0:0:0:
192,192,257650,1,0,0:0:0:0:
320,192,257705,1,0,0:0:0:0:
448,192,257705,1,0,0:0:0:0:
64,192,257705,1,0,0:0:0:0:
320,192,257815,1,0,0:0:0:0:
192,192,257815,1,0,0:0:0:0:
192,192,257926,1,0,0:0:0:0:
64,192,257926,1,0,0:0:0:0:
448,192,257926,1,0,0:0:0:0:
320,192,258036,1,0,0:0:0:0:
64,192,258036,1,0,0:0:0:0:
64,192,258146,128,0,259030:0:0:0:0:
448,192,258146,128,0,258808:0:0:0:0:
192,192,258146,128,0,258920:0:0:0:0:
320,192,258146,128,0,258698:0:0:0:0:
