osu file format v14

[General]
AudioFilename: audio.mp3
AudioLeadIn: 0
PreviewTime: 69709
Countdown: 0
SampleSet: Soft
StackLeniency: 0.7
Mode: 0
LetterboxInBreaks: 0
WidescreenStoryboard: 1

[Editor]
DistanceSpacing: 0.7
BeatDivisor: 4
GridSize: 4
TimelineZoom: 3.900004

[Metadata]
Title:Kan Saete Kuyashiiwa
TitleUnicode:勘冴えて悔しいわ
Artist:ZUTOMAYO
ArtistUnicode:ずっと真夜中でいいのに。
Creator:Nathan
Version:Luscent's Extra
Source:
Tags:zutto mayonaka de ii no ni. acane sukinathan scubdomino luscent 404_aimnotfound
BeatmapID:2167576
BeatmapSetID:1001507

[Difficulty]
HPDrainRate:5
CircleSize:4
OverallDifficulty:8.5
ApproachRate:9.4
SliderMultiplier:1.8
SliderTickRate:1

[Events]
//Background and Video events
0,0,"thistook3yearstoresize.png",0,0
//Break Periods
2,98287,103977
//Storyboard Layer 0 (Background)
//Storyboard Layer 1 (Fail)
//Storyboard Layer 2 (Pass)
//Storyboard Layer 3 (Foreground)
//Storyboard Layer 4 (Overlay)
//Storyboard Sound Samples

[TimingPoints]
309,400,4,2,1,80,1,0
509,400,4,2,1,80,1,0
709,-71.4285714285714,4,2,1,80,0,0
909,-55.5555555555556,4,2,1,80,0,0
1109,-250,4,2,1,80,0,0
1309,-71.4285714285714,4,2,1,80,0,0
3909,-100,4,2,1,80,0,0
4109,-71.4285714285714,4,2,1,80,0,0
4309,-55.5555555555556,4,2,1,80,0,0
4509,-71.4285714285714,4,2,1,80,0,0
5309,-100,4,2,1,80,0,0
5709,-71.4285714285714,4,2,1,80,0,0
6909,-62.5,4,2,1,80,0,0
8909,-83.3333333333333,4,2,1,80,0,0
9109,-125,4,2,1,80,0,0
9309,-62.5,4,2,1,80,0,0
10909,-75.187969924812,4,2,1,80,0,0
11309,-62.5,4,2,1,80,0,0
12109,-83.3333333333333,4,2,1,80,0,0
12309,-125,4,2,1,80,0,0
12509,-62.5,4,2,1,80,0,0
15309,-83.3333333333333,4,2,1,80,0,0
15509,-125,4,2,1,80,0,0
15709,-62.5,4,2,1,80,0,0
16509,-100,4,2,1,80,0,0
17909,-80,4,2,1,80,0,0
18309,-62.5,4,2,1,80,0,0
19709,-71.4285714285714,4,2,1,80,0,0
25059,-71.4285714285714,4,2,1,50,0,0
25309,-71.4285714285714,4,2,1,80,0,0
29909,-71.4285714285714,4,2,1,50,0,0
30109,-71.4285714285714,4,2,1,80,0,0
37859,-71.4285714285714,4,2,1,50,0,0
38109,-71.4285714285714,4,2,1,80,0,0
43909,-125,4,2,1,80,0,0
44109,-71.4285714285714,4,2,1,80,0,0
44309,-50,4,2,1,80,0,0
45309,-100,4,2,1,60,0,0
45809,-100,4,2,1,80,0,0
45909,-83.3333333333333,4,2,1,60,0,0
46109,-83.3333333333333,4,2,1,70,0,0
46909,-83.3333333333333,4,2,1,80,0,0
47709,-133.333333333333,4,2,1,80,0,0
48309,-200,4,2,1,80,0,0
48709,-83.3333333333333,4,2,1,60,0,0
48808,-83.3333333333333,4,2,1,80,0,0
48909,-83.3333333333333,4,2,1,60,0,0
49109,-83.3333333333333,4,2,1,70,0,0
50109,-71.4285714285714,4,2,1,80,0,0
50509,-62.5,4,2,1,80,0,0
50909,-133.333333333333,4,2,1,80,0,0
51509,-200,4,2,1,80,0,0
51909,-83.3333333333333,4,2,1,60,0,0
52008,-83.3333333333333,4,2,1,80,0,0
52109,-83.3333333333333,4,2,1,60,0,0
52309,-83.3333333333333,4,2,1,70,0,0
53309,-71.4285714285714,4,2,1,80,0,0
53709,-62.5,4,2,1,80,0,0
54109,-133.333333333333,4,2,1,80,0,0
54709,-200,4,2,1,80,0,0
55809,-200,4,2,1,50,0,0
56009,-200,4,2,1,80,0,0
57709,-500,4,2,1,40,0,0
58109,-62.5,4,2,1,80,0,1
59509,-100,4,2,1,80,0,1
59809,-100,4,1,1,80,0,1
59909,-62.5,4,2,1,80,0,1
61009,-62.5,4,1,1,80,0,1
61209,-62.5,4,2,1,80,0,1
62909,-55.5555555555556,4,2,1,80,0,1
63809,-55.5555555555556,4,1,1,80,0,1
63909,-55.5555555555556,4,2,1,80,0,1
64509,-62.5,4,2,1,80,0,1
65909,-100,4,2,1,80,0,1
66209,-100,4,1,1,80,0,1
66309,-62.5,4,2,1,80,0,1
69709,-100,4,2,1,80,0,1
70109,-71.4285714285714,4,2,1,80,0,1
70509,-200,4,2,1,80,0,1
70559,-200,4,1,1,80,0,1
70609,-200,4,2,1,80,0,1
70659,-200,4,1,1,80,0,1
70709,-200,4,2,1,80,0,1
70759,-200,4,1,1,80,0,1
70809,-200,4,2,1,80,0,1
70909,-50,4,2,1,80,0,1
71042,-50,4,2,1,5,0,1
71059,-50,4,1,1,5,0,1
71109,-200,4,2,1,80,0,1
71242,-200,4,2,1,5,0,1
71259,-200,4,1,1,5,0,1
71309,-50,4,2,1,80,0,1
71442,-50,4,2,1,5,0,1
71459,-50,4,1,1,5,0,1
71509,-200,4,2,1,80,0,1
71642,-200,4,2,1,5,0,1
71659,-200,4,1,1,5,0,1
71709,-50,4,2,1,80,0,1
71842,-50,4,2,1,5,0,1
71859,-50,4,1,1,5,0,1
71909,-200,4,2,1,80,0,1
72042,-200,4,2,1,5,0,1
72059,-200,4,1,1,5,0,1
72109,-50,4,2,1,80,0,1
72242,-50,4,2,1,5,0,1
72259,-50,4,1,1,5,0,1
72309,-200,4,2,1,80,0,1
72442,-200,4,2,1,5,0,1
72459,-200,4,1,1,5,0,1
72509,-50,4,2,1,80,0,1
72642,-50,4,2,1,5,0,1
72659,-50,4,1,1,5,0,1
72709,-200,4,2,1,80,0,1
72842,-200,4,2,1,5,0,1
72859,-200,4,1,1,5,0,1
72909,-50,4,2,1,80,0,1
73042,-50,4,2,1,5,0,1
73059,-50,4,1,1,5,0,1
73109,-200,4,2,1,80,0,1
73242,-200,4,2,1,5,0,1
73259,-200,4,1,1,5,0,1
73309,-62.5,4,2,1,80,0,1
73709,-200,4,2,1,80,0,1
74109,-50,4,2,1,80,0,1
74242,-50,4,2,1,5,0,1
74259,-50,4,1,1,5,0,1
74309,-200,4,2,1,80,0,1
74442,-200,4,2,1,5,0,1
74459,-200,4,1,1,5,0,1
74509,-50,4,2,1,80,0,1
74642,-50,4,2,1,5,0,1
74659,-50,4,1,1,5,0,1
74709,-200,4,2,1,80,0,1
74842,-200,4,2,1,5,0,1
74859,-200,4,1,1,5,0,1
74909,-50,4,2,1,80,0,1
75042,-50,4,2,1,5,0,1
75059,-50,4,1,1,5,0,1
75109,-200,4,2,1,80,0,1
75242,-200,4,2,1,5,0,1
75259,-200,4,1,1,5,0,1
75309,-50,4,2,1,80,0,1
75442,-50,4,2,1,5,0,1
75459,-50,4,1,1,5,0,1
75509,-200,4,2,1,80,0,1
75642,-200,4,2,1,5,0,1
75659,-200,4,1,1,5,0,1
75709,-62.5,4,2,1,80,0,1
75842,-62.5,4,2,1,5,0,1
75909,-62.5,4,2,1,80,0,1
76042,-62.5,4,2,1,5,0,1
76109,-62.5,4,2,1,80,0,1
76309,-62.5,4,1,1,80,0,1
76409,-62.5,4,2,1,80,0,1
76509,-62.5,4,2,1,80,0,1
77309,-50,4,2,1,80,0,1
77459,-50,4,1,1,5,0,1
77509,-200,4,2,1,80,0,1
77659,-200,4,1,1,5,0,1
77709,-50,4,2,1,80,0,1
77859,-50,4,1,1,5,0,1
77909,-200,4,2,1,80,0,1
78059,-200,4,1,1,5,0,1
78109,-50,4,2,1,80,0,1
78259,-50,4,1,1,5,0,1
78309,-200,4,2,1,80,0,1
78459,-200,4,1,1,5,0,1
78509,-50,4,2,1,80,0,1
78659,-50,4,1,1,5,0,1
78709,-200,4,2,1,80,0,1
78859,-200,4,1,1,5,0,1
78909,-50,4,2,1,80,0,1
79059,-50,4,1,1,5,0,1
79109,-200,4,2,1,80,0,1
79259,-200,4,1,1,5,0,1
79309,-50,4,2,1,80,0,1
79459,-50,4,1,1,5,0,1
79509,-200,4,2,1,80,0,1
79659,-200,4,1,1,5,0,1
79709,-200,4,2,1,80,0,1
80209,-200,4,1,1,80,0,1
80309,-200,4,2,1,80,0,1
80509,-125,4,2,1,80,0,1
80909,-100,4,2,1,80,0,1
81309,-83.3333333333333,4,2,1,80,0,1
82109,-83.3333333333333,4,2,1,80,0,0
82709,-83.3333333333333,4,1,1,80,0,0
82909,-83.3333333333333,4,2,1,80,0,0
83108,-83.3333333333333,4,1,1,80,0,0
83309,-83.3333333333333,4,2,1,80,0,0
83508,-83.3333333333333,4,1,1,80,0,0
83709,-83.3333333333333,4,2,1,80,0,0
84509,-125,4,2,1,80,0,0
84809,-83.3333333333333,4,2,1,80,0,0
85109,-125,4,2,1,80,0,0
86109,-83.3333333333333,4,2,1,80,0,0
86409,-62.5,4,2,1,80,0,0
86709,-50,4,2,1,80,0,0
86909,-66.6666666666667,4,2,1,80,0,0
86975,-66.6666666666667,4,1,1,80,0,0
87109,-66.6666666666667,4,2,1,80,0,0
87175,-66.6666666666667,4,1,1,80,0,0
87309,-66.6666666666667,4,2,1,80,0,0
87375,-66.6666666666667,4,1,1,80,0,0
87509,-66.6666666666667,4,2,1,80,0,0
87575,-66.6666666666667,4,1,1,80,0,0
87709,-125,4,2,1,80,0,0
88009,-83.3333333333333,4,2,1,80,0,0
88309,-125,4,2,1,80,0,0
88909,-83.3333333333333,4,2,1,80,0,0
89008,-83.3333333333333,4,1,1,80,0,0
89108,-83.3333333333333,4,2,1,80,0,0
90886,405.405405405405,4,2,1,80,1,0
90886,-83.3333333333333,4,2,1,80,0,0
90987,-83.3333333333333,4,1,1,5,0,0
91190,-83.3333333333333,4,2,1,80,0,0
91291,-83.3333333333333,4,1,1,5,0,0
91494,-83.3333333333333,4,2,1,80,0,0
91595,-83.3333333333333,4,1,1,5,0,0
91899,-83.3333333333333,4,2,1,80,0,0
92507,400,4,2,1,80,1,0
92507,-83.3333333333333,4,2,1,80,0,0
92606,-83.3333333333333,4,1,1,5,0,0
92607,-83.3333333333333,4,1,1,5,0,0
92807,-83.3333333333333,4,2,1,80,0,0
92906,-83.3333333333333,4,1,1,5,0,0
92907,-83.3333333333333,4,1,1,5,0,0
93107,-83.3333333333333,4,2,1,80,0,0
93307,-133.333333333333,4,2,1,50,0,0
93707,-100,4,2,1,60,0,0
94107,-100,4,2,1,70,0,0
94507,-100,4,2,1,80,0,0
95505,-100,4,2,1,80,0,0
96498,400,4,2,1,80,1,0
96498,-66.6666666666667,4,2,1,80,0,0
96898,300,4,2,1,80,1,0
97198,-96.1538461538461,4,2,1,80,0,0
97273,283.018867924528,4,2,1,80,1,0
97485,333.333333333333,4,2,1,80,1,0
97735,352.941176470588,4,2,1,80,1,0
98087,461.538461538462,4,2,1,80,1,0
98317,400,4,2,1,80,1,0
99717,400,4,2,1,80,1,0
104517,-133.333333333333,4,2,1,65,0,0
106417,-133.333333333333,4,2,1,80,0,0
106817,-133.333333333333,4,2,1,65,0,0
108017,-133.333333333333,4,2,1,80,0,0
108117,-133.333333333333,4,2,1,65,0,0
108617,-133.333333333333,4,2,1,80,0,0
108817,-133.333333333333,4,2,1,65,0,0
109017,-133.333333333333,4,2,1,80,0,0
109217,-133.333333333333,4,2,1,65,0,0
109317,-83.3333333333333,4,2,1,80,0,0
110917,-71.4285714285714,4,2,1,60,0,0
111717,-71.4285714285714,4,2,1,70,0,0
112517,-71.4285714285714,4,2,1,80,0,0
112917,-62.5,4,2,1,80,0,0
113317,-100,4,2,1,80,0,0
113917,-151.515151515152,4,2,1,80,0,0
114317,-71.4285714285714,4,2,1,60,0,0
114416,-71.4285714285714,4,2,1,80,0,0
114517,-71.4285714285714,4,2,1,60,0,0
114717,-71.4285714285714,4,2,1,70,0,0
115317,-100,4,2,1,70,0,0
115417,-100,4,2,1,80,0,0
115517,-100,4,2,1,70,0,0
115717,-100,4,2,1,80,0,0
116517,-100,4,2,1,80,0,0
117117,-151.515151515152,4,2,1,80,0,0
117517,-71.4285714285714,4,2,1,60,0,0
117616,-71.4285714285714,4,2,1,80,0,0
117717,-71.4285714285714,4,2,1,60,0,0
118117,-71.4285714285714,4,2,1,70,0,0
118517,-71.4285714285714,4,2,1,80,0,0
119717,-100,4,2,1,80,0,0
120317,-151.515151515152,4,2,1,80,0,0
120717,-71.4285714285714,4,2,1,80,0,0
123717,-62.5,4,2,1,80,0,1
125117,-100,4,2,1,80,0,1
125517,-62.5,4,2,1,80,0,1
131517,-100,4,2,1,80,0,1
131917,-62.5,4,2,1,80,0,1
135317,-100,4,2,1,80,0,1
135717,-71.4285714285714,4,2,1,80,0,1
136117,-200,4,2,1,80,0,1
136517,-50,4,2,1,80,0,1
136650,-50,4,2,1,5,0,1
136667,-50,4,2,1,5,0,1
136717,-200,4,2,1,80,0,1
136850,-200,4,2,1,5,0,1
136867,-200,4,2,1,5,0,1
136917,-50,4,2,1,80,0,1
137050,-50,4,2,1,5,0,1
137067,-50,4,2,1,5,0,1
137117,-200,4,2,1,80,0,1
137250,-200,4,2,1,5,0,1
137267,-200,4,2,1,5,0,1
137317,-50,4,2,1,80,0,1
137450,-50,4,2,1,5,0,1
137467,-50,4,2,1,5,0,1
137517,-200,4,2,1,80,0,1
137650,-200,4,2,1,5,0,1
137667,-200,4,2,1,5,0,1
137717,-50,4,2,1,80,0,1
137850,-50,4,2,1,5,0,1
137867,-50,4,2,1,5,0,1
137917,-200,4,2,1,80,0,1
138050,-200,4,2,1,5,0,1
138067,-200,4,2,1,5,0,1
138117,-50,4,2,1,80,0,1
138250,-50,4,2,1,5,0,1
138267,-50,4,2,1,5,0,1
138317,-200,4,2,1,80,0,1
138450,-200,4,2,1,5,0,1
138467,-200,4,2,1,5,0,1
138517,-50,4,2,1,80,0,1
138650,-50,4,2,1,5,0,1
138667,-50,4,2,1,5,0,1
138717,-200,4,2,1,80,0,1
138850,-200,4,2,1,5,0,1
138867,-200,4,2,1,5,0,1
138917,-62.5,4,2,1,80,0,1
139317,-200,4,2,1,80,0,1
139717,-50,4,2,1,80,0,1
139850,-50,4,2,1,5,0,1
139867,-50,4,2,1,5,0,1
139917,-200,4,2,1,80,0,1
140050,-200,4,2,1,5,0,1
140067,-200,4,2,1,5,0,1
140117,-50,4,2,1,80,0,1
140250,-50,4,2,1,5,0,1
140267,-50,4,2,1,5,0,1
140317,-200,4,2,1,80,0,1
140450,-200,4,2,1,5,0,1
140467,-200,4,2,1,5,0,1
140517,-50,4,2,1,80,0,1
140650,-50,4,2,1,5,0,1
140667,-50,4,2,1,5,0,1
140717,-200,4,2,1,80,0,1
140850,-200,4,2,1,5,0,1
140867,-200,4,2,1,5,0,1
140917,-50,4,2,1,80,0,1
141050,-50,4,2,1,5,0,1
141067,-50,4,2,1,5,0,1
141117,-200,4,2,1,80,0,1
141250,-200,4,2,1,5,0,1
141267,-200,4,2,1,5,0,1
141317,-62.5,4,2,1,80,0,1
141450,-62.5,4,2,1,5,0,1
141517,-62.5,4,2,1,80,0,1
141650,-62.5,4,2,1,5,0,1
141717,-62.5,4,2,1,80,0,1
142917,-50,4,2,1,80,0,1
143067,-50,4,2,1,5,0,1
143117,-200,4,2,1,80,0,1
143267,-200,4,2,1,5,0,1
143317,-50,4,2,1,80,0,1
143467,-50,4,2,1,5,0,1
143517,-200,4,2,1,80,0,1
143667,-200,4,2,1,5,0,1
143717,-50,4,2,1,80,0,1
143867,-50,4,2,1,5,0,1
143917,-200,4,2,1,80,0,1
144067,-200,4,2,1,5,0,1
144117,-50,4,2,1,80,0,1
144267,-50,4,2,1,5,0,1
144317,-200,4,2,1,80,0,1
144467,-200,4,2,1,5,0,1
144517,-50,4,2,1,80,0,1
144667,-50,4,2,1,5,0,1
144717,-200,4,2,1,80,0,1
144867,-200,4,2,1,5,0,1
144917,-50,4,2,1,80,0,1
145067,-50,4,2,1,5,0,1
145117,-200,4,2,1,80,0,1
145267,-200,4,2,1,5,0,1
145317,-62.5,4,2,1,80,0,1
146117,-100,4,2,1,80,0,1
146517,-83.3333333333333,4,2,1,80,0,1
147717,-133.333333333333,4,2,1,80,0,0
149317,387.096774193548,4,2,1,80,1,0
149317,-62.5,4,2,1,80,0,0
150478,-125,4,2,1,80,0,0
150906,387.096774193548,4,2,1,80,1,0
150906,-62.5,4,2,1,80,0,0
151776,508.474576271186,4,2,1,80,1,0
151776,-62.5,4,2,1,80,0,0
152091,428.571428571429,4,2,1,80,1,0
152091,-71.4285714285714,4,2,1,80,0,0
152495,333.333333333333,4,2,1,80,1,0
152495,-62.5,4,2,1,80,0,0
152661,491.803278688525,4,2,1,80,1,0
152783,387.096774193548,4,2,1,80,1,0
152783,-62.5,4,2,1,80,0,0
153073,461.538461538462,4,2,1,80,1,0
153073,-62.5,4,2,1,80,0,0
153360,461.538461538462,4,2,1,80,1,0
153403,361.44578313253,4,2,1,80,1,0
153403,-62.5,4,2,1,80,0,0
153674,468.75,4,2,1,80,1,0
154085,397.350993377483,4,2,1,80,1,0
154085,-71.4285714285714,4,2,1,80,0,0
155674,400,4,2,1,80,1,0
155974,545.454545454546,4,2,1,80,1,0
156110,400,4,2,1,80,1,0
157310,400,4,2,1,80,1,0
168510,-100,4,2,1,80,0,0
168710,-71.4285714285714,4,2,1,80,0,0
168910,-83.3333333333333,4,2,1,80,0,0
173110,-133.333333333333,4,2,1,80,0,0
174910,-83.3333333333333,4,2,1,80,0,0
184510,-71.4285714285714,4,2,1,80,0,0
186110,-62.5,4,2,1,80,0,1
187510,-100,4,2,1,80,0,1
187910,-62.5,4,2,1,80,0,1
193910,-100,4,2,1,80,0,1
194310,-62.5,4,2,1,80,0,1
198510,-200,4,2,1,80,0,1
198910,-50,4,2,1,80,0,1
199043,-50,4,2,1,5,0,1
199060,-50,4,2,1,5,0,1
199110,-200,4,2,1,80,0,1
199243,-200,4,2,1,5,0,1
199260,-200,4,2,1,5,0,1
199310,-200,4,2,1,80,0,1
199710,-50,4,2,1,80,0,1
199843,-50,4,2,1,5,0,1
199860,-50,4,2,1,5,0,1
199910,-200,4,2,1,80,0,1
200043,-200,4,2,1,5,0,1
200060,-200,4,2,1,5,0,1
200110,-50,4,2,1,80,0,1
200260,-50,4,2,1,5,0,1
200310,-200,4,2,1,80,0,1
200460,-200,4,2,1,5,0,1
200510,-50,4,2,1,80,0,1
200643,-50,4,2,1,5,0,1
200660,-50,4,2,1,5,0,1
200710,-200,4,2,1,80,0,1
200843,-200,4,2,1,5,0,1
200860,-200,4,2,1,5,0,1
200910,-50,4,2,1,80,0,1
201043,-50,4,2,1,5,0,1
201060,-50,4,2,1,5,0,1
201110,-200,4,2,1,80,0,1
201260,-200,4,2,1,5,0,1
201310,-62.5,4,2,1,80,0,1
201710,-200,4,2,1,80,0,1
202110,-50,4,2,1,80,0,1
202243,-50,4,2,1,5,0,1
202260,-25,4,2,1,5,0,1
202310,-200,4,2,1,80,0,1
202443,-200,4,2,1,5,0,1
202460,-200,4,2,1,5,0,1
202510,-50,4,2,1,80,0,1
202643,-50,4,2,1,5,0,1
202660,-50,4,2,1,5,0,1
202710,-200,4,2,1,80,0,1
202860,-200,4,2,1,5,0,1
202910,-50,4,2,1,80,0,1
203043,-50,4,2,1,5,0,1
203060,-50,4,2,1,5,0,1
203110,-200,4,2,1,80,0,1
203243,-200,4,2,1,5,0,1
203260,-200,4,2,1,5,0,1
203310,-50,4,2,1,80,0,1
203443,-50,4,2,1,5,0,1
203460,-50,4,2,1,5,0,1
203510,-200,4,2,1,80,0,1
203643,-200,4,2,1,5,0,1
203660,-200,4,2,1,5,0,1
203710,-62.5,4,2,1,80,0,1
205310,-50,4,2,1,80,0,1
205460,-50,4,2,1,5,0,1
205510,-200,4,2,1,80,0,1
205660,-200,4,2,1,5,0,1
205710,-50,4,2,1,80,0,1
205860,-50,4,2,1,5,0,1
205910,-200,4,2,1,80,0,1
206060,-200,4,2,1,5,0,1
206110,-50,4,2,1,80,0,1
206260,-50,4,2,1,5,0,1
206310,-200,4,2,1,80,0,1
206460,-200,4,2,1,5,0,1
206510,-50,4,2,1,80,0,1
206660,-50,4,2,1,5,0,1
206710,-200,4,2,1,80,0,1
206860,-200,4,2,1,5,0,1
206910,-50,4,2,1,80,0,1
207060,-50,4,2,1,5,0,1
207110,-200,4,2,1,80,0,1
207260,-200,4,2,1,5,0,1
207310,-50,4,2,1,80,0,1
207460,-50,4,2,1,5,0,1
207510,-200,4,2,1,80,0,1
207660,-200,4,2,1,5,0,1
207710,-200,4,2,1,80,0,1
208502,400,4,2,1,80,1,0
208502,-100,4,2,1,80,0,1
208702,-83.3333333333333,4,2,1,80,0,1
208902,-71.4285714285714,4,2,1,80,0,1
209502,-100,4,2,1,80,0,1
209902,-71.4285714285714,4,2,1,80,0,1
210102,-200,4,2,1,80,0,1
210502,-100,4,2,1,80,0,1
210702,-71.4285714285714,4,2,1,80,0,1
210902,-62.5,4,2,1,80,0,1
211102,-55.5555555555556,4,2,1,80,0,1
211302,-133.333333333333,4,2,1,80,0,1
211702,-71.4285714285714,4,2,1,80,0,0
211910,400,4,2,1,80,1,0
211910,-71.4285714285714,4,2,1,80,0,0
229310,-200,4,2,1,80,0,0
230110,-100,4,2,1,80,0,0
230938,400,4,2,1,80,1,0
230938,-200,4,2,1,80,0,0
231138,-133.333333333333,4,2,1,80,0,0
231338,-100,4,2,1,80,0,0
231538,397.350993377483,4,2,1,80,1,0
231538,-80,4,2,1,80,0,0
231710,-66.6666666666667,4,2,1,80,0,0
231910,-57.1428571428571,4,2,1,80,0,0
232110,-50,4,2,1,80,0,0
232210,-50,4,2,1,70,0,0
232332,-500,4,2,1,80,0,0
232710,-500,4,2,1,5,0,0

[Colours]
Combo1 : 255,94,55
Combo2 : 173,255,95
Combo3 : 17,254,176
Combo4 : 255,88,100

[HitObjects]
127,142,309,5,2,0:0:0:0:
127,142,409,1,2,0:0:0:0:
126,141,509,6,0,P|148:149|170:151,1,45,6|0,3:2|0:0,0:0:0:0:
186,236,709,2,0,P|216:229|239:208,1,62.9999980773926,2|0,0:0|0:0,0:0:0:0:
304,277,909,2,0,P|326:243|334:204,1,80.9999975280763,2|0,0:0|0:0,0:0:0:0:
287,115,1109,2,0,L|283:143,1,18,2|0,0:0|0:0,0:0:0:0:
408,60,1309,6,0,B|328:53|328:53|322:45|322:45|223:37,2,188.999994232178,6|6|6,3:2|3:2|3:2,0:0:0:0:
408,60,2909,6,0,B|328:53|328:53|322:45|322:45|223:37,2,188.999994232178,6|6|6,3:2|3:2|3:2,0:0:0:0:
429,209,3709,5,6,3:2:0:0:
436,211,3909,2,0,P|428:232|425:254,1,45,2|0,0:0|0:0,0:0:0:0:
336,234,4109,2,0,P|336:265|345:295,1,62.9999980773926,2|0,0:0|0:0,0:0:0:0:
262,319,4309,2,0,P|282:353|315:377,1,80.9999975280763,2|0,0:0|0:0,0:0:0:0:
231,232,4509,6,0,B|132:240|132:240|125:247|125:247|46:254,2,188.999994232178,6|6|6,3:2|3:2|3:2,0:0:0:0:
277,116,5309,5,0,0:0:0:0:
271,122,5409,1,0,0:0:0:0:
267,130,5509,2,0,P|267:152|280:169,1,45,2|2,0:0|0:0,0:0:0:0:
195,56,5709,1,0,0:0:0:0:
158,92,5809,2,0,P|153:130|168:167,1,62.9999980773926,2|2,0:0|0:0,0:0:0:0:
379,74,6009,1,0,0:0:0:0:
403,60,6109,5,8,0:0:0:0:
409,110,6209,1,8,0:0:0:0:
387,158,6309,1,0,0:0:0:0:
393,208,6409,1,8,0:0:0:0:
371,256,6509,1,8,0:0:0:0:
371,256,6709,5,8,0:0:0:0:
289,245,6809,1,8,0:0:0:0:
215,282,6909,2,0,P|180:275|149:257,1,72,6|0,3:2|0:0,0:0:0:0:
317,328,7109,2,0,P|352:335|382:353,1,72,2|0,0:0|0:0,0:0:0:0:
318,176,7309,2,0,P|282:173|248:183,1,72,10|0,0:0|0:0,0:0:0:0:
98,317,7509,2,0,P|78:286|72:251,1,72,2|0,0:0|0:0,0:0:0:0:
200,117,7709,1,6,3:2:0:0:
143,173,7809,6,0,L|-18:187,1,144,0|6,0:0|0:0,0:0:0:0:
87,54,8109,2,0,P|122:50|158:49,1,72,8|0,0:0|0:0,0:0:0:0:
291,101,8309,2,0,P|362:106|429:83,1,144,6|0,0:0|3:0,0:0:0:0:
303,26,8709,6,0,L|280:124,1,72,2|0,0:0|0:0,0:0:0:0:
386,144,8909,2,0,L|363:242,1,53.9999983520508,10|0,0:0|0:0,0:0:0:0:
469,262,9109,2,0,L|460:297,1,36,2|0,0:0|0:0,0:0:0:0:
250,236,9309,5,2,3:2:0:0:
267,314,9409,2,0,P|321:344|421:330,1,144,8|0,0:0|0:0,0:0:0:0:
182,332,9709,2,0,L|73:355,1,72,10|0,0:0|0:0,0:0:0:0:
30,369,9909,1,2,0:0:0:0:
191,193,10109,6,0,P|165:218|131:225,1,72,6|0,3:2|0:0,0:0:0:0:
291,177,10309,2,0,P|316:151|350:144,1,72,2|0,0:0|0:0,0:0:0:0:
55,217,10509,2,0,P|56:252|77:281,1,72,10|0,0:0|0:0,0:0:0:0:
191,193,10709,2,0,P|198:158|189:123,1,72
29,71,10909,1,6,3:2:0:0:
0,141,11009,6,0,P|60:145|125:135,1,119.699995068512,0|6,0:0|0:0,0:0:0:0:
243,69,11309,2,0,P|278:67|314:74,1,72,8|0,0:0|0:0,0:0:0:0:
455,161,11509,2,0,P|420:220|352:218,1,144,6|0,0:0|3:0,0:0:0:0:
352,218,11909,6,0,L|365:302,1,72,2|0,0:0|0:0,0:0:0:0:
244,301,12109,2,0,L|235:247,1,53.9999983520508,10|0,0:0|0:0,0:0:0:0:
120,276,12309,2,0,L|125:311,1,36,2|0,0:0|0:0,0:0:0:0:
3,177,12509,5,2,3:2:0:0:
3,177,12609,2,0,P|89:183|148:132,1,144,8|0,0:0|0:0,0:0:0:0:
76,31,12909,2,0,P|68:65|73:100,1,72,8|0,0:0|0:0,0:0:0:0:
149,79,13109,1,8,0:0:0:0:
157,71,13209,1,8,0:0:0:0:
234,65,13309,6,0,P|269:57|304:61,1,72,6|0,3:2|0:0,0:0:0:0:
406,89,13509,2,0,P|410:53|402:18,1,72,2|0,0:0|0:0,0:0:0:0:
273,155,13709,2,0,P|244:176|209:183,1,72,10|0,0:0|0:0,0:0:0:0:
458,210,13909,2,0,P|477:179|482:144,1,72,2|0,0:0|0:0,0:0:0:0:
321,244,14109,1,6,3:2:0:0:
356,312,14209,6,0,P|422:339|493:343,1,144,0|6,0:0|0:0,0:0:0:0:
393,245,14509,2,0,P|385:210|374:176,1,72,8|0,0:0|0:0,0:0:0:0:
182,288,14709,2,0,P|218:346|287:344,1,144,6|0,0:0|3:0,0:0:0:0:
287,344,15109,6,0,L|191:371,1,72,2|0,0:0|0:0,0:0:0:0:
247,203,15309,2,0,L|195:217,1,53.9999983520508,10|0,0:0|0:0,0:0:0:0:
207,62,15509,2,0,L|172:71,1,36,2|0,0:0|0:0,0:0:0:0:
30,146,15709,5,2,3:2:0:0:
30,146,15809,2,0,P|91:178|156:153,1,144,8|2,0:0|0:0,0:0:0:0:
318,166,16109,2,0,P|325:201|319:236,1,72,8|0,0:0|0:0,0:0:0:0:
356,378,16309,2,0,P|362:342|355:307,1,72,6|0,0:0|0:0,0:0:0:0:
411,254,16509,6,0,L|511:270,2,90,0|2|10,3:0|0:0|0:0,0:0:0:0:
275,297,17109,2,0,L|186:282,2,90,6|0|2,0:0|3:0|0:0,0:0:0:0:
412,366,17709,1,10,0:0:0:0:
254,202,17909,6,0,P|178:199|85:236,1,168.75,6|0,0:0|0:0,0:0:0:0:
65,140,18309,2,0,P|33:156|13:186,1,72,8|0,0:0|0:0,0:0:0:0:
4,261,18509,2,0,P|20:292|50:312,1,72,10|8,0:0|0:0,0:3:0:0:
125,321,18708,2,0,P|156:304|176:274,1,72,10|8,0:0|0:0,0:3:0:0:
152,131,18909,5,14,0:0:0:0:
417,235,19209,5,14,0:0:0:0:
256,278,19509,5,14,0:0:0:0:
339,34,19709,5,6,3:2:0:0:
458,112,19909,1,2,0:0:0:0:
466,120,20009,1,2,0:0:0:0:
396,159,20109,2,0,P|366:164|318:165,1,62.9999980773926,2|2,3:2|0:0,0:0:0:0:
242,148,20309,2,0,P|243:179|248:210,1,62.9999980773926,2|2,0:0|0:0,0:0:0:0:
342,325,20509,2,0,P|248:282|142:304,2,188.999994232178,6|2|2,3:2|3:2|3:2,0:0:0:0:
9,350,21509,5,2,3:2:0:0:
17,342,21609,1,2,0:0:0:0:
88,311,21709,2,0,P|90:279|88:248,1,62.9999980773926,10|0,0:0|0:0,0:0:0:0:
17,170,21909,2,0,P|14:201|16:232,1,62.9999980773926,2|0,0:0|0:0,0:0:0:0:
172,138,22109,2,0,B|118:152|84:113|84:113|50:75|-8:89,2,188.999994232178,6|2|2,3:2|3:2|3:2,0:0:0:0:
380,182,23109,5,2,3:2:0:0:
388,174,23209,1,2,0:0:0:0:
337,120,23309,2,0,P|306:113|274:110,1,62.9999980773926,8|0,0:0|0:0,0:0:0:0:
454,231,23509,1,2,0:0:0:0:
454,231,23609,1,2,0:0:0:0:
454,231,23709,2,0,P|468:129|466:40,2,188.999994232178,2|2|2,3:2|3:2|3:2,0:0:0:0:
477,352,24509,6,0,P|411:355|335:358,1,125.999996154785,2|2,0:0|3:2,0:0:0:0:
201,298,24909,1,10,0:0:0:0:
273,329,25009,2,0,P|286:268|266:209,1,125.999996154785,0|0,3:0|1:0,0:0:0:0:
120,166,25309,2,0,P|236:141|279:76,1,188.999994232178,6|2,1:2|3:2,0:0:0:0:
34,234,25909,1,14,0:0:0:0:
84,43,26309,5,2,0:0:0:0:
84,43,26409,1,2,0:0:0:0:
83,42,26509,2,0,P|115:47|146:46,1,62.9999980773926,10|0,0:0|3:0,0:0:0:0:
244,13,26709,1,2,0:0:0:0:
252,21,26809,1,0,1:0:0:0:
315,59,26909,2,0,B|406:50|406:50|410:54|410:54|506:46,2,188.999994232178,6|2|2,3:2|3:2|3:2,0:0:0:0:
448,178,27909,5,2,3:2:0:0:
427,250,28009,1,2,0:0:0:0:
374,195,28109,2,0,P|362:158|379:101,1,62.9999980773926,10|2,0:2|3:2,0:0:0:0:
275,230,28309,1,2,1:2:0:0:
267,238,28409,1,2,1:2:0:0:
203,196,28509,2,0,B|111:187|111:187|107:191|107:191|11:183,2,188.999994232178,6|2|2,3:2|3:2|3:2,0:0:0:0:
127,321,29509,6,0,P|129:285|128:246,1,62.9999980773926
16,327,29709,1,8,0:0:0:0:
16,327,29809,1,0,3:0:0:0:
16,327,29909,2,0,P|44:358|104:366,1,62.9999980773926,0|0,1:0|1:0,0:0:0:0:
200,343,30109,2,0,B|292:334|292:334|296:338|296:338|392:330,2,188.999994232178,6|2|6,3:2|3:2|3:2,0:0:0:0:
239,143,30909,6,0,P|228:206|221:276,1,125.999996154785,0|2,0:0|3:2,0:0:0:0:
329,201,31309,1,8,0:0:0:0:
378,143,31409,2,0,P|374:102|369:61,1,62.9999980773926,2|2,3:2|0:0,0:0:0:0:
306,32,31609,1,0,1:0:0:0:
306,32,31709,6,0,P|260:38|232:45,1,62.9999980773926,2|0,3:2|0:0,0:0:0:0:
449,113,31909,2,0,P|495:107|523:100,1,62.9999980773926,2|2,3:2|0:0,0:0:0:0:
405,215,32109,1,8,0:0:0:0:
389,275,32209,1,8,0:0:0:0:
373,336,32309,1,0,3:0:0:0:
373,336,32509,1,6,3:2:0:0:
171,340,32709,5,2,0:0:0:0:
179,348,32809,1,2,0:0:0:0:
102,311,32909,2,0,P|97:279|103:249,1,62.9999980773926,10|2,0:0|0:0,0:0:0:0:
208,168,33109,1,2,0:0:0:0:
208,168,33309,2,0,P|140:171|75:176,1,125.999996154785,6|0,3:2|0:0,0:0:0:0:
191,92,33609,2,0,P|252:98|286:149,1,125.999996154785,10|0,0:0|0:0,0:0:0:0:
265,225,33909,1,2,3:2:0:0:
468,178,34309,5,2,3:2:0:0:
476,186,34409,1,2,0:0:0:0:
461,261,34509,2,0,P|426:260|375:244,1,62.9999980773926,10|2,0:0|3:2,0:0:0:0:
327,217,34709,2,0,P|292:218|241:234,1,62.9999980773926,2|2,0:0|0:0,0:0:0:0:
268,308,34909,2,0,B|333:300|333:300|382:336,1,125.999996154785,6|0,3:2|0:0,0:0:0:0:
233,379,35209,2,0,P|190:315|222:238,1,125.999996154785,10|0,0:0|0:0,0:0:0:0:
194,195,35509,1,2,3:2:0:0:
43,304,35909,5,2,3:2:0:0:
35,312,36009,1,0,0:0:0:0:
109,267,36109,2,0,P|110:235|104:204,1,62.9999980773926,10|2,0:0|3:2,0:0:0:0:
11,111,36309,2,0,P|37:127|67:138,1,62.9999980773926,2|0,0:0|0:0,0:0:0:0:
143,138,36509,2,0,B|175:152|200:130|200:130|226:109|262:124,1,125.999996154785,6|2,3:2|0:0,0:0:0:0:
269,48,36809,2,0,P|323:77|339:137,1,125.999996154785,8|0,0:0|0:0,0:0:0:0:
290,197,37109,1,2,3:2:0:0:
426,242,37309,6,0,P|432:182|402:108,1,125.999996154785,2|2,0:0|3:2,0:0:0:0:
219,240,37709,2,0,P|213:300|243:374,1,125.999996154785,10|0,0:0|1:0,0:0:0:0:
415,319,38109,1,6,3:2:0:0:
350,279,38209,2,0,P|318:282|290:296,1,62.9999980773926
151,359,38409,1,0,3:0:0:0:
151,359,38509,1,0,0:0:0:0:
62,360,38709,6,0,L|-25:369,1,62.9999980773926,14|0,0:0|0:0,0:0:0:0:
103,248,39109,5,2,3:2:0:0:
111,256,39209,1,2,0:0:0:0:
145,182,39309,2,0,P|114:175|82:174,1,62.9999980773926,10|0,0:0|3:0,0:0:0:0:
243,238,39509,2,0,P|249:207|250:175,1,62.9999980773926,2|0,0:0|0:0,0:0:0:0:
194,93,39709,2,0,B|134:86|134:86|132:83|132:83|70:76,1,125.999996154785,6|0,3:2|0:0,0:0:0:0:
258,36,40009,2,0,B|317:29|317:29|319:26|319:26|381:19,1,125.999996154785,10|2,0:0|0:0,0:0:0:0:
440,73,40309,1,2,3:2:0:0:
393,238,40709,5,2,3:2:0:0:
401,246,40809,1,2,0:0:0:0:
326,274,40909,2,0,P|319:237|324:196,1,62.9999980773926,10|2,0:0|3:2,0:0:0:0:
466,286,41109,2,0,P|437:310|399:326,1,62.9999980773926,2|0,0:0|0:0,0:0:0:0:
443,185,41309,2,0,B|448:124|448:124|452:122|452:122|458:60,1,125.999996154785,6|0,3:2|0:0,0:0:0:0:
337,16,41609,2,0,B|343:77|343:77|346:79|346:79|352:140,1,125.999996154785,10|0,0:0|0:0,0:0:0:0:
262,165,41909,1,2,3:2:0:0:
133,163,42309,6,0,L|55:158,1,62.9999980773926,2|0,3:2|0:0,0:0:0:0:
207,261,42509,2,0,L|212:183,1,62.9999980773926,10|0,0:0|3:0,0:0:0:0:
109,335,42709,2,0,L|171:339,1,62.9999980773926,2|0,0:0|0:0,0:0:0:0:
36,238,42909,2,0,L|27:363,1,125.999996154785,2|0,3:2|0:0,0:0:0:0:
125,249,43209,1,10,0:0:0:0:
125,249,43309,2,0,L|133:123,1,125.999996154785,0|6,0:0|3:2,0:0:0:0:
351,34,43709,5,0,0:0:0:0:
351,34,43909,2,0,P|344:50|329:63,1,36,2|0,3:2|0:0,0:0:0:0:
357,149,44109,2,0,P|325:152|295:144,1,62.9999980773926,10|0,0:0|3:0,0:0:0:0:
252,231,44309,2,0,P|218:202|205:159,1,90,8|0,0:0|0:0,0:0:0:0:
345,309,44509,2,0,P|336:352|306:384,1,90,6|0,3:2|0:0,0:0:0:0:
402,210,44709,2,0,P|443:195|486:205,1,90,0|8,0:0|0:0,0:0:0:0:
261,312,44909,1,6,3:2:0:0:
210,331,45009,1,0,3:0:0:0:
159,310,45109,1,0,3:0:0:0:
159,310,45309,6,0,L|95:319,1,45,6|0,3:2|0:0,0:0:0:0:
55,245,45509,2,0,L|-9:254,1,45,2|0,0:0|0:0,0:0:0:0:
179,234,45709,2,0,L|223:227,1,45,2|0,1:2|0:0,0:0:0:0:
78,164,45909,1,0,1:0:0:0:
78,164,46009,1,0,0:0:0:0:
78,164,46109,6,0,L|2:150,1,53.9999983520508,2|0,1:2|0:0,0:0:0:0:
175,97,46309,2,0,L|99:83,1,53.9999983520508,2|0,1:2|0:0,0:0:0:0:
276,70,46509,2,0,L|329:79,1,53.9999983520508,2|0,1:2|0:0,0:0:0:0:
463,179,46709,1,8,0:0:0:0:
463,179,46809,1,8,0:0:0:0:
463,179,46909,5,6,3:2:0:0:
489,144,47009,1,0,3:0:0:0:
486,100,47109,2,0,P|470:77|426:56,1,53.9999983520508,0|0,3:0|0:0,0:0:0:0:
296,226,47309,5,10,0:0:0:0:
313,266,47409,1,0,3:0:0:0:
352,285,47509,2,0,P|379:282|419:255,1,53.9999983520508,2|0,3:2|0:0,0:0:0:0:
225,176,47709,6,0,L|209:263,1,67.5000025749208,6|0,3:2|0:0,0:0:0:0:
122,220,48009,2,0,L|106:307,1,67.5000025749208,6|0,3:2|0:0,0:0:0:0:
19,264,48309,2,0,L|3:351,1,67.5000025749208,6|0,3:2|0:0,0:0:0:0:
83,373,48709,6,0,P|109:375|135:368,1,53.9999983520508,0|0,1:0|0:0,0:0:0:0:
244,331,48909,2,0,L|250:390,1,53.9999983520508,0|0,1:0|0:0,0:0:0:0:
368,340,49109,2,0,P|393:347|420:344,1,53.9999983520508,0|0,1:0|0:0,0:0:0:0:
302,177,49309,5,0,3:0:0:0:
250,193,49409,1,0,1:0:0:0:
250,247,49509,1,0,3:0:0:0:
302,264,49609,1,0,3:0:0:0:
333,220,49709,1,0,1:0:0:0:
436,204,49909,1,0,3:0:0:0:
468,222,50009,1,0,3:0:0:0:
499,260,50109,5,0,1:0:0:0:
492,203,50209,1,0,3:0:0:0:
485,146,50309,2,0,L|470:60,1,62.9999980773926,0|0,3:0|0:0,0:0:0:0:
278,19,50509,5,8,0:0:0:0:
237,78,50609,1,8,0:0:0:0:
260,145,50709,2,0,P|301:161|342:153,1,72,0|0,3:0|0:0,0:0:0:0:
167,138,50909,6,0,L|84:150,1,67.5000025749208,6|0,3:2|0:0,0:0:0:0:
121,231,51209,2,0,L|38:243,1,67.5000025749208,6|0,3:2|0:0,0:0:0:0:
75,324,51509,2,0,L|-8:336,1,67.5,6|0,3:2|0:0,0:0:0:0:
175,295,51909,6,0,P|198:308|224:311,1,53.9999983520508
385,279,52109,2,0,P|408:265|425:244,1,53.9999983520508,0|0,1:0|0:0,0:0:0:0:
310,322,52309,2,0,L|322:384,1,53.9999983520508,0|0,1:0|0:0,0:0:0:0:
278,152,52509,5,0,1:0:0:0:
327,177,52609,1,0,3:0:0:0:
319,231,52709,1,0,3:0:0:0:
266,240,52809,1,0,1:0:0:0:
241,191,52909,1,0,1:0:0:0:
107,196,53109,1,8,0:0:0:0:
75,214,53209,1,8,0:0:0:0:
44,252,53309,5,0,3:0:0:0:
51,195,53409,1,0,3:0:0:0:
58,138,53509,2,0,L|73:52,1,62.9999980773926,0|0,3:0|0:0,0:0:0:0:
204,34,53709,5,8,0:0:0:0:
274,17,53809,1,0,3:0:0:0:
328,64,53909,2,0,P|333:108|306:156,1,72,0|0,3:0|0:0,0:0:0:0:
203,201,54109,6,0,L|274:190,1,67.5000025749208,6|0,3:2|1:0,0:0:0:0:
320,254,54409,2,0,L|391:243,1,67.5000025749208,6|0,3:2|0:0,0:0:0:0:
437,307,54709,2,0,L|508:296,1,67.5000025749208,6|8,3:2|0:0,0:0:0:0:
378,362,55109,5,0,0:0:0:0:
231,340,55309,1,8,0:0:0:0:
231,340,55409,1,0,0:0:0:0:
231,340,55509,1,2,0:0:0:0:
46,355,55709,5,0,3:0:0:0:
55,309,55809,1,0,1:0:0:0:
64,264,55909,1,0,1:0:0:0:
74,219,56009,1,8,0:0:0:0:
85,174,56109,1,8,0:0:0:0:
278,234,56309,5,6,3:2:0:0:
256,192,56509,12,0,57509,0:0:0:0:
198,199,57709,6,0,L|194:228,1,27,2|0,0:0|0:0,0:0:0:0:
258,150,58109,6,0,P|185:107|97:127,1,144,6|2,3:2|0:0,0:0:0:0:
264,269,58409,1,0,0:0:0:0:
331,245,58509,2,0,P|374:172|354:84,1,144,8|0,0:0|0:0,0:0:0:0:
309,10,58809,1,0,0:0:0:0:
254,57,58909,1,6,3:2:0:0:
254,57,59009,6,0,B|319:55|319:55|326:47|326:47|395:43,1,144,0|6,0:0|3:2,0:0:0:0:
456,118,59309,2,0,B|480:90|480:90|487:55,1,72,8|0,0:0|0:0,0:0:0:0:
293,157,59509,6,0,P|228:150|172:94,1,135,6|0,0:0|0:0,0:0:0:0:
129,33,59909,2,0,P|97:66|92:109,1,72
15,141,60109,2,0,P|48:173|91:178,1,72,10|0,0:0|0:0,0:0:0:0:
126,250,60309,2,0,P|158:217|163:174,1,72,2|0,0:0|0:0,0:0:0:0:
21,306,60509,5,2,3:2:0:0:
21,306,60609,2,0,B|88:311|88:311|92:316|92:316|164:322,1,144,8|0,0:0|0:0,0:0:0:0:
258,304,60909,2,0,P|258:342|243:378,1,72,14|0,0:0|0:0,0:0:0:0:
337,239,61109,2,0,P|337:201|352:165,1,72
490,301,61309,6,0,P|419:301|347:346,1,144,6|2,3:2|0:0,0:0:0:0:
356,335,61609,1,2,0:0:0:0:
256,227,61809,1,2,0:0:0:0:
126,250,62009,1,2,0:0:0:0:
126,250,62109,1,6,3:2:0:0:
275,156,62309,2,0,P|258:88|198:52,1,144,2|10,0:0|0:0,0:0:0:0:
86,70,62709,1,0,0:0:0:0:
30,188,62909,6,0,B|104:201|104:201|108:205|108:205|198:221,1,161.999995056153,6|2,3:2|0:0,0:0:0:0:
324,219,63309,2,0,B|403:205|403:205|407:201|407:201|482:188,1,161.999995056153,14|2,0:0|0:0,0:0:0:0:
326,10,63709,1,6,3:2:0:0:
272,27,63809,1,0,0:0:0:0:
272,84,63909,1,0,0:0:0:0:
326,102,64009,1,0,0:0:0:0:
359,56,64109,1,6,3:2:0:0:
191,152,64509,6,0,P|190:222|232:279,1,144,6|2,3:2|0:0,0:0:0:0:
307,150,64809,1,0,0:0:0:0:
272,84,64909,2,0,P|210:48|140:56,1,144,10|0,0:0|0:0,0:0:0:0:
27,169,65209,1,0,0:0:0:0:
0,242,65309,1,6,3:2:0:0:
0,242,65409,6,0,B|62:259|62:259|71:253|71:253|138:269,1,144,0|6,0:0|0:0,0:0:0:0:
205,342,65709,2,0,B|229:314|229:314|232:279,1,72,8|0,0:0|0:0,0:0:0:0:
192,195,65909,6,0,P|262:202|334:172,1,135,6|0,0:0|0:0,0:0:0:0:
318,34,66309,2,0,P|301:65|301:101,1,72,2|0,0:0|0:0,0:0:0:0:
454,101,66509,2,0,P|422:84|386:84,1,72,10|0,0:0|0:0,0:0:0:0:
387,232,66709,2,0,P|403:200|403:164,1,72,2|0,0:0|0:0,0:0:0:0:
305,300,66909,5,2,3:2:0:0:
305,300,67009,2,0,B|372:305|372:305|376:310|376:310|448:316,1,144,8|0,0:0|0:0,0:0:0:0:
208,313,67309,2,0,B|203:389,1,72,10|0,0:0|0:0,0:0:0:0:
142,247,67509,2,0,B|146:175,1,72
1,332,67709,6,0,P|91:346|149:301,1,144,6|2,3:2|0:0,0:0:0:0:
63,129,68109,2,0,B|37:191|37:191|59:264,1,144,10|0,0:0|0:0,0:0:0:0:
221,175,68409,1,0,0:0:0:0:
221,175,68509,2,0,B|200:106,1,72,2|0,3:2|0:0,0:0:0:0:
127,44,68709,2,0,P|236:60|303:21,1,144,2|10,0:0|0:0,0:0:0:0:
264,49,69009,1,0,0:0:0:0:
406,20,69209,1,0,0:0:0:0:
406,20,69309,1,2,3:2:0:0:
486,139,69509,1,8,0:0:0:0:
444,235,69709,5,6,3:2:0:0:
404,256,69809,1,0,0:0:0:0:
360,256,69909,1,8,0:0:0:0:
320,235,70009,1,8,0:0:0:0:
268,167,70109,5,6,3:2:0:0:
214,135,70209,1,0,0:0:0:0:
152,140,70309,1,6,3:2:0:0:
104,179,70409,1,0,0:0:0:0:
69,253,70509,6,0,L|71:271,6,11.25,6|0|0|0|8|0|8,3:2|0:0|0:0|0:0|0:0|0:0|0:0,0:0:0:0:
145,310,70909,6,0,P|160:245|130:186,1,135,6|0,3:2|0:0,0:0:0:0:
37,147,71109,2,0,L|30:183,1,33.75,2|0,0:0|0:0,0:0:0:0:
114,66,71309,6,0,P|162:111|228:115,1,135,14|0,0:0|0:0,0:0:0:0:
326,70,71509,2,0,L|331:107,1,33.75,2|0,0:0|0:0,0:0:0:0:
248,241,71709,6,0,P|296:195|362:191,1,135,6|0,3:2|0:0,0:0:0:0:
462,214,71909,2,0,L|467:175,1,33.75,2|0,0:0|0:0,0:0:0:0:
399,287,72109,6,0,P|350:332|284:336,1,135,14|0,0:0|0:0,0:0:0:0:
185,314,72309,2,0,L|180:353,1,33.75,2|0,0:0|0:0,0:0:0:0:
79,327,72509,6,0,P|55:264|76:201,1,135,6|0,3:2|0:0,0:0:0:0:
173,164,72709,2,0,L|180:201,1,33.75,2|0,0:0|0:0,0:0:0:0:
283,198,72909,6,0,P|306:135|285:72,1,135,14|0,0:0|0:0,0:0:0:0:
189,35,73109,2,0,L|182:72,1,33.75,2|0,0:0|0:0,0:0:0:0:
235,128,73309,5,6,3:2:0:0:
235,128,73409,2,0,B|303:128|303:128|307:132|307:132|391:132,1,144,8|0,0:0|0:0,0:0:0:0:
468,136,73709,2,0,L|468:212,1,67.5,14|0,0:0|0:0,0:0:0:0:
416,292,74109,6,0,P|351:305|294:271,1,135,6|0,3:2|0:0,0:0:0:0:
201,234,74309,2,0,L|194:268,1,33.75,2|0,0:0|0:0,0:0:0:0:
113,148,74509,6,0,P|177:161|234:127,1,135,14|0,0:0|0:0,0:0:0:0:
333,95,74709,2,0,L|340:129,1,33.75,2|0,0:0|0:0,0:0:0:0:
256,27,74909,6,0,P|191:13|134:47,1,135,6|0,3:2|0:0,0:0:0:0:
36,80,75109,2,0,L|29:46,1,33.75,2|0,0:0|0:0,0:0:0:0:
22,178,75309,6,0,P|2:240|34:298,1,135,14|0,0:0|0:0,0:0:0:0:
123,349,75509,2,0,L|129:312,1,33.75,2|0,0:0|0:0,0:0:0:0:
230,261,75709,6,0,B|160:248|160:248|157:244|157:244|90:232,2,144,6|2|14,3:2|0:0|0:0,0:0:0:0:
329,335,76309,1,0,0:0:0:0:
329,335,76409,1,0,0:0:0:0:
396,300,76509,1,6,3:2:0:0:
396,300,76609,6,0,B|384:234|384:234|386:231|386:231|373:158,1,144,8|0,0:0|0:0,0:0:0:0:
236,66,76909,5,10,0:0:0:0:
269,93,77009,1,0,0:0:0:0:
325,105,77109,1,8,0:0:0:0:
389,73,77209,1,8,0:0:0:0:
422,0,77309,6,0,B|361:5|361:5|358:8|358:8|289:14,1,135,6|0,3:2|0:0,0:0:0:0:
164,18,77509,2,0,B|167:61|167:61,1,33.75,2|0,0:0|0:0,0:0:0:0:
78,111,77709,6,0,B|138:116|138:116|141:119|141:119|210:125,1,135,14|0,0:0|0:0,0:0:0:0:
336,129,77909,2,0,B|332:172|332:172,1,33.75,2|0,0:0|0:0,0:0:0:0:
422,222,78109,6,0,B|361:227|361:227|358:230|358:230|289:236,1,135,6|0,3:2|0:0,0:0:0:0:
164,240,78309,2,0,B|167:283|167:283,1,33.75,2|0,0:0|0:0,0:0:0:0:
78,333,78509,6,0,B|138:338|138:338|141:341|141:341|210:347,1,135,14|0,0:0|0:0,0:0:0:0:
336,351,78709,2,0,B|332:394|332:394,1,33.75,2|0,0:0|0:0,0:0:0:0:
434,290,78909,6,0,B|439:230|439:230|442:227|442:227|448:158,1,135,6|0,3:2|0:0,0:0:0:0:
395,64,79109,2,0,B|404:64|361:60,1,33.75,2|0,0:0|0:0,0:0:0:0:
249,51,79309,6,0,B|244:111|244:111|241:114|241:114|235:183,1,135,14|0,0:0|0:0,0:0:0:0:
288,277,79509,2,0,B|278:276|321:280,1,33.75,2|0,0:0|0:0,0:0:0:0:
369,224,79709,5,6,3:2:0:0:
178,305,79909,1,10,0:0:0:0:
58,257,80109,1,6,3:2:0:0:
48,234,80209,1,0,0:0:0:0:
51,209,80309,1,2,3:2:0:0:
93,51,80509,5,6,3:2:0:0:
125,35,80609,1,0,1:0:0:0:
161,35,80709,1,2,1:2:0:0:
193,50,80809,1,0,1:0:0:0:
253,96,80909,5,2,3:2:0:0:
295,107,81009,1,0,1:0:0:0:
339,100,81109,1,2,1:2:0:0:
376,74,81209,1,0,1:0:0:0:
314,30,81309,5,10,0:2:0:0:
300,81,81409,1,8,0:0:0:0:
323,128,81509,1,8,0:0:0:0:
371,150,81609,1,8,0:0:0:0:
438,182,81709,5,10,0:2:0:0:
467,245,81809,1,8,0:0:0:0:
427,302,81909,1,8,0:0:0:0:
357,297,82009,1,8,0:0:0:0:
326,232,82109,6,0,B|291:209|239:225|239:225|204:273|150:266|126:256,1,215.999993408203,6|0,3:2|0:0,0:0:0:0:
159,173,82709,1,0,0:0:0:0:
60,323,82909,2,0,P|32:277|37:224,1,107.999996704102,2|0,0:0|0:0,0:0:0:0:
224,283,83309,2,0,P|198:329|150:351,1,107.999996704102
18,31,83709,5,6,3:2:0:0:
116,113,83909,1,2,3:2:0:0:
223,42,84109,1,10,0:0:0:0:
249,46,84209,1,2,0:0:0:0:
275,50,84309,2,0,L|339:61,1,53.9999983520508,2|8,0:0|0:0,0:0:0:0:
405,72,84509,6,0,P|394:106|365:125,1,72,2|0,3:2|0:0,0:0:0:0:
406,202,84809,2,0,P|353:209|304:188,1,107.999996704102,2|0,3:2|0:0,0:0:0:0:
241,250,85109,2,0,P|216:203|222:150,1,108,10|8,0:0|0:0,0:0:0:0:
285,114,85509,5,2,3:2:0:0:
140,172,85709,1,8,0:0:0:0:
43,134,85909,1,0,1:0:0:0:
50,263,86109,6,0,P|102:270|149:245,1,107.999996704102,6|0,3:2|0:0,0:0:0:0:
236,186,86409,2,0,P|250:255|218:318,1,144,6|0,3:2|0:0,0:0:0:0:
317,359,86709,2,0,P|360:339|402:340,1,90,6|0,3:2|0:0,0:0:0:0:
485,325,86909,6,0,L|478:281,2,45.0000017166138,6|0|0,3:2|0:0|0:0,0:0:0:0:
392,252,87109,2,0,L|384:207,2,45.0000017166138
474,194,87309,2,0,L|466:149,2,45.0000017166138,8|0|0,0:0|0:0|0:0,0:0:0:0:
367,130,87509,2,0,L|359:85,2,45.0000017166138,0|0|0,3:0|0:0|0:0,0:0:0:0:
303,189,87709,6,0,P|269:200|233:194,1,72,0|0,3:0|0:0,0:0:0:0:
149,149,88009,2,0,P|135:200|154:250,1,107.999996704102,8|0,0:0|0:0,0:0:0:0:
236,102,88309,2,0,P|197:64|139:56,1,108,0|8,3:0|0:0,0:0:0:0:
77,84,88709,5,0,3:0:0:0:
240,248,88909,2,0,L|231:178,2,53.9999983520508,10|0|0,0:0|0:0|0:0,0:0:0:0:
181,322,89209,1,8,0:0:0:0:
199,332,89309,5,8,0:0:0:0:
251,319,89409,1,0,0:0:0:0:
303,306,89509,1,8,0:0:0:0:
356,294,89609,1,8,0:0:0:0:
421,343,89709,1,8,0:0:0:0:
496,103,89909,5,6,3:2:0:0:
149,149,90309,1,2,0:0:0:0:
149,149,90509,1,2,0:0:0:0:
295,162,90886,6,0,L|283:223,1,53.9999983520508,6|0,3:2|0:0,0:0:0:0:
324,187,91190,6,0,L|312:248,1,53.9999983520508,6|0,3:2|0:0,0:0:0:0:
354,211,91494,6,0,L|342:272,1,53.9999983520508,6|0,3:2|0:0,0:0:0:0:
455,289,91899,5,0,3:0:0:0:
455,289,92000,1,0,0:0:0:0:
397,338,92102,1,8,0:0:0:0:
397,338,92204,1,0,3:0:0:0:
397,338,92304,1,0,3:0:0:0:
191,313,92507,6,0,L|130:333,1,53.9999983520508,14|0,0:0|0:0,0:0:0:0:
158,290,92807,6,0,L|97:310,1,53.9999983520508,10|0,0:0|0:0,0:0:0:0:
126,268,93107,6,0,L|65:288,1,53.9999983520508,10|0,0:0|0:0,0:0:0:0:
18,226,93307,5,6,3:2:0:0:
17,192,93407,1,0,1:0:0:0:
32,162,93507,1,0,1:0:0:0:
59,142,93607,1,0,1:0:0:0:
134,146,93707,5,2,1:2:0:0:
172,123,93807,1,0,1:0:0:0:
191,83,93907,1,0,1:0:0:0:
184,39,94007,1,0,1:0:0:0:
117,73,94107,5,2,1:2:0:0:
151,102,94207,1,0,1:0:0:0:
202,118,94307,1,0,1:0:0:0:
263,103,94407,1,0,1:0:0:0:
327,78,94507,1,2,1:2:0:0:
403,81,94607,1,0,1:0:0:0:
473,121,94707,1,0,1:0:0:0:
491,199,94807,1,0,1:0:0:0:
466,274,94907,6,0,L|447:298,3,22.5,0|0|0|0,1:0|0:0|0:0|0:0,0:0:0:0:
350,298,95107,2,0,L|383:305,2,30,0|0|0,1:0|3:0|3:0,0:0:0:0:
439,384,95307,2,0,L|430:363,2,22.5,8|0|0,0:0|0:0|3:0,0:0:0:0:
360,384,95507,1,0,3:0:0:0:
360,384,95607,1,0,0:0:0:0:
289,342,95707,5,6,3:2:0:0:
3,225,96007,1,6,3:2:0:0:
217,36,96307,1,6,3:2:0:0:
324,132,96498,6,0,B|371:128|371:128|418:96,2,90.0000034332277,8|8|8,0:0|0:0|0:0,0:0:0:0:
255,106,96898,6,0,P|249:189|296:243,1,135,8|0,0:0|0:0,0:0:0:0:
369,291,97198,2,0,B|300:273|313:323|233:292,1,135,8|0,0:0|0:0,0:0:0:0:
146,324,97485,2,0,P|166:261|144:214,1,90,8|0,0:0|0:0,0:0:0:0:
101,192,97735,2,0,B|114:155|114:155|118:153|118:153|138:100,1,90,8|0,0:0|0:0,0:0:0:0:
192,61,97999,1,0,0:0:0:0:
228,57,98087,5,6,3:2:0:0:
104,148,104517,5,6,0:0:0:0:
215,219,104717,1,2,0:0:0:0:
234,213,104817,1,0,0:0:0:0:
243,195,104917,1,0,0:0:0:0:
263,189,105017,1,2,0:0:0:0:
277,198,105117,1,2,0:0:0:0:
296,193,105217,1,0,0:0:0:0:
329,178,105317,6,0,P|323:210|330:280,2,101.250003862381,2|2|2,0:0|0:0|0:0,0:0:0:0:
485,245,106117,1,2,0:0:0:0:
391,343,106317,1,2,0:0:0:0:
383,335,106417,2,0,P|321:330|266:359,1,101.250003862381
157,312,106917,6,0,L|177:208,2,101.250003862381,2|2|2,0:0|0:0|0:0,0:0:0:0:
87,66,107717,1,2,0:0:0:0:
217,150,107917,1,2,0:0:0:0:
217,150,108017,2,0,L|276:159,1,33.7500012874604
325,77,108217,1,2,0:0:0:0:
325,77,108317,2,0,L|316:136,1,33.7500012874604,0|2,0:0|0:0,0:0:0:0:
373,199,108517,1,2,0:0:0:0:
373,199,108617,2,0,L|432:208,1,33.7500012874604
290,284,108817,1,0,0:0:0:0:
290,284,108917,2,0,L|299:225,1,33.7500012874604,2|0,0:0|0:0,0:0:0:0:
485,232,109117,2,0,L|479:265,1,33.7500012874604
433,334,109317,6,0,P|371:338|305:388,1,107.999996704102,6|2,3:2|3:2,0:0:0:0:
180,359,109717,2,0,P|132:335|79:334,1,107.999996704102,2|0,3:2|0:0,0:0:0:0:
41,177,110117,5,10,0:0:0:0:
131,220,110250,5,8,0:0:0:0:
215,165,110383,5,8,0:0:0:0:
266,221,110517,5,2,3:2:0:0:
295,180,110650,5,0,3:0:0:0:
285,130,110783,5,0,3:0:0:0:
215,82,110917,6,0,L|309:95,1,62.9999980773926,6|0,3:2|0:0,0:0:0:0:
396,154,111117,2,0,L|490:167,1,62.9999980773926,2|0,1:2|0:0,0:0:0:0:
334,248,111317,2,0,P|239:242|172:247,1,125.999996154785,2|0,1:2|1:0,0:0:0:0:
89,330,111617,1,0,0:0:0:0:
159,364,111717,6,0,P|166:328|163:262,1,62.9999980773926,2|0,1:2|0:0,0:0:0:0:
20,202,111917,2,0,P|13:238|16:304,1,62.9999980773926,2|0,1:2|0:0,0:0:0:0:
156,189,112117,2,0,P|152:126|144:63,1,125.999996154785,2|0,1:2|1:0,0:0:0:0:
64,27,112417,1,0,1:0:0:0:
13,97,112517,6,0,L|84:106,3,62.9999980773926,6|0|0|0,3:2|1:0|1:0|1:0,0:0:0:0:
220,90,112917,2,0,L|299:79,3,72,8|8|8|8,0:0|0:0|0:0|0:0,0:0:0:0:
431,44,113317,6,0,P|437:104|442:161,1,90,6|8,3:2|0:0,0:0:0:0:
339,140,113617,2,0,P|345:200|350:257,1,90,6|0,3:2|0:0,0:0:0:0:
247,236,113917,2,0,P|253:296|258:353,1,89.0999997280884,6|0,3:2|0:0,0:0:0:0:
346,316,114317,6,0,P|390:315|433:321,1,62.9999980773926
171,353,114517,2,0,P|127:354|84:348,1,62.9999980773926,0|0,1:0|0:0,0:0:0:0:
129,232,114717,1,0,1:0:0:0:
132,250,114817,1,0,0:0:0:0:
135,268,114917,5,0,3:0:0:0:
182,229,115017,1,0,1:0:0:0:
185,168,115117,1,0,1:0:0:0:
142,125,115217,1,0,1:0:0:0:
90,101,115317,5,0,3:0:0:0:
131,117,115417,1,0,0:0:0:0:
175,111,115517,1,0,1:0:0:0:
211,84,115617,1,0,1:0:0:0:
230,43,115717,6,0,L|280:30,3,45,8|8|8|8,0:0|0:0|0:0|0:0,0:0:0:0:
397,102,116117,2,0,L|353:90,3,45,0|0|0|0,3:0|3:0|3:0|3:0,0:0:0:0:
258,152,116517,6,0,L|266:245,1,90,6|0,3:2|0:0,0:0:0:0:
374,198,116817,2,0,L|382:291,1,90,6|0,3:2|0:0,0:0:0:0:
490,244,117117,2,0,L|498:337,1,89.0999997280884,6|0,3:2|0:0,0:0:0:0:
421,377,117517,6,0,P|381:378|348:374,1,62.9999980773926,0|0,1:0|0:0,0:0:0:0:
215,327,117717,2,0,P|183:324|152:325,1,62.9999980773926,2|0,3:2|1:0,0:0:0:0:
310,301,117917,2,0,P|312:269|311:238,1,62.9999980773926,0|0,1:0|1:0,0:0:0:0:
166,167,118117,5,2,3:2:0:0:
224,191,118217,1,0,1:0:0:0:
282,167,118317,1,0,1:0:0:0:
306,108,118417,1,0,1:0:0:0:
238,123,118517,5,2,3:2:0:0:
283,179,118617,1,8,0:0:0:0:
357,186,118717,1,8,0:0:0:0:
415,138,118817,1,8,0:0:0:0:
488,113,118917,5,2,3:2:0:0:
490,125,119017,1,0,3:0:0:0:
491,137,119117,2,0,L|494:202,1,62.9999980773926,2|0,3:2|3:0,0:0:0:0:
402,287,119317,1,10,0:0:0:0:
400,299,119417,1,0,3:0:0:0:
399,311,119517,2,0,L|396:376,1,62.9999980773926,2|0,3:2|3:0,0:0:0:0:
260,315,119717,6,0,L|164:337,1,90,6|0,3:2|0:0,0:0:0:0:
174,239,120017,2,0,L|78:261,1,90,6|0,3:2|0:0,0:0:0:0:
88,163,120317,2,0,L|-8:185,1,89.0999997280884,6|0,3:2|0:0,0:0:0:0:
224,176,120717,6,0,P|248:148|264:105,1,62.9999980773926,2|0,0:0|0:0,0:0:0:0:
132,32,120917,2,0,P|144:66|173:102,1,62.9999980773926,10|0,0:0|0:0,0:0:0:0:
299,36,121117,2,0,P|262:29|217:36,1,62.9999980773926,2|0,3:2|0:0,0:0:0:0:
379,166,121317,2,0,P|385:129|378:84,1,62.9999980773926,2|0,3:2|1:0,0:0:0:0:
331,264,121517,2,0,P|367:270|412:263,1,62.9999980773926,2|0,3:2|3:0,0:0:0:0:
184,253,121717,2,0,P|174:311|185:389,1,125.999996154785,10|6,0:0|3:2,0:0:0:0:
306,372,122017,1,0,0:0:0:0:
246,310,122117,5,0,0:0:0:0:
252,285,122217,1,8,0:0:0:0:
258,260,122317,1,8,0:0:0:0:
264,235,122417,1,8,0:0:0:0:
306,170,122517,5,8,0:0:0:0:
300,145,122617,1,0,3:0:0:0:
294,120,122717,1,0,3:0:0:0:
288,95,122817,1,0,3:0:0:0:
234,38,122917,5,14,0:0:0:0:
444,289,123217,1,14,0:0:0:0:
122,346,123517,1,14,0:0:0:0:
286,218,123717,6,0,P|360:230|435:193,1,144,6|2,3:2|0:0,0:0:0:0:
296,104,124017,1,0,0:0:0:0:
224,106,124117,2,0,P|176:164|171:247,1,144,10|0,0:0|0:0,0:0:0:0:
258,366,124417,1,0,0:0:0:0:
218,290,124517,1,6,3:2:0:0:
218,290,124617,6,0,B|285:295|285:295|289:300|289:300|365:306,1,144,0|6,0:0|0:0,0:0:0:0:
449,347,124917,2,0,P|459:306|445:258,1,72,8|0,0:0|0:0,0:0:0:0:
317,213,125117,6,0,P|390:216|449:159,1,135,6|0,0:0|0:0,0:0:0:0:
366,67,125517,2,0,P|357:106|373:155,1,72,2|0,0:0|0:0,0:0:0:0:
512,106,125717,2,0,P|473:97|424:113,1,72,10|0,0:0|0:0,0:0:0:0:
282,143,125917,2,0,P|246:149|212:140,1,72,2|0,0:0|0:0,0:0:0:0:
83,40,126117,1,2,3:2:0:0:
83,40,126217,6,0,P|90:128|91:209,1,144,8|0,0:0|0:0,0:0:0:0:
183,281,126517,2,0,P|187:242|198:193,1,72,6|0,3:2|0:0,0:0:0:0:
21,301,126717,2,0,P|27:336|31:372,1,72
206,350,126917,6,0,B|258:325|258:325|345:348,1,144,6|2,3:2|0:0,0:0:0:0:
341,347,127217,1,2,0:0:0:0:
484,273,127417,1,2,0:0:0:0:
337,143,127617,1,2,0:0:0:0:
337,143,127717,2,0,P|330:201|373:277,1,144,6|0,3:2|0:0,0:0:0:0:
483,142,128117,2,0,P|490:84|447:8,1,144,10|0,0:0|0:0,0:0:0:0:
207,48,128517,6,0,P|168:44|115:32,1,72,6|0,3:2|0:0,0:0:0:0:
253,176,128717,2,0,P|257:137|269:84,1,72,2|0,0:0|0:0,0:0:0:0:
125,222,128917,2,0,P|163:226|217:238,1,72,14|0,0:0|0:0,0:0:0:0:
79,94,129117,2,0,P|75:132|63:185,1,72,2|0,0:0|0:0,0:0:0:0:
2,286,129317,5,6,3:2:0:0:
2,286,129417,2,0,B|39:303|75:283|75:283|112:305|166:293,1,144,8|0,0:0|0:0,0:0:0:0:
218,356,129717,2,0,P|278:314|376:323,1,144,12|0,0:0|0:0,0:0:0:0:
381,154,130117,6,0,P|318:185|250:166,1,144,6|0,3:2|0:0,0:0:0:0:
355,71,130417,1,0,0:0:0:0:
422,47,130517,2,0,P|480:85|497:153,1,144,10|0,0:0|0:0,0:0:0:0:
450,209,130817,1,0,0:0:0:0:
392,252,130917,1,6,3:2:0:0:
392,252,131017,6,0,B|325:257|325:257|321:262|321:262|250:267,1,144,0|6,0:0|0:0,0:0:0:0:
157,232,131317,2,0,P|150:275|161:310,1,72,8|0,0:0|0:0,0:0:0:0:
230,174,131517,6,0,P|173:142|96:161,1,135,6|0,0:0|0:0,0:0:0:0:
310,185,131917,2,0,P|332:143|327:89,1,72,2|0,0:0|0:0,0:0:0:0:
227,16,132117,2,0,P|252:56|301:78,1,72,8|0,0:0|0:0,0:0:0:0:
415,34,132317,2,0,P|367:35|323:67,1,72,2|0,0:0|0:0,0:0:0:0:
482,153,132517,5,2,3:2:0:0:
482,153,132617,2,0,L|516:-2,1,144,8|0,0:0|0:0,0:0:0:0:
406,124,132917,2,0,P|409:182|436:220,1,72,10|0,0:0|0:0,0:0:0:0:
483,230,133117,2,0,P|480:288|453:326,1,72,2|0,0:0|0:0,0:0:0:0:
319,352,133317,6,0,P|392:347|470:398,1,144,2|2,3:2|0:0,0:0:0:0:
245,224,133717,2,0,B|216:294|216:294|231:361,1,144,10|0,0:0|0:0,0:0:0:0:
346,263,134017,1,0,0:0:0:0:
346,263,134117,2,0,P|334:219|325:156,1,72,2|0,3:2|0:0,0:0:0:0:
158,152,134317,2,0,P|158:226|98:290,1,144,2|10,0:0|0:0,0:0:0:0:
116,279,134617,1,0,0:0:0:0:
39,180,134817,1,0,0:0:0:0:
39,180,134917,1,6,3:2:0:0:
118,62,135117,1,8,0:0:0:0:
252,97,135317,5,6,3:2:0:0:
294,111,135417,1,0,0:0:0:0:
338,106,135517,1,10,0:0:0:0:
377,84,135617,1,0,0:0:0:0:
452,111,135717,5,6,3:2:0:0:
486,162,135817,1,0,0:0:0:0:
478,223,135917,1,8,0:0:0:0:
431,264,136017,1,8,0:0:0:0:
353,261,136117,6,0,L|355:277,6,11.25,6|0|8|0|8|0|8,3:2|0:0|0:0|0:0|0:0|0:0|0:0,0:0:0:0:
281,226,136517,6,0,P|225:189|158:191,1,135,6|0,3:2|0:0,0:0:0:0:
65,228,136717,2,0,L|57:195,1,33.75,2|0,0:0|0:0,0:0:0:0:
111,68,136917,6,0,P|166:104|233:102,1,135,14|0,0:0|0:0,0:0:0:0:
327,57,137117,2,0,L|336:93,1,33.75,2|0,0:0|0:0,0:0:0:0:
446,176,137317,6,0,P|505:123|510:56,1,135,6|0,3:2|0:0,0:0:0:0:
410,48,137517,2,0,L|419:84,1,33.75,2|0,0:0|0:0,0:0:0:0:
337,168,137717,6,0,P|353:245|408:283,1,135,14|0,0:0|0:0,0:0:0:0:
499,284,137917,2,0,L|490:320,1,33.75,2|0,0:0|0:0,0:0:0:0:
349,341,138117,6,0,P|273:316|213:345,1,135,6|0,3:2|0:0,3:0:0:0:
120,344,138317,2,0,L|129:380,1,33.75,2|0,0:0|0:0,0:0:0:0:
194,262,138517,6,0,P|253:208|258:142,1,135,14|0,0:0|0:0,0:0:0:0:
139,127,138717,2,0,L|144:163,1,33.75,2|0,0:0|0:0,0:0:0:0:
206,76,138917,5,14,0:0:0:0:
206,76,139017,2,0,B|139:81|139:81|135:86|135:86|64:91,1,144,8|0,0:0|0:0,0:0:0:0:
1,165,139317,2,0,L|11:241,1,67.5,14|0,0:0|0:0,0:0:0:0:
117,272,139717,6,0,L|268:258,1,135,6|0,3:2|0:0,0:0:0:0:
323,322,139917,2,0,L|289:324,1,33.75,2|0,0:0|0:0,0:0:0:0:
395,250,140117,6,0,L|408:401,1,135,14|0,0:0|0:0,0:0:0:0:
325,214,140317,2,0,L|322:180,1,33.75,2|0,0:0|0:0,0:0:0:0:
405,99,140517,6,0,L|253:112,1,135,6|0,3:2|0:0,0:0:0:0:
191,175,140717,2,0,L|224:172,1,33.75,2|0,0:0|0:0,0:0:0:0:
105,137,140917,6,0,L|118:288,1,135,14|0,0:0|0:0,0:0:0:0:
176,92,141117,2,0,L|173:58,1,33.75,2|0,0:0|0:0,0:0:0:0:
104,20,141317,6,0,P|177:37|260:12,2,144,6|2|14,3:2|0:0|0:0,0:0:0:0:
32,110,141917,1,0,0:0:0:0:
32,110,142017,1,0,0:0:0:0:
105,137,142117,1,12,0:0:0:0:
105,137,142217,2,0,B|118:210|118:210|116:213|116:213|128:279,1,144,8|0,0:0|0:0,0:0:0:0:
103,353,142517,2,0,P|138:359|171:347,1,72,8|0,0:0|0:0,0:0:0:0:
215,264,142717,2,0,L|208:216,2,36,0|0|0,1:0|1:0|1:0,0:0:0:0:
279,318,142917,6,0,P|337:321|407:271,1,135,6|0,3:2|0:0,0:0:0:0:
481,226,143117,2,0,L|495:266,1,33.75,2|0,0:0|0:0,0:0:0:0:
314,233,143317,6,0,P|256:236|186:186,1,135,14|0,0:0|0:0,0:0:0:0:
112,141,143517,2,0,L|98:181,1,33.75,2|0,0:0|0:0,0:0:0:0:
273,145,143717,6,0,P|331:148|401:98,1,135,6|0,3:2|0:0,0:0:0:0:
475,53,143917,2,0,L|489:93,1,33.75,2|0,0:0|0:0,0:0:0:0:
299,64,144117,6,0,P|241:67|171:17,1,135,14|0,0:0|0:0,0:0:0:0:
86,21,144317,2,0,L|72:61,1,33.75,2|0,0:0|0:0,0:0:0:0:
17,141,144517,6,0,P|19:207|69:255,1,135,6|0,3:2|0:0,0:0:0:0:
163,264,144717,2,0,L|150:306,1,33.75,2|0,0:0|0:0,0:0:0:0:
247,227,144917,6,0,P|308:204|370:228,1,135,14|0,0:0|0:0,0:0:0:0:
456,277,145117,2,0,L|465:237,1,33.75,2|0,0:0|0:0,0:0:0:0:
430,166,145317,5,14,0:0:0:0:
430,166,145417,1,8,0:0:0:0:
430,166,145517,1,0,3:0:0:0:
458,54,145717,1,10,0:0:0:0:
337,25,145917,2,0,P|297:23|264:27,1,72,2|0,3:2|0:0,0:0:0:0:
164,26,146117,5,6,3:2:0:0:
165,70,146217,1,0,1:0:0:0:
190,106,146317,1,2,1:2:0:0:
232,123,146417,1,0,1:0:0:0:
306,101,146517,5,2,3:2:0:0:
314,153,146617,1,0,1:0:0:0:
288,199,146717,1,2,1:2:0:0:
239,218,146817,1,0,1:0:0:0:
167,215,146917,5,10,0:2:0:0:
240,198,147017,1,8,0:0:0:0:
306,220,147117,1,8,0:0:0:0:
352,265,147217,1,8,0:0:0:0:
403,295,147317,1,10,0:2:0:0:
451,299,147417,1,8,0:0:0:0:
488,291,147517,1,8,0:0:0:0:
508,278,147617,1,8,0:0:0:0:
512,202,147717,6,0,P|500:147|469:47,1,135.000005149842,6|0,3:2|0:0,0:0:0:0:
174,250,148517,2,0,P|186:305|217:405,1,135.000005149842,2|0,0:0|0:0,0:0:0:0:
44,112,149317,6,0,P|41:147|54:180,1,72,6|0,3:2|0:0,0:0:0:0:
169,39,149510,1,0,0:0:0:0:
169,39,149607,2,0,P|133:36|100:49,1,72,10|0,0:0|0:0,0:0:0:0:
242,164,149800,1,0,0:0:0:0:
242,164,149897,2,0,P|244:128|231:95,1,72,2|0,3:2|0:0,0:0:0:0:
117,237,150091,1,0,0:0:0:0:
117,237,150187,2,0,P|152:239|185:226,1,72,10|0,0:0|0:0,0:0:0:0:
44,112,150381,1,0,0:0:0:0:
44,112,150478,2,0,P|41:147|54:180,1,72,6|0,3:2|0:0,0:0:0:0:
455,192,150906,6,0,P|419:188|384:179,1,72,6|0,3:2|0:0,0:0:0:0:
498,329,151099,1,2,0:0:0:0:
498,329,151196,2,0,P|501:293|510:258,1,72,10|0,0:0|0:0,0:0:0:0:
361,372,151389,1,2,0:0:0:0:
361,372,151486,2,0,P|396:375|431:384,1,72,2|0,3:2|0:0,0:0:0:0:
318,235,151680,1,2,0:0:0:0:
318,235,151776,2,0,P|314:270|297:336,2,72,10|0|0,0:0|0:0|0:0,0:0:0:0:
455,192,152091,2,0,P|419:188|317:150,1,125.999996154785,6|0,3:2|0:0,0:0:0:0:
87,24,152495,6,0,P|83:66|76:103,1,72,6|0,3:2|0:0,0:0:0:0:
162,104,152661,1,2,0:0:0:0:
162,104,152783,2,0,P|168:68|171:32,1,72,10|0,0:0|0:0,0:0:0:0:
255,40,152976,1,2,0:0:0:0:
255,40,153073,2,0,P|252:76|246:112,1,72,2|0,3:2|0:0,0:0:0:0:
330,120,153303,1,0,0:0:0:0:
330,120,153403,2,0,P|336:84|339:48,1,72,2|0,0:0|0:0,0:0:0:0:
423,56,153583,1,0,0:0:0:0:
423,56,153674,2,0,P|419:91|410:149,1,90,6|0,3:2|0:0,0:0:0:0:
489,312,154085,6,0,P|429:306|360:288,1,125.999996154785,6|8,3:2|0:0,0:0:0:0:
294,245,154383,1,8,0:0:0:0:
244,326,154482,5,0,3:0:0:0:
214,296,154581,1,0,3:0:0:0:
199,257,154680,1,0,3:0:0:0:
199,215,154780,1,0,3:0:0:0:
295,144,154879,5,0,3:0:0:0:
295,144,154979,2,0,P|253:148|216:149,1,62.9999980773926,8|0,0:0|3:0,0:0:0:0:
156,131,155177,1,0,3:0:0:0:
156,131,155277,2,0,P|114:135|77:136,1,62.9999980773926,8|0,0:0|3:0,0:0:0:0:
21,176,155475,1,8,0:0:0:0:
21,176,155575,1,8,0:0:0:0:
21,176,155674,6,0,P|32:243|33:298,1,90,6|0,3:2|0:0,0:0:0:0:
201,311,156110,2,0,P|190:244|189:189,1,90,2|0,0:0|0:0,0:0:0:0:
2,351,156510,2,0,P|86:344|182:390,1,180,2|2,0:0|0:0,0:0:0:0:
334,146,157310,6,0,P|328:236|328:332,1,180,0|2,3:0|0:0,0:0:0:0:
432,223,158110,2,0,P|438:158|439:92,1,90,2|0,0:0|0:0,0:0:0:0:
256,95,158510,1,2,0:0:0:0:
249,184,158710,1,2,0:0:0:0:
171,227,158910,6,0,P|113:221|48:223,1,90,2|0,3:2|0:0,0:0:0:0:
139,340,159310,2,0,P|183:339|228:333,1,90,0|2,0:0|0:0,0:0:0:0:
403,147,159710,2,0,P|397:237|417:326,1,180,2|0,0:0|0:0,0:0:0:0:
416,324,160310,1,0,0:0:0:0:
314,197,160510,6,0,P|276:185|210:183,1,90,0|2,3:0|0:0,0:0:0:0:
476,194,160910,2,0,P|488:156|490:90,1,90
252,268,161310,2,0,P|240:306|238:372,1,90,0|0,3:0|0:0,0:0:0:0:
411,140,161710,2,0,P|408:100|386:37,1,90,0|0,0:0|3:0,0:0:0:0:
308,116,162110,5,6,3:2:0:0:
227,76,162510,1,0,3:0:0:0:
143,110,162910,2,0,P|77:121|12:105,2,135,2|0|0,3:2|3:0|3:0,0:0:0:0:
182,237,163710,5,2,3:2:0:0:
259,191,164110,1,2,3:2:0:0:
346,212,164510,2,0,B|388:209|418:222|418:222|498:203,2,135,2|0|0,3:2|3:0|3:0,0:0:0:0:
91,341,165310,6,0,P|48:353|4:345,1,90,6|0,3:2|0:0,0:0:0:0:
166,291,165710,2,0,P|178:333|170:377,1,90
118,224,166110,2,0,P|160:211|204:219,1,90,2|0,3:2|0:0,0:0:0:0:
43,274,166510,2,0,P|30:231|38:187,1,90,0|0,0:0|3:0,0:0:0:0:
287,327,166910,5,6,3:2:0:0:
287,327,167710,2,0,B|298:263|298:263|302:260|302:260|316:181,2,135,8|8|8,0:0|0:0|0:0,0:0:0:0:
126,117,168510,6,0,P|119:94|118:67,1,45,6|0,1:2|0:0,0:0:0:0:
216,107,168710,2,0,P|205:77|209:46,1,62.9999980773926,2|0,1:2|0:0,0:0:0:0:
294,72,168910,2,0,P|345:57|397:69,1,107.999996704102
312,193,169210,1,0,0:0:0:0:
312,193,169310,2,0,B|348:203|348:203|444:178,1,107.999996704102,0|0,1:0|0:0,0:0:0:0:
498,103,169610,1,0,1:0:0:0:
498,103,169710,2,0,B|508:139|508:139|483:235,1,107.999996704102,0|8,3:0|0:0,0:0:0:0:
440,325,170110,5,6,3:2:0:0:
440,325,170310,2,0,L|366:312,1,53.9999983520508,2|0,1:2|0:0,0:0:0:0:
313,347,170510,2,0,L|239:334,1,53.9999983520508,0|0,1:0|0:0,0:0:0:0:
138,258,170710,1,0,0:0:0:0:
138,258,170810,1,0,0:0:0:0:
138,257,170910,2,0,P|121:307|135:359,1,107.999996704102,0|0,1:0|0:0,0:0:0:0:
238,258,171210,1,0,1:0:0:0:
238,258,171310,2,0,P|241:224|231:183,1,53.9999983520508,2|0,3:2|0:0,0:0:0:0:
162,173,171510,2,0,L|103:166,1,53.9999983520508,8|0,0:0|0:0,0:0:0:0:
49,244,171710,6,0,P|31:284|24:304,1,53.9999983520508,6|0,3:2|0:0,0:0:0:0:
25,165,171910,2,0,P|15:139|3:115,1,53.9999983520508,10|0,0:0|0:0,0:0:0:0:
44,129,172110,2,0,P|34:103|22:79,1,53.9999983520508,10|0,0:0|0:0,0:0:0:0:
127,34,172310,1,10,0:0:0:0:
127,34,172410,1,8,0:0:0:0:
127,34,172510,2,0,P|165:33|197:33,1,53.9999983520508,6|0,3:2|0:0,0:0:0:0:
279,64,172710,1,2,0:0:0:0:
279,64,172810,2,0,P|317:63|349:63,1,53.9999983520508,6|0,3:2|0:0,0:0:0:0:
438,38,173010,1,0,0:0:0:0:
438,38,173110,6,0,P|436:112|435:238,1,168.750006437302,6|0,3:2|0:0,0:0:0:0:
496,262,173710,5,0,3:0:0:0:
468,274,173810,1,0,1:0:0:0:
431,281,173910,1,0,1:0:0:0:
387,278,174010,1,0,1:0:0:0:
338,262,174110,5,8,0:0:0:0:
291,228,174210,1,8,0:0:0:0:
230,205,174310,1,8,0:0:0:0:
161,222,174410,1,8,0:0:0:0:
111,281,174510,5,8,0:0:0:0:
121,357,174610,1,8,0:0:0:0:
194,383,174710,1,8,0:0:0:0:
264,351,174810,1,8,0:0:0:0:
195,300,174910,6,0,P|197:237|206:164,1,107.999996704102,6|0,3:2|0:0,0:0:0:0:
416,92,175310,2,0,P|414:155|405:228,1,107.999996704102,10|2,0:0|3:2,0:0:0:0:
475,333,175710,2,0,P|445:326|409:326,1,53.9999983520508,6|0,3:2|0:0,0:0:0:0:
368,266,175910,1,8,0:0:0:0:
368,266,176010,2,0,P|340:279|312:303,1,53.9999983520508,6|0,3:2|0:0,0:0:0:0:
242,283,176210,1,8,0:0:0:0:
242,283,176310,2,0,P|228:310|222:347,1,53.9999983520508,6|0,3:2|0:0,0:0:0:0:
84,358,176510,5,6,3:2:0:0:
84,358,176610,2,0,P|69:278|42:225,1,107.999996704102,8|0,0:0|3:0,0:0:0:0:
181,178,176910,2,0,P|162:228|155:282,1,107.999996704102,8|0,0:0|3:0,0:0:0:0:
8,79,177310,1,6,3:2:0:0:
8,79,177410,2,0,P|43:74|87:63,1,53.9999983520508,0|8,0:0|0:0,0:0:0:0:
142,73,177610,1,6,3:2:0:0:
142,73,177710,2,0,P|177:68|221:57,1,53.9999983520508,0|8,0:0|0:0,0:0:0:0:
274,74,177910,2,0,P|309:69|353:58,1,53.9999983520508,6|0,3:2|0:0,0:0:0:0:
450,37,178110,5,6,3:2:0:0:
462,88,178210,1,0,0:0:0:0:
438,135,178310,1,8,0:0:0:0:
388,154,178410,1,8,0:0:0:0:
312,155,178510,5,0,3:0:0:0:
274,220,178610,1,8,0:0:0:0:
311,285,178710,1,0,3:0:0:0:
387,285,178810,1,0,3:0:0:0:
425,220,178910,5,6,3:2:0:0:
124,277,179210,1,6,3:2:0:0:
427,361,179510,1,6,3:2:0:0:
235,384,179710,5,6,3:2:0:0:
256,192,179910,12,6,181310,3:2:0:0:
256,192,181410,12,0,183710,0:0:0:0:
40,50,184510,5,14,0:0:0:0:
94,118,184610,2,0,P|127:123|159:122,1,62.9999980773926,10|0,0:0|0:0,0:0:0:0:
260,107,184810,2,0,P|239:133|224:161,1,62.9999980773926,10|0,0:0|0:0,0:0:0:0:
187,251,185010,2,0,P|174:219|157:192,1,62.9999980773926,10|0,0:0|0:0,0:0:0:0:
23,192,185210,1,8,0:0:0:0:
0,281,185310,1,14,0:0:0:0:
219,364,185710,1,2,0:0:0:0:
328,255,186110,6,0,P|396:271|461:242,1,144,6|2,3:2|0:0,0:0:0:0:
324,126,186410,1,0,0:0:0:0:
254,146,186510,2,0,P|205:197|198:267,1,144,10|0,0:0|0:0,0:0:0:0:
345,384,186810,1,0,0:0:0:0:
305,324,186910,1,6,3:2:0:0:
305,324,187010,6,0,B|238:329|238:329|234:334|234:334|158:340,1,144,0|6,0:0|0:0,0:0:0:0:
76,312,187310,2,0,P|72:359|86:387,1,72,8|0,0:0|0:0,0:0:0:0:
125,252,187510,6,0,P|75:216|-5:223,1,135,6|0,0:0|0:0,0:0:0:0:
182,110,187910,2,0,P|165:144|165:182,1,72
80,23,188110,2,0,P|114:39|152:39,1,72,10|0,0:0|0:0,0:0:0:0:
0,142,188310,2,0,P|16:107|16:69,1,72,2|0,0:0|0:0,0:0:0:0:
247,166,188510,5,2,3:2:0:0:
247,166,188610,2,0,B|278:138|271:96|271:96|252:59|281:20,1,144,8|0,0:0|0:0,0:0:0:0:
416,65,188910,2,0,P|374:72|336:63,1,72,14|0,0:0|0:0,0:0:0:0:
492,30,189110,2,0,P|499:72|490:110,1,72
324,196,189310,6,0,P|394:183|466:179,1,144,6|2,3:2|0:0,0:0:0:0:
466,179,189610,1,2,0:0:0:0:
507,333,189810,1,2,0:0:0:0:
345,296,190010,1,2,0:0:0:0:
345,296,190110,2,0,P|296:289|188:290,1,144,6|0,3:2|0:0,0:0:0:0:
23,376,190510,2,0,P|72:383|180:382,1,144,10|2,0:0|0:0,0:0:0:0:
115,53,190910,6,0,P|105:97|87:132,1,72,6|8,3:2|0:0,0:0:0:0:
130,296,191110,2,0,P|139:251|157:216,1,72
0,182,191310,2,0,P|44:191|79:209,1,72,2|0,3:2|0:0,0:0:0:0:
244,167,191510,2,0,P|199:157|164:139,1,72,10|0,0:0|0:0,0:0:0:0:
240,256,191710,5,0,3:0:0:0:
245,260,191810,1,0,0:0:0:0:
249,265,191910,2,0,P|290:258|337:255,1,72,0|0,1:0|1:0,0:0:0:0:
437,348,192110,1,0,3:0:0:0:
432,352,192210,1,0,1:0:0:0:
428,357,192310,2,0,P|387:350|340:347,1,72,8|8,0:0|0:0,0:0:0:0:
453,257,192510,6,0,P|467:188|423:98,1,144,6|0,3:2|0:0,0:0:0:0:
290,70,192810,1,0,0:0:0:0:
252,131,192910,2,0,P|304:177|404:184,1,144,10|0,0:0|0:0,0:0:0:0:
373,0,193210,1,0,0:0:0:0:
431,54,193310,1,6,3:2:0:0:
431,54,193410,6,0,B|364:59|364:59|360:64|360:64|284:70,1,144,0|6,0:0|0:0,0:0:0:0:
183,100,193710,2,0,P|175:65|184:30,1,72,8|0,0:0|0:0,0:0:0:0:
77,154,193910,6,0,P|72:229|53:289,1,135,6|0,0:0|0:0,0:0:0:0:
228,208,194310,2,0,P|183:203|144:188,1,72,2|0,0:0|0:0,0:0:0:0:
260,344,194510,2,0,P|264:299|279:260,1,72,10|0,0:0|0:0,0:0:0:0:
113,347,194710,2,0,P|157:351|196:366,1,72,2|0,0:0|0:0,0:0:0:0:
345,326,194910,5,0,3:0:0:0:
345,326,195010,2,0,P|360:243|352:151,1,144,8|0,0:0|0:0,0:0:0:0:
263,61,195310,2,0,P|258:108|264:152,1,72,10|0,0:0|0:0,0:0:0:0:
454,201,195510,2,0,P|459:154|453:110,1,72,2|0,0:0|0:0,0:0:0:0:
472,55,195710,6,0,B|394:49|417:101|326:96,1,144,6|2,3:2|0:0,0:0:0:0:
184,155,196110,2,0,B|157:105|157:105|186:0,1,144,10|0,0:0|0:0,0:0:0:0:
54,92,196410,1,0,0:0:0:0:
54,92,196510,2,0,P|64:141|63:181,1,72,2|0,3:2|0:0,0:0:0:0:
227,274,196710,2,0,P|237:225|236:185,1,72,10|0,0:0|0:0,0:0:0:0:
38,287,196910,2,0,P|37:331|46:369,1,72,10|0,0:0|0:0,0:0:0:0:
197,357,197110,2,0,P|241:358|279:349,1,72,10|0,0:0|0:0,0:0:0:0:
378,339,197310,5,6,3:2:0:0:
366,324,197376,1,0,1:0:0:0:
354,308,197443,1,0,1:0:0:0:
342,292,197510,2,0,P|346:245|359:172,1,72,0|0,1:0|1:0,0:0:0:0:
490,124,197710,2,0,P|406:155|329:124,1,144,6|8,3:2|0:0,0:0:0:0:
289,111,198010,1,8,0:0:0:0:
217,100,198110,2,0,P|167:107|132:121,1,72,6|0,3:2|0:0,0:0:0:0:
352,70,198310,2,0,P|345:20|331:-15,1,72,6|0,3:2|0:0,0:0:0:0:
242,171,198510,6,0,L|245:185,6,11.25,6|0|0|0|0|0|0,3:2|0:0|3:0|0:0|3:0|0:0|3:0,0:0:0:0:
217,255,198910,6,0,P|144:270|78:239,1,135,6|0,3:2|0:0,0:0:0:0:
8,208,199110,2,0,L|-2:248,1,33.75,2|0,0:0|0:0,0:0:0:0:
38,311,199310,5,14,0:0:0:0:
50,320,199410,1,2,0:0:0:0:
89,248,199510,5,2,0:0:0:0:
104,249,199610,1,2,0:0:0:0:
80,170,199710,6,0,P|72:96|111:41,1,135,6|0,3:2|0:0,0:0:0:0:
197,32,199910,2,0,L|201:65,1,33.75,2|0,0:0|0:0,0:0:0:0:
290,76,200110,6,0,P|333:91|421:66,1,135,14|0,0:0|0:0,0:0:0:0:
506,41,200310,2,0,L|512:74,1,33.75
385,178,200510,6,0,P|342:193|254:168,1,135,6|0,3:2|0:0,0:0:0:0:
169,143,200710,2,0,L|163:176,1,33.75,2|0,0:0|0:0,0:0:0:0:
285,275,200910,6,0,P|328:290|416:265,1,135,14|0,0:0|0:0,0:0:0:0:
501,240,201110,2,0,L|507:273,1,33.75,2|0,0:0|0:0,0:0:0:0:
422,362,201310,5,6,3:2:0:0:
422,362,201410,2,0,B|355:367|355:367|351:372|351:372|280:377,1,144,8|0,0:0|0:0,0:0:0:0:
161,340,201710,2,0,L|156:272,1,67.5,14|0,0:0|0:0,0:0:0:0:
78,181,202110,6,0,P|126:135|192:130,1,135,6|0,3:2|0:0,0:0:0:0:
256,192,202310,2,0,L|256:230,1,33.75,2|0,0:0|0:0,0:0:0:0:
177,33,202510,6,0,P|240:52|277:107,1,135,14|0,0:0|0:0,0:0:0:0:
256,192,202710,2,0,L|223:211,1,33.75,2|0,0:0|0:0,0:0:0:0:
355,44,202910,6,0,P|369:108|341:168,1,135,6|0,3:2|0:0,0:0:0:0:
256,192,203110,2,0,L|223:173,1,33.75,2|0,0:0|0:0,0:0:0:0:
433,203,203310,6,0,P|384:248|318:253,1,135,14|0,0:0|0:0,0:0:0:0:
256,192,203510,2,0,L|256:154,1,33.75,10|0,0:0|0:0,0:0:0:0:
177,114,203710,6,0,B|110:119|110:119|106:124|106:124|35:129,2,144,6|0|14,3:2|0:0|0:0,0:0:0:0:
164,236,204310,1,10,0:0:0:0:
148,307,204410,1,8,0:0:0:0:
94,257,204510,2,0,L|29:275,2,48,6|0|0,3:2|0:0|0:0,0:0:0:0:
227,361,204710,1,8,0:0:0:0:
235,353,204810,1,8,0:0:0:0:
293,308,204910,2,0,L|284:254,2,48,6|0|0,3:2|0:0|0:0,0:0:0:0:
384,339,205110,1,8,0:0:0:0:
440,328,205210,1,8,0:0:0:0:
496,317,205310,6,0,B|483:257|483:257|480:254|480:254|465:186,1,135,6|0,3:2|0:0,0:0:0:0:
497,90,205510,2,0,B|503:123,1,33.75,2|0,0:0|0:0,0:0:0:0:
414,310,205710,6,0,B|401:250|401:250|398:247|398:247|383:179,1,135,14|0,0:0|0:0,0:0:0:0:
415,83,205910,2,0,B|421:116,1,33.75,2|0,0:0|0:0,0:0:0:0:
332,303,206110,6,0,B|319:243|319:243|316:240|316:240|301:172,1,135,6|0,3:2|0:0,0:0:0:0:
333,76,206310,2,0,B|339:109,1,33.75
250,296,206510,6,0,B|237:236|237:236|234:233|234:233|219:165,1,135,14|0,0:0|0:0,0:0:0:0:
251,69,206710,2,0,B|257:102,1,33.75,0|0,1:0|0:0,0:0:0:0:
168,289,206910,6,0,B|155:229|155:229|152:226|152:226|137:158,1,135,6|0,3:2|0:0,0:0:0:0:
169,62,207110,2,0,B|175:95,1,33.75
86,282,207310,6,0,B|73:222|73:222|70:219|70:219|55:151,1,135,14|0,0:0|0:0,0:0:0:0:
87,55,207510,2,0,B|93:88,1,33.75,8|0,0:0|0:0,0:0:0:0:
6,76,207710,5,6,3:2:0:0:
220,169,207910,5,8,0:0:0:0:
220,169,208010,1,8,0:0:0:0:
220,169,208110,1,6,3:2:0:0:
434,262,208310,5,8,0:0:0:0:
434,262,208410,1,8,0:0:0:0:
434,262,208502,2,0,P|407:268|371:276,1,45,6|0,3:2|0:0,0:0:0:0:
275,249,208702,2,0,P|240:247|204:240,1,53.9999983520508,10|0,0:0|0:0,0:0:0:0:
143,316,208902,2,0,P|114:321|77:334,1,62.9999980773926,10|0,0:0|3:0,0:0:0:0:
113,162,209102,2,0,P|118:191|131:228,1,62.9999980773926,2|0,3:2|3:0,0:0:0:0:
301,173,209302,2,0,P|311:143|316:112,1,62.9999980773926,6|0,3:2|0:0,0:0:0:0:
246,52,209502,5,8,0:0:0:0:
286,71,209602,1,8,0:0:0:0:
330,71,209702,1,6,3:2:0:0:
371,51,209802,1,8,0:0:0:0:
439,11,209902,5,10,0:0:0:0:
420,70,210002,1,8,0:0:0:0:
437,129,210102,2,0,P|466:159|492:172,1,67.5,6|0,3:2|0:0,0:0:0:0:
364,230,210502,2,0,P|398:240|430:245,1,45,0|0,1:0|0:0,0:0:0:0:
276,352,210702,2,0,P|306:345|338:344,1,62.9999980773926,8|0,0:0|0:0,0:0:0:0:
199,215,210902,2,0,P|251:213|292:199,1,72,8|0,0:0|0:0,0:0:0:0:
84,328,211102,2,0,P|135:331|175:349,1,80.9999975280763,8|0,0:0|0:0,0:0:0:0:
56,227,211302,5,0,1:0:0:0:
60,214,211368,1,0,1:0:0:0:
64,201,211435,1,0,1:0:0:0:
68,188,211502,2,0,L|65:149,2,22.5000008583069,0|0|0,1:0|1:0|1:0,0:0:0:0:
6,114,211702,6,0,P|68:131|144:110,1,125.999996154785,6|2,3:2|0:0,0:0:0:0:
198,80,212010,1,0,0:0:0:0:
198,80,212110,1,10,0:0:0:0:
295,24,212310,1,2,0:0:0:0:
455,60,212510,1,2,3:2:0:0:
455,60,212610,2,0,P|461:101|469:129,1,62.9999980773926,8|0,0:0|0:0,0:0:0:0:
372,155,212810,1,0,0:0:0:0:
372,155,212910,2,0,P|366:196|358:224,1,62.9999980773926,10|0,0:0|0:0,0:0:0:0:
490,280,213110,1,0,0:0:0:0:
490,280,213210,1,8,0:0:0:0:
490,280,213310,6,0,P|403:289|335:313,1,125.999996154785,0|2,3:0|0:0,0:0:0:0:
152,339,213710,2,0,P|239:348|307:372,1,125.999996154785,10|0,0:0|0:0,0:0:0:0:
65,291,214110,1,0,3:0:0:0:
65,291,214210,2,0,P|54:256|28:209,1,62.9999980773926,8|0,0:0|0:0,0:0:0:0:
168,227,214410,1,0,0:0:0:0:
168,227,214510,2,0,P|179:192|205:145,1,62.9999980773926,8|0,0:0|0:0,0:0:0:0:
18,104,214710,1,0,0:0:0:0:
18,104,214810,1,8,0:0:0:0:
18,104,214910,6,0,P|97:99|166:63,1,125.999996154785,6|2,3:2|0:0,0:0:0:0:
225,34,215310,2,0,P|283:55|346:56,1,125.999996154785,8|2,0:0|0:0,0:0:0:0:
460,145,215710,2,0,P|442:78|462:11,2,125.999996154785,2|2|10,3:2|0:0|0:0,0:0:0:0:
356,147,216310,1,2,0:0:0:0:
402,229,216510,6,0,P|335:237|273:254,1,125.999996154785,6|0,3:2|0:0,0:0:0:0:
278,252,216910,1,10,0:0:0:0:
236,343,217110,1,8,0:0:0:0:
136,359,217310,1,2,3:2:0:0:
136,359,217410,2,0,P|77:340|8:346,1,125.999996154785,8|0,0:0|0:0,0:0:0:0:
171,228,217710,2,0,P|176:261|176:310,1,62.9999980773926,10|0,0:0|0:0,0:0:0:0:
72,208,217910,1,2,0:0:0:0:
72,208,218010,1,0,0:0:0:0:
72,208,218110,6,0,P|76:115|97:43,1,125.999996154785,6|2,3:2|0:0,0:0:0:0:
293,105,218510,2,0,P|249:147|189:137,1,125.999996154785,8|0,3:2|0:0,0:0:0:0:
391,38,218910,1,2,3:2:0:0:
391,38,219010,2,0,P|396:76|401:105,1,62.9999980773926,8|0,0:0|0:0,0:0:0:0:
496,124,219210,1,0,0:0:0:0:
496,124,219310,2,0,P|491:162|486:191,1,62.9999980773926,10|0,0:0|0:0,0:0:0:0:
402,199,219510,1,2,0:0:0:0:
402,199,219610,1,0,0:0:0:0:
402,199,219710,6,0,P|339:203|276:213,1,125.999996154785,6|0,3:2|0:0,0:0:0:0:
77,265,220110,2,0,P|139:269|202:279,1,125.999996154785,10|0,0:0|0:0,0:0:0:0:
340,360,220510,5,0,3:0:0:0:
340,360,220610,2,0,P|340:328|346:297,1,62.9999980773926,8|0,0:0|0:0,0:0:0:0:
493,248,220810,1,0,0:0:0:0:
493,248,220910,2,0,P|492:216|486:185,1,62.9999980773926,8|0,0:0|0:0,0:0:0:0:
345,127,221110,1,0,3:0:0:0:
345,127,221210,1,0,0:0:0:0:
345,127,221310,2,0,P|248:132|176:126,1,125.999996154785,6|0,3:2|1:0,0:0:0:0:
387,31,221710,2,0,P|484:36|556:30,1,125.999996154785,8|8,0:0|0:0,0:0:0:0:
242,53,222110,5,2,3:2:0:0:
242,53,222210,2,0,P|163:52|101:23,1,125.999996154785,8|0,0:0|0:0,0:0:0:0:
19,18,222510,2,0,P|30:60|24:106,1,62.9999980773926,10|0,0:0|0:0,0:0:0:0:
73,166,222710,2,0,P|103:135|146:117,1,62.9999980773926,10|0,0:0|0:0,0:0:0:0:
173,219,222910,5,6,3:2:0:0:
204,214,223010,1,0,1:0:0:0:
235,209,223110,1,0,1:0:0:0:
266,204,223210,1,0,1:0:0:0:
260,275,223310,5,2,1:2:0:0:
216,270,223410,1,0,1:0:0:0:
172,265,223510,1,0,1:0:0:0:
128,261,223610,1,0,1:0:0:0:
147,327,223710,5,10,0:2:0:0:
176,332,223810,1,8,0:0:0:0:
208,313,223910,1,8,0:0:0:0:
238,328,224010,1,8,0:0:0:0:
268,300,224110,1,10,0:2:0:0:
300,324,224210,1,8,0:0:0:0:
328,285,224310,1,8,0:0:0:0:
362,320,224410,1,8,0:0:0:0:
401,277,224510,6,0,P|435:199|407:117,1,125.999996154785,6|2,3:2|0:0,0:0:0:0:
288,142,224810,1,0,0:0:0:0:
287,141,224910,2,0,P|314:155|345:160,1,62.9999980773926,10|0,0:0|0:0,0:0:0:0:
431,45,225110,2,0,P|404:62|384:86,1,62.9999980773926,2|0,0:0|0:0,0:0:0:0:
201,134,225310,1,2,3:2:0:0:
201,134,225410,2,0,B|205:191|205:191|209:195|209:195|213:256,1,125.999996154785,8|0,0:0|0:0,0:0:0:0:
105,112,225710,2,0,P|109:81|128:56,1,62.9999980773926,10|0,0:0|0:0,0:0:0:0:
93,195,225910,2,0,P|62:190|37:171,1,62.9999980773926,0|8,0:0|0:0,0:0:0:0:
213,258,226110,5,6,3:2:0:0:
213,258,226210,2,0,B|156:262|156:262|152:266|152:266|91:270,1,125.999996154785,8|0,0:0|0:0,0:0:0:0:
276,341,226510,2,0,P|314:291|319:229,1,125.999996154785,8|0,0:0|0:0,0:0:0:0:
288,155,226810,1,8,0:0:0:0:
369,167,226910,1,0,3:0:0:0:
369,167,227010,2,0,P|428:164|469:167,1,62.9999980773926,8|0,0:0|0:0,0:0:0:0:
482,276,227210,1,0,0:0:0:0:
482,276,227310,2,0,P|423:273|382:276,1,62.9999980773926,8|0,0:0|0:0,0:0:0:0:
373,375,227510,1,0,0:0:0:0:
373,375,227610,1,0,0:0:0:0:
373,375,227710,6,0,P|310:370|223:370,1,125.999996154785,6|0,3:2|3:0,0:0:0:0:
166,340,228010,1,0,0:0:0:0:
158,348,228110,5,8,0:0:0:0:
135,291,228210,1,8,0:0:0:0:
163,237,228310,1,0,3:0:0:0:
223,222,228410,1,0,3:0:0:0:
267,286,228510,5,2,3:2:0:0:
34,221,228710,1,10,0:0:0:0:
338,149,228910,1,10,0:0:0:0:
349,184,229010,1,0,3:0:0:0:
360,219,229110,1,2,3:2:0:0:
96,84,229310,6,0,P|100:127|115:183,1,90,6|0,3:2|0:0,0:0:0:0:
191,212,229910,1,0,3:0:0:0:
63,294,230110,2,0,P|122:285|206:317,2,135,0|0|0,3:0|0:0|3:0,0:0:0:0:
332,345,230938,6,0,P|342:325|344:316,1,22.5,6|0,1:2|0:0,0:0:0:0:
423,320,231138,2,0,P|417:291|399:264,1,33.7500012874604,0|0,1:0|0:0,0:0:0:0:
477,231,231338,2,0,P|450:214|414:209,1,45,2|0,1:2|0:0,0:0:0:0:
457,129,231538,2,0,P|422:126|386:140,1,56.25,10|0,0:0|0:0,0:0:0:0:
370,48,231736,2,0,P|337:71|311:111,1,67.5000025749208,10|0,0:0|0:0,0:0:0:0:
240,46,231935,2,0,P|230:94|250:148,1,78.7500007510185,8|0,0:0|0:0,0:0:0:0:
132,106,232134,2,0,P|136:150|159:188,1,90,14|0,0:0|0:0,0:0:0:0:
320,226,232332,6,0,L|281:232,1,36,14|0,0:0|0:0,0:0:0:0:
