osu file format v14

[General]
AudioFilename: audio.mp3
AudioLeadIn: 0
PreviewTime: 57712
Countdown: 0
SampleSet: Soft
StackLeniency: 0.7
Mode: 3
LetterboxInBreaks: 0
SpecialStyle: 0
WidescreenStoryboard: 1

[Editor]
DistanceSpacing: 0.85
BeatDivisor: 12
GridSize: 32
TimelineZoom: 2

[Metadata]
Title:Kan Saete Kuyashiiwa
TitleUnicode:勘冴えて悔しいわ
Artist:ZUTOMAYO
ArtistUnicode:ずっと真夜中でいいのに。
Creator:HowToPlayLN
Version:Jealousy (Hard)
Source:
Tags:zutto mayonaka de Ii no ni pop jpop ln hybrid future jazz japanese famoss J-rock jrock j-pop
BeatmapID:2499078
BeatmapSetID:1151946

[Difficulty]
HPDrainRate:7
CircleSize:4
OverallDifficulty:7
ApproachRate:5
SliderMultiplier:1.4
SliderTickRate:1

[Events]
//Background and Video events
0,0,"62dc4941a98d3a30be792dc2fc14cd5c-20180925170902.jpeg",0,0
//Break Periods
//Storyboard Layer 0 (Background)
//Storyboard Layer 1 (Fail)
//Storyboard Layer 2 (Pass)
//Storyboard Layer 3 (Foreground)
//Storyboard Layer 4 (Overlay)
//Storyboard Sound Samples
Sample,109517,0,"tom03.wav",70
Sample,168010,0,"tom02.wav",70
Sample,168310,0,"tom02.wav",70
Sample,224302,0,"tom04.wav",70

[TimingPoints]
330,361.44578313253,6,2,1,70,1,8
330,-110.666666666667,6,2,1,70,0,8
512,400,4,2,1,70,1,0
512,-100,4,2,1,70,0,0
58112,-100,4,2,1,70,0,1
83712,397.350993377483,4,2,1,70,1,0
83712,-100.666666666667,4,2,1,70,0,0
86890,408.163265306122,4,2,1,70,1,0
86890,-98.0000000000001,4,2,1,70,0,0
87298,400,4,2,1,70,1,8
87298,-100,4,2,1,70,0,0
88898,387.096774193548,4,2,1,70,1,0
88898,-103.333333333333,4,2,1,70,0,0
89870,402.684563758389,4,2,1,70,1,0
89870,-99.3333333333334,4,2,1,70,0,0
90886,402.684563758389,6,2,1,70,1,0
90886,-99.3333333333334,6,2,1,70,0,0
93302,402.684563758389,4,2,1,70,1,0
93302,-99.3333333333334,4,2,1,70,0,0
96498,400,4,2,1,70,1,0
96498,-100,4,2,1,70,0,0
96898,300,4,2,1,70,1,8
96898,-133.333333333333,4,2,1,70,0,8
97477,333.333333333333,4,2,1,70,1,8
97477,-120,4,2,1,70,0,8
97740,352.941176470588,4,2,1,70,1,8
97740,-113.333333333333,4,2,1,70,0,8
98087,461.538461538462,4,2,1,50,1,0
98087,-86.6666666666666,4,2,1,50,0,0
98317,400,4,2,1,50,1,0
98317,-100,4,2,1,50,0,0
99717,400,4,2,1,50,1,0
99717,-100,4,2,1,50,0,0
104517,-100,4,2,1,60,0,0
109317,-100,4,2,1,70,0,0
123717,-100,4,2,1,70,0,1
147717,392.156862745098,4,2,1,70,1,1
147717,-102,4,2,1,70,0,1
149292,400,4,2,1,70,1,0
149292,-100,4,2,1,70,0,0
150892,384.615384615385,4,2,1,70,1,0
150892,-104,4,2,1,70,0,0
152045,517.241379310345,4,2,1,70,1,8
152045,-77.3333333333333,4,2,1,70,0,8
152470,392.156862745098,4,2,1,70,1,0
152470,-102,4,2,1,70,0,0
153654,458.015267175572,4,2,1,70,1,8
153654,-87.3333333333334,4,2,1,70,0,8
154084,405.405405405405,4,2,1,70,1,0
154084,-98.6666666666668,4,2,1,70,0,0
155674,400,4,2,1,70,1,0
155674,-100,4,2,1,70,0,0
155974,545.454545454546,4,2,1,70,1,8
155974,-73.3333333333333,4,2,1,70,0,8
156110,400,4,2,1,70,1,8
156110,-100,4,2,1,70,0,8
157310,400,4,2,1,70,1,0
157310,-100,4,2,1,70,0,0
186110,-100,4,2,1,70,0,1
208502,400,4,2,1,70,1,1
208502,-100,4,2,1,70,0,1
211702,-100,4,2,1,70,0,0
229302,405.405405405405,4,2,1,70,1,0
229302,-98.6666666666668,4,2,1,70,0,0
230923,400,4,2,1,70,1,0
230923,-100,4,2,1,70,0,0
231538,397.350993377483,4,2,1,70,1,8
231538,-100.666666666667,4,2,1,70,0,8

[HitObjects]
64,192,330,128,0,512:0:0:0:0:
192,192,512,1,2,0:0:0:0:
320,192,512,1,0,0:0:0:0:
448,192,512,128,0,712:0:0:0:0:
64,192,712,1,0,0:0:0:0:
192,192,912,1,0,0:0:0:0:
320,192,1112,1,0,0:0:0:0:
64,192,1312,128,2,1512:0:0:0:0:
192,192,1312,1,0,0:0:0:0:
192,192,1612,128,2,1812:0:0:0:0:
448,192,1612,1,0,0:0:0:0:
320,192,1912,128,2,2112:0:0:0:0:
448,192,1912,1,0,0:0:0:0:
192,192,2912,1,2,0:0:0:0:
448,192,2912,128,0,3112:0:0:0:0:
320,192,3212,1,2,0:0:0:0:
448,192,3212,128,0,3412:0:0:0:0:
64,192,3512,128,2,3612:0:0:0:0:
192,192,3512,1,0,0:0:0:0:
64,192,3712,128,2,3912:0:0:0:0:
320,192,3712,1,0,0:0:0:0:
448,192,3712,1,0,0:0:0:0:
192,192,3912,1,0,0:0:0:0:
320,192,4112,1,0,0:0:0:0:
448,192,4312,1,0,0:0:0:0:
64,192,4512,128,2,4712:0:0:0:0:
320,192,4512,1,0,0:0:0:0:
192,192,4812,128,2,5012:0:0:0:0:
448,192,4812,1,0,0:0:0:0:
64,192,5112,1,2,0:0:0:0:
192,192,5112,1,0,0:0:0:0:
320,192,5112,128,0,5312:0:0:0:0:
448,192,5312,1,0,0:0:0:0:
64,192,5362,1,0,0:0:0:0:
192,192,5412,1,0,0:0:0:0:
320,192,5512,1,0,0:0:0:0:
448,192,5645,1,0,0:0:0:0:
64,192,5812,1,0,0:0:0:0:
192,192,5912,1,0,0:0:0:0:
320,192,6012,1,0,0:0:0:0:
64,192,6112,1,8,0:0:0:0:
448,192,6112,1,0,0:0:0:0:
192,192,6212,1,0,0:0:0:70:tom02.wav
448,192,6312,1,0,0:0:0:70:tom03.wav
64,192,6412,1,8,0:0:0:0:
192,192,6412,1,0,0:0:0:0:
320,192,6512,1,8,0:0:0:0:
448,192,6512,1,0,0:0:0:0:
64,192,6712,1,8,0:0:0:0:
192,192,6812,1,8,0:0:0:0:
320,192,6912,1,2,0:0:0:0:
448,192,6912,128,4,7112:0:0:0:0:
64,192,7112,1,0,0:0:0:0:
192,192,7312,1,8,0:0:0:0:
448,192,7312,128,2,7512:0:0:0:0:
64,192,7512,1,0,0:0:0:0:
320,192,7712,1,2,0:0:0:0:
448,192,7712,128,0,7912:0:0:0:0:
192,192,7912,1,0,0:0:0:0:
320,192,8012,128,0,8112:0:0:0:0:
64,192,8112,1,8,0:0:0:0:
448,192,8112,1,2,0:0:0:0:
192,192,8312,128,0,8512:0:0:0:0:
320,192,8512,1,2,0:0:0:0:
448,192,8512,1,0,0:0:0:0:
64,192,8712,128,0,8912:0:0:0:0:
192,192,8912,1,8,0:0:0:0:
320,192,8912,128,2,9112:0:0:0:0:
448,192,9112,128,0,9312:0:0:0:0:
64,192,9312,128,2,9512:0:0:0:0:
320,192,9312,1,0,0:0:0:0:
192,192,9412,1,8,0:0:0:0:
448,192,9612,128,0,9812:0:0:0:0:
64,192,9712,1,8,0:0:0:0:
320,192,9712,1,2,0:0:0:0:
192,192,9912,128,0,10112:0:0:0:0:
64,192,10112,1,2,0:0:0:0:
448,192,10112,1,0,0:0:0:0:
448,192,10312,128,0,10412:0:0:0:0:
64,192,10512,1,8,0:0:0:0:
448,192,10512,128,2,10712:0:0:0:0:
192,192,10712,1,0,0:0:0:0:
320,192,10912,1,2,0:0:0:0:
448,192,10912,128,0,11112:0:0:0:0:
64,192,11112,1,0,0:0:0:0:
320,192,11212,128,0,11312:0:0:0:0:
192,192,11312,1,8,0:0:0:0:
448,192,11312,1,2,0:0:0:0:
64,192,11512,128,0,11712:0:0:0:0:
192,192,11712,1,2,0:0:0:0:
320,192,11712,1,0,0:0:0:0:
64,192,11912,128,0,12112:0:0:0:0:
192,192,12112,1,8,0:0:0:0:
320,192,12112,128,2,12312:0:0:0:0:
448,192,12312,128,0,12512:0:0:0:0:
192,192,12512,128,2,12712:0:0:0:0:
320,192,12512,1,0,0:0:0:0:
448,192,12612,1,8,0:0:0:0:
64,192,12812,128,0,13012:0:0:0:0:
192,192,12912,1,8,0:0:0:0:
320,192,12912,1,2,0:0:0:0:
448,192,13112,128,8,13312:0:0:0:0:
192,192,13212,1,8,0:0:0:0:
64,192,13312,1,4,0:0:0:0:
320,192,13312,1,2,0:0:0:0:
192,192,13512,128,0,13612:0:0:0:0:
64,192,13712,1,8,0:0:0:0:
448,192,13712,128,2,13912:0:0:0:0:
320,192,13912,1,0,0:0:0:0:
64,192,14112,1,2,0:0:0:0:
448,192,14112,128,0,14312:0:0:0:0:
192,192,14312,1,0,0:0:0:0:
320,192,14412,128,0,14512:0:0:0:0:
64,192,14512,1,8,0:0:0:0:
448,192,14512,1,2,0:0:0:0:
192,192,14712,128,0,14912:0:0:0:0:
320,192,14912,1,2,0:0:0:0:
448,192,14912,1,0,0:0:0:0:
64,192,15112,128,0,15212:0:0:0:0:
192,192,15312,128,8,15412:0:0:0:0:
448,192,15312,1,2,0:0:0:0:
320,192,15512,128,0,15612:0:0:0:0:
64,192,15712,1,2,0:0:0:0:
192,192,15712,128,0,15912:0:0:0:0:
448,192,15812,1,8,0:0:0:0:
64,192,16012,128,0,16212:0:0:0:0:
320,192,16112,1,8,0:0:0:0:
448,192,16112,1,2,0:0:0:0:
448,192,16312,128,0,16512:0:0:0:0:
192,192,16512,1,2,0:0:0:0:
320,192,16512,1,0,0:0:0:0:
64,192,16712,128,0,16912:0:0:0:0:
192,192,16912,128,8,17112:0:0:0:0:
320,192,16912,1,2,0:0:0:0:
320,192,17112,128,0,17312:0:0:0:0:
64,192,17312,1,2,0:0:0:0:
448,192,17312,1,0,0:0:0:0:
192,192,17512,128,0,17712:0:0:0:0:
64,192,17712,1,8,0:0:0:0:
320,192,17712,128,2,17812:0:0:0:0:
192,192,17912,128,0,18112:0:0:0:0:
64,192,18112,1,2,0:0:0:0:
320,192,18112,1,0,0:0:0:0:
448,192,18212,1,8,0:0:0:0:
64,192,18312,128,8,18412:0:0:0:0:
192,192,18312,1,0,0:0:0:0:
64,192,18512,128,8,18612:0:0:0:0:
192,192,18512,1,2,0:0:0:0:
448,192,18612,1,8,0:0:0:0:
320,192,18712,128,8,18812:0:0:0:0:
192,192,18812,1,8,0:0:0:0:
64,192,18912,128,2,19112:0:0:0:0:
320,192,18912,1,4,0:0:0:0:
448,192,18912,1,0,0:0:0:0:
64,192,19212,1,2,0:0:0:0:
192,192,19212,128,0,19412:0:0:0:0:
448,192,19212,1,0,0:0:0:0:
192,192,19512,1,2,0:0:0:0:
320,192,19512,1,0,0:0:0:0:
448,192,19512,128,0,19612:0:0:0:0:
64,192,19712,128,4,19912:0:0:0:0:
192,192,19712,1,2,0:0:0:0:
448,192,19712,1,0,0:0:0:0:
448,192,19912,1,0,0:0:0:0:
320,192,20012,1,0,0:0:0:0:
64,192,20112,1,2,0:0:0:0:
448,192,20112,1,0,0:0:0:0:
192,192,20212,1,0,0:0:0:0:
320,192,20312,1,0,0:0:0:0:
192,192,20412,1,0,0:0:0:0:
64,192,20512,128,2,20712:0:0:0:0:
448,192,20512,1,0,0:0:0:0:
192,192,20812,128,2,21012:0:0:0:0:
320,192,20812,1,0,0:0:0:0:
64,192,21112,1,2,0:0:0:0:
320,192,21112,128,0,21312:0:0:0:0:
64,192,21512,1,2,0:0:0:0:
192,192,21612,1,0,0:0:0:0:
320,192,21712,1,8,0:0:0:0:
448,192,21712,1,2,0:0:0:0:
192,192,21912,1,0,0:0:0:0:
320,192,22012,1,0,0:0:0:0:
64,192,22112,1,2,0:0:0:0:
448,192,22112,128,0,22312:0:0:0:0:
64,192,22412,128,2,22612:0:0:0:0:
192,192,22412,1,0,0:0:0:0:
192,192,22712,128,2,22912:0:0:0:0:
320,192,22712,1,0,0:0:0:0:
320,192,23112,1,2,0:0:0:0:
192,192,23212,1,0,0:0:0:0:
64,192,23312,1,8,0:0:0:0:
448,192,23312,1,2,0:0:0:0:
320,192,23512,1,0,0:0:0:0:
192,192,23612,1,0,0:0:0:0:
320,192,23712,128,2,23912:0:0:0:0:
448,192,23712,1,0,0:0:0:0:
192,192,23912,1,0,0:0:0:0:
64,192,24012,1,2,0:0:0:0:
320,192,24012,128,0,24212:0:0:0:0:
448,192,24112,1,0,0:0:0:0:
64,192,24312,128,2,24512:0:0:0:0:
192,192,24312,1,0,0:0:0:0:
320,192,24512,1,0,0:0:0:0:
192,192,24712,1,2,0:0:0:0:
448,192,24712,1,0,0:0:0:0:
64,192,24912,1,8,0:0:0:0:
320,192,24912,1,0,0:0:0:0:
192,192,25012,1,2,0:0:0:0:
448,192,25112,1,0,0:0:0:0:
320,192,25212,1,0,0:0:0:0:
64,192,25312,128,2,25512:0:0:0:0:
192,192,25312,1,0,0:0:0:0:
320,192,25512,1,0,0:0:0:0:
64,192,25612,128,2,25812:0:0:0:0:
448,192,25612,1,0,0:0:0:0:
192,192,25712,1,0,0:0:0:0:
192,192,25912,1,8,0:0:0:0:
320,192,25912,128,4,26112:0:0:0:0:
448,192,25912,1,2,0:0:0:0:
64,192,26312,1,2,0:0:0:0:
320,192,26412,1,0,0:0:0:0:
192,192,26512,1,8,0:0:0:0:
448,192,26512,1,0,0:0:0:0:
64,192,26612,1,2,0:0:0:0:
320,192,26712,1,0,0:0:0:0:
64,192,26912,128,2,27112:0:0:0:0:
448,192,26912,1,0,0:0:0:0:
192,192,27212,128,2,27412:0:0:0:0:
320,192,27212,1,0,0:0:0:0:
64,192,27512,1,2,0:0:0:0:
320,192,27512,128,0,27712:0:0:0:0:
320,192,27912,1,2,0:0:0:0:
192,192,28012,1,0,0:0:0:0:
64,192,28112,1,8,0:0:0:0:
448,192,28112,1,0,0:0:0:0:
192,192,28212,1,2,0:0:0:0:
320,192,28312,1,0,0:0:0:0:
448,192,28412,1,0,0:0:0:0:
64,192,28512,1,2,0:0:0:0:
192,192,28512,128,0,28712:0:0:0:0:
192,192,28812,128,2,29012:0:0:0:0:
448,192,28812,1,0,0:0:0:0:
320,192,29112,128,2,29312:0:0:0:0:
448,192,29112,1,0,0:0:0:0:
64,192,29512,1,2,0:0:0:0:
320,192,29512,1,0,0:0:0:0:
192,192,29712,1,8,0:0:0:0:
448,192,29712,1,0,0:0:0:0:
320,192,29812,1,2,0:0:0:0:
64,192,29912,1,0,0:0:0:0:
320,192,30112,128,2,30312:0:0:0:0:
448,192,30112,1,0,0:0:0:0:
64,192,30312,1,0,0:0:0:0:
192,192,30412,1,2,0:0:0:0:
320,192,30412,128,0,30612:0:0:0:0:
448,192,30512,1,0,0:0:0:0:
64,192,30712,1,8,0:0:0:0:
192,192,30712,1,4,0:0:0:0:
448,192,30712,128,2,30912:0:0:0:0:
320,192,30912,1,0,0:0:0:0:
64,192,31112,1,2,0:0:0:0:
192,192,31112,1,0,0:0:0:0:
64,192,31312,1,8,0:0:0:0:
448,192,31312,1,0,0:0:0:0:
192,192,31412,1,2,0:0:0:0:
320,192,31512,1,0,0:0:0:0:
448,192,31612,1,0,0:0:0:0:
64,192,31712,128,2,31912:0:0:0:0:
192,192,31712,1,0,0:0:0:0:
320,192,31912,1,0,0:0:0:70:tom02.wav
192,192,32012,128,0,32112:0:0:0:0:
64,192,32112,1,8,0:0:0:0:
448,192,32112,1,2,0:0:0:0:
192,192,32212,1,8,0:0:0:0:
320,192,32312,128,0,32512:0:0:0:50:tom03.wav
64,192,32512,1,2,0:0:0:0:
192,192,32512,1,4,0:0:0:0:
448,192,32512,128,0,32712:0:0:0:0:
320,192,32712,1,0,0:0:0:0:
192,192,32812,1,0,0:0:0:0:
64,192,32912,1,8,0:0:0:0:
448,192,32912,1,0,0:0:0:0:
192,192,33012,1,0,0:0:0:0:
448,192,33112,1,0,0:0:0:0:
64,192,33312,128,2,33512:0:0:0:0:
192,192,33312,1,0,0:0:0:0:
64,192,33612,128,8,33812:0:0:0:0:
320,192,33612,1,0,0:0:0:0:
192,192,33912,128,2,34112:0:0:0:0:
448,192,33912,1,0,0:0:0:0:
64,192,34312,1,2,0:0:0:0:
320,192,34412,1,0,0:0:0:0:
192,192,34512,1,8,0:0:0:0:
448,192,34512,1,0,0:0:0:0:
320,192,34612,1,2,0:0:0:0:
64,192,34712,1,0,0:0:0:0:
192,192,34812,1,0,0:0:0:0:
320,192,34912,1,2,0:0:0:0:
448,192,34912,128,0,35112:0:0:0:0:
64,192,35212,1,8,0:0:0:0:
320,192,35212,128,0,35412:0:0:0:0:
192,192,35512,128,2,35712:0:0:0:0:
448,192,35512,1,0,0:0:0:0:
64,192,35812,1,8,0:0:0:0:
448,192,35812,1,0,0:0:0:0:
320,192,35912,1,2,0:0:0:0:
192,192,36012,1,0,0:0:0:0:
64,192,36112,1,8,0:0:0:0:
448,192,36112,1,0,0:0:0:0:
192,192,36212,1,2,0:0:0:0:
320,192,36312,1,0,0:0:0:0:
192,192,36512,128,2,36712:0:0:0:0:
448,192,36512,1,0,0:0:0:0:
320,192,36712,1,0,0:0:0:0:
64,192,36812,1,8,0:0:0:0:
192,192,36812,128,0,37012:0:0:0:0:
448,192,36912,1,0,0:0:0:0:
64,192,37112,1,2,0:0:0:0:
320,192,37112,128,0,37312:0:0:0:0:
448,192,37312,1,0,0:0:0:0:
64,192,37512,1,2,0:0:0:0:
192,192,37512,1,0,0:0:0:0:
64,192,37712,1,8,0:0:0:0:
448,192,37712,1,0,0:0:0:0:
192,192,37812,1,2,0:0:0:0:
320,192,37912,1,0,0:0:0:0:
64,192,38112,128,2,38312:0:0:0:0:
448,192,38112,1,0,0:0:0:0:
320,192,38312,1,0,0:0:0:0:
64,192,38412,128,2,38612:0:0:0:0:
192,192,38412,1,0,0:0:0:0:
448,192,38512,1,0,0:0:0:0:
192,192,38712,1,4,0:0:0:0:
320,192,38712,1,8,0:0:0:0:
448,192,38712,128,0,38912:0:0:0:0:
320,192,39112,1,2,0:0:0:0:
448,192,39212,1,0,0:0:0:0:
64,192,39312,1,8,0:0:0:0:
192,192,39312,1,0,0:0:0:0:
320,192,39412,1,2,0:0:0:0:
192,192,39512,1,0,0:0:0:0:
64,192,39712,128,2,39912:0:0:0:0:
320,192,39712,1,0,0:0:0:0:
64,192,40012,128,8,40212:0:0:0:0:
192,192,40012,1,0,0:0:0:0:
448,192,40212,1,0,0:0:0:0:
192,192,40312,128,2,40512:0:0:0:0:
320,192,40312,1,0,0:0:0:0:
448,192,40612,1,8,0:0:0:0:
192,192,40712,1,2,0:0:0:0:
64,192,40812,1,0,0:0:0:0:
320,192,40912,1,8,0:0:0:0:
448,192,40912,1,0,0:0:0:0:
192,192,41012,1,2,0:0:0:0:
448,192,41112,1,0,0:0:0:0:
320,192,41212,1,0,0:0:0:0:
64,192,41312,1,2,0:0:0:0:
192,192,41312,128,0,41512:0:0:0:0:
192,192,41612,128,8,41812:0:0:0:0:
320,192,41612,1,0,0:0:0:0:
64,192,41912,128,2,42112:0:0:0:0:
448,192,41912,1,0,0:0:0:0:
192,192,42112,1,0,0:0:0:0:
320,192,42312,1,2,0:0:0:0:
448,192,42312,1,0,0:0:0:0:
64,192,42512,1,8,0:0:0:0:
448,192,42512,1,0,0:0:0:0:
320,192,42612,1,2,0:0:0:0:
192,192,42712,1,0,0:0:0:0:
64,192,42912,128,2,43112:0:0:0:0:
448,192,42912,1,0,0:0:0:0:
192,192,43112,1,0,0:0:0:0:
64,192,43212,1,8,0:0:0:0:
320,192,43212,1,0,0:0:0:0:
448,192,43312,1,0,0:0:0:0:
64,192,43512,128,4,43712:0:0:0:0:
192,192,43512,1,2,0:0:0:0:
320,192,43512,1,0,0:0:0:0:
448,192,43712,1,0,0:0:0:0:
64,192,43912,1,2,0:0:0:0:
192,192,43912,1,0,0:0:0:0:
64,192,44112,1,8,0:0:0:0:
448,192,44112,1,0,0:0:0:0:
192,192,44212,1,2,0:0:0:0:
320,192,44312,1,8,0:0:0:0:
448,192,44312,1,0,0:0:0:0:
64,192,44512,128,2,44712:0:0:0:0:
192,192,44512,1,4,0:0:0:0:
320,192,44512,1,0,0:0:0:0:
448,192,44712,1,0,0:0:0:0:
192,192,44812,1,8,0:0:0:0:
320,192,44812,1,0,0:0:0:0:
64,192,44912,1,2,0:0:0:0:
448,192,44912,1,0,0:0:0:0:
64,192,45112,1,0,0:0:0:70:tom02.wav
192,192,45312,1,2,0:0:0:0:
320,192,45312,1,4,0:0:0:0:
64,192,45512,1,0,0:0:0:0:
320,192,45712,1,2,0:0:0:0:
448,192,45712,1,8,0:0:0:0:
320,192,45912,1,8,0:0:0:0:
64,192,46112,1,2,0:0:0:0:
192,192,46112,1,8,0:0:0:0:
192,192,46312,1,8,0:0:0:0:
320,192,46512,1,2,0:0:0:0:
448,192,46512,1,8,0:0:0:0:
320,192,46712,1,8,0:0:0:0:
192,192,46812,1,8,0:0:0:0:
64,192,46912,1,2,0:0:0:0:
448,192,46912,1,0,0:0:0:0:
192,192,47012,1,0,0:0:0:70:tom02.wav
448,192,47112,1,0,0:0:0:70:tom03.wav
64,192,47312,1,8,0:0:0:0:
320,192,47312,1,2,0:0:0:0:
64,192,47512,1,0,0:0:0:0:
192,192,47712,1,2,0:0:0:0:
320,192,47712,1,4,0:0:0:0:
448,192,47712,128,0,47912:0:0:0:0:
64,192,48012,1,2,0:0:0:0:
192,192,48012,1,0,0:0:0:0:
320,192,48012,128,0,48212:0:0:0:0:
64,192,48312,1,2,0:0:0:0:
192,192,48312,128,4,48712:0:0:0:0:
448,192,48312,1,0,0:0:0:0:
448,192,48712,1,8,0:0:0:0:
64,192,48912,1,8,0:0:0:0:
448,192,48912,1,2,0:0:0:0:
320,192,49112,1,8,0:0:0:0:
64,192,49312,1,2,0:0:0:0:
192,192,49312,1,8,0:0:0:0:
320,192,49412,1,8,0:0:0:0:
64,192,49512,1,8,0:0:0:0:
192,192,49612,1,0,0:0:0:70:tom01.wav
320,192,49712,1,2,0:0:0:0:
448,192,49712,1,0,0:0:0:0:
64,192,49912,1,0,0:0:0:70:tom02.wav
320,192,50012,1,8,0:0:0:0:
192,192,50112,1,2,0:0:0:0:
448,192,50112,1,8,0:0:0:0:
64,192,50212,1,0,0:0:0:70:tom01.wav
320,192,50312,1,0,0:0:0:70:tom03.wav
64,192,50512,1,2,0:0:0:0:
192,192,50512,1,8,0:0:0:0:
448,192,50612,1,8,0:0:0:0:
320,192,50712,1,0,0:0:0:70:tom04.wav
64,192,50912,128,2,51112:0:0:0:0:
192,192,50912,1,4,0:0:0:0:
448,192,50912,1,0,0:0:0:0:
448,192,51112,1,0,0:0:0:0:
192,192,51212,1,2,0:0:0:0:
320,192,51212,128,4,51412:0:0:0:0:
64,192,51312,1,0,0:0:0:0:
64,192,51512,1,2,0:0:0:0:
192,192,51512,128,4,51712:0:0:0:0:
448,192,51512,1,0,0:0:0:0:
320,192,51712,1,0,0:0:0:0:
320,192,51912,1,8,0:0:0:0:
192,192,52112,1,2,0:0:0:0:
448,192,52112,1,0,0:0:0:0:
192,192,52312,1,8,0:0:0:0:
64,192,52512,1,2,0:0:0:0:
448,192,52512,1,8,0:0:0:0:
192,192,52612,1,8,0:0:0:0:
320,192,52712,1,8,0:0:0:0:
448,192,52812,1,8,0:0:0:0:
64,192,52912,1,2,0:0:0:0:
192,192,52912,1,8,0:0:0:0:
320,192,53112,1,8,0:0:0:0:
192,192,53212,1,8,0:0:0:0:
64,192,53312,1,2,0:0:0:0:
448,192,53312,128,0,53512:0:0:0:0:
320,192,53512,1,0,0:0:0:70:tom03.wav
64,192,53712,1,8,0:0:0:0:
192,192,53712,1,2,0:0:0:0:
448,192,53812,1,8,0:0:0:0:
320,192,53912,1,0,0:0:0:70:tom03.wav
64,192,54112,1,2,0:0:0:0:
192,192,54112,1,4,0:0:0:0:
448,192,54112,128,0,54312:0:0:0:0:
64,192,54262,1,0,0:0:0:0:
320,192,54412,1,2,0:0:0:0:
448,192,54412,128,4,54612:0:0:0:0:
64,192,54712,1,2,0:0:0:0:
320,192,54712,128,4,54912:0:0:0:0:
448,192,54712,1,0,0:0:0:0:
192,192,54912,1,2,0:0:0:0:
64,192,55012,1,8,0:0:0:0:
448,192,55012,1,0,0:0:0:0:
320,192,55212,1,2,0:0:0:0:
64,192,55312,1,8,0:0:0:0:
192,192,55312,1,0,0:0:0:0:
448,192,55512,1,0,0:0:0:0:
320,192,55612,1,0,0:0:0:0:
64,192,55712,128,2,55912:0:0:0:0:
192,192,55712,1,0,0:0:0:0:
448,192,55912,1,0,0:0:0:0:
320,192,56012,128,8,56212:0:0:0:0:
192,192,56012,1,2,0:0:0:0:
64,192,56112,1,8,0:0:0:0:
64,192,56312,128,2,56512:0:0:0:0:
320,192,56312,1,4,0:0:0:0:
448,192,56312,1,0,0:0:0:0:
192,192,56512,128,0,57412:0:0:0:0:
448,192,57712,128,0,58012:0:0:0:0:
64,192,58112,128,2,58212:0:0:0:0:
192,192,58112,1,4,0:0:0:0:
320,192,58112,1,0,0:0:0:0:
64,192,58312,128,0,58412:0:0:0:0:
192,192,58512,1,2,0:0:0:0:
320,192,58512,128,8,58612:0:0:0:0:
320,192,58712,128,0,58812:0:0:0:0:
64,192,58912,1,2,0:0:0:0:
448,192,58912,128,0,59012:0:0:0:0:
192,192,59112,1,0,0:0:0:0:
448,192,59212,128,0,59312:0:0:0:0:
64,192,59312,1,2,0:0:0:0:
320,192,59312,1,8,0:0:0:0:
192,192,59512,128,0,59612:0:0:0:0:
64,192,59712,1,2,0:0:0:0:
448,192,59712,1,0,0:0:0:0:
320,192,59912,128,0,60012:0:0:0:0:
192,192,60112,128,2,60212:0:0:0:0:
448,192,60112,1,8,0:0:0:0:
64,192,60312,128,0,60412:0:0:0:0:
320,192,60512,128,2,60612:0:0:0:0:
448,192,60512,1,0,0:0:0:0:
64,192,60612,1,8,0:0:0:0:
192,192,60712,1,0,0:0:0:0:
320,192,60812,128,0,60912:0:0:0:0:
64,192,60912,1,8,0:0:0:0:
448,192,60912,1,2,0:0:0:0:
320,192,61112,128,0,61212:0:0:0:0:
64,192,61212,1,0,0:0:0:0:
192,192,61312,128,2,61412:0:0:0:0:
448,192,61312,1,0,0:0:0:0:
192,192,61512,128,0,61612:0:0:0:0:
448,192,61612,1,0,0:0:0:0:
64,192,61712,1,8,0:0:0:0:
192,192,61712,128,2,61812:0:0:0:0:
448,192,61812,1,0,0:0:0:0:
64,192,61912,1,0,0:0:0:0:
192,192,62012,1,0,0:0:0:0:
320,192,62112,128,2,62212:0:0:0:0:
448,192,62112,1,0,0:0:0:0:
192,192,62312,1,0,0:0:0:0:
320,192,62412,128,0,62512:0:0:0:0:
64,192,62512,1,8,0:0:0:0:
448,192,62512,1,2,0:0:0:0:
192,192,62712,1,0,0:0:0:0:
320,192,62712,128,0,62812:0:0:0:0:
64,192,62912,1,2,0:0:0:0:
448,192,62912,1,0,0:0:0:0:
320,192,63112,128,0,63212:0:0:0:0:
192,192,63312,1,8,0:0:0:0:
448,192,63312,1,2,0:0:0:0:
64,192,63512,128,0,63612:0:0:0:0:
192,192,63712,1,2,0:0:0:0:
320,192,63712,128,0,63812:0:0:0:0:
448,192,63712,1,0,0:0:0:0:
64,192,63912,1,0,0:0:0:0:
448,192,64012,128,0,64112:0:0:0:0:
64,192,64112,1,2,0:0:0:0:
192,192,64112,1,4,0:0:0:0:
320,192,64112,128,0,64312:0:0:0:0:
192,192,64312,128,0,64412:0:0:0:0:
64,192,64512,128,2,64612:0:0:0:0:
320,192,64512,1,4,0:0:0:0:
448,192,64512,1,0,0:0:0:0:
192,192,64712,1,0,0:0:0:0:
320,192,64912,1,8,0:0:0:0:
448,192,64912,128,2,65012:0:0:0:0:
64,192,65112,1,0,0:0:0:0:
192,192,65312,1,2,0:0:0:0:
448,192,65312,128,0,65412:0:0:0:0:
64,192,65512,1,0,0:0:0:0:
448,192,65612,128,0,65712:0:0:0:0:
192,192,65712,1,8,0:0:0:0:
320,192,65712,1,2,0:0:0:0:
64,192,65912,128,0,66012:0:0:0:0:
192,192,66112,1,2,0:0:0:0:
448,192,66112,1,0,0:0:0:0:
320,192,66312,128,0,66412:0:0:0:0:
64,192,66512,1,8,0:0:0:0:
192,192,66512,128,2,66612:0:0:0:0:
320,192,66712,128,0,66812:0:0:0:0:
64,192,66912,128,2,67012:0:0:0:0:
192,192,66912,1,0,0:0:0:0:
320,192,67012,1,8,0:0:0:0:
192,192,67112,1,0,0:0:0:0:
320,192,67212,128,0,67312:0:0:0:0:
64,192,67312,1,8,0:0:0:0:
448,192,67312,1,2,0:0:0:0:
320,192,67512,128,0,67612:0:0:0:0:
192,192,67712,128,2,67812:0:0:0:0:
448,192,67712,1,0,0:0:0:0:
64,192,67912,1,0,0:0:0:0:
192,192,68112,128,8,68212:0:0:0:0:
320,192,68112,1,2,0:0:0:0:
192,192,68312,1,0,0:0:0:0:
64,192,68512,1,2,0:0:0:0:
320,192,68512,128,0,68612:0:0:0:0:
448,192,68712,1,0,0:0:0:0:
320,192,68812,128,0,68912:0:0:0:0:
64,192,68912,1,8,0:0:0:0:
192,192,68912,1,2,0:0:0:0:
192,192,69112,128,8,69212:0:0:0:0:
320,192,69112,1,0,0:0:0:0:
320,192,69312,1,2,0:0:0:0:
448,192,69312,1,4,0:0:0:0:
64,192,69412,1,8,0:0:0:0:
192,192,69512,1,8,0:0:0:0:
64,192,69712,1,2,0:0:0:0:
448,192,69712,1,0,0:0:0:0:
192,192,69912,1,8,0:0:0:0:
320,192,70012,1,8,0:0:0:0:
64,192,70112,1,2,0:0:0:0:
448,192,70112,1,0,0:0:0:0:
64,192,70312,1,2,0:0:0:0:
320,192,70312,1,0,0:0:0:0:
192,192,70512,1,2,0:0:0:0:
448,192,70512,1,0,0:0:0:0:
64,192,70712,1,8,0:0:0:0:
320,192,70812,1,8,0:0:0:0:
64,192,70912,128,4,71012:0:0:0:0:
192,192,70912,1,2,0:0:0:0:
448,192,70912,1,0,0:0:0:0:
192,192,71112,1,0,0:0:0:0:
320,192,71312,1,2,0:0:0:0:
448,192,71312,128,8,71412:0:0:0:0:
64,192,71512,1,0,0:0:0:0:
320,192,71712,1,2,0:0:0:0:
448,192,71712,128,0,71812:0:0:0:0:
64,192,71912,1,0,0:0:0:0:
448,192,72012,128,0,72112:0:0:0:0:
192,192,72112,1,2,0:0:0:0:
320,192,72112,1,8,0:0:0:0:
64,192,72312,128,0,72412:0:0:0:0:
192,192,72512,1,2,0:0:0:0:
448,192,72512,1,0,0:0:0:0:
64,192,72712,128,0,72812:0:0:0:0:
192,192,72912,1,2,0:0:0:0:
320,192,72912,128,8,73012:0:0:0:0:
64,192,73112,128,0,73212:0:0:0:0:
320,192,73312,128,2,73412:0:0:0:0:
448,192,73312,1,0,0:0:0:0:
192,192,73412,1,8,0:0:0:0:
320,192,73512,1,0,0:0:0:0:
64,192,73612,128,0,73712:0:0:0:0:
192,192,73712,1,2,0:0:0:0:
448,192,73712,1,8,0:0:0:0:
64,192,73912,128,0,74012:0:0:0:0:
192,192,74112,128,2,74212:0:0:0:0:
320,192,74112,1,0,0:0:0:0:
320,192,74312,1,0,0:0:0:0:
64,192,74512,1,8,0:0:0:0:
448,192,74512,128,2,74612:0:0:0:0:
192,192,74712,1,0,0:0:0:0:
64,192,74912,1,2,0:0:0:0:
448,192,74912,128,0,75012:0:0:0:0:
320,192,75112,1,0,0:0:0:0:
448,192,75212,128,0,75312:0:0:0:0:
64,192,75312,1,2,0:0:0:0:
192,192,75312,1,8,0:0:0:0:
448,192,75512,128,0,75612:0:0:0:0:
192,192,75712,1,2,0:0:0:0:
320,192,75712,1,0,0:0:0:0:
192,192,75912,128,0,76012:0:0:0:0:
64,192,76112,1,2,0:0:0:0:
448,192,76112,128,8,76212:0:0:0:0:
192,192,76312,128,0,76412:0:0:0:0:
320,192,76512,1,2,0:0:0:0:
448,192,76512,128,0,76612:0:0:0:0:
64,192,76612,1,8,0:0:0:0:
448,192,76712,1,0,0:0:0:0:
320,192,76812,128,0,76912:0:0:0:0:
64,192,76912,1,2,0:0:0:0:
192,192,76912,128,8,77012:0:0:0:0:
320,192,77112,1,8,0:0:0:0:
192,192,77212,1,8,0:0:0:0:
64,192,77312,1,4,0:0:0:0:
448,192,77312,128,2,77412:0:0:0:0:
192,192,77512,1,0,0:0:0:0:
320,192,77712,1,2,0:0:0:0:
448,192,77712,128,8,77812:0:0:0:0:
192,192,77912,1,0,0:0:0:0:
64,192,78112,1,2,0:0:0:0:
320,192,78112,128,0,78212:0:0:0:0:
192,192,78312,1,0,0:0:0:0:
320,192,78412,128,0,78512:0:0:0:0:
64,192,78512,1,2,0:0:0:0:
448,192,78512,1,8,0:0:0:0:
320,192,78712,128,0,78812:0:0:0:0:
192,192,78912,128,2,79012:0:0:0:0:
448,192,78912,1,0,0:0:0:0:
64,192,79112,1,0,0:0:0:0:
192,192,79312,128,2,79412:0:0:0:0:
320,192,79312,1,8,0:0:0:0:
64,192,79512,1,0,0:0:0:0:
320,192,79712,1,2,0:0:0:0:
448,192,79712,128,0,79812:0:0:0:0:
64,192,79912,1,8,0:0:0:0:
192,192,79912,1,0,0:0:0:0:
320,192,80112,1,2,0:0:0:0:
448,192,80112,1,0,0:0:0:0:
192,192,80312,1,0,0:0:0:70:tom04.wav
64,192,80512,1,4,0:0:0:0:
320,192,80512,1,8,0:0:0:0:
448,192,80512,1,0,0:0:0:0:
448,192,80712,1,0,0:0:0:0:
320,192,80812,1,0,0:0:0:0:
64,192,80912,1,2,0:0:0:0:
192,192,80912,1,8,0:0:0:0:
448,192,81012,1,0,0:0:0:0:
320,192,81112,1,8,0:0:0:0:
192,192,81212,1,8,0:0:0:0:
320,192,81312,1,2,0:0:0:0:
448,192,81312,1,8,0:0:0:0:
64,192,81412,1,8,0:0:0:0:
448,192,81512,1,8,0:0:0:0:
192,192,81612,1,8,0:0:0:0:
64,192,81712,1,2,0:0:0:0:
320,192,81712,1,8,0:0:0:0:
448,192,81812,1,8,0:0:0:0:
192,192,81912,1,8,0:0:0:0:
320,192,82012,1,8,0:0:0:0:
64,192,82112,128,2,82512:0:0:0:0:
192,192,82112,1,4,0:0:0:0:
448,192,82112,1,0,0:0:0:0:
64,192,82912,1,0,0:0:0:0:
448,192,82912,128,0,83312:0:0:0:0:
192,192,83112,1,0,0:0:0:0:
320,192,83312,1,0,0:0:0:0:
64,192,83712,1,2,0:0:0:0:
448,192,83712,128,4,83811:0:0:0:0:
64,192,83910,128,2,84010:0:0:0:0:
192,192,83910,1,0,0:0:0:0:
320,192,84109,1,8,0:0:0:0:
448,192,84109,128,0,84208:0:0:0:0:
64,192,84208,128,0,84308:0:0:0:0:
320,192,84308,128,0,84407:0:0:0:0:
192,192,84407,1,8,0:0:0:0:
64,192,84506,1,2,0:0:0:0:
448,192,84506,128,0,84705:0:0:0:0:
192,192,84804,1,2,0:0:0:0:
320,192,84804,128,0,85003:0:0:0:0:
448,192,84904,1,0,0:0:0:0:
64,192,85102,1,8,0:0:0:0:
192,192,85102,128,0,85301:0:0:0:0:
64,192,85400,1,8,0:0:0:0:
192,192,85500,128,2,85599:0:0:0:0:
448,192,85500,1,0,0:0:0:0:
64,192,85698,1,8,0:0:0:0:
320,192,85698,128,0,85798:0:0:0:0:
448,192,85798,1,2,0:0:0:0:
192,192,85897,128,0,85996:0:0:0:0:
320,192,85996,1,0,0:0:0:0:
64,192,86096,128,4,86294:0:0:0:0:
192,192,86096,1,2,0:0:0:0:
448,192,86096,1,0,0:0:0:0:
64,192,86394,1,2,0:0:0:0:
192,192,86394,128,4,86592:0:0:0:0:
320,192,86394,1,0,0:0:0:0:
192,192,86692,1,2,0:0:0:0:
320,192,86692,1,0,0:0:0:0:
448,192,86692,128,0,86890:0:0:0:0:
64,192,86890,1,4,0:0:0:0:
192,192,86890,1,2,0:0:0:0:
320,192,86992,1,0,0:0:0:0:
448,192,87094,1,0,0:0:0:0:
64,192,87196,1,2,0:0:0:0:
320,192,87298,1,8,0:0:0:0:
448,192,87298,1,0,0:0:0:0:
192,192,87398,1,0,0:0:0:0:
64,192,87498,1,2,0:0:0:0:
448,192,87498,1,0,0:0:0:0:
320,192,87598,1,0,0:0:0:0:
64,192,87698,128,2,87898:0:0:0:0:
192,192,87698,1,0,0:0:0:0:
448,192,87898,1,0,0:0:0:0:
192,192,87998,128,8,88198:0:0:0:0:
320,192,87998,1,0,0:0:0:0:
64,192,88198,1,0,0:0:0:0:
320,192,88298,1,2,0:0:0:0:
448,192,88298,128,0,88498:0:0:0:0:
192,192,88398,1,0,0:0:0:0:
64,192,88498,1,0,0:0:0:0:
320,192,88598,1,8,0:0:0:0:
192,192,88698,1,2,0:0:0:0:
448,192,88798,1,0,0:0:0:0:
64,192,88898,1,8,0:0:0:0:
320,192,88898,1,0,0:0:0:0:
192,192,88994,1,0,0:0:0:0:
448,192,89091,1,0,0:0:0:0:
320,192,89188,1,8,0:0:0:0:
64,192,89285,1,8,0:0:0:0:
192,192,89285,1,0,0:0:0:0:
320,192,89478,1,8,0:0:0:0:
64,192,89575,1,8,0:0:0:0:
192,192,89672,1,8,0:0:0:0:
448,192,89672,1,0,0:0:0:0:
64,192,89870,128,4,89970:0:0:0:0:
320,192,89870,1,2,0:0:0:0:
448,192,89870,1,0,0:0:0:0:
64,192,90272,128,0,90373:0:0:0:0:
192,192,90272,1,0,0:0:0:0:
64,192,90474,128,0,90574:0:0:0:0:
192,192,90474,1,0,0:0:0:0:
192,192,90886,1,0,0:0:0:0:
320,192,90886,1,2,0:0:0:0:
448,192,90886,128,4,91087:0:0:0:0:
64,192,91188,1,2,0:0:0:0:
320,192,91188,128,4,91389:0:0:0:0:
448,192,91188,1,0,0:0:0:0:
64,192,91490,1,4,0:0:0:0:
192,192,91490,128,2,91691:0:0:0:0:
320,192,91490,1,0,0:0:0:0:
64,192,91892,1,8,0:0:0:0:
320,192,91892,1,0,0:0:0:0:
448,192,91892,128,0,91993:0:0:0:0:
64,192,92094,1,8,0:0:0:0:
320,192,92094,1,0,0:0:0:0:
448,192,92094,128,0,92194:0:0:0:0:
192,192,92295,1,0,0:0:0:70:tom03.wav
64,192,92496,1,8,0:0:0:0:
320,192,92496,128,0,92698:0:0:0:70:tom03.wav
448,192,92496,1,0,0:0:0:0:
64,192,92798,1,8,0:0:0:0:
192,192,92798,128,0,93000:0:0:0:70:tom03.wav
320,192,92798,1,0,0:0:0:0:
448,192,93000,1,0,0:0:0:0:
64,192,93100,1,2,0:0:0:0:
320,192,93100,1,8,0:0:0:0:
64,192,93302,1,2,0:0:0:0:
448,192,93302,1,4,0:0:0:0:
320,192,93402,1,0,0:0:0:0:
192,192,93503,1,0,0:0:0:0:
448,192,93604,1,0,0:0:0:0:
64,192,93704,1,2,0:0:0:0:
320,192,93704,1,0,0:0:0:0:
192,192,93805,1,0,0:0:0:0:
448,192,93906,1,8,0:0:0:0:
320,192,94006,1,8,0:0:0:0:
64,192,94107,1,2,0:0:0:0:
192,192,94107,1,8,0:0:0:0:
448,192,94208,1,8,0:0:0:0:
320,192,94308,1,8,0:0:0:0:
192,192,94409,1,8,0:0:0:0:
64,192,94510,1,2,0:0:0:0:
448,192,94510,1,8,0:0:0:0:
320,192,94610,1,8,0:0:0:0:
64,192,94711,1,8,0:0:0:0:
192,192,94812,1,8,0:0:0:0:
320,192,94912,1,2,0:0:0:0:
448,192,94912,1,8,0:0:0:0:
64,192,95013,1,8,0:0:0:0:
192,192,95114,1,8,0:0:0:0:
448,192,95214,1,8,0:0:0:0:
64,192,95315,1,2,0:0:0:0:
320,192,95315,1,8,0:0:0:0:
192,192,95416,1,0,0:0:0:0:
64,192,95516,1,0,0:0:0:70:tom03.wav
192,192,95718,1,2,0:0:0:0:
320,192,95718,1,4,0:0:0:0:
448,192,95718,128,0,95919:0:0:0:0:
64,192,96020,1,2,0:0:0:0:
192,192,96020,1,4,0:0:0:0:
448,192,96020,128,0,96221:0:0:0:0:
64,192,96322,1,4,0:0:0:0:
192,192,96322,128,2,96498:0:0:0:0:
320,192,96322,1,0,0:0:0:0:
64,192,96498,1,8,0:0:0:0:
448,192,96498,1,0,0:0:0:0:
192,192,96631,1,8,0:0:0:0:
320,192,96631,1,0,0:0:0:0:
448,192,96764,1,2,0:0:0:0:
64,192,96898,1,8,0:0:0:0:
320,192,96898,1,0,0:0:0:0:
192,192,97198,1,8,0:0:0:0:
448,192,97198,1,0,0:0:0:0:
64,192,97477,1,8,0:0:0:0:
448,192,97477,1,0,0:0:0:0:
64,192,97740,1,8,0:0:0:0:
320,192,97740,1,0,0:0:0:0:
192,192,98004,1,8,0:0:0:0:
320,192,98004,1,0,0:0:0:0:
64,192,98087,1,2,0:0:0:0:
448,192,98087,1,4,0:0:0:0:
192,192,99717,128,0,100517:0:0:0:0:
320,192,100517,128,0,101317:0:0:0:0:
448,192,101317,128,0,102917:0:0:0:0:
64,192,102917,128,0,103717:0:0:0:0:
448,192,103517,128,0,103717:0:0:0:0:
192,192,103717,128,0,104517:0:0:0:0:
320,192,104117,128,0,104517:0:0:0:0:
448,192,104517,128,4,105517:0:0:0:0:
192,192,104717,128,0,104817:0:0:0:0:
192,192,105017,128,0,105117:0:0:0:0:
192,192,105317,128,0,105517:0:0:0:0:
64,192,105517,128,0,105617:0:0:0:0:
448,192,105717,128,0,105917:0:0:0:0:
320,192,105917,128,0,106117:0:0:0:0:
64,192,106117,128,0,106917:0:0:0:0:
192,192,106917,128,0,107717:0:0:0:0:
320,192,107317,128,0,107717:0:0:0:0:
448,192,107717,128,0,108117:0:0:0:0:
64,192,107917,128,0,108017:0:0:0:0:
192,192,108217,128,0,108317:0:0:0:0:
320,192,108517,128,0,108617:0:0:0:0:
64,192,108717,128,0,108917:0:0:0:0:
448,192,108917,128,0,109117:0:0:0:0:
192,192,109117,128,0,109317:0:0:0:0:
64,192,109317,1,2,0:0:0:0:
320,192,109317,1,4,0:0:0:0:
448,192,109317,1,0,0:0:0:0:
64,192,109517,1,8,0:0:0:0:
192,192,109717,1,2,0:0:0:0:
320,192,109717,1,0,0:0:0:0:
192,192,109917,1,0,0:0:0:70:tom04.wav
64,192,110117,1,8,0:0:0:0:
320,192,110117,1,0,0:0:0:0:
448,192,110117,1,0,0:0:0:0:
192,192,110250,1,8,0:0:0:0:
448,192,110383,1,8,0:0:0:0:
64,192,110517,1,2,0:0:0:0:
192,192,110517,1,0,0:0:0:0:
448,192,110650,1,0,0:0:0:70:tom04.wav
320,192,110783,1,0,0:0:0:70:tom04.wav
64,192,110917,1,2,0:0:0:0:
192,192,110917,1,4,0:0:0:0:
448,192,110917,1,0,0:0:0:0:
64,192,111117,1,8,0:0:0:0:
192,192,111317,1,2,0:0:0:0:
448,192,111317,1,0,0:0:0:0:
448,192,111517,1,8,0:0:0:0:
64,192,111717,1,2,0:0:0:0:
320,192,111717,1,0,0:0:0:0:
64,192,111917,1,8,0:0:0:0:
192,192,112117,1,2,0:0:0:0:
448,192,112117,1,0,0:0:0:0:
448,192,112317,1,8,0:0:0:0:
64,192,112517,1,2,0:0:0:0:
320,192,112517,1,0,0:0:0:0:
448,192,112517,1,0,0:0:0:0:
192,192,112617,1,8,0:0:0:0:
448,192,112717,1,8,0:0:0:0:
320,192,112817,1,8,0:0:0:0:
64,192,112917,1,2,0:0:0:0:
192,192,112917,1,0,0:0:0:0:
448,192,113017,1,8,0:0:0:0:
320,192,113117,1,8,0:0:0:0:
192,192,113217,1,8,0:0:0:0:
64,192,113317,1,2,0:0:0:0:
448,192,113317,128,0,113517:0:0:0:0:
192,192,113517,1,8,0:0:0:0:
64,192,113617,1,2,0:0:0:0:
320,192,113617,128,4,113817:0:0:0:0:
448,192,113617,1,0,0:0:0:0:
192,192,113917,128,2,114117:0:0:0:0:
320,192,113917,1,4,0:0:0:0:
448,192,113917,1,0,0:0:0:0:
448,192,114317,1,8,0:0:0:0:
64,192,114517,1,8,0:0:0:0:
448,192,114517,1,2,0:0:0:0:
320,192,114717,1,8,0:0:0:0:
192,192,114817,1,0,0:0:0:0:
64,192,114917,1,2,0:0:0:0:
448,192,114917,128,8,115117:0:0:0:0:
320,192,115017,1,8,0:0:0:0:
192,192,115117,1,8,0:0:0:0:
64,192,115217,1,8,0:0:0:0:
320,192,115317,1,0,0:0:0:70:tom02.wav
448,192,115317,1,0,0:0:0:0:
64,192,115517,1,0,0:0:0:70:tom02.wav
448,192,115617,1,8,0:0:0:0:
192,192,115717,1,8,0:0:0:0:
320,192,115717,128,2,115917:0:0:0:0:
64,192,115817,1,8,0:0:0:0:
448,192,115917,1,8,0:0:0:0:
192,192,116017,1,8,0:0:0:0:
320,192,116117,1,2,0:0:0:0:
448,192,116117,1,8,0:0:0:0:
192,192,116317,1,0,0:0:0:70:tom03.wav
64,192,116517,128,2,116717:0:0:0:0:
320,192,116517,1,4,0:0:0:0:
448,192,116517,1,0,0:0:0:0:
192,192,116817,1,2,0:0:0:0:
320,192,116817,128,4,116917:0:0:0:0:
448,192,116817,1,0,0:0:0:0:
64,192,117117,1,2,0:0:0:0:
192,192,117117,1,4,0:0:0:0:
448,192,117117,128,0,117317:0:0:0:0:
320,192,117317,1,0,0:0:0:0:
192,192,117517,1,8,0:0:0:0:
320,192,117617,1,8,0:0:0:0:
64,192,117717,1,2,0:0:0:0:
448,192,117717,1,0,0:0:0:0:
192,192,117817,1,0,0:0:0:0:
320,192,117917,1,8,0:0:0:0:
64,192,118017,1,8,0:0:0:0:
192,192,118117,1,2,0:0:0:0:
448,192,118117,1,0,0:0:0:0:
320,192,118217,1,0,0:0:0:0:
64,192,118317,1,8,0:0:0:0:
192,192,118417,1,8,0:0:0:0:
320,192,118517,1,2,0:0:0:0:
448,192,118517,1,0,0:0:0:0:
192,192,118617,1,8,0:0:0:0:
64,192,118717,1,8,0:0:0:0:
320,192,118817,1,8,0:0:0:0:
64,192,118917,128,8,119117:0:0:0:0:
448,192,118917,1,2,0:0:0:0:
192,192,119017,1,0,0:0:0:0:
320,192,119117,1,0,0:0:0:70:tom03.wav
448,192,119217,1,0,0:0:0:0:
64,192,119317,1,8,0:0:0:0:
192,192,119317,1,2,0:0:0:0:
320,192,119417,1,0,0:0:0:0:
448,192,119517,1,0,0:0:0:70:tom04.wav
64,192,119717,128,2,119917:0:0:0:0:
320,192,119717,1,4,0:0:0:0:
448,192,119717,1,0,0:0:0:0:
64,192,120017,1,2,0:0:0:0:
192,192,120017,128,4,120217:0:0:0:0:
448,192,120017,1,0,0:0:0:0:
64,192,120317,1,2,0:0:0:0:
192,192,120317,1,4,0:0:0:0:
320,192,120317,128,0,120517:0:0:0:0:
448,192,120517,1,2,0:0:0:0:
64,192,120717,1,0,0:0:0:0:
192,192,120717,128,0,120817:0:0:0:0:
320,192,120917,128,8,121017:0:0:0:0:
448,192,120917,1,0,0:0:0:0:
64,192,121117,1,2,0:0:0:0:
192,192,121117,128,0,121217:0:0:0:0:
320,192,121317,128,2,121517:0:0:0:0:
448,192,121317,1,0,0:0:0:0:
64,192,121517,1,0,0:0:0:0:
192,192,121617,1,2,0:0:0:0:
320,192,121717,1,8,0:0:0:0:
448,192,121717,1,0,0:0:0:0:
64,192,121917,1,2,0:0:0:0:
192,192,121917,1,4,0:0:0:0:
448,192,122117,1,0,0:0:0:0:
64,192,122217,1,8,0:0:0:0:
320,192,122317,1,8,0:0:0:0:
192,192,122417,1,8,0:0:0:0:
64,192,122517,1,8,0:0:0:0:
448,192,122517,1,2,0:0:0:0:
320,192,122617,1,0,0:0:0:0:
192,192,122717,1,0,0:0:0:70:tom03.wav
448,192,122817,1,2,0:0:0:0:
64,192,122917,128,8,123017:0:0:0:0:
192,192,122917,1,0,0:0:0:70:tom03.wav
320,192,122917,1,0,0:0:0:0:
64,192,123217,128,8,123317:0:0:0:0:
192,192,123217,1,0,0:0:0:70:tom03.wav
448,192,123217,1,0,0:0:0:0:
64,192,123517,1,8,0:0:0:0:
320,192,123517,128,0,123617:0:0:0:70:tom03.wav
448,192,123517,1,0,0:0:0:0:
192,192,123717,1,2,0:0:0:0:
320,192,123717,1,4,0:0:0:0:
448,192,123717,128,0,123817:0:0:0:0:
448,192,123917,128,0,124017:0:0:0:0:
192,192,124117,128,8,124217:0:0:0:0:
320,192,124117,1,2,0:0:0:0:
192,192,124317,128,0,124417:0:0:0:0:
64,192,124517,128,2,124617:0:0:0:0:
448,192,124517,1,0,0:0:0:0:
320,192,124717,1,0,0:0:0:0:
64,192,124817,128,0,124917:0:0:0:0:
192,192,124917,1,8,0:0:0:0:
448,192,124917,1,2,0:0:0:0:
320,192,125117,128,0,125217:0:0:0:0:
64,192,125317,1,2,0:0:0:0:
448,192,125317,1,0,0:0:0:0:
320,192,125517,128,0,125617:0:0:0:0:
64,192,125717,1,8,0:0:0:0:
192,192,125717,128,2,125817:0:0:0:0:
448,192,125917,128,0,126017:0:0:0:0:
192,192,126117,128,2,126217:0:0:0:0:
320,192,126117,1,0,0:0:0:0:
448,192,126217,1,8,0:0:0:0:
64,192,126317,1,0,0:0:0:0:
192,192,126417,128,0,126517:0:0:0:0:
320,192,126517,1,8,0:0:0:0:
448,192,126517,1,2,0:0:0:0:
192,192,126717,128,0,126817:0:0:0:0:
448,192,126817,1,0,0:0:0:0:
64,192,126917,1,2,0:0:0:0:
320,192,126917,128,0,127017:0:0:0:0:
320,192,127117,128,0,127217:0:0:0:0:
64,192,127217,1,0,0:0:0:0:
192,192,127317,1,8,0:0:0:0:
320,192,127317,128,2,127417:0:0:0:0:
448,192,127517,1,0,0:0:0:0:
64,192,127717,1,2,0:0:0:0:
192,192,127717,128,0,127817:0:0:0:0:
320,192,127917,1,0,0:0:0:0:
192,192,128017,128,0,128117:0:0:0:0:
64,192,128117,1,8,0:0:0:0:
448,192,128117,1,2,0:0:0:0:
192,192,128317,128,0,128417:0:0:0:0:
64,192,128517,1,2,0:0:0:0:
448,192,128517,1,0,0:0:0:0:
448,192,128717,128,0,128817:0:0:0:0:
64,192,128917,128,8,129017:0:0:0:0:
192,192,128917,1,2,0:0:0:0:
448,192,129117,128,0,129217:0:0:0:0:
64,192,129317,1,2,0:0:0:0:
192,192,129317,128,0,129417:0:0:0:0:
448,192,129417,1,8,0:0:0:0:
320,192,129517,1,0,0:0:0:0:
64,192,129617,128,0,129717:0:0:0:0:
192,192,129717,128,2,129917:0:0:0:0:
320,192,129717,1,4,0:0:0:0:
448,192,129717,1,0,0:0:0:0:
320,192,129917,128,0,130017:0:0:0:0:
64,192,130117,1,4,0:0:0:0:
192,192,130117,1,2,0:0:0:0:
448,192,130117,128,0,130217:0:0:0:0:
448,192,130317,1,0,0:0:0:0:
64,192,130517,1,8,0:0:0:0:
320,192,130517,128,2,130617:0:0:0:0:
192,192,130717,1,0,0:0:0:0:
64,192,130917,128,2,131017:0:0:0:0:
448,192,130917,1,0,0:0:0:0:
320,192,131117,1,0,0:0:0:0:
64,192,131217,128,0,131317:0:0:0:0:
192,192,131317,1,8,0:0:0:0:
448,192,131317,1,2,0:0:0:0:
64,192,131517,128,0,131617:0:0:0:0:
64,192,131717,1,2,0:0:0:0:
320,192,131717,1,0,0:0:0:0:
192,192,131917,128,0,132017:0:0:0:0:
320,192,132117,128,8,132217:0:0:0:0:
448,192,132117,1,2,0:0:0:0:
64,192,132317,1,0,0:0:0:0:
192,192,132317,128,0,132417:0:0:0:0:
320,192,132517,128,2,132617:0:0:0:0:
448,192,132517,1,0,0:0:0:0:
192,192,132617,1,8,0:0:0:0:
320,192,132717,1,0,0:0:0:0:
192,192,132817,128,0,132917:0:0:0:0:
64,192,132917,1,8,0:0:0:0:
448,192,132917,1,2,0:0:0:0:
192,192,133117,128,0,133217:0:0:0:0:
64,192,133317,1,2,0:0:0:0:
320,192,133317,128,0,133417:0:0:0:0:
448,192,133517,1,0,0:0:0:0:
192,192,133717,1,8,0:0:0:0:
320,192,133717,128,2,133817:0:0:0:0:
64,192,133917,1,0,0:0:0:0:
192,192,134117,128,2,134217:0:0:0:0:
448,192,134117,1,0,0:0:0:0:
64,192,134317,1,0,0:0:0:0:
192,192,134417,128,0,134517:0:0:0:0:
320,192,134517,1,8,0:0:0:0:
448,192,134517,1,2,0:0:0:0:
320,192,134717,128,0,134817:0:0:0:0:
64,192,134917,1,2,0:0:0:0:
192,192,134917,1,0,0:0:0:0:
64,192,135117,1,8,0:0:0:0:
448,192,135117,1,0,0:0:0:0:
192,192,135317,1,2,0:0:0:0:
320,192,135317,1,4,0:0:0:0:
448,192,135317,1,0,0:0:0:0:
320,192,135517,1,8,0:0:0:0:
192,192,135617,1,8,0:0:0:0:
64,192,135717,1,2,0:0:0:0:
448,192,135717,1,0,0:0:0:0:
192,192,135917,1,8,0:0:0:0:
320,192,136017,1,8,0:0:0:0:
64,192,136117,1,2,0:0:0:0:
448,192,136117,1,0,0:0:0:0:
320,192,136317,1,8,0:0:0:0:
192,192,136417,1,8,0:0:0:0:
64,192,136517,1,4,0:0:0:0:
320,192,136517,1,2,0:0:0:0:
448,192,136517,128,0,136617:0:0:0:0:
320,192,136717,1,0,0:0:0:0:
192,192,136917,1,2,0:0:0:0:
448,192,136917,128,8,137017:0:0:0:0:
192,192,137117,1,0,0:0:0:0:
64,192,137317,128,2,137417:0:0:0:0:
320,192,137317,1,0,0:0:0:0:
448,192,137517,1,0,0:0:0:0:
64,192,137617,128,0,137717:0:0:0:0:
192,192,137717,1,2,0:0:0:0:
320,192,137717,1,8,0:0:0:0:
320,192,137917,128,0,138017:0:0:0:0:
64,192,138117,1,2,0:0:0:0:
448,192,138117,1,0,0:0:0:0:
192,192,138317,128,0,138417:0:0:0:0:
192,192,138517,128,2,138617:0:0:0:0:
320,192,138517,1,8,0:0:0:0:
448,192,138717,128,0,138817:0:0:0:0:
192,192,138917,1,2,0:0:0:0:
448,192,138917,128,0,139017:0:0:0:0:
64,192,139017,1,8,0:0:0:0:
448,192,139217,128,0,139317:0:0:0:0:
64,192,139317,1,2,0:0:0:0:
192,192,139317,1,8,0:0:0:0:
448,192,139517,128,0,139617:0:0:0:0:
192,192,139717,1,2,0:0:0:0:
320,192,139717,128,0,139817:0:0:0:0:
64,192,139917,1,0,0:0:0:0:
320,192,140117,128,2,140217:0:0:0:0:
448,192,140117,1,8,0:0:0:0:
192,192,140317,1,0,0:0:0:0:
64,192,140517,128,2,140617:0:0:0:0:
448,192,140517,1,0,0:0:0:0:
320,192,140717,1,0,0:0:0:0:
64,192,140817,128,0,140917:0:0:0:0:
192,192,140917,1,2,0:0:0:0:
448,192,140917,1,8,0:0:0:0:
64,192,141117,128,0,141217:0:0:0:0:
192,192,141317,128,2,141417:0:0:0:0:
320,192,141317,1,0,0:0:0:0:
320,192,141517,128,0,141617:0:0:0:0:
64,192,141717,128,2,141817:0:0:0:0:
448,192,141717,1,8,0:0:0:0:
320,192,141917,128,0,142017:0:0:0:0:
64,192,142117,128,2,142217:0:0:0:0:
192,192,142117,1,0,0:0:0:0:
320,192,142217,1,8,0:0:0:0:
448,192,142317,1,0,0:0:0:0:
192,192,142417,128,0,142517:0:0:0:0:
64,192,142517,1,2,0:0:0:0:
320,192,142517,128,8,142617:0:0:0:0:
192,192,142717,1,8,0:0:0:0:
320,192,142817,1,8,0:0:0:0:
64,192,142917,128,4,143017:0:0:0:0:
192,192,142917,1,2,0:0:0:0:
448,192,142917,1,0,0:0:0:0:
448,192,143117,1,0,0:0:0:0:
64,192,143317,128,2,143417:0:0:0:0:
192,192,143317,1,8,0:0:0:0:
320,192,143517,1,0,0:0:0:0:
192,192,143717,128,2,143817:0:0:0:0:
448,192,143717,1,0,0:0:0:0:
64,192,143917,1,0,0:0:0:0:
192,192,144017,128,0,144117:0:0:0:0:
320,192,144117,1,2,0:0:0:0:
448,192,144117,1,8,0:0:0:0:
192,192,144317,128,0,144417:0:0:0:0:
64,192,144517,1,2,0:0:0:0:
320,192,144517,128,0,144617:0:0:0:0:
192,192,144717,128,0,144817:0:0:0:0:
64,192,144917,1,2,0:0:0:0:
448,192,144917,128,8,145017:0:0:0:0:
320,192,145117,128,0,145217:0:0:0:0:
64,192,145317,128,2,145417:0:0:0:0:
192,192,145317,1,0,0:0:0:0:
320,192,145417,1,8,0:0:0:0:
448,192,145517,1,0,0:0:0:70:tom03.wav
64,192,145717,1,2,0:0:0:0:
448,192,145717,1,0,0:0:0:0:
320,192,145917,1,0,0:0:0:70:tom04.wav
64,192,146117,1,4,0:0:0:0:
192,192,146117,1,2,0:0:0:0:
448,192,146117,1,0,0:0:0:0:
64,192,146317,1,0,0:0:0:0:
192,192,146417,1,0,0:0:0:0:
320,192,146517,1,2,0:0:0:0:
448,192,146517,1,8,0:0:0:0:
64,192,146617,1,8,0:0:0:0:
448,192,146717,1,8,0:0:0:0:
320,192,146817,1,8,0:0:0:0:
64,192,146917,1,2,0:0:0:0:
192,192,146917,1,8,0:0:0:0:
448,192,147017,1,8,0:0:0:0:
64,192,147117,1,8,0:0:0:0:
320,192,147217,1,8,0:0:0:0:
192,192,147317,1,2,0:0:0:0:
448,192,147317,1,8,0:0:0:0:
64,192,147417,1,0,0:0:0:70:tom02.wav
320,192,147517,1,0,0:0:0:70:tom02.wav
192,192,147617,1,0,0:0:0:70:tom03.wav
64,192,147717,1,2,0:0:0:0:
320,192,147717,1,4,0:0:0:0:
448,192,147717,128,0,148109:0:0:0:0:
64,192,148501,128,0,148893:0:0:0:0:
320,192,148501,1,0,0:0:0:0:
192,192,148893,128,0,149292:0:0:0:0:
448,192,149292,1,4,0:0:0:0:
64,192,149292,1,2,0:0:0:0:
320,192,149592,1,8,0:0:0:0:
448,192,149592,1,0,0:0:0:0:
64,192,149892,1,2,0:0:0:0:
192,192,149892,1,0,0:0:0:0:
192,192,150192,1,8,0:0:0:0:
448,192,150192,1,0,0:0:0:0:
64,192,150492,1,2,0:0:0:0:
448,192,150492,1,0,0:0:0:0:
64,192,150892,1,2,0:0:0:0:
192,192,150892,1,0,0:0:0:0:
64,192,151180,1,8,0:0:0:0:
448,192,151180,1,0,0:0:0:0:
192,192,151444,1,2,0:0:0:0:
448,192,151444,1,0,0:0:0:0:
64,192,151757,1,8,0:0:0:0:
320,192,151757,1,0,0:0:0:0:
64,192,152045,1,2,0:0:0:0:
448,192,152045,1,0,0:0:0:0:
320,192,152470,1,2,0:0:0:0:
448,192,152470,1,0,0:0:0:0:
64,192,152764,1,8,0:0:0:0:
192,192,152764,1,0,0:0:0:0:
64,192,153058,1,2,0:0:0:0:
448,192,153058,1,0,0:0:0:0:
320,192,153352,1,8,0:0:0:0:
448,192,153352,1,0,0:0:0:0:
64,192,153654,1,2,0:0:0:0:
192,192,153654,1,0,0:0:0:0:
64,192,154084,1,4,0:0:0:0:
448,192,154084,1,2,0:0:0:0:
192,192,154286,1,8,0:0:0:0:
320,192,154388,1,8,0:0:0:0:
64,192,154489,1,2,0:0:0:0:
192,192,154590,1,0,0:0:0:70:tom03.wav
320,192,154692,1,8,0:0:0:0:
448,192,154793,1,2,0:0:0:0:
192,192,154894,1,0,0:0:0:70:tom03.wav
64,192,154996,1,8,0:0:0:0:
448,192,154996,1,0,0:0:0:0:
320,192,155097,1,2,0:0:0:0:
192,192,155198,1,0,0:0:0:70:tom03.wav
64,192,155300,1,8,0:0:0:0:
448,192,155401,1,2,0:0:0:0:
320,192,155502,1,8,0:0:0:0:
448,192,155570,1,8,0:0:0:0:
64,192,155674,1,2,0:0:0:0:
192,192,155674,1,4,0:0:0:0:
64,192,155874,128,0,156210:0:0:0:0:
448,192,155974,1,2,0:0:0:0:
192,192,156210,128,0,156510:0:0:0:0:
448,192,156510,128,0,156810:0:0:0:0:
320,192,156810,128,0,157110:0:0:0:0:
192,192,157110,128,0,157310:0:0:0:0:
64,192,157310,1,2,0:0:0:0:
448,192,157310,1,0,0:0:0:0:
320,192,157510,128,0,157610:0:0:0:0:
192,192,157610,1,2,0:0:0:0:
448,192,157810,128,0,157910:0:0:0:0:
64,192,158110,128,0,158410:0:0:0:0:
320,192,158410,128,0,158510:0:0:0:0:
192,192,158510,128,0,158710:0:0:0:0:
64,192,158710,1,2,0:0:0:0:
448,192,158710,128,0,158910:0:0:0:0:
192,192,158910,1,2,0:0:0:0:
320,192,158910,1,0,0:0:0:0:
64,192,159110,128,0,159410:0:0:0:0:
448,192,159210,1,2,0:0:0:0:
192,192,159410,128,0,159710:0:0:0:0:
320,192,159710,128,0,160010:0:0:0:0:
192,192,160010,128,0,160310:0:0:0:0:
64,192,160310,1,2,0:0:0:0:
448,192,160310,128,0,160510:0:0:0:0:
192,192,160510,1,2,0:0:0:0:
320,192,160710,128,0,161010:0:0:0:0:
448,192,160810,1,2,0:0:0:0:
192,192,161010,128,0,161310:0:0:0:0:
64,192,161310,128,0,161610:0:0:0:70:tom02.wav
320,192,161310,1,0,0:0:0:0:
192,192,161610,1,0,0:0:0:70:tom02.wav
448,192,161610,128,0,161910:0:0:0:0:
64,192,161910,1,0,0:0:0:70:tom02.wav
320,192,161910,128,0,162110:0:0:0:0:
192,192,162110,1,4,0:0:0:0:
448,192,162110,1,2,0:0:0:0:
320,192,162310,128,0,162610:0:0:0:0:
64,192,162510,1,2,0:0:0:0:
192,192,162610,128,0,162910:0:0:0:0:
64,192,162910,128,2,163210:0:0:0:0:
448,192,162910,1,0,0:0:0:0:
192,192,163210,128,2,163510:0:0:0:0:
320,192,163210,1,0,0:0:0:0:
64,192,163510,1,2,0:0:0:0:
320,192,163510,128,0,163710:0:0:0:0:
192,192,163710,1,2,0:0:0:0:
448,192,163710,1,0,0:0:0:0:
64,192,163910,128,0,164210:0:0:0:0:
320,192,164110,1,2,0:0:0:0:
448,192,164210,128,0,164510:0:0:0:0:
64,192,164510,1,2,0:0:0:0:
320,192,164510,128,0,164810:0:0:0:0:
192,192,164810,128,2,165110:0:0:0:0:
448,192,164810,1,0,0:0:0:0:
64,192,165110,128,2,165310:0:0:0:0:
320,192,165110,1,0,0:0:0:0:
192,192,165310,1,2,0:0:0:0:
448,192,165310,1,0,0:0:0:0:
320,192,165510,128,0,165810:0:0:0:0:
192,192,165710,1,2,0:0:0:0:
64,192,165810,128,0,166110:0:0:0:0:
320,192,166110,1,2,0:0:0:0:
448,192,166110,128,0,166410:0:0:0:0:
64,192,166410,1,2,0:0:0:0:
192,192,166410,128,0,166710:0:0:0:0:
320,192,166710,128,2,166910:0:0:0:0:
448,192,166710,1,0,0:0:0:0:
64,192,166910,128,2,167310:0:0:0:0:
192,192,166910,1,0,0:0:0:0:
320,192,167310,128,0,167510:0:0:0:0:
192,192,167510,128,0,167710:0:0:0:0:
64,192,167710,1,8,0:0:0:0:
448,192,167710,128,0,168510:0:0:0:70:tom02.wav
64,192,168010,1,8,0:0:0:0:
64,192,168310,1,8,0:0:0:0:
192,192,168510,1,2,0:0:0:0:
320,192,168510,128,4,168710:0:0:0:0:
448,192,168710,1,8,0:0:0:0:
64,192,168810,128,0,169010:0:0:0:0:
448,192,168910,1,10,0:0:0:0:
192,192,169110,1,0,0:0:0:0:
64,192,169310,1,2,0:0:0:0:
320,192,169310,128,0,169510:0:0:0:0:
192,192,169610,1,8,0:0:0:0:
448,192,169610,128,0,169810:0:0:0:0:
64,192,169710,1,2,0:0:0:0:
192,192,169910,1,8,0:0:0:0:
320,192,169910,128,0,170010:0:0:0:0:
64,192,170110,128,2,170310:0:0:0:0:
448,192,170110,1,0,0:0:0:0:
320,192,170310,1,8,0:0:0:0:
192,192,170410,128,0,170610:0:0:0:0:
448,192,170510,1,10,0:0:0:0:
64,192,170710,128,0,170910:0:0:0:0:
192,192,170910,1,8,0:0:0:0:
320,192,170910,128,2,171110:0:0:0:0:
448,192,171110,1,0,0:0:0:0:
64,192,171210,1,8,0:0:0:0:
192,192,171210,128,0,171410:0:0:0:0:
320,192,171310,1,2,0:0:0:0:
64,192,171510,128,8,171610:0:0:0:0:
448,192,171510,1,0,0:0:0:0:
192,192,171710,1,2,0:0:0:0:
320,192,171710,128,0,171910:0:0:0:0:
64,192,171910,1,8,0:0:0:0:
448,192,172110,1,10,0:0:0:0:
320,192,172210,128,0,172410:0:0:0:0:
64,192,172310,1,8,0:0:0:0:
192,192,172410,1,8,0:0:0:0:
64,192,172510,128,2,172610:0:0:0:0:
448,192,172510,1,0,0:0:0:0:
192,192,172810,128,2,172910:0:0:0:0:
320,192,172810,1,4,0:0:0:0:
448,192,173060,128,0,173710:0:0:0:0:
64,192,173110,1,2,0:0:0:0:
192,192,173110,1,4,0:0:0:0:
192,192,173710,1,4,0:0:0:0:
320,192,173710,1,2,0:0:0:0:
64,192,173810,1,8,0:0:0:0:
320,192,173910,1,8,0:0:0:0:
192,192,174010,1,8,0:0:0:0:
64,192,174110,1,2,0:0:0:0:
448,192,174110,1,8,0:0:0:0:
320,192,174210,1,8,0:0:0:0:
192,192,174310,1,8,0:0:0:0:
448,192,174410,1,8,0:0:0:0:
64,192,174510,1,2,0:0:0:0:
320,192,174510,1,8,0:0:0:0:
192,192,174610,1,8,0:0:0:0:
448,192,174710,1,8,0:0:0:0:
64,192,174810,1,8,0:0:0:0:
192,192,174910,128,2,175110:0:0:0:0:
448,192,174910,1,4,0:0:0:0:
320,192,174910,1,0,0:0:0:0:
64,192,175210,1,2,0:0:0:0:
320,192,175310,1,8,0:0:0:0:
448,192,175310,1,0,0:0:0:0:
192,192,175510,1,2,0:0:0:0:
64,192,175710,128,2,175910:0:0:0:0:
320,192,175710,1,0,0:0:0:0:
448,192,175910,1,12,0:0:0:0:
64,192,176010,1,2,0:0:0:0:
192,192,176010,128,0,176210:0:0:0:0:
320,192,176210,1,12,0:0:0:0:
192,192,176310,1,2,0:0:0:0:
448,192,176310,128,0,176410:0:0:0:0:
64,192,176510,128,2,176710:0:0:0:0:
448,192,176510,1,0,0:0:0:0:
320,192,176610,1,8,0:0:0:0:
448,192,176810,1,2,0:0:0:0:
64,192,176910,1,8,0:0:0:0:
192,192,176910,1,0,0:0:0:0:
448,192,177110,1,0,0:0:0:70:tom03.wav
320,192,177210,1,8,0:0:0:0:
64,192,177310,128,2,177510:0:0:0:0:
192,192,177310,1,4,0:0:0:0:
448,192,177310,1,0,0:0:0:0:
320,192,177510,1,8,0:0:0:0:
192,192,177610,128,4,177810:0:0:0:0:
448,192,177610,1,2,0:0:0:0:
320,192,177810,1,8,0:0:0:0:
64,192,177910,128,2,178010:0:0:0:0:
192,192,177910,1,0,0:0:0:0:
192,192,178110,1,2,0:0:0:0:
320,192,178110,1,4,0:0:0:0:
448,192,178110,128,0,178310:0:0:0:0:
64,192,178210,1,0,0:0:0:0:
320,192,178310,1,8,0:0:0:0:
192,192,178410,1,8,0:0:0:0:
448,192,178510,1,2,0:0:0:0:
192,192,178610,1,8,0:0:0:0:
320,192,178710,1,0,0:0:0:70:tom01.wav
64,192,178810,1,0,0:0:0:70:tom02.wav
192,192,178910,128,4,179110:0:0:0:0:
320,192,178910,1,2,0:0:0:0:
448,192,178910,1,0,0:0:0:0:
64,192,179210,1,2,0:0:0:0:
320,192,179210,128,4,179410:0:0:0:0:
192,192,179410,1,0,0:0:0:70:tom03.wav
64,192,179510,128,2,179710:0:0:0:0:
448,192,179510,1,4,0:0:0:0:
192,192,179710,1,2,0:0:0:0:
320,192,179710,128,4,180310:0:0:0:0:
448,192,179710,1,0,0:0:0:0:
64,192,180310,128,0,180510:0:0:0:0:
448,192,180510,1,0,0:0:0:0:
64,192,181310,128,2,182110:0:0:0:0:
192,192,181310,1,4,0:0:0:0:
320,192,181310,1,0,0:0:0:0:
192,192,182710,128,0,182910:0:0:0:0:
64,192,182910,128,0,183710:0:0:0:0:
192,192,183610,128,0,183710:0:0:0:0:
448,192,183710,128,0,183910:0:0:0:0:
64,192,183910,1,8,0:0:0:0:
320,192,183910,1,0,0:0:0:70:tom01.wav
192,192,184110,1,0,0:0:0:70:tom02.wav
448,192,184110,1,0,0:0:0:0:
64,192,184510,1,8,0:0:0:0:
192,192,184510,1,0,0:0:0:70:tom03.wav
320,192,184610,1,8,0:0:0:0:
448,192,184610,1,0,0:0:0:70:tom03.wav
64,192,184810,1,8,0:0:0:0:
192,192,184810,1,0,0:0:0:70:tom03.wav
320,192,185010,1,8,0:0:0:0:
448,192,185010,1,0,0:0:0:70:tom03.wav
64,192,185210,1,8,0:0:0:0:
192,192,185210,1,0,0:0:0:70:tom03.wav
320,192,185310,1,8,0:0:0:0:
448,192,185310,1,0,0:0:0:70:tom03.wav
192,192,185510,128,0,185710:0:0:0:0:
448,192,185710,128,0,186010:0:0:0:0:
64,192,186110,128,2,186210:0:0:0:0:
192,192,186110,1,4,0:0:0:0:
320,192,186110,1,0,0:0:0:0:
64,192,186310,128,0,186410:0:0:0:0:
192,192,186510,1,2,0:0:0:0:
320,192,186510,128,8,186610:0:0:0:0:
320,192,186710,128,0,186810:0:0:0:0:
64,192,186910,1,2,0:0:0:0:
448,192,186910,128,0,187010:0:0:0:0:
192,192,187110,1,0,0:0:0:0:
448,192,187210,128,0,187310:0:0:0:0:
64,192,187310,1,2,0:0:0:0:
320,192,187310,1,8,0:0:0:0:
192,192,187510,128,0,187610:0:0:0:0:
64,192,187710,1,2,0:0:0:0:
448,192,187710,1,0,0:0:0:0:
192,192,187910,128,0,188010:0:0:0:0:
192,192,188110,128,2,188210:0:0:0:0:
448,192,188110,1,8,0:0:0:0:
320,192,188310,128,0,188410:0:0:0:0:
320,192,188510,128,2,188610:0:0:0:0:
448,192,188510,1,0,0:0:0:0:
64,192,188610,1,8,0:0:0:0:
192,192,188710,1,0,0:0:0:0:
320,192,188810,128,0,188910:0:0:0:0:
64,192,188910,1,8,0:0:0:0:
448,192,188910,1,2,0:0:0:0:
320,192,189110,128,0,189210:0:0:0:0:
64,192,189210,1,0,0:0:0:0:
192,192,189310,128,2,189410:0:0:0:0:
448,192,189310,1,0,0:0:0:0:
320,192,189510,1,0,0:0:0:0:
448,192,189610,1,0,0:0:0:0:
64,192,189710,1,8,0:0:0:0:
192,192,189710,128,2,189810:0:0:0:0:
64,192,189910,1,0,0:0:0:0:
192,192,190010,1,0,0:0:0:0:
320,192,190110,128,2,190210:0:0:0:0:
448,192,190110,1,0,0:0:0:0:
64,192,190310,1,0,0:0:0:0:
320,192,190410,128,0,190510:0:0:0:0:
192,192,190510,1,8,0:0:0:0:
448,192,190510,1,2,0:0:0:0:
320,192,190710,128,0,190810:0:0:0:0:
64,192,190910,1,2,0:0:0:0:
448,192,190910,1,0,0:0:0:0:
192,192,191010,1,8,0:0:0:0:
320,192,191110,128,0,191210:0:0:0:0:
192,192,191310,1,8,0:0:0:0:
448,192,191310,128,2,191410:0:0:0:0:
64,192,191510,128,8,191610:0:0:0:0:
448,192,191510,1,4,0:0:0:0:
192,192,191710,1,4,0:0:0:0:
320,192,191710,128,2,191810:0:0:0:0:
448,192,191810,1,8,0:0:0:0:
64,192,191910,1,8,0:0:0:0:
448,192,192010,128,8,192110:0:0:0:0:
64,192,192110,1,2,0:0:0:0:
320,192,192110,128,0,192310:0:0:0:0:
192,192,192310,1,8,0:0:0:0:
320,192,192410,1,8,0:0:0:0:
64,192,192510,128,2,192610:0:0:0:0:
192,192,192510,1,4,0:0:0:0:
448,192,192510,1,0,0:0:0:0:
448,192,192710,1,0,0:0:0:0:
64,192,192910,1,8,0:0:0:0:
192,192,192910,128,2,193010:0:0:0:0:
320,192,193110,1,0,0:0:0:0:
64,192,193310,1,2,0:0:0:0:
448,192,193310,128,0,193410:0:0:0:0:
192,192,193510,1,0,0:0:0:0:
448,192,193610,128,0,193710:0:0:0:0:
64,192,193710,1,8,0:0:0:0:
320,192,193710,1,2,0:0:0:0:
448,192,193910,128,0,194010:0:0:0:0:
192,192,194110,1,2,0:0:0:0:
320,192,194110,1,0,0:0:0:0:
320,192,194310,128,0,194410:0:0:0:0:
64,192,194510,1,8,0:0:0:0:
192,192,194510,128,2,194610:0:0:0:0:
320,192,194710,128,0,194810:0:0:0:0:
64,192,194910,1,2,0:0:0:0:
192,192,194910,128,0,195010:0:0:0:0:
448,192,195010,1,8,0:0:0:0:
192,192,195110,1,0,0:0:0:0:
320,192,195210,128,0,195310:0:0:0:0:
64,192,195310,1,8,0:0:0:0:
448,192,195310,1,2,0:0:0:0:
320,192,195510,128,0,195610:0:0:0:0:
192,192,195710,128,2,195810:0:0:0:0:
448,192,195710,1,0,0:0:0:0:
448,192,195910,128,0,196010:0:0:0:0:
64,192,196110,1,8,0:0:0:0:
192,192,196110,1,2,0:0:0:0:
448,192,196210,128,0,196310:0:0:0:0:
320,192,196310,1,0,0:0:0:0:
64,192,196510,1,2,0:0:0:0:
192,192,196510,128,0,196610:0:0:0:0:
448,192,196710,1,8,0:0:0:0:
320,192,196810,128,0,196910:0:0:0:0:
64,192,196910,1,8,0:0:0:0:
192,192,196910,1,2,0:0:0:0:
64,192,197110,128,8,197210:0:0:0:0:
320,192,197110,1,4,0:0:0:0:
192,192,197310,1,2,0:0:0:0:
448,192,197310,1,4,0:0:0:0:
64,192,197376,1,8,0:0:0:0:
320,192,197443,1,8,0:0:0:0:
192,192,197510,1,8,0:0:0:0:
64,192,197610,1,8,0:0:0:0:
320,192,197710,1,2,0:0:0:0:
448,192,197710,1,0,0:0:0:0:
192,192,197910,1,8,0:0:0:0:
320,192,198010,1,8,0:0:0:0:
64,192,198110,1,2,0:0:0:0:
448,192,198110,1,0,0:0:0:0:
64,192,198310,1,2,0:0:0:0:
320,192,198310,1,0,0:0:0:0:
192,192,198510,1,8,0:0:0:0:
448,192,198510,1,0,0:0:0:0:
64,192,198710,1,0,0:0:0:70:tom03.wav
192,192,198810,1,0,0:0:0:70:tom04.wav
64,192,198910,128,4,199010:0:0:0:0:
320,192,198910,1,2,0:0:0:0:
448,192,198910,1,0,0:0:0:0:
192,192,199110,128,0,199210:0:0:0:0:
64,192,199310,1,2,0:0:0:0:
448,192,199310,128,8,199410:0:0:0:0:
192,192,199410,1,0,0:0:0:0:
320,192,199510,128,0,199610:0:0:0:0:
192,192,199610,1,0,0:0:0:0:
64,192,199710,1,2,0:0:0:0:
448,192,199710,128,0,199810:0:0:0:0:
320,192,199810,1,8,0:0:0:0:
192,192,199910,1,0,0:0:0:0:
448,192,200010,128,0,200110:0:0:0:0:
64,192,200110,1,2,0:0:0:0:
320,192,200110,1,8,0:0:0:0:
448,192,200310,128,0,200410:0:0:0:0:
320,192,200410,1,8,0:0:0:0:
64,192,200510,1,2,0:0:0:0:
448,192,200510,1,0,0:0:0:0:
192,192,200610,1,8,0:0:0:0:
320,192,200710,128,0,200810:0:0:0:0:
320,192,200910,128,2,201010:0:0:0:0:
448,192,200910,1,8,0:0:0:0:
64,192,201110,128,0,201210:0:0:0:0:
192,192,201210,1,8,0:0:0:0:
64,192,201310,128,2,201410:0:0:0:0:
320,192,201310,1,0,0:0:0:0:
448,192,201410,1,8,0:0:0:0:
64,192,201610,128,0,201710:0:0:0:0:
192,192,201710,1,2,0:0:0:0:
320,192,201710,1,8,0:0:0:0:
64,192,201910,128,0,202010:0:0:0:0:
192,192,202110,128,2,202210:0:0:0:0:
320,192,202110,1,0,0:0:0:0:
448,192,202210,1,8,0:0:0:0:
64,192,202310,1,0,0:0:0:0:
192,192,202510,128,8,202610:0:0:0:0:
320,192,202510,1,2,0:0:0:0:
64,192,202710,1,0,0:0:0:0:
192,192,202810,1,8,0:0:0:0:
320,192,202910,1,2,0:0:0:0:
448,192,202910,128,0,203010:0:0:0:0:
192,192,203110,1,0,0:0:0:0:
448,192,203210,128,0,203310:0:0:0:0:
64,192,203310,1,2,0:0:0:0:
320,192,203310,1,8,0:0:0:0:
192,192,203510,128,0,203610:0:0:0:0:
64,192,203710,1,2,0:0:0:0:
320,192,203710,128,0,203810:0:0:0:0:
448,192,203810,1,8,0:0:0:0:
192,192,203910,128,0,204010:0:0:0:0:
320,192,204110,128,2,204210:0:0:0:0:
448,192,204110,1,8,0:0:0:0:
64,192,204310,1,8,0:0:0:0:
192,192,204310,128,0,204410:0:0:0:0:
320,192,204510,1,2,0:0:0:0:
448,192,204510,128,0,204610:0:0:0:0:
64,192,204610,1,8,0:0:0:0:
192,192,204710,1,8,0:0:0:0:
320,192,204810,128,8,204910:0:0:0:0:
64,192,204910,1,2,0:0:0:0:
192,192,204910,128,0,205010:0:0:0:0:
320,192,205110,1,8,0:0:0:0:
192,192,205210,1,8,0:0:0:0:
64,192,205310,1,4,0:0:0:0:
320,192,205310,1,2,0:0:0:0:
448,192,205310,128,0,205410:0:0:0:0:
64,192,205510,1,0,0:0:0:0:
192,192,205710,1,2,0:0:0:0:
448,192,205710,128,8,205810:0:0:0:0:
64,192,205910,1,0,0:0:0:0:
448,192,206010,1,8,0:0:0:0:
192,192,206110,1,2,0:0:0:0:
320,192,206110,128,0,206210:0:0:0:0:
64,192,206210,1,8,0:0:0:0:
448,192,206310,1,0,0:0:0:0:
320,192,206410,128,0,206510:0:0:0:0:
64,192,206510,1,2,0:0:0:0:
192,192,206510,1,8,0:0:0:0:
320,192,206710,128,0,206810:0:0:0:0:
192,192,206910,128,2,207010:0:0:0:0:
448,192,206910,1,0,0:0:0:0:
320,192,207010,1,8,0:0:0:0:
64,192,207110,128,0,207210:0:0:0:0:
192,192,207310,128,2,207410:0:0:0:0:
320,192,207310,1,8,0:0:0:0:
448,192,207510,128,8,207610:0:0:0:0:
64,192,207610,1,8,0:0:0:0:
320,192,207710,128,4,207810:0:0:0:0:
448,192,207710,1,2,0:0:0:0:
192,192,207910,1,8,0:0:0:0:
320,192,208010,1,8,0:0:0:0:
64,192,208110,1,2,0:0:0:0:
448,192,208110,1,0,0:0:0:0:
320,192,208310,1,8,0:0:0:0:
192,192,208410,1,8,0:0:0:0:
64,192,208502,1,2,0:0:0:0:
320,192,208502,1,4,0:0:0:0:
448,192,208502,1,0,0:0:0:0:
192,192,208702,1,8,0:0:0:0:
448,192,208702,1,0,0:0:0:0:
64,192,208902,1,2,0:0:0:0:
192,192,208902,1,0,0:0:0:0:
448,192,209002,1,0,0:0:0:70:tom01.wav
320,192,209102,1,0,0:0:0:70:tom02.wav
192,192,209202,1,0,0:0:0:70:tom03.wav
320,192,209302,1,2,0:0:0:0:
448,192,209302,1,4,0:0:0:0:
64,192,209402,1,0,0:0:0:0:
448,192,209502,1,8,0:0:0:0:
192,192,209602,1,8,0:0:0:0:
64,192,209702,1,2,0:0:0:0:
320,192,209702,1,0,0:0:0:0:
448,192,209802,1,8,0:0:0:0:
192,192,209902,1,8,0:0:0:0:
320,192,210002,1,8,0:0:0:0:
64,192,210102,128,2,210302:0:0:0:0:
192,192,210102,1,4,0:0:0:0:
448,192,210102,1,0,0:0:0:0:
192,192,210302,128,2,210502:0:0:0:0:
320,192,210302,1,0,0:0:0:0:
320,192,210502,128,2,210702:0:0:0:0:
448,192,210502,1,8,0:0:0:0:
64,192,210702,1,2,0:0:0:0:
448,192,210702,128,8,210902:0:0:0:0:
192,192,210902,128,2,211102:0:0:0:0:
320,192,210902,1,8,0:0:0:0:
64,192,211102,1,2,0:0:0:0:
448,192,211102,1,8,0:0:0:0:
320,192,211202,128,0,211302:0:0:0:0:
192,192,211302,1,2,0:0:0:0:
448,192,211402,1,0,0:0:0:0:
320,192,211502,1,8,0:0:0:0:
192,192,211602,1,8,0:0:0:0:
64,192,211702,128,2,211802:0:0:0:0:
448,192,211702,1,4,0:0:0:0:
320,192,211902,1,0,0:0:0:0:
64,192,212102,128,2,212202:0:0:0:0:
192,192,212102,1,8,0:0:0:0:
320,192,212302,1,0,0:0:0:0:
192,192,212502,1,2,0:0:0:0:
448,192,212502,128,0,212602:0:0:0:0:
64,192,212602,1,8,0:0:0:0:
448,192,212802,128,0,212902:0:0:0:0:
192,192,212902,1,2,0:0:0:0:
320,192,212902,1,8,0:0:0:0:
448,192,213102,128,0,213202:0:0:0:0:
64,192,213302,1,2,0:0:0:0:
192,192,213302,1,0,0:0:0:0:
320,192,213402,1,8,0:0:0:0:
448,192,213502,128,0,213602:0:0:0:0:
64,192,213702,1,2,0:0:0:0:
192,192,213702,128,8,213802:0:0:0:0:
320,192,213902,128,0,214002:0:0:0:0:
192,192,214102,1,2,0:0:0:0:
448,192,214102,128,0,214202:0:0:0:0:
64,192,214202,1,8,0:0:0:0:
320,192,214302,1,0,0:0:0:0:
192,192,214402,128,0,214502:0:0:0:0:
64,192,214502,1,8,0:0:0:0:
448,192,214502,1,2,0:0:0:0:
64,192,214702,128,0,214802:0:0:0:0:
192,192,214802,1,8,0:0:0:0:
320,192,214902,128,2,215002:0:0:0:0:
448,192,214902,1,0,0:0:0:0:
320,192,215102,128,0,215202:0:0:0:0:
64,192,215302,1,8,0:0:0:0:
192,192,215302,128,2,215402:0:0:0:0:
192,192,215502,128,0,215602:0:0:0:0:
64,192,215702,128,2,215802:0:0:0:0:
448,192,215702,1,0,0:0:0:0:
320,192,215902,1,0,0:0:0:0:
192,192,216002,128,0,216102:0:0:0:0:
64,192,216102,1,8,0:0:0:0:
320,192,216102,1,2,0:0:0:0:
192,192,216302,128,0,216402:0:0:0:0:
64,192,216502,1,2,0:0:0:0:
320,192,216502,128,0,216602:0:0:0:0:
320,192,216702,128,0,216802:0:0:0:0:
192,192,216902,128,2,217002:0:0:0:0:
448,192,216902,1,8,0:0:0:0:
64,192,217102,1,8,0:0:0:0:
320,192,217102,128,0,217202:0:0:0:0:
192,192,217302,128,2,217402:0:0:0:0:
448,192,217302,1,0,0:0:0:0:
64,192,217402,1,8,0:0:0:0:
448,192,217502,1,0,0:0:0:0:
320,192,217602,128,0,217702:0:0:0:0:
64,192,217702,1,8,0:0:0:0:
192,192,217702,1,2,0:0:0:0:
64,192,217902,1,0,0:0:0:70:tom03.wav
320,192,217902,128,0,218002:0:0:0:0:
320,192,218102,1,2,0:0:0:0:
448,192,218102,128,4,218202:0:0:0:0:
192,192,218302,1,0,0:0:0:0:
64,192,218502,1,8,0:0:0:0:
448,192,218502,128,2,218602:0:0:0:0:
320,192,218702,1,0,0:0:0:0:
64,192,218902,128,2,219002:0:0:0:0:
192,192,218902,1,0,0:0:0:0:
448,192,219002,1,8,0:0:0:0:
64,192,219202,128,0,219302:0:0:0:0:
192,192,219302,1,8,0:0:0:0:
320,192,219302,1,2,0:0:0:0:
64,192,219502,128,0,219602:0:0:0:0:
320,192,219702,1,2,0:0:0:0:
448,192,219702,1,0,0:0:0:0:
64,192,219902,128,0,220002:0:0:0:0:
320,192,220102,128,8,220202:0:0:0:0:
448,192,220102,1,2,0:0:0:0:
192,192,220302,128,0,220402:0:0:0:0:
64,192,220402,1,0,0:0:0:0:
320,192,220502,1,2,0:0:0:0:
448,192,220502,128,0,220602:0:0:0:0:
192,192,220602,1,8,0:0:0:0:
448,192,220702,1,0,0:0:0:0:
320,192,220802,128,0,220902:0:0:0:0:
64,192,220902,1,2,0:0:0:0:
192,192,220902,1,8,0:0:0:0:
64,192,221102,128,2,221202:0:0:0:0:
448,192,221102,1,0,0:0:0:0:
64,192,221302,1,2,0:0:0:0:
192,192,221302,128,0,221402:0:0:0:0:
448,192,221502,1,0,0:0:0:0:
64,192,221702,1,2,0:0:0:0:
320,192,221702,128,8,221802:0:0:0:0:
64,192,221902,1,8,0:0:0:0:
192,192,222002,1,0,0:0:0:0:
320,192,222102,1,2,0:0:0:0:
448,192,222102,128,0,222202:0:0:0:0:
64,192,222202,1,8,0:0:0:0:
192,192,222302,1,0,0:0:0:0:
320,192,222402,128,0,222502:0:0:0:0:
64,192,222502,1,2,0:0:0:0:
448,192,222502,1,8,0:0:0:0:
320,192,222702,128,8,222802:0:0:0:0:
448,192,222702,1,0,0:0:0:0:
64,192,222902,1,2,0:0:0:0:
192,192,222902,1,0,0:0:0:0:
320,192,223002,1,8,0:0:0:0:
448,192,223102,128,8,223202:0:0:0:0:
192,192,223202,1,8,0:0:0:0:
64,192,223302,128,8,223402:0:0:0:0:
320,192,223302,1,2,0:0:0:0:
448,192,223402,1,8,0:0:0:0:
192,192,223502,1,8,0:0:0:0:
64,192,223602,1,8,0:0:0:0:
320,192,223702,1,10,0:0:0:0:
448,192,223702,128,0,223802:0:0:0:70:tom04.wav
64,192,223802,1,8,0:0:0:0:
192,192,223902,1,8,0:0:0:0:
320,192,224002,128,8,224102:0:0:0:0:
64,192,224102,1,10,0:0:0:0:
448,192,224102,1,0,0:0:0:70:tom03.wav
192,192,224202,1,8,0:0:0:0:
64,192,224302,128,8,224402:0:0:0:0:
320,192,224402,1,8,0:0:0:0:
64,192,224502,1,4,0:0:0:0:
192,192,224502,128,2,224602:0:0:0:0:
448,192,224502,1,0,0:0:0:0:
448,192,224702,1,0,0:0:0:0:
192,192,224902,128,2,225002:0:0:0:0:
320,192,224902,1,8,0:0:0:0:
192,192,225102,1,0,0:0:0:0:
64,192,225302,1,2,0:0:0:0:
448,192,225302,128,0,225402:0:0:0:0:
192,192,225402,1,8,0:0:0:0:
320,192,225502,1,0,0:0:0:0:
448,192,225602,128,0,225702:0:0:0:0:
64,192,225702,1,2,0:0:0:0:
192,192,225702,1,8,0:0:0:0:
448,192,225902,128,0,226002:0:0:0:0:
64,192,226002,1,0,0:0:0:0:
192,192,226102,1,2,0:0:0:0:
320,192,226102,1,0,0:0:0:0:
64,192,226202,1,8,0:0:0:0:
448,192,226302,1,0,0:0:0:0:
192,192,226502,128,2,226602:0:0:0:0:
448,192,226502,1,8,0:0:0:0:
64,192,226702,1,0,0:0:0:0:
192,192,226802,1,0,0:0:0:0:
320,192,226902,1,2,0:0:0:0:
448,192,226902,128,0,227002:0:0:0:0:
64,192,227002,1,8,0:0:0:0:
320,192,227102,1,0,0:0:0:0:
192,192,227202,128,0,227302:0:0:0:0:
320,192,227302,1,8,0:0:0:0:
448,192,227302,1,2,0:0:0:0:
64,192,227502,1,0,0:0:0:0:
192,192,227602,1,8,0:0:0:0:
320,192,227702,128,2,227802:0:0:0:0:
448,192,227702,1,4,0:0:0:0:
64,192,227902,1,8,0:0:0:0:
320,192,228002,128,0,228102:0:0:0:0:
448,192,228102,1,10,0:0:0:0:
192,192,228202,1,8,0:0:0:0:
320,192,228302,1,8,0:0:0:0:
192,192,228402,1,0,0:0:0:70:tom01.wav
64,192,228502,1,0,0:0:0:70:tom03.wav
448,192,228502,1,0,0:0:0:0:
64,192,228702,1,8,0:0:0:0:
192,192,228802,1,0,0:0:0:0:
320,192,228902,1,8,0:0:0:0:
448,192,228902,1,2,0:0:0:0:
64,192,229102,1,0,0:0:0:70:tom02.wav
192,192,229302,1,4,0:0:0:0:
320,192,229302,1,2,0:0:0:0:
448,192,229302,128,0,229504:0:0:0:0:
64,192,229504,1,0,0:0:0:0:
320,192,229707,1,0,0:0:0:0:
64,192,229910,1,0,0:0:0:70:tom01.wav
192,192,230112,128,0,230315:0:0:0:70:tom02.wav
448,192,230112,1,0,0:0:0:0:
320,192,230416,1,0,0:0:0:0:
448,192,230518,1,0,0:0:0:70:tom03.wav
192,192,230720,1,0,0:0:0:70:tom04.wav
64,192,230923,1,4,0:0:0:0:
320,192,230923,1,2,0:0:0:0:
448,192,230923,128,0,231123:0:0:0:0:
64,192,231123,1,2,0:0:0:0:
192,192,231323,1,8,0:0:0:0:
320,192,231323,128,2,231523:0:0:0:0:
192,192,231523,1,10,0:0:0:0:
448,192,231736,1,8,0:0:0:0:
192,192,231736,128,2,231935:0:0:0:0:
448,192,231935,1,10,0:0:0:0:
64,192,232134,128,2,233127:0:0:0:0:
320,192,232134,1,8,0:0:0:0:
192,192,232332,1,2,0:0:0:0:
448,192,232332,128,8,232928:0:0:0:0:
