osu file format v14

[General]
AudioFilename: audio.mp3
AudioLeadIn: 0
PreviewTime: 135065
Countdown: 0
SampleSet: Soft
StackLeniency: 0.7
Mode: 2
LetterboxInBreaks: 0
WidescreenStoryboard: 1

[Editor]
Bookmarks: 239310
DistanceSpacing: 0.9
BeatDivisor: 8
GridSize: 32
TimelineZoom: 3.899998

[Metadata]
Title:Humanoid
TitleUnicode:ヒューマノイド
Artist:ZUTOMAYO
ArtistUnicode:ずっと真夜中でいいのに。
Creator:Jemzuu
Version:Salad
Source:
Tags:Zutto Mayonaka de Ii no ni. 正しい偽りからの起床 潜潜話 ずとまよ meg ajamez idu5t du5t dust idust xetopia imai lisa liyac cyanine californian darknessofblue japanese pop rock jrock j-rock jpop j-pop female vocal
BeatmapID:2210619
BeatmapSetID:1052572

[Difficulty]
HPDrainRate:4
CircleSize:3
OverallDifficulty:7
ApproachRate:7
SliderMultiplier:1.5
SliderTickRate:1

[Events]
//Background and Video events
0,0,"aaaaaaaaaaaaaaaaaaaaaaaaa.jpg",0,0
//Break Periods
2,85740,95206
2,173287,178225
//Storyboard Layer 0 (Background)
//Storyboard Layer 1 (Fail)
//Storyboard Layer 2 (Pass)
//Storyboard Layer 3 (Foreground)
//Storyboard Layer 4 (Overlay)
//Storyboard Sound Samples

[TimingPoints]
1012,377.358490566038,4,2,2,50,1,0
1012,-125,4,2,2,50,0,0
11578,-83.3333333333333,4,2,1,60,0,0
11955,-83.3333333333333,4,2,1,60,0,0
12144,-83.3333333333333,4,2,1,60,0,0
12332,-83.3333333333333,4,2,1,60,0,0
12521,-83.3333333333333,4,2,1,60,0,0
12710,-83.3333333333333,4,2,1,60,0,0
12898,-83.3333333333333,4,2,1,60,0,0
13087,-100,4,2,1,60,0,0
17615,-100,4,2,1,60,0,0
17804,-100,4,2,1,5,0,0
17898,-100,4,2,1,60,0,0
18087,-100,4,2,1,5,0,0
18181,-100,4,2,1,60,0,0
18464,-100,4,2,1,60,0,0
18653,-100,4,2,1,5,0,0
18747,-100,4,2,1,60,0,0
18936,-100,4,2,1,60,0,0
19125,-100,4,2,1,60,0,0
23747,-100,4,2,2,30,0,0
24030,-100,4,2,2,40,0,0
24313,-100,4,2,1,50,0,0
24596,-100,4,2,1,60,0,0
25162,-100,4,2,1,60,0,0
26483,-100,4,2,1,60,0,0
26578,-100,4,2,1,5,0,0
27238,-100,4,2,1,60,0,0
27427,-100,4,2,1,5,0,0
27521,-100,4,2,1,60,0,0
28181,-100,4,2,1,60,0,0
28276,-100,4,2,1,5,0,0
29502,-100,4,2,1,60,0,0
29691,-100,4,2,1,5,0,0
29879,-100,4,2,1,60,0,0
30634,-83.3333333333333,4,2,1,60,0,0
31200,-100,4,2,1,60,0,0
32521,-100,4,2,1,60,0,0
32615,-100,4,2,1,5,0,0
33276,-100,4,2,1,60,0,0
33464,-100,4,2,1,5,0,0
33653,-100,4,2,1,60,0,0
34219,-100,4,2,1,60,0,0
34313,-100,4,2,1,5,0,0
35351,-83.3333333333333,4,2,1,5,0,0
35540,-100,4,2,1,60,0,0
36106,-83.3333333333333,4,2,1,60,0,0
36483,-100,4,2,1,60,0,0
36672,-100,4,2,1,60,0,0
36861,-100,4,2,1,60,0,0
37238,-100,4,2,1,60,0,0
42898,-100,4,2,1,60,0,0
43276,-100,4,2,1,60,0,0
48559,-100,4,2,1,60,0,0
49219,-100,4,2,1,5,0,0
49313,-100,4,2,1,60,0,0
59125,-100,4,2,1,60,0,0
61012,-100,4,2,1,60,0,0
61389,-83.3333333333333,4,2,1,70,0,1
70445,-83.3333333333333,4,2,1,70,0,1
70823,-83.3333333333333,4,2,1,70,0,1
71200,-83.3333333333333,4,2,1,70,0,1
71578,-83.3333333333333,4,2,1,70,0,1
71955,-83.3333333333333,4,2,1,70,0,1
72332,-83.3333333333333,4,2,1,70,0,1
72710,-83.3333333333333,4,2,1,70,0,1
73087,-83.3333333333333,4,2,1,70,0,1
73464,-83.3333333333333,4,2,1,70,0,1
84313,-83.3333333333333,4,2,1,5,0,1
84408,-83.3333333333333,4,2,1,70,0,1
84785,-83.3333333333333,4,2,1,70,0,1
84974,-83.3333333333333,4,2,1,70,0,1
85162,-83.3333333333333,4,2,1,70,0,1
85351,-83.3333333333333,4,2,1,70,0,1
85540,-100,4,2,1,60,0,0
98559,-100,4,2,1,60,0,0
98653,-100,4,2,1,5,0,0
98936,-100,4,2,1,60,0,0
99030,-100,4,2,1,5,0,0
99313,-100,4,2,1,60,0,0
99785,-100,4,2,1,5,0,0
100068,-100,4,2,1,60,0,0
100257,-100,4,2,1,60,0,0
100634,-100,4,2,1,60,0,0
107804,-100,4,2,1,60,0,0
107993,-100,4,2,1,60,0,0
109313,-83.3333333333333,4,2,1,60,0,0
109691,-90.9090909090909,4,2,1,60,0,0
119502,-100,4,2,1,60,0,0
119879,-100,4,2,1,60,0,0
120257,-100,4,2,1,60,0,0
121766,-100,4,2,1,60,0,0
130823,-100,4,2,1,60,0,0
132333,-100,4,2,1,60,0,0
135351,-83.3333333333333,4,2,1,70,0,1
144785,-83.3333333333333,4,2,1,70,0,1
145162,-83.3333333333333,4,2,1,70,0,1
145540,-83.3333333333333,4,2,1,70,0,1
145917,-83.3333333333333,4,2,1,70,0,1
146295,-83.3333333333333,4,2,1,70,0,1
147427,-83.3333333333333,4,2,1,70,0,1
159502,-83.3333333333333,4,2,1,60,0,0
165540,-83.3333333333333,4,2,3,60,0,0
165823,-83.3333333333333,4,2,1,5,0,0
165917,-83.3333333333333,4,2,1,60,0,0
167804,-83.3333333333333,4,2,1,60,0,0
168370,-83.3333333333333,4,2,1,60,0,0
168559,-83.3333333333333,4,2,1,60,0,0
169125,-76.9230769230769,4,2,1,60,0,0
169313,-83.3333333333333,4,2,1,60,0,0
169879,-83.3333333333333,4,2,1,60,0,0
170351,-100,4,2,1,5,0,0
170445,-100,4,2,2,50,0,0
170540,-100,4,2,2,49,0,0
170634,-100,4,2,2,48,0,0
170728,-100,4,2,2,47,0,0
170823,370.37037037037,4,2,2,46,1,0
170823,-100,4,2,2,46,0,0
170917,-100,4,2,2,45,0,0
171012,-100,4,2,2,44,0,0
171106,-100,4,2,2,43,0,0
171193,344.827586206897,4,2,2,43,1,0
171193,-100,4,2,2,43,0,0
171200,-100,4,2,2,42,0,0
171295,-100,4,2,2,41,0,0
171389,-100,4,2,2,40,0,0
171483,-100,4,2,2,39,0,0
171556,376.175548589342,4,2,2,39,1,0
171578,-100,4,2,2,38,0,0
171672,377.358490566038,4,2,2,38,1,0
171861,-100,4,2,2,37,0,0
171955,-100,4,2,2,35,0,0
172238,-100,4,2,2,35,0,0
172521,-100,4,2,2,35,0,0
173087,377.358490566038,4,2,3,35,1,0
173087,-100,4,2,3,35,0,0
183653,-100,4,2,1,60,0,0
185162,-90.9090909090909,4,2,1,60,0,0
186672,-90.9090909090909,4,2,1,60,0,0
187427,-90.9090909090909,4,2,1,60,0,0
188181,-90.9090909090909,4,2,1,60,0,0
188936,-90.9090909090909,4,2,1,60,0,0
189691,-90.9090909090909,4,2,1,60,0,0
191200,-100,4,2,1,60,0,0
197238,-90.9090909090909,4,2,1,60,0,0
197710,-90.9090909090909,4,2,1,5,0,0
197804,-90.9090909090909,4,2,1,60,0,0
200822,-90.9090909090909,4,2,1,60,0,0
201012,-90.9090909090909,4,2,1,60,0,0
201861,-90.9090909090909,4,2,1,5,0,0
201955,-90.9090909090909,4,2,1,60,0,0
203276,-1000,4,2,1,60,0,0
204596,-86.9565217391304,4,2,1,60,0,1
204690,-86.9565217391304,4,2,1,60,0,0
204879,-86.9565217391304,4,2,1,5,0,0
204974,-86.9565217391304,4,2,1,60,0,0
205540,-86.9565217391304,4,2,1,60,0,0
205917,-86.9565217391304,4,2,1,60,0,0
206200,-86.9565217391304,4,2,1,5,0,0
206294,-83.3333333333333,4,2,1,60,0,1
206388,-83.3333333333333,4,2,1,60,0,0
207804,-83.3333333333333,4,2,1,60,0,0
208936,-83.3333333333333,4,2,1,60,0,0
209313,-83.3333333333333,4,2,1,60,0,1
209691,-83.3333333333333,4,2,1,60,0,1
212143,-100,4,2,1,60,0,0
212332,-100,4,2,1,60,0,1
212426,-100,4,2,1,5,0,0
212521,-100,4,2,1,5,0,0
212709,-100,4,2,1,60,0,1
212803,-100,4,2,1,5,0,0
212898,-100,4,2,1,5,0,0
213087,-100,4,2,1,70,0,1
213181,-100,4,2,1,5,0,0
213276,-100,4,2,1,5,0,0
213464,-100,4,2,1,70,0,1
213558,-100,4,2,1,5,0,0
213653,-100,4,2,1,5,0,0
213841,-100,4,2,1,80,0,1
213936,-100,4,2,1,5,0,0
214030,-100,4,2,1,5,0,0
214219,-100,4,2,1,80,0,1
214313,-100,4,2,1,5,0,0
214408,-100,4,2,1,5,0,0
214596,-100,4,2,1,90,0,1
214690,-100,4,2,1,5,0,0
214879,-100,4,2,1,90,0,0
214973,-100,4,2,1,90,0,1
215068,-100,4,2,1,90,0,0
215351,-83.3333333333333,4,2,1,80,0,1
226200,-83.3333333333333,4,2,1,5,0,1
226295,-83.3333333333333,4,2,1,80,0,1
226578,-83.3333333333333,4,2,1,5,0,1
226672,-83.3333333333333,4,2,1,80,0,1
227426,-83.3333333333333,4,2,1,70,0,0
231955,-83.3333333333333,4,2,1,70,0,0
233464,-83.3333333333333,4,2,1,70,0,0
237238,-83.3333333333333,4,2,1,70,0,0
237804,-83.3333333333333,4,2,1,70,0,0
239596,-83.3333333333333,4,2,1,50,0,0
241012,-83.3333333333333,4,2,1,30,0,0
242521,-83.3333333333333,4,2,1,25,0,0
243276,-83.3333333333333,4,2,1,20,0,0
244030,-83.3333333333333,4,2,1,15,0,0
244785,-83.3333333333333,4,2,1,5,0,0
245540,-83.3333333333333,4,2,1,20,0,0

[Colours]
Combo1 : 128,64,64
Combo2 : 255,181,106
Combo3 : 64,184,255

[HitObjects]
453,298,1012,6,0,L|309:282,2,120,2|0|2,0:0|0:0|0:0,0:0:0:0:
316,193,2144,2,0,L|244:184,1,60,0|0,0:0|0:0,0:0:0:0:
108,162,2710,2,0,L|91:81,2,60,0|0|0,0:0|0:0|0:0,0:0:0:0:
269,186,3464,2,0,P|245:238|163:257,1,120,0|0,0:0|0:0,0:0:0:0:
108,255,4030,6,0,L|87:108,1,120,2|0,0:0|0:0,0:0:0:0:
162,110,4596,1,0,0:0:0:0:
336,56,4974,2,0,L|203:34,1,120,0|0,0:0|0:0,0:0:0:0:
277,87,5540,1,0,0:0:0:0:
347,121,5728,2,0,L|477:119,1,120,2|0,0:0|0:0,0:0:0:0:
392,147,6295,2,0,L|387:218,1,60,2|2,0:0|0:0,0:0:0:0:
23,267,7049,6,0,L|157:279,1,120,2|0,0:0|0:0,0:0:0:0:
293,277,7804,1,2,0:0:0:0:
329,232,7992,1,0,0:0:0:0:
309,179,8181,1,0,0:0:0:0:
253,169,8370,1,0,0:0:0:0:
86,135,8747,2,0,L|74:59,2,60,0|0|0,0:0|0:0|0:0,0:0:0:0:
266,46,9502,2,0,L|129:38,1,120,0|0,0:0|0:0,0:0:0:0:
339,172,10068,5,4,0:0:0:0:
256,192,10445,12,12,11578,0:0:0:0:
178,230,11955,6,0,L|87:216,1,89.9999972534181,2|0,0:0|0:0,0:0:0:0:
257,66,12332,1,8,0:0:0:0:
296,82,12426,1,8,0:0:0:0:
307,124,12520,1,8,0:3:0:0:
280,158,12615,1,8,0:3:0:0:
235,164,12710,2,0,L|229:265,1,89.9999972534181,4|0,0:3|0:0,0:0:0:0:
405,344,13087,6,0,L|503:342,2,75,6|0|8,0:0|0:0|0:0,0:0:0:0:
289,323,13747,2,0,L|275:252,1,37.5,0|2,0:0|0:0,0:0:0:0:
392,219,14030,2,0,L|439:212,1,37.5,0|0,0:0|0:0,0:0:0:0:
391,186,14219,2,0,L|283:171,1,75,8|0,0:0|0:0,0:0:0:0:
140,88,14596,6,0,L|42:78,2,75,2|0|0,0:0|0:0|0:0,0:0:0:0:
245,163,15162,2,0,L|169:177,1,75,0|2,0:0|0:0,0:0:0:0:
85,232,15540,2,0,L|199:260,1,112.5,0|0,0:0|0:0,0:0:0:0:
468,349,16106,6,0,L|360:357,1,75,2|0,0:0|0:0,0:0:0:0:
297,352,16483,2,0,P|288:297|363:242,1,150,0|2,0:0|0:0,0:0:0:0:
394,238,16955,1,8,0:0:0:0:
295,189,17144,2,0,L|248:179,2,37.5,0|8|0,0:0|0:0|0:0,0:0:0:0:
435,109,17615,6,0,L|314:92,3,112.5,2|0|0|0,0:0|0:0|0:0|0:0,0:0:0:0:
181,195,18747,2,0,L|273:208,1,75,4|8,0:0|0:0,0:0:0:0:
76,298,19125,6,0,L|63:214,2,75,6|0|8,0:0|0:0|0:0,0:0:0:0:
214,339,19785,2,0,L|255:342,1,37.5,0|2,0:0|0:0,0:0:0:0:
358,275,20068,2,0,L|407:264,1,37.5,0|0,0:0|0:0,0:0:0:0:
356,234,20257,2,0,L|253:224,1,75,8|0,0:0|0:0,0:0:0:0:
463,188,20634,6,0,L|482:90,2,75,2|0|0,0:0|0:0|0:0,0:0:0:0:
373,216,21200,2,0,L|363:308,1,75,0|2,0:0|0:0,0:0:0:0:
456,326,21578,2,0,L|330:337,1,112.5,0|0,0:0|0:0,0:0:0:0:
75,255,22144,6,0,L|159:245,1,75,2|0,0:0|0:0,0:0:0:0:
238,242,22521,2,0,P|265:184|213:113,1,150,0|2,0:0|0:0,0:0:0:0:
180,95,22993,1,0,0:0:0:0:
84,92,23181,1,0,0:0:0:0:
68,125,23275,1,2,0:0:0:0:
79,160,23370,2,0,L|169:178,1,75,0|8,0:0|0:0,0:0:0:0:
271,214,23842,6,0,L|404:213,1,112.5,2|2,0:0|0:0,0:0:0:0:
215,326,24313,2,0,L|155:324,1,37.5,8|8,0:0|0:0,0:0:0:0:
271,263,24596,2,0,L|316:255,1,37.5,12|8,0:3|0:3,0:0:0:0:
269,231,24785,2,0,L|184:215,1,75,8|8,0:0|0:3,0:0:0:0:
381,173,25162,5,4,0:0:0:0:
39,144,26483,1,0,1:0:0:0:
262,108,27238,1,0,1:0:0:0:
399,106,27521,2,0,L|414:171,3,37.5,4|4|4|8,3:0|3:0|3:0|0:0,0:0:0:0:
89,222,28181,5,0,1:0:0:0:
463,146,29502,1,0,1:0:0:0:
268,158,29879,1,0,0:0:0:0:
348,217,30068,2,0,L|443:237,1,75,0|4,3:0|0:3,0:0:0:0:
388,264,30351,1,0,0:0:0:0:
346,273,30445,1,4,0:3:0:0:
149,346,30634,6,0,P|96:278|172:222,1,179.999994506836,4|0,0:0|0:0,0:0:0:0:
320,189,31200,5,0,1:0:0:0:
48,197,32144,2,0,L|37:149,2,37.5,4|4|8,3:0|3:0|0:0,0:0:0:0:
224,100,32521,5,0,1:0:0:0:
471,86,33276,1,0,1:0:0:0:
280,121,33653,2,0,L|194:134,2,75,0|0|0,0:0|0:0|0:0,0:0:0:0:
474,184,34219,5,0,1:0:0:0:
93,228,35351,2,0,L|86:331,1,89.9999972534181,2|4,0:0|3:0,0:0:0:0:
186,340,35728,2,0,L|287:341,1,75,8|0,0:0|3:0,0:0:0:0:
91,364,36106,6,0,P|46:333|121:277,1,179.999994506836,12|8,0:0|0:3,0:0:0:0:
200,257,36672,1,4,0:3:0:0:
382,169,36861,2,0,L|294:153,1,75,12|0,0:0|0:0,0:0:0:0:
119,155,37238,6,0,P|43:115|42:48,1,150,6|8,0:0|0:0,0:0:0:0:
115,30,37804,1,2,0:0:0:0:
273,46,38181,2,0,L|290:142,1,75,2|8,0:2|0:0,0:0:0:0:
108,189,38747,2,0,L|19:187,2,75,2|0|8,0:0|0:0|0:0,0:0:0:0:
282,226,39313,6,0,L|296:345,1,112.5,2|2,0:0|0:0,0:0:0:0:
177,345,39879,2,0,L|262:355,1,75,8|0,0:0|0:0,0:0:0:0:
436,352,40257,6,0,P|485:329|458:241,1,150,2|8,0:0|0:0,0:0:0:0:
292,223,40823,2,0,P|256:202|317:131,1,150,0|0,0:0|0:0,0:0:0:0:
381,127,41389,1,8,0:0:0:0:
228,66,41766,2,0,L|188:-2,2,75,2|0|8,0:0|0:0|0:0,0:0:0:0:
317,101,42332,2,0,L|403:111,2,75,4|0|2,3:0|3:0|3:2,0:0:0:0:
228,200,42898,2,0,L|316:184,1,75,8|8,0:0|0:0,0:0:0:0:
138,339,43276,6,0,P|60:299|61:220,1,150,6|8,0:0|0:0,0:0:0:0:
129,195,43842,1,2,0:0:0:0:
290,106,44219,2,0,L|213:74,1,75,2|8,0:2|0:0,0:0:0:0:
140,62,44596,1,2,0:0:0:0:
243,53,44785,6,0,P|282:102|215:155,1,150,2|8,0:0|0:0,0:0:0:0:
63,206,45351,2,0,L|56:320,1,112.5,2|8,0:0|0:3,0:0:0:0:
178,357,45917,2,0,L|190:277,1,75,8|0,0:0|0:0,0:0:0:0:
373,248,46295,6,0,L|336:94,1,150,2|8,0:0|0:0,0:0:0:0:
153,84,46861,2,0,P|202:39|300:19,1,150,2|8,3:2|3:0,0:0:0:0:
317,18,47332,1,8,3:0:0:0:
339,46,47426,1,4,3:0:0:0:
331,82,47521,1,4,3:0:0:0:
298,97,47615,1,4,3:0:0:0:
100,190,47804,5,8,0:0:0:0:
409,169,48559,2,0,P|459:195|410:328,1,225,2|0,0:0|0:0,0:0:0:0:
215,344,49313,6,0,P|163:302|250:198,1,225,6|0,0:0|0:0,0:0:0:0:
320,193,50068,1,8,0:0:0:0:
141,131,50445,1,2,0:0:0:0:
61,97,50634,6,0,L|228:53,1,150,2|8,0:0|0:0,0:0:0:0:
386,82,51389,2,0,L|301:80,1,75,2|8,0:0|0:0,0:0:0:0:
394,52,51766,2,0,P|448:68|487:158,1,150,8|4,0:3|0:3,0:0:0:0:
412,188,52332,5,2,0:0:0:0:
328,202,52521,1,8,0:0:0:0:
490,322,52898,1,0,0:0:0:0:
412,323,53087,2,0,L|245:316,1,150,8|0,0:0|0:0,0:0:0:0:
172,250,53653,6,0,L|322:194,1,150,0|8,0:0|0:0,0:0:0:0:
152,160,54408,1,0,0:0:0:0:
74,198,54596,2,0,L|58:33,1,150,8|0,0:3|0:0,0:0:0:0:
146,31,55162,1,0,0:0:0:0:
326,42,55351,6,0,P|392:44|467:198,1,225,6|0,0:0|0:0,0:0:0:0:
392,211,56106,1,8,0:0:0:0:
207,311,56483,1,0,0:0:0:0:
289,328,56672,2,0,L|309:164,1,150,0|8,0:0|0:0,0:0:0:0:
120,112,57427,2,0,L|39:120,1,75,0|8,0:0|0:0,0:0:0:0:
126,80,57804,2,0,L|301:75,1,150,0|0,0:0|0:0,0:0:0:0:
95,222,58370,5,2,0:0:0:0:
23,244,58559,2,0,P|26:298|111:345,1,150,8|0,0:0|0:0,0:0:0:0:
292,309,59125,2,0,L|132:288,1,150,0|2,0:0|0:0,0:0:0:0:
181,255,59596,1,0,0:0:0:0:
237,242,59691,1,0,0:0:0:0:
419,239,59879,5,8,0:0:0:0:
440,172,60823,2,0,L|496:167,1,37.5,8|8,0:3|0:3,0:0:0:0:
437,141,61012,2,0,L|350:137,1,75,8|0,0:0|0:0,0:0:0:0:
166,135,61389,6,0,P|154:207|253:245,1,179.999994506836,6|8,0:0|0:0,0:0:0:0:
329,278,61955,1,0,0:0:0:0:
237,339,62144,2,0,L|141:330,1,89.9999972534181,0|2,0:0|0:0,0:0:0:0:
50,258,62521,2,0,L|170:236,1,89.9999972534181,8|0,0:0|0:0,0:0:0:0:
455,237,63087,5,0,0:0:0:0:
365,222,63276,2,0,P|278:203|255:106,1,179.999994506836,8|0,0:0|0:0,0:0:0:0:
347,86,63842,1,2,0:0:0:0:
250,38,64030,2,0,L|133:30,1,89.9999972534181,8|0,0:0|0:0,0:0:0:0:
358,177,64596,5,0,0:0:0:0:
258,217,64785,2,0,L|254:318,1,89.9999972534181,8|0,0:0|0:0,0:0:0:0:
356,279,65162,2,0,L|375:376,1,89.9999972534181,0|2,0:0|0:0,0:0:0:0:
476,283,65540,2,0,L|375:273,1,89.9999972534181,8|0,0:0|0:0,0:0:0:0:
201,272,65917,6,0,P|121:250|115:153,1,179.999994506836,2|8,0:0|0:0,0:0:0:0:
203,139,66483,1,0,0:0:0:0:
404,147,66672,2,0,P|430:92|334:38,1,179.999994506836,0|8,0:0|0:0,0:0:0:0:
263,29,67238,1,4,0:3:0:0:
55,111,67427,6,0,L|49:309,1,179.999994506836,6|8,0:0|0:0,0:0:0:0:
247,340,68181,2,0,L|344:365,2,89.9999972534181,0|2|8,0:0|0:0|0:0,0:0:0:0:
152,304,68747,2,0,L|329:260,1,179.999994506836,0|0,0:0|0:0,0:0:0:0:
127,204,69313,2,0,P|42:188|54:86,1,179.999994506836,8|2,0:0|0:0,0:0:0:0:
121,72,69879,1,0,0:0:0:0:
441,69,70257,5,0,0:0:0:0:
341,62,70445,2,0,L|147:152,3,179.999994506836,6|8|6|8,0:0|0:0|0:0|0:0,0:0:0:0:
496,188,71955,2,0,P|489:251|394:317,1,179.999994506836,6|12,0:0|0:0,0:0:0:0:
318,322,72521,1,0,0:0:0:0:
407,342,72710,2,0,L|509:356,2,89.9999972534181,6|0|12,0:0|0:0|0:0,0:0:0:0:
81,281,73464,6,0,P|139:226|260:203,1,179.999994506836,6|8,0:0|0:0,0:0:0:0:
204,152,74030,1,0,0:0:0:0:
149,117,74219,2,0,L|33:145,1,89.9999972534181,0|2,0:0|0:0,0:0:0:0:
156,76,74596,2,0,L|52:56,1,89.9999972534181,8|0,0:0|0:0,0:0:0:0:
386,44,75162,5,0,0:0:0:0:
296,56,75351,2,0,P|251:75|286:195,1,179.999994506836,8|0,0:0|0:0,0:0:0:0:
352,220,75917,2,0,L|256:237,1,89.9999972534181,2|8,0:0|0:0,0:0:0:0:
169,241,76295,1,0,0:0:0:0:
368,322,76483,6,0,P|433:312|472:193,1,179.999994506836,2|8,0:0|0:0,0:0:0:0:
305,159,77238,1,0,0:0:0:0:
478,120,77615,1,8,0:0:0:0:
140,81,77993,6,0,L|126:282,1,179.999994506836,12|8,0:0|0:0,0:0:0:0:
197,306,78559,1,0,0:0:0:0:
281,318,78747,1,12,0:0:0:0:
105,353,79125,2,0,L|18:327,1,89.9999972534181,8|8,0:0|0:0,0:0:0:0:
227,219,79502,6,0,L|404:284,2,179.999994506836,6|8|2,0:0|0:0|0:0,0:0:0:0:
169,156,80445,1,2,0:0:0:0:
206,79,80634,1,8,0:0:0:0:
290,84,80823,1,0,0:0:0:0:
117,54,81200,1,0,0:0:0:0:
38,95,81389,2,0,L|25:200,1,89.9999972534181,8|0,0:0|0:0,0:0:0:0:
231,295,81766,2,0,L|325:306,2,89.9999972534181,2|0|8,0:0|0:0|0:0,0:0:0:0:
322,343,82332,1,0,0:0:0:0:
414,342,82521,6,0,P|470:311|470:184,1,179.999994506836,6|8,0:0|0:0,0:0:0:0:
305,170,83276,2,0,L|280:69,2,89.9999972534181,0|2|8,0:0|0:0|0:0,0:0:0:0:
398,197,83842,1,0,0:0:0:0:
195,249,84030,6,0,P|90:244|48:166,1,179.999994506836,6|12,0:0|0:0,0:0:0:0:
231,139,84785,2,0,L|143:123,1,89.9999972534181,12|8,0:0|0:0,0:0:0:0:
50,76,85162,1,8,3:2:0:0:
87,51,85256,1,8,0:0:0:0:
131,42,85350,1,8,0:0:0:0:
325,64,85540,5,6,0:0:0:0:
256,192,96106,12,4,97615,0:0:0:0:
480,212,98370,5,8,0:0:0:0:
377,186,98559,1,0,1:0:0:0:
178,102,98936,2,0,L|354:78,1,150,0|0,1:0|3:0,0:0:0:0:
35,46,99691,5,0,1:0:0:0:
210,49,100068,2,0,L|258:57,1,37.5,4|4,0:3|0:3,0:0:0:0:
287,70,100257,2,0,L|313:167,1,75,8|0,0:0|0:0,0:0:0:0:
127,181,100634,6,0,P|65:191|42:297,1,150,6|0,0:0|0:0,0:0:0:0:
95,317,101200,1,0,0:0:0:0:
181,320,101389,1,8,0:0:0:0:
94,346,101578,1,0,3:0:0:0:
394,352,101955,6,0,P|409:295|331:224,1,150,0|8,3:0|0:0,0:0:0:0:
269,220,102521,1,0,3:0:0:0:
349,185,102710,1,0,0:0:0:0:
439,175,102898,1,8,0:0:0:0:
256,134,103087,2,0,P|190:120|150:23,1,150,4|8,0:0|0:3,0:0:0:0:
354,40,103653,6,0,L|487:126,2,150,6|0|8,0:0|3:0|0:0,0:0:0:0:
271,35,104596,1,0,3:0:0:0:
468,218,104974,2,0,L|315:242,1,150,0|8,3:0|0:0,0:0:0:0:
379,285,105540,1,0,3:0:0:0:
455,297,105728,1,0,0:0:0:0:
280,346,105917,2,0,L|155:328,1,112.5,8|0,0:0|0:0,0:0:0:0:
268,252,106483,1,0,3:0:0:0:
95,225,106672,5,6,0:0:0:0:
76,153,106860,1,8,0:0:0:0:
103,84,107049,1,0,0:0:0:0:
165,45,107238,1,0,3:0:0:0:
239,49,107426,1,8,0:0:0:0:
147,36,107615,2,0,L|43:30,2,75,8|4|2,3:0|3:0|3:2,0:0:0:0:
342,185,108181,5,8,0:0:0:0:
26,311,109125,1,0,1:0:0:0:
115,320,109313,1,8,0:0:0:0:
397,346,109691,6,0,L|476:303,2,82.5000025177003,6|0|8,0:0|0:0|0:0,0:0:0:0:
305,341,110257,2,0,P|261:280|325:214,1,165.000005035401,0|2,0:0|0:0,0:0:0:0:
493,117,111012,2,0,P|422:89|318:92,1,165.000005035401,0|0,0:0|0:0,0:0:0:0:
419,48,111578,1,8,0:0:0:0:
234,37,111766,5,0,0:0:0:0:
143,118,112049,2,0,L|134:166,1,41.2500012588501,8|2,0:0|0:0,0:0:0:0:
233,187,112332,2,0,L|335:194,1,82.5000025177003,8|0,0:0|0:0,0:0:0:0:
125,287,112710,6,0,P|50:275|86:185,1,165.000005035401,2|8,0:0|0:0,0:0:0:0:
141,170,113276,1,0,0:0:0:0:
287,121,113559,1,8,0:0:0:0:
244,104,113653,1,2,0:0:0:0:
139,79,113842,1,8,0:0:0:0:
456,165,114219,6,0,L|432:255,1,82.5000025177003,2|0,0:0|0:0,0:0:0:0:
349,266,114596,1,8,0:0:0:0:
167,342,114785,2,0,P|181:291|280:226,1,165.000005035401,0|2,3:0|0:0,0:0:0:0:
352,226,115351,2,0,L|250:222,1,82.5000025177003,8|8,0:0|0:0,0:0:0:0:
86,138,115728,5,6,0:0:0:0:
265,45,116106,2,0,L|243:142,1,82.5000025177003,8|0,0:0|0:0,0:0:0:0:
96,222,116578,1,0,0:0:0:0:
137,240,116672,2,0,L|217:258,1,82.5000025177003,2|8,0:0|0:0,0:0:0:0:
314,337,117049,2,0,P|237:317|133:356,1,165.000005035401,0|0,0:0|0:0,0:0:0:0:
249,304,117615,1,8,0:0:0:0:
435,283,117804,5,0,3:0:0:0:
356,237,118087,2,0,L|350:173,1,41.2500012588501,8|2,0:0|0:0,0:0:0:0:
453,165,118370,1,8,0:0:0:0:
150,116,118747,6,0,L|51:104,2,82.5000025177003,2|0|8,0:0|0:0|0:0,0:0:0:0:
335,87,119313,2,0,P|370:128|292:214,1,165.000005035401,0|8,3:0|0:0,0:0:0:0:
232,213,119879,2,0,L|188:206,2,37.5,8|8|4,0:3|0:3|0:3,0:0:0:0:
413,293,120257,5,8,0:0:0:0:
346,360,120823,2,0,L|292:351,1,37.5,4|4,0:3|0:3,0:0:0:0:
261,342,121012,2,0,L|257:253,1,75,8|8,0:0|0:3,0:0:0:0:
342,235,121389,1,4,0:3:0:0:
58,242,121766,6,0,P|25:195|130:75,1,225,6|2,0:0|0:0,0:0:0:0:
192,70,122521,1,8,0:0:0:0:
396,266,122898,1,0,0:0:0:0:
324,331,123087,2,0,L|153:312,1,150,0|8,3:0|0:0,0:0:0:0:
34,226,123842,1,0,0:0:0:0:
112,192,124030,2,0,L|235:169,2,112.5,8|8|4,0:0|0:3|0:3,0:0:0:0:
197,255,124785,6,0,L|274:239,1,75,2|8,0:0|0:0,0:0:0:0:
470,176,125351,1,2,0:0:0:0:
387,145,125540,2,0,L|209:114,1,150,8|0,0:3|0:0,0:0:0:0:
412,62,126106,6,0,P|452:97|423:206,1,150,6|8,0:0|0:0,0:0:0:0:
368,226,126672,1,2,0:0:0:0:
234,268,126955,2,0,L|226:330,1,37.5,8|8,0:3|0:3,0:0:0:0:
316,334,127238,2,0,L|407:331,1,75,8|4,0:3|0:3,0:0:0:0:
105,338,127804,6,0,P|131:282|291:219,1,225,6|2,0:0|0:0,0:0:0:0:
355,222,128559,1,8,0:0:0:0:
90,166,128936,1,0,0:0:0:0:
10,115,129125,2,0,L|172:67,1,150,6|8,0:0|0:0,0:0:0:0:
232,28,129691,2,0,L|147:3,1,75,0|2,0:0|0:0,0:0:0:0:
55,14,130068,1,8,0:0:0:0:
139,93,130257,2,0,P|216:75|294:92,1,150,0|0,0:0|0:0,0:0:0:0:
478,245,130823,5,6,0:0:0:0:
401,295,131012,2,0,L|250:324,1,150,8|2,0:0|0:0,0:0:0:0:
329,353,131578,1,8,0:0:0:0:
481,335,131955,1,2,0:0:0:0:
165,212,132332,6,0,L|323:170,2,150,4|8|8,0:0|0:0|0:0,0:0:0:0:
77,219,133276,1,4,3:0:0:0:
166,242,133464,1,4,3:0:0:0:
203,241,133558,1,4,3:0:0:0:
235,259,133652,1,4,3:0:0:0:
255,291,133747,2,0,P|277:330|217:393,1,112.5,0|8,0:0|0:0,0:0:0:0:
61,341,134219,5,12,0:0:0:0:
209,264,134596,2,0,L|127:245,1,75,8|8,0:3|0:3,0:0:0:0:
52,188,134974,1,8,0:0:0:0:
89,182,135068,1,8,0:0:0:0:
126,176,135162,1,8,0:0:0:0:
327,222,135351,6,0,P|355:172|279:75,1,179.999994506836,6|8,0:0|0:0,0:0:0:0:
214,68,135917,1,0,0:0:0:0:
311,50,136106,2,0,L|419:65,2,89.9999972534181,0|2|8,0:0|0:0|0:0,0:0:0:0:
200,32,136672,1,0,0:0:0:0:
491,129,137049,5,2,3:0:0:0:
401,138,137238,2,0,P|357:181|393:294,1,179.999994506836,8|0,0:0|0:0,0:0:0:0:
479,337,137804,2,0,L|490:235,1,89.9999972534181,2|8,0:0|0:0,0:0:0:0:
390,201,138181,1,0,0:0:0:0:
201,196,138559,1,0,0:0:0:0:
299,127,138747,2,0,L|190:105,1,89.9999972534181,8|0,0:0|0:0,0:0:0:0:
119,126,139125,2,0,L|126:15,1,89.9999972534181,0|2,0:0|0:0,0:0:0:0:
226,21,139502,2,0,L|235:119,1,89.9999972534181,8|0,0:0|0:0,0:0:0:0:
36,181,139879,6,0,P|19:225|118:296,1,179.999994506836,2|8,0:0|0:0,0:0:0:0:
194,305,140445,1,0,0:0:0:0:
382,321,140634,2,0,P|346:265|221:232,1,179.999994506836,0|8,0:0|0:0,0:0:0:0:
243,137,141200,1,4,0:3:0:0:
437,63,141389,6,0,L|453:257,1,179.999994506836,6|8,0:0|0:0,0:0:0:0:
246,361,142144,2,0,L|319:293,1,89.9999972534181,0|0,0:0|0:0,0:0:0:0:
400,288,142521,1,8,0:0:0:0:
214,247,142710,2,0,P|142:241|65:149,1,179.999994506836,0|0,0:0|0:0,0:0:0:0:
254,113,143276,1,8,0:0:0:0:
77,62,143653,1,0,0:0:0:0:
160,25,143842,2,0,P|255:48|353:8,1,179.999994506836,2|0,0:0|0:0,0:0:0:0:
133,149,144408,6,0,L|107:347,1,179.999994506836,6|8,0:0|0:0,0:0:0:0:
290,348,145162,1,4,0:0:0:0:
94,309,145540,1,8,0:0:0:0:
419,249,145917,2,0,L|248:175,1,179.999994506836,6|12,0:0|0:0,0:0:0:0:
342,127,146483,1,0,0:0:0:0:
439,143,146672,2,0,L|492:221,2,89.9999972534181,12|8|12,0:0|0:0|0:0,0:0:0:0:
99,347,147427,6,0,L|275:276,1,179.999994506836,6|8,0:0|0:0,0:0:0:0:
200,213,147993,1,0,0:0:0:0:
98,206,148181,2,0,L|158:110,1,89.9999972534181,0|2,0:0|0:0,0:0:0:0:
229,98,148559,1,8,0:0:0:0:
322,104,148747,1,0,0:0:0:0:
18,27,149125,5,0,0:0:0:0:
109,128,149313,2,0,P|214:161|252:229,1,179.999994506836,8|0,0:0|0:0,0:0:0:0:
154,254,149879,2,0,L|134:353,1,89.9999972534181,2|8,0:0|0:0,0:0:0:0:
240,356,150257,1,0,0:0:0:0:
439,346,150445,6,0,P|484:281|443:184,1,179.999994506836,2|8,0:0|0:0,0:0:0:0:
299,128,151200,1,0,0:0:0:0:
121,118,151578,1,8,0:0:0:0:
437,63,151955,6,0,L|244:39,1,179.999994506836,6|8,0:0|0:0,0:0:0:0:
264,145,152521,1,0,0:0:0:0:
457,186,152710,2,0,P|451:255|345:311,1,179.999994506836,12|8,0:0|0:0,0:0:0:0:
276,314,153276,1,8,0:0:0:0:
465,356,153464,6,0,L|495:158,1,179.999994506836,6|8,0:0|0:0,0:0:0:0:
325,211,154219,1,0,0:0:0:0:
270,132,154408,1,0,0:0:0:0:
324,65,154596,1,8,0:0:0:0:
410,72,154785,5,0,0:0:0:0:
262,106,155162,2,0,L|157:110,1,89.9999972534181,0|8,0:0|0:0,0:0:0:0:
272,191,155540,1,0,0:0:0:0:
99,213,155728,2,0,P|35:248|83:353,1,179.999994506836,0|8,0:0|0:0,0:0:0:0:
146,366,156295,1,0,0:0:0:0:
329,342,156483,5,2,0:0:0:0:
161,275,156861,1,8,0:0:0:0:
324,220,157238,2,0,L|428:215,2,89.9999972534181,2|0|8,0:0|0:0|0:0,0:0:0:0:
233,198,157804,1,0,0:0:0:0:
429,312,157993,6,0,P|492:259|484:159,1,179.999994506836,6|12,0:0|0:0,0:0:0:0:
223,125,158747,1,6,0:0:0:0:
253,42,158935,1,0,0:0:0:0:
328,0,159124,1,12,0:0:0:0:
416,1,159313,1,8,0:0:0:0:
216,248,159502,6,0,L|49:162,3,179.999994506836,6|0|8|0,0:0|0:0|0:0|0:0,0:0:0:0:
230,328,161012,2,0,L|381:186,3,179.999994506836,2|2|8|2,0:0|0:0|0:0|0:0,0:0:0:0:
55,204,162521,5,6,0:0:0:0:
25,284,162709,1,8,0:0:0:0:
81,350,162898,1,8,0:0:0:0:
165,334,163087,2,0,P|139:269|5:238,1,179.999994506836,2|0,0:0|0:0,0:0:0:0:
135,187,163653,1,2,0:0:0:0:
319,152,163842,5,6,0:0:0:0:
138,84,164219,2,0,L|239:68,1,89.9999972534181,8|8,0:0|0:0,0:0:0:0:
415,99,164596,2,0,P|465:156|377:232,1,179.999994506836,6|2,0:0|0:0,0:0:0:0:
330,267,165162,1,4,0:0:0:0:
285,262,165256,1,0,0:0:0:0:
240,258,165350,1,0,0:0:0:0:
424,177,165540,6,0,P|478:227|416:297,1,179.999994506836,12|8,0:0|0:0,0:0:0:0:
327,315,166106,2,0,L|374:335,1,44.999998626709,0|0,0:0|0:0,0:0:0:0:
419,338,166295,2,0,L|344:388,1,89.9999972534181,0|2,0:0|0:0,0:0:0:0:
250,364,166672,2,0,L|231:243,1,89.9999972534181,8|0,0:0|0:0,0:0:0:0:
52,133,167049,5,2,0:0:0:0:
135,156,167237,1,0,0:0:0:0:
167,237,167426,1,8,0:0:0:0:
122,312,167615,1,0,0:0:0:0:
36,322,167803,1,2,0:0:0:0:
124,334,167993,2,0,P|217:318|276:244,1,179.999994506836,0|0,0:0|0:0,0:0:0:0:
83,209,168559,5,6,0:0:0:0:
254,122,168936,1,8,0:0:0:0:
164,90,169125,2,0,P|57:77|38:-3,1,194.999991073609,0|8,0:0|0:0,0:0:0:0:
126,10,169691,1,2,0:0:0:0:
320,51,169879,6,0,P|347:145|226:263,1,269.999991760254,6|0,0:0|0:0,0:0:0:0:
163,315,170634,2,0,L|261:326,1,75,0|0,0:0|0:0,0:0:0:0:
308,304,171008,1,2,0:0:0:0:
351,244,171193,1,2,0:0:0:0:
345,171,171365,1,2,0:0:0:0:
293,119,171556,1,2,0:0:0:0:
220,112,171766,5,0,0:0:0:0:
322,70,172049,1,2,0:0:0:0:
450,73,172332,1,2,0:0:0:0:
328,34,172615,1,2,0:0:0:0:
205,48,172898,1,2,0:0:0:0:
408,142,173087,5,2,0:0:0:0:
482,369,179125,6,0,P|464:312|376:273,1,150,0|0,0:0|0:0,0:0:0:0:
233,353,179879,2,0,L|223:193,1,150,0|0,0:0|0:0,0:0:0:0:
51,96,180634,2,0,P|41:151|119:217,1,150,0|0,0:0|0:0,0:0:0:0:
255,325,181389,2,0,L|84:329,1,150,0|0,0:0|0:0,0:0:0:0:
181,294,181955,1,0,0:0:0:0:
264,275,182144,6,0,L|421:260,1,150,0|0,0:0|0:0,0:0:0:0:
491,193,182710,2,0,L|405:181,1,75,0|0,0:0|0:0,0:0:0:0:
125,302,183276,2,0,L|103:134,1,150,4|8,0:0|0:0,0:0:0:0:
181,110,183842,2,0,L|267:94,1,75,8|2,0:0|0:0,0:0:0:0:
79,50,184219,2,0,L|32:48,2,37.5,8|8|8,0:0|0:0|0:0,0:0:0:0:
160,78,184596,2,0,P|157:122|95:163,1,112.5,8|4,0:0|0:3,0:0:0:0:
69,168,184974,1,8,0:3:0:0:
245,267,185162,5,6,0:0:0:0:
406,311,185540,1,8,0:0:0:0:
226,362,185917,1,2,0:0:0:0:
144,353,186105,1,0,0:0:0:0:
76,309,186294,1,8,0:0:0:0:
380,324,186672,6,0,L|398:150,1,165.000005035401,2|8,0:0|0:0,0:0:0:0:
312,135,187238,1,0,0:0:0:0:
224,112,187427,2,0,L|365:86,2,123.75000377655,2|0|0,0:0|0:0|0:0,0:0:0:0:
55,200,188181,2,0,L|28:327,2,123.75000377655,2|0|0,0:0|0:0|0:0,0:0:0:0:
222,168,188936,2,0,L|327:187,2,82.5000025177003,4|4|8,0:3|0:3|0:0,0:0:0:0:
389,271,189691,6,0,L|484:255,2,82.5000025177003,2|0|8,0:0|0:0|0:0,0:0:0:0:
303,281,190257,2,0,P|289:333|388:359,1,165.000005035401,0|8,3:0|0:0,0:0:0:0:
460,315,190823,1,0,3:0:0:0:
375,297,191012,1,0,3:0:0:0:
205,276,191200,5,6,0:0:0:0:
44,205,191578,1,8,0:0:0:0:
201,157,191955,2,0,L|281:165,2,75,2|0|8,0:0|0:0|0:0,0:0:0:0:
379,83,192710,5,2,0:0:0:0:
320,127,192898,1,0,0:0:0:0:
314,199,193087,1,8,0:0:0:0:
363,253,193276,1,0,3:0:0:0:
436,253,193464,1,0,0:0:0:0:
279,335,193842,2,0,L|176:316,1,75,8|0,0:0|0:0,0:0:0:0:
381,310,194219,6,0,P|457:251|443:193,1,150,2|8,0:0|0:0,0:0:0:0:
375,178,194785,1,0,3:0:0:0:
288,190,194974,2,0,L|269:108,1,75,8|0,0:0|0:0,0:0:0:0:
352,91,195351,1,8,0:0:0:0:
80,53,195728,6,0,P|32:74|59:167,1,150,2|8,0:0|3:2,0:0:0:0:
121,183,196295,1,0,3:0:0:0:
285,282,196483,2,0,L|201:297,1,75,0|8,0:0|0:3,0:0:0:0:
127,336,196861,2,0,L|230:350,1,75,4|2,0:3|0:0,0:0:0:0:
389,362,197238,6,0,P|472:328|414:189,1,247.500007553101,6|0,0:0|0:0,0:0:0:0:
258,241,197993,2,0,P|237:198|306:107,1,165.000005035401,8|0,0:0|3:0,0:0:0:0:
478,59,198559,6,0,P|373:23|297:21,1,165.000005035401,4|8,0:0|0:0,0:0:0:0:
137,138,199313,1,0,0:0:0:0:
216,171,199502,2,0,L|348:194,2,123.75000377655,8|8|4,0:0|0:3|0:3,0:0:0:0:
23,244,200257,6,0,P|23:290|194:331,1,247.500007553101,6|2,0:0|0:0,0:0:0:0:
363,344,201012,2,0,P|412:311|405:197,1,165.000005035401,12|2,0:0|0:0,0:0:0:0:
230,182,201578,6,0,P|170:176|154:82,1,165.000005035401,4|8,0:0|0:0,0:0:0:0:
230,100,202143,1,8,0:0:0:0:
274,167,202332,1,0,0:0:0:0:
258,246,202521,1,12,0:0:0:0:
190,289,202709,1,0,0:0:0:0:
364,335,202898,2,0,L|413:340,2,41.2500012588501,8|8|4,3:3|3:3|3:3,0:0:0:0:
192,354,203276,5,8,0:0:0:0:
490,159,204408,1,0,0:0:0:0:
402,171,204596,6,0,L|197:142,1,172.500003290176,12|8,0:0|0:0,0:0:0:0:
134,260,205162,2,0,L|321:228,1,172.500003290176,8|2,0:0|0:0,0:0:0:0:
356,167,205728,1,0,0:0:0:0:
324,92,205917,1,12,0:0:0:0:
242,86,206106,1,0,0:0:0:0:
57,113,206295,6,0,P|29:172|106:239,1,179.999994506836,6|8,0:0|0:0,0:0:0:0:
272,251,207049,2,0,L|377:269,1,89.9999972534181,0|0,0:0|0:0,0:0:0:0:
264,324,207427,2,0,L|174:360,1,89.9999972534181,8|2,0:0|0:0,0:0:0:0:
367,365,207804,6,0,P|450:354|458:244,1,179.999994506836,6|0,0:0|0:0,0:0:0:0:
390,249,208370,1,8,0:0:0:0:
297,262,208559,2,0,P|257:190|311:102,1,179.999994506836,2|8,0:0|0:0,0:0:0:0:
331,92,209031,1,8,0:0:0:0:
371,86,209125,1,8,0:0:0:0:
204,71,209313,5,6,0:0:0:0:
45,134,209691,1,8,0:0:0:0:
212,254,210068,2,0,L|297:309,2,89.9999972534181,0|2|8,0:0|0:0|0:0,0:0:0:0:
30,231,210634,2,0,P|36:300|131:347,1,179.999994506836,0|0,0:0|0:0,0:0:0:0:
312,333,211200,5,8,0:0:0:0:
136,247,211578,1,2,0:0:0:0:
213,216,211766,2,0,L|395:144,1,179.999994506836,0|0,0:0|0:0,0:0:0:0:
191,108,212332,5,8,0:0:0:0:
55,83,212710,1,8,0:0:0:0:
210,52,213087,1,8,0:0:0:0:
375,55,213464,1,8,0:0:0:0:
82,176,213842,6,0,L|62:349,1,150,8|8,0:0|0:0,0:0:0:0:
374,355,214596,2,0,L|389:186,1,150,8|8,0:0|0:0,0:0:0:0:
345,181,215068,1,8,0:0:0:0:
296,172,215162,1,8,0:0:0:0:
472,102,215351,6,0,P|499:163|409:225,1,179.999994506836,6|8,0:0|0:0,0:0:0:0:
341,216,215917,1,0,0:0:0:0:
256,222,216106,2,0,L|353:203,1,89.9999972534181,0|2,0:0|0:0,0:0:0:0:
430,315,216483,2,0,L|324:294,1,89.9999972534181,8|0,0:0|0:0,0:0:0:0:
159,359,216861,6,0,P|126:284|187:211,1,179.999994506836,2|8,0:0|0:0,0:0:0:0:
261,193,217427,1,0,0:0:0:0:
180,153,217615,2,0,L|57:126,1,89.9999972534181,2|2,0:0|0:0,0:0:0:0:
187,106,217993,2,0,L|291:86,1,89.9999972534181,8|0,0:0|0:0,0:0:0:0:
92,48,218370,6,0,P|28:62|68:155,1,179.999994506836,6|8,0:0|0:0,0:0:0:0:
134,168,218936,1,0,0:0:0:0:
318,229,219125,1,4,0:0:0:0:
138,307,219502,2,0,L|245:331,1,89.9999972534181,8|0,0:0|0:0,0:0:0:0:
403,353,219879,6,0,L|421:171,1,179.999994506836,6|8,0:0|0:0,0:0:0:0:
335,142,220445,1,0,0:0:0:0:
163,91,220634,1,12,0:0:0:0:
121,166,220822,1,10,0:0:0:0:
167,238,221011,1,8,0:0:0:0:
252,233,221200,1,8,0:0:0:0:
72,316,221389,6,0,P|33:283|89:180,1,179.999994506836,6|8,0:0|0:0,0:0:0:0:
257,135,222144,2,0,L|357:159,2,89.9999972534181,2|0|8,0:0|0:0|0:0,0:0:0:0:
165,102,222710,2,0,L|377:60,1,179.999994506836,0|0,0:0|0:0,0:0:0:0:
426,60,223276,1,8,0:0:0:0:
122,114,223653,2,0,L|112:220,1,89.9999972534181,0|0,0:0|0:0,0:0:0:0:
214,203,224030,2,0,L|239:296,1,89.9999972534181,8|0,0:0|0:0,0:0:0:0:
53,349,224408,6,0,P|70:299|187:226,1,179.999994506836,0|8,0:0|0:0,0:0:0:0:
255,197,224974,1,0,0:0:0:0:
174,160,225162,1,2,0:0:0:0:
21,128,225540,2,0,L|28:24,1,89.9999972534181,8|0,0:0|0:0,0:0:0:0:
219,33,225917,6,0,L|28:91,2,179.999994506836,6|12|12,0:0|0:0|0:0,0:0:0:0:
295,69,226861,1,0,0:0:0:0:
220,113,227049,2,0,L|163:102,2,44.999998626709,8|0|0,0:0|0:0|0:0,0:0:0:0:
405,144,227427,6,0,P|472:183|458:288,1,179.999994506836,6|8,0:0|0:0,0:0:0:0:
334,337,228087,2,0,L|277:332,1,44.999998626709,0|0,0:0|0:0,0:0:0:0:
194,284,228370,2,0,L|239:261,1,44.999998626709,2|0,0:0|0:0,0:0:0:0:
276,251,228559,2,0,L|379:243,1,89.9999972534181,8|0,0:0|0:0,0:0:0:0:
176,192,228936,5,2,0:0:0:0:
98,187,229125,2,0,P|39:162|90:56,1,179.999994506836,0|0,0:0|0:0,0:0:0:0:
145,35,229691,1,0,0:0:0:0:
240,43,229879,2,0,L|228:139,1,89.9999972534181,2|10,0:0|0:0,0:0:0:0:
145,166,230257,1,0,0:0:0:0:
327,229,230445,6,0,P|400:181|502:192,1,179.999994506836,2|8,0:0|0:0,0:0:0:0:
361,313,231106,2,0,L|292:307,1,44.999998626709,0|2,0:0|0:0,0:0:0:0:
419,238,231389,2,0,L|481:232,1,44.999998626709,2|0,0:0|0:0,0:0:0:0:
417,202,231578,2,0,L|294:213,1,89.9999972534181,8|0,0:0|0:0,0:0:0:0:
140,174,231955,6,0,L|209:111,1,89.9999972534181,2|0,0:0|0:0,0:0:0:0:
303,147,232332,2,0,L|319:336,1,179.999994506836,8|0,0:0|0:0,0:0:0:0:
233,344,232898,1,2,0:0:0:0:
48,275,233087,2,0,L|157:244,1,89.9999972534181,8|8,0:0|0:0,0:0:0:0:
318,237,233464,6,0,P|322:186|203:133,1,179.999994506836,6|8,0:0|0:0,0:0:0:0:
82,132,234125,2,0,L|67:68,1,44.999998626709,0|0,0:0|0:0,0:0:0:0:
161,57,234408,1,2,0:0:0:0:
70,49,234596,2,0,L|16:40,2,44.999998626709,8|0|0,0:0|0:0|0:0,0:0:0:0:
263,171,234974,6,0,L|368:213,2,89.9999972534181,2|0|0,0:0|0:0|0:0,0:0:0:0:
174,228,235540,2,0,L|288:202,1,89.9999972534181,0|0,0:0|0:0,0:0:0:0:
355,246,235917,2,0,L|377:356,1,89.9999972534181,2|10,0:0|0:0,0:0:0:0:
288,355,236295,1,0,0:0:0:0:
477,343,236483,6,0,L|486:224,1,89.9999972534181,2|8,0:0|0:0,0:0:0:0:
385,210,236861,2,0,P|299:198|256:109,1,179.999994506836,8|0,0:0|0:0,0:0:0:0:
328,79,237427,1,0,0:0:0:0:
412,73,237615,1,8,0:0:0:0:
219,50,237804,5,6,0:0:0:0:
391,16,238181,1,8,0:0:0:0:
216,154,238559,2,0,L|106:136,1,89.9999972534181,4|2,0:3|0:0,0:0:0:0:
326,113,238936,1,8,0:0:0:0:
361,138,239030,1,4,0:3:0:0:
370,181,239124,1,8,0:3:0:0:
347,218,239219,1,8,3:0:0:0:
305,229,239313,1,4,3:0:0:0:
101,260,239502,5,4,0:0:0:0:
256,192,239879,12,2,245540,0:0:0:0:
