osu file format v14

[General]
AudioFilename: audio.mp3
AudioLeadIn: 0
PreviewTime: 135065
Countdown: 0
SampleSet: Soft
StackLeniency: 0.7
Mode: 2
LetterboxInBreaks: 0
WidescreenStoryboard: 1

[Editor]
Bookmarks: 239310
DistanceSpacing: 0.9
BeatDivisor: 8
GridSize: 32
TimelineZoom: 3.899998

[Metadata]
Title:Humanoid
TitleUnicode:ヒューマノイド
Artist:ZUTOMAYO
ArtistUnicode:ずっと真夜中でいいのに。
Creator:Jemzuu
Version:Rain
Source:
Tags:Zutto Mayonaka de Ii no ni. 正しい偽りからの起床 潜潜話 ずとまよ meg ajamez idu5t du5t dust idust xetopia imai lisa liyac cyanine californian darknessofblue japanese pop rock jrock j-rock jpop j-pop female vocal
BeatmapID:2200365
BeatmapSetID:1052572

[Difficulty]
HPDrainRate:6
CircleSize:3.8
OverallDifficulty:9
ApproachRate:9
SliderMultiplier:2.1
SliderTickRate:1

[Events]
//Background and Video events
0,0,"aaaaaaaaaaaaaaaaaaaaaaaaa.jpg",0,0
//Break Periods
2,85740,95506
2,173287,178525
//Storyboard Layer 0 (Background)
//Storyboard Layer 1 (Fail)
//Storyboard Layer 2 (Pass)
//Storyboard Layer 3 (Foreground)
//Storyboard Layer 4 (Overlay)
//Storyboard Sound Samples

[TimingPoints]
1012,377.358490566038,4,2,2,50,1,0
1012,-125,4,2,2,50,0,0
11578,-83.3333333333333,4,2,1,60,0,0
11955,-83.3333333333333,4,2,1,60,0,0
12144,-83.3333333333333,4,2,1,60,0,0
12332,-83.3333333333333,4,2,1,60,0,0
12521,-83.3333333333333,4,2,1,60,0,0
12710,-83.3333333333333,4,2,1,60,0,0
12898,-83.3333333333333,4,2,1,60,0,0
13087,-100,4,2,1,60,0,0
17615,-100,4,2,1,60,0,0
17804,-100,4,2,1,5,0,0
17898,-100,4,2,1,60,0,0
18087,-100,4,2,1,5,0,0
18181,-100,4,2,1,60,0,0
18464,-100,4,2,1,60,0,0
18653,-100,4,2,1,5,0,0
18747,-100,4,2,1,60,0,0
18936,-100,4,2,1,60,0,0
19125,-100,4,2,1,60,0,0
23747,-100,4,2,2,30,0,0
24030,-100,4,2,2,40,0,0
24313,-100,4,2,1,50,0,0
24596,-100,4,2,1,60,0,0
25162,-100,4,2,1,60,0,0
26483,-100,4,2,1,60,0,0
26578,-100,4,2,1,5,0,0
27238,-100,4,2,1,60,0,0
27427,-100,4,2,1,5,0,0
27521,-100,4,2,1,60,0,0
28181,-100,4,2,1,60,0,0
28276,-100,4,2,1,5,0,0
29502,-100,4,2,1,60,0,0
29691,-100,4,2,1,5,0,0
29879,-100,4,2,1,60,0,0
30634,-83.3333333333333,4,2,1,60,0,0
31200,-100,4,2,1,60,0,0
32521,-100,4,2,1,60,0,0
32615,-100,4,2,1,5,0,0
33276,-100,4,2,1,60,0,0
33464,-100,4,2,1,5,0,0
33653,-100,4,2,1,60,0,0
34219,-100,4,2,1,60,0,0
34313,-100,4,2,1,5,0,0
35351,-83.3333333333333,4,2,1,5,0,0
35540,-100,4,2,1,60,0,0
36106,-83.3333333333333,4,2,1,60,0,0
36483,-100,4,2,1,60,0,0
36672,-100,4,2,1,60,0,0
36861,-100,4,2,1,60,0,0
37238,-100,4,2,1,60,0,0
42898,-100,4,2,1,60,0,0
43276,-100,4,2,1,60,0,0
48559,-100,4,2,1,60,0,0
49219,-100,4,2,1,5,0,0
49313,-100,4,2,1,60,0,0
59125,-100,4,2,1,60,0,0
61012,-100,4,2,1,60,0,0
61389,-83.3333333333333,4,2,1,70,0,1
70445,-83.3333333333333,4,2,1,70,0,1
70823,-83.3333333333333,4,2,1,70,0,1
71200,-83.3333333333333,4,2,1,70,0,1
71578,-83.3333333333333,4,2,1,70,0,1
71955,-83.3333333333333,4,2,1,70,0,1
72332,-83.3333333333333,4,2,1,70,0,1
72710,-83.3333333333333,4,2,1,70,0,1
73087,-83.3333333333333,4,2,1,70,0,1
73464,-83.3333333333333,4,2,1,70,0,1
84313,-83.3333333333333,4,2,1,5,0,1
84408,-83.3333333333333,4,2,1,70,0,1
84785,-83.3333333333333,4,2,1,70,0,1
84974,-83.3333333333333,4,2,1,70,0,1
85162,-83.3333333333333,4,2,1,70,0,1
85351,-83.3333333333333,4,2,1,70,0,1
85540,-100,4,2,1,60,0,0
98559,-100,4,2,1,60,0,0
98653,-100,4,2,1,5,0,0
98936,-100,4,2,1,60,0,0
99030,-100,4,2,1,5,0,0
99313,-100,4,2,1,60,0,0
99785,-100,4,2,1,5,0,0
100068,-100,4,2,1,60,0,0
100257,-100,4,2,1,60,0,0
100634,-100,4,2,1,60,0,0
107804,-100,4,2,1,60,0,0
107993,-100,4,2,1,60,0,0
109313,-83.3333333333333,4,2,1,60,0,0
109691,-90.9090909090909,4,2,1,60,0,0
119502,-100,4,2,1,60,0,0
119879,-100,4,2,1,60,0,0
120257,-100,4,2,1,60,0,0
121766,-100,4,2,1,60,0,0
130823,-100,4,2,1,60,0,0
132333,-100,4,2,1,60,0,0
135351,-83.3333333333333,4,2,1,70,0,1
144785,-83.3333333333333,4,2,1,70,0,1
145162,-83.3333333333333,4,2,1,70,0,1
145540,-83.3333333333333,4,2,1,70,0,1
145917,-83.3333333333333,4,2,1,70,0,1
146295,-83.3333333333333,4,2,1,70,0,1
147427,-83.3333333333333,4,2,1,70,0,1
159502,-83.3333333333333,4,2,1,60,0,0
165540,-83.3333333333333,4,2,3,60,0,0
165823,-83.3333333333333,4,2,1,5,0,0
165917,-83.3333333333333,4,2,1,60,0,0
167804,-83.3333333333333,4,2,1,60,0,0
168370,-83.3333333333333,4,2,1,60,0,0
168559,-83.3333333333333,4,2,1,60,0,0
169125,-76.9230769230769,4,2,1,60,0,0
169313,-83.3333333333333,4,2,1,60,0,0
169879,-83.3333333333333,4,2,1,60,0,0
170351,-100,4,2,1,5,0,0
170445,-100,4,2,2,50,0,0
170540,-100,4,2,2,49,0,0
170634,-100,4,2,2,48,0,0
170728,-100,4,2,2,47,0,0
170823,370.37037037037,4,2,2,46,1,0
170823,-100,4,2,2,46,0,0
170915,-100,4,2,2,45,0,0
171008,-100,4,2,2,44,0,0
171100,-100,4,2,2,43,0,0
171193,344.827586206897,4,2,2,43,1,0
171193,-100,4,2,2,42,0,0
171279,-100,4,2,2,41,0,0
171365,-100,4,2,2,40,0,0
171451,-100,4,2,2,39,0,0
171556,376.175548589342,4,2,2,39,1,0
171559,-100,4,2,2,38,0,0
171672,377.358490566038,4,2,2,38,1,0
171861,-100,4,2,2,37,0,0
171955,-100,4,2,2,35,0,0
172238,-100,4,2,2,35,0,0
172521,-100,4,2,2,35,0,0
173087,377.358490566038,4,2,3,35,1,0
173087,-100,4,2,3,35,0,0
183653,-100,4,2,1,60,0,0
185162,-90.9090909090909,4,2,1,60,0,0
186672,-90.9090909090909,4,2,1,60,0,0
187427,-90.9090909090909,4,2,1,60,0,0
188181,-90.9090909090909,4,2,1,60,0,0
188936,-90.9090909090909,4,2,1,60,0,0
189691,-90.9090909090909,4,2,1,60,0,0
191200,-100,4,2,1,60,0,0
197238,-90.9090909090909,4,2,1,60,0,0
197710,-90.9090909090909,4,2,1,5,0,0
197804,-90.9090909090909,4,2,1,60,0,0
200822,-90.9090909090909,4,2,1,60,0,0
201012,-90.9090909090909,4,2,1,60,0,0
201861,-90.9090909090909,4,2,1,5,0,0
201955,-90.9090909090909,4,2,1,60,0,0
203276,-1000,4,2,1,60,0,0
204408,-100,4,2,1,5,0,0
204596,-86.9565217391304,4,2,1,60,0,1
204690,-86.9565217391304,4,2,1,60,0,0
204879,-86.9565217391304,4,2,1,5,0,0
204974,-86.9565217391304,4,2,1,60,0,0
205540,-86.9565217391304,4,2,1,60,0,0
205917,-86.9565217391304,4,2,1,60,0,0
206200,-86.9565217391304,4,2,1,5,0,0
206294,-83.3333333333333,4,2,1,60,0,1
206388,-83.3333333333333,4,2,1,60,0,0
207804,-83.3333333333333,4,2,1,60,0,0
208936,-83.3333333333333,4,2,1,60,0,0
209313,-83.3333333333333,4,2,1,60,0,1
209691,-83.3333333333333,4,2,1,60,0,1
212143,-100,4,2,1,60,0,0
212332,-100,4,2,1,60,0,1
212426,-100,4,2,1,5,0,0
212521,-100,4,2,1,5,0,0
212709,-100,4,2,1,60,0,1
212803,-100,4,2,1,5,0,0
212898,-100,4,2,1,5,0,0
213087,-100,4,2,1,70,0,1
213181,-100,4,2,1,5,0,0
213276,-100,4,2,1,5,0,0
213464,-100,4,2,1,70,0,1
213558,-100,4,2,1,5,0,0
213653,-100,4,2,1,5,0,0
213841,-100,4,2,1,80,0,1
213936,-100,4,2,1,5,0,0
214030,-100,4,2,1,5,0,0
214219,-100,4,2,1,80,0,1
214313,-100,4,2,1,5,0,0
214408,-100,4,2,1,5,0,0
214596,-100,4,2,1,90,0,1
214690,-100,4,2,1,5,0,0
214879,-100,4,2,1,90,0,0
214973,-100,4,2,1,90,0,1
215068,-100,4,2,1,90,0,0
215351,-83.3333333333333,4,2,1,80,0,1
226200,-83.3333333333333,4,2,1,5,0,1
226295,-83.3333333333333,4,2,1,80,0,1
226578,-83.3333333333333,4,2,1,5,0,1
226672,-83.3333333333333,4,2,1,80,0,1
227426,-83.3333333333333,4,2,1,70,0,0
231955,-83.3333333333333,4,2,1,70,0,0
233464,-83.3333333333333,4,2,1,70,0,0
237238,-83.3333333333333,4,2,1,70,0,0
237804,-83.3333333333333,4,2,1,70,0,0
239596,-83.3333333333333,4,2,1,50,0,0
241012,-83.3333333333333,4,2,1,30,0,0
242521,-83.3333333333333,4,2,1,25,0,0
243276,-83.3333333333333,4,2,1,20,0,0
244030,-83.3333333333333,4,2,1,15,0,0
244785,-83.3333333333333,4,2,1,5,0,0
245540,-83.3333333333333,4,2,1,20,0,0

[Colours]
Combo1 : 128,64,64
Combo2 : 255,181,106
Combo3 : 64,184,255

[HitObjects]
456,339,1012,6,0,P|473:260|380:216,1,168,2|0,0:0|0:0,0:0:0:0:
207,138,1766,2,0,L|105:128,2,84,2|0|0,0:0|0:0|0:0,0:0:0:0:
415,47,2332,2,0,L|227:32,1,168,0|0,0:0|0:0,0:0:0:0:
339,114,2898,1,0,0:0:0:0:
159,143,3087,2,0,P|192:220|278:251,1,168,0|0,0:0|0:0,0:0:0:0:
369,265,3653,1,0,0:0:0:0:
47,333,4030,6,0,L|32:240,2,84,2|0|0,0:0|0:0|0:0,0:0:0:0:
211,346,4596,2,0,P|232:298|143:253,1,168,0|0,0:0|0:0,0:0:0:0:
38,255,5162,1,0,0:0:0:0:
301,213,5540,5,0,0:0:0:0:
222,210,5728,1,2,0:0:0:0:
199,135,5917,1,0,0:0:0:0:
262,88,6106,1,0,0:0:0:0:
433,79,6295,1,2,0:0:0:0:
273,37,6483,2,0,L|83:55,1,168,2|0,0:0|0:0,0:0:0:0:
307,184,7049,6,0,L|497:204,2,168,2|0|2,0:0|0:0|0:0,0:0:0:0:
192,201,7993,1,0,0:0:0:0:
296,182,8181,1,0,0:0:0:0:
469,190,8370,2,0,L|473:387,1,168,0|0,0:0|0:0,0:0:0:0:
379,375,8936,1,0,0:0:0:0:
205,299,9125,2,0,L|308:287,1,84,0|2,0:0|0:0,0:0:0:0:
477,257,9502,2,0,P|466:191|377:129,1,168,0|0,0:0|0:0,0:0:0:0:
23,133,10068,5,4,0:0:0:0:
256,192,10257,12,0,11389,0:0:0:0:
220,206,11578,6,0,L|137:199,1,62.9999980773926,12|0,0:0|0:0,0:0:0:0:
243,163,11766,1,8,0:0:0:0:
274,160,11813,1,0,0:0:0:0:
305,157,11860,1,8,0:0:0:0:
117,176,11955,1,2,0:0:0:0:
61,197,12049,1,0,0:0:0:0:
62,256,12143,1,0,0:0:0:0:
118,275,12238,1,8,0:3:0:0:
303,363,12332,6,0,L|318:287,1,62.9999980773926,8|8,0:0|0:0,0:0:0:0:
228,261,12521,1,8,0:3:0:0:
259,259,12568,1,0,0:0:0:0:
290,258,12615,1,8,0:3:0:0:
463,180,12710,2,0,L|393:194,1,62.9999980773926,4|4,0:3|0:3,0:0:0:0:
463,102,12898,2,0,L|400:112,1,62.9999980773926,0|0,0:0|0:0,0:0:0:0:
222,73,13087,6,0,L|155:73,2,52.5,6|0|0,0:0|0:0|0:0,0:0:0:0:
301,90,13370,2,0,L|313:213,1,105,0|0,0:0|0:0,0:0:0:0:
237,220,13653,1,0,0:0:0:0:
42,272,13747,1,0,0:0:0:0:
105,297,13842,6,0,L|227:317,1,105,2|0,0:0|0:0,0:0:0:0:
280,335,14125,1,0,0:0:0:0:
209,354,14219,1,8,0:0:0:0:
176,315,14313,1,0,0:0:0:0:
188,267,14407,1,0,0:0:0:0:
236,250,14502,1,0,0:0:0:0:
420,231,14596,6,0,L|485:239,2,52.5,2|0|0,0:0|0:0|0:0,0:0:0:0:
343,218,14879,2,0,L|327:105,1,105,2|0,0:0|0:0,0:0:0:0:
405,86,15162,2,0,L|477:84,1,52.5,0|0,0:0|0:0,0:0:0:0:
292,37,15351,2,0,L|226:37,2,52.5,2|8|0,0:0|0:0|0:0,0:0:0:0:
370,46,15634,2,0,L|380:170,1,105,2|0,0:0|0:0,0:0:0:0:
306,180,15917,1,0,0:0:0:0:
105,252,16106,5,2,0:0:0:0:
157,258,16200,1,0,0:0:0:0:
209,265,16294,1,0,0:0:0:0:
148,297,16389,2,0,L|26:304,1,105,2|0,0:0|0:0,0:0:0:0:
247,362,16766,1,0,0:0:0:0:
175,349,16861,2,0,L|159:257,1,52.5,2|8,0:0|0:0,0:0:0:0:
235,262,17049,2,0,L|310:256,1,52.5,0|0,0:0|0:0,0:0:0:0:
104,192,17238,2,0,L|40:186,2,52.5,8|0|0,0:0|0:0|0:0,0:0:0:0:
307,159,17615,6,0,L|338:39,1,105,2|0,0:0|0:0,0:0:0:0:
244,35,17898,2,0,L|211:157,1,105,0|0,0:0|0:0,0:0:0:0:
301,196,18181,2,0,L|455:216,1,105,0|2,0:0|0:0,0:0:0:0:
325,253,18464,2,0,L|209:273,1,105,0|0,0:0|0:0,0:0:0:0:
288,306,18747,2,0,L|357:318,1,52.5,4|0,0:0|0:0,0:0:0:0:
254,350,18936,2,0,L|187:356,1,52.5,8|8,0:0|0:0,0:0:0:0:
401,379,19125,6,0,L|475:380,2,52.5,6|0|0,0:0|0:0|0:0,0:0:0:0:
323,329,19408,2,0,L|437:317,1,105,0|0,0:0|0:0,0:0:0:0:
362,283,19691,1,0,0:0:0:0:
186,245,19785,1,0,0:0:0:0:
119,233,19879,6,0,L|102:110,1,105,2|0,0:0|0:0,0:0:0:0:
178,104,20162,1,0,0:0:0:0:
73,59,20257,1,8,0:0:0:0:
124,50,20351,1,0,0:0:0:0:
176,42,20445,1,0,0:0:0:0:
228,34,20540,1,0,0:0:0:0:
39,186,20634,6,0,L|61:255,1,52.5,2|0,0:0|0:0,0:0:0:0:
117,264,20823,1,0,0:0:0:0:
190,271,20917,2,0,L|205:381,1,105,2|0,0:0|0:0,0:0:0:0:
135,373,21200,2,0,L|64:354,1,52.5,0|0,0:0|0:0,0:0:0:0:
286,117,21389,6,0,L|264:186,1,52.5,2|8,0:0|0:0,0:0:0:0:
208,195,21578,1,0,0:0:0:0:
135,202,21672,2,0,L|120:312,1,105,2|0,0:0|0:0,0:0:0:0:
200,324,21955,1,0,0:0:0:0:
412,248,22144,5,2,0:0:0:0:
360,254,22238,1,0,0:0:0:0:
308,261,22332,1,0,0:0:0:0:
369,293,22427,2,0,L|491:300,1,105,0|0,0:0|0:0,0:0:0:0:
279,367,22804,1,0,0:0:0:0:
348,338,22898,2,0,L|212:318,1,105,2|0,0:0|0:0,0:0:0:0:
48,237,23181,5,0,0:0:0:0:
87,203,23275,1,2,0:0:0:0:
138,194,23369,1,0,0:0:0:0:
214,200,23464,2,0,L|223:126,1,52.5,8|8,0:0|0:0,0:0:0:0:
456,202,23842,6,0,L|430:79,1,105,2|2,0:0|0:0,0:0:0:0:
369,63,24125,2,0,L|301:53,1,52.5,2|0,0:0|0:0,0:0:0:0:
134,106,24313,1,8,0:0:0:0:
198,149,24408,2,0,L|318:163,1,105,8|12,0:0|0:3,0:0:0:0:
250,204,24690,1,8,0:3:0:0:
188,227,24784,1,8,0:0:0:0:
121,227,24879,1,8,0:3:0:0:
309,296,24974,2,0,L|238:305,1,52.5,8|8,0:3|0:3,0:0:0:0:
49,198,25162,5,4,0:0:0:0:
486,312,26483,2,0,L|493:228,1,52.5,0|0,1:0|0:0,0:0:0:0:
259,199,27238,2,0,L|245:129,1,52.5,0|0,1:0|0:0,0:0:0:0:
53,77,27521,1,4,3:0:0:0:
105,71,27615,1,4,3:0:0:0:
157,66,27709,1,4,3:0:0:0:
209,61,27804,1,8,0:0:0:0:
68,177,27993,1,0,0:0:0:0:
377,265,28181,6,0,L|440:273,1,52.5,0|0,1:0|0:0,0:0:0:0:
81,328,29502,2,0,L|26:343,1,52.5,0|0,1:0|0:0,0:0:0:0:
254,265,29879,1,0,0:0:0:0:
187,245,29974,1,0,0:0:0:0:
116,240,30068,2,0,L|99:109,1,105,0|4,3:0|0:3,0:0:0:0:
129,113,30319,1,4,0:3:0:0:
161,99,30382,1,4,0:3:0:0:
195,94,30445,1,4,0:3:0:0:
474,68,30634,6,0,P|335:107|185:62,1,251.999992309571,4|0,0:0|0:0,0:0:0:0:
486,289,31200,5,0,1:0:0:0:
230,325,32144,1,4,3:0:0:0:
282,325,32238,1,4,3:0:0:0:
335,325,32332,1,8,0:0:0:0:
72,233,32521,6,0,L|14:229,1,52.5,0|0,1:0|0:0,0:0:0:0:
360,155,33276,2,0,L|427:150,1,52.5,0|0,1:0|0:0,0:0:0:0:
158,88,33653,2,0,L|80:82,1,52.5,0|0,0:0|0:0,0:0:0:0:
162,118,33842,2,0,L|221:115,1,52.5,0|0,0:0|0:0,0:0:0:0:
148,158,34030,2,0,L|83:166,1,52.5,0|0,0:0|0:0,0:0:0:0:
299,285,34219,5,0,1:0:0:0:
493,321,35351,2,0,L|460:191,1,125.999996154785,2|4,0:0|3:0,0:0:0:0:
437,193,35587,1,0,0:0:0:0:
411,188,35634,1,4,3:0:0:0:
215,135,35728,5,8,0:0:0:0:
350,96,35917,1,0,3:0:0:0:
188,45,36106,2,0,L|46:82,1,125.999996154785,12|0,0:0|0:0,0:0:0:0:
128,71,36389,1,2,0:0:0:0:
242,166,36483,2,0,L|304:169,1,52.5,8|8,0:3|0:3,0:0:0:0:
219,211,36672,2,0,L|148:213,1,52.5,4|4,0:3|0:3,0:0:0:0:
368,306,36861,2,0,L|501:294,1,105,12|0,0:0|0:0,0:0:0:0:
408,269,37144,1,0,0:0:0:0:
212,355,37238,5,6,0:0:0:0:
170,324,37332,1,0,0:0:0:0:
162,273,37426,1,0,0:0:0:0:
211,228,37521,1,0,0:0:0:0:
279,211,37615,1,8,0:0:0:0:
101,157,37804,6,0,L|34:155,2,52.5,2|0|0,0:0|0:0|0:0,0:0:0:0:
279,107,38087,2,0,L|217:94,1,52.5,2|2,0:0|0:2,0:0:0:0:
115,56,38370,1,8,0:0:0:0:
239,17,38559,2,0,L|322:20,1,52.5,0|0,0:0|0:0,0:0:0:0:
107,235,38747,5,2,0:0:0:0:
28,313,38936,1,0,0:0:0:0:
168,353,39125,1,8,0:0:0:0:
336,333,39313,5,2,0:0:0:0:
285,332,39407,1,0,0:0:0:0:
252,293,39501,1,0,0:0:0:0:
260,243,39596,1,2,0:0:0:0:
303,216,39690,1,2,0:2:0:0:
448,175,39879,1,8,0:0:0:0:
291,103,40068,2,0,L|213:99,1,52.5,0|0,0:0|0:0,0:0:0:0:
426,43,40257,6,0,P|467:67|466:124,1,105,2|0,0:0|0:0,0:0:0:0:
434,151,40540,1,2,0:0:0:0:
388,162,40634,1,8,0:0:0:0:
127,246,40823,2,0,L|275:262,1,105,0|0,0:0|0:0,0:0:0:0:
292,281,41106,1,8,0:3:0:0:
233,313,41200,1,0,0:0:0:0:
76,342,41389,2,0,L|54:224,1,105,8|0,0:0|0:0,0:0:0:0:
242,165,41672,1,8,0:0:0:0:
302,115,41766,6,0,L|170:104,1,105,2|0,0:0|0:0,0:0:0:0:
38,71,42144,1,8,0:0:0:0:
298,34,42332,1,4,3:0:0:0:
344,54,42426,1,0,3:0:0:0:
356,103,42520,1,0,3:0:0:0:
325,143,42615,1,8,3:0:0:0:
223,215,42710,2,0,L|293:216,1,52.5,2|0,3:2|0:0,0:0:0:0:
441,343,42898,1,8,0:0:0:0:
310,309,43087,2,0,L|382:306,1,52.5,8|8,0:0|0:0,0:0:0:0:
186,351,43276,5,6,0:0:0:0:
65,290,43464,2,0,L|14:268,2,52.5,0|2|8,0:0|0:0|0:0,0:0:0:0:
120,288,43747,1,0,0:0:0:0:
56,322,43842,2,0,L|41:204,1,105,2|0,0:0|0:0,0:0:0:0:
207,153,44125,2,0,L|264:145,1,52.5,10|2,0:0|0:2,0:0:0:0:
108,105,44408,1,8,0:0:0:0:
227,39,44596,2,0,L|286:36,1,52.5,2|2,0:0|0:0,0:0:0:0:
373,61,44785,6,0,L|331:170,1,105,2|0,0:0|0:0,0:0:0:0:
282,179,45068,1,2,0:0:0:0:
220,179,45162,1,8,0:0:0:0:
480,364,45351,2,0,L|361:374,1,105,2|0,0:0|0:0,0:0:0:0:
205,326,45634,2,0,L|263:310,1,52.5,8|2,0:3|0:2,0:0:0:0:
402,268,45917,2,0,L|402:155,1,105,8|0,0:0|0:0,0:0:0:0:
339,142,46200,1,0,0:0:0:0:
152,106,46295,6,0,L|21:92,2,105,2|0|8,0:0|0:3|0:0,0:0:0:0:
343,32,46861,1,2,3:2:0:0:
290,29,46955,1,0,0:0:0:0:
238,26,47049,1,8,3:0:0:0:
185,24,47144,1,8,3:0:0:0:
133,21,47238,2,0,L|200:18,1,52.5,8|8,3:0|3:0,0:0:0:0:
367,140,47427,2,0,L|364:206,1,52.5,4|4,3:0|3:0,0:0:0:0:
290,216,47615,2,0,L|283:288,1,52.5,4|4,3:0|3:0,0:0:0:0:
479,333,47804,5,8,0:0:0:0:
102,319,48559,2,0,P|212:205|428:155,1,367.5,2|0,0:0|0:0,0:0:0:0:
203,191,49313,6,0,P|106:171|201:28,1,315,6|0,0:0|0:0,0:0:0:0:
337,97,50068,2,0,L|210:90,1,105,8|0,0:0|0:0,0:0:0:0:
62,135,50445,1,2,0:0:0:0:
258,247,50634,6,0,P|222:302|71:327,1,210,2|8,0:0|0:0,0:0:0:0:
185,238,51200,1,0,0:0:0:0:
318,208,51389,1,2,0:0:0:0:
110,153,51578,1,8,0:0:0:0:
235,120,51766,2,0,P|327:70|245:3,1,210,8|4,0:3|0:3,0:0:0:0:
209,4,52238,1,0,0:0:0:0:
130,37,52332,5,2,0:0:0:0:
303,182,52521,2,0,L|421:191,2,105,8|0|0,0:0|0:0|0:0,0:0:0:0:
107,290,53087,2,0,L|342:302,1,210,8|0,0:0|0:0,0:0:0:0:
117,357,53653,6,0,L|101:243,1,105,0|2,0:0|0:0,0:0:0:0:
295,207,54030,2,0,L|274:99,1,105,8|0,0:0|0:0,0:0:0:0:
129,75,54408,1,0,0:0:0:0:
306,21,54596,2,0,L|461:15,1,105,8|0,0:3|0:0,0:0:0:0:
225,218,54974,2,0,L|92:232,1,105,0|0,0:0|0:0,0:0:0:0:
177,259,55257,1,0,0:0:0:0:
364,358,55351,6,0,P|461:314|352:195,1,315,6|0,0:0|0:0,0:0:0:0:
173,200,56106,2,0,L|188:93,1,105,8|0,0:0|0:0,0:0:0:0:
350,56,56483,1,0,0:0:0:0:
87,38,56672,2,0,P|51:92|174:141,1,210,0|8,0:0|0:0,0:0:0:0:
13,289,57238,2,0,L|143:293,1,105,0|0,0:0|0:0,0:0:0:0:
289,356,57615,2,0,L|152:362,1,105,8|0,0:0|0:0,0:0:0:0:
351,269,57993,2,0,L|222:264,1,105,0|0,0:0|0:0,0:0:0:0:
235,215,58276,1,0,0:0:0:0:
432,173,58370,5,2,0:0:0:0:
309,111,58559,2,0,L|179:99,1,105,8|8,0:0|0:3,0:0:0:0:
369,45,58936,1,0,0:0:0:0:
175,55,59125,5,0,0:0:0:0:
154,71,59172,1,0,0:0:0:0:
141,93,59219,1,0,0:0:0:0:
137,119,59266,1,0,0:0:0:0:
144,144,59313,1,0,0:0:0:0:
159,165,59360,1,0,0:0:0:0:
181,179,59408,1,0,0:0:0:0:
207,184,59455,1,0,0:0:0:0:
234,180,59502,2,0,L|173:178,1,52.5,2|0,0:0|0:0,0:0:0:0:
17,282,59691,2,0,L|115:274,1,52.5,0|0,0:0|0:0,0:0:0:0:
265,347,59879,5,8,0:0:0:0:
480,318,60823,2,0,L|400:302,1,52.5,8|8,0:3|0:3,0:0:0:0:
221,227,61012,1,8,0:0:0:0:
394,144,61200,2,0,L|327:135,1,52.5,0|0,0:0|0:0,0:0:0:0:
163,177,61389,6,0,P|151:254|244:299,1,188.999994232178,6|0,0:0|0:0,0:0:0:0:
306,344,61766,2,0,L|140:357,1,125.999996154785,8|0,0:0|0:0,0:0:0:0:
239,300,62049,1,0,0:0:0:0:
172,292,62144,2,0,L|73:278,1,62.9999980773926,0|8,0:0|0:0,0:0:0:0:
175,240,62332,1,2,0:0:0:0:
328,188,62521,1,8,0:0:0:0:
149,129,62710,2,0,L|70:117,1,62.9999980773926,0|0,0:0|0:0,0:0:0:0:
259,74,62898,6,0,L|412:53,1,125.999996154785,2|0,0:0|0:0,0:0:0:0:
224,208,63276,2,0,L|383:185,1,125.999996154785,8|0,0:0|0:0,0:0:0:0:
408,202,63558,1,0,0:0:0:0:
442,253,63652,1,0,0:0:0:0:
430,313,63747,1,8,0:0:0:0:
379,347,63841,1,2,0:0:0:0:
217,349,64030,1,8,0:0:0:0:
386,357,64219,2,0,L|480:368,1,62.9999980773926,0|0,0:0|0:0,0:0:0:0:
267,246,64408,6,0,L|117:227,1,125.999996154785,2|0,0:0|0:0,0:0:0:0:
301,153,64785,1,8,0:0:0:0:
131,116,64974,2,0,L|61:104,1,62.9999980773926,0|0,0:0|0:0,0:0:0:0:
144,82,65162,1,0,0:0:0:0:
181,130,65256,1,8,0:0:0:0:
171,190,65350,1,0,0:0:0:0:
121,225,65445,1,0,0:0:0:0:
61,211,65539,1,8,0:0:0:0:
218,311,65728,2,0,L|291:319,1,62.9999980773926,0|0,0:0|0:0,0:0:0:0:
108,363,65917,6,0,P|32:332|31:262,1,125.999996154785,2|0,0:0|0:0,0:0:0:0:
70,251,66200,1,0,0:0:0:0:
137,233,66295,1,8,0:0:0:0:
283,209,66483,1,0,0:0:0:0:
113,142,66672,2,0,L|26:127,2,62.9999980773926,0|0|2,0:0|0:0|0:0,0:0:0:0:
264,95,67049,1,8,0:0:0:0:
90,48,67238,2,0,L|160:37,1,62.9999980773926,4|4,0:3|0:3,0:0:0:0:
351,288,67427,6,0,L|505:314,2,125.999996154785,6|0|8,0:0|0:0|0:0,0:0:0:0:
493,200,67993,2,0,L|416:183,1,62.9999980773926,0|0,0:0|0:0,0:0:0:0:
360,124,68181,2,0,L|278:109,2,62.9999980773926,0|8|2,0:0|0:0|0:0,0:0:0:0:
204,202,68559,1,8,0:0:0:0:
351,257,68747,1,0,0:0:0:0:
405,287,68841,1,0,0:0:0:0:
467,298,68935,1,2,0:0:0:0:
195,364,69125,5,0,0:0:0:0:
339,353,69313,2,0,P|347:284|306:242,1,125.999996154785,8|0,0:0|0:0,0:0:0:0:
259,223,69596,1,8,0:0:0:0:
198,214,69691,1,2,0:0:0:0:
376,153,69879,2,0,P|315:115|233:109,1,125.999996154785,0|8,0:0|0:0,0:0:0:0:
419,62,70257,2,0,L|495:49,1,62.9999980773926,0|0,0:0|0:0,0:0:0:0:
305,229,70445,6,0,L|153:241,1,125.999996154785,6|0,0:0|0:0,0:0:0:0:
19,330,70823,2,0,L|151:342,1,125.999996154785,8|0,0:0|0:0,0:0:0:0:
323,253,71200,1,6,0:0:0:0:
260,259,71294,1,0,0:0:0:0:
197,266,71388,1,2,0:0:0:0:
10,362,71578,2,0,L|142:374,1,125.999996154785,8|0,0:0|0:0,0:0:0:0:
390,254,71955,5,6,0:0:0:0:
338,219,72049,1,0,0:0:0:0:
276,212,72143,1,0,0:0:0:0:
99,249,72332,2,0,L|83:105,1,125.999996154785,12|0,0:0|0:0,0:0:0:0:
353,110,72710,2,0,L|277:96,1,62.9999980773926,6|0,0:0|0:0,0:0:0:0:
222,66,72898,2,0,L|297:50,1,62.9999980773926,0|0,0:0|0:0,0:0:0:0:
355,55,73087,2,0,L|499:73,1,125.999996154785,12|0,0:0|0:0,0:0:0:0:
185,177,73464,6,0,P|150:235|255:273,1,188.999994232178,6|0,0:0|0:0,0:0:0:0:
153,304,73842,2,0,L|12:284,1,125.999996154785,8|0,0:0|0:0,0:0:0:0:
92,246,74125,1,0,0:0:0:0:
163,235,74219,2,0,L|173:160,1,62.9999980773926,0|8,0:0|0:0,0:0:0:0:
97,150,74408,1,2,0:0:0:0:
250,106,74596,1,8,0:0:0:0:
77,58,74785,2,0,L|154:39,1,62.9999980773926,0|0,0:0|0:0,0:0:0:0:
328,33,74974,6,0,L|457:38,1,125.999996154785,2|0,0:0|0:0,0:0:0:0:
264,128,75351,2,0,L|279:264,1,125.999996154785,8|0,0:0|0:0,0:0:0:0:
341,264,75634,1,0,0:0:0:0:
277,296,75728,2,0,L|193:288,2,62.9999980773926,0|8|2,0:0|0:0|0:0,0:0:0:0:
432,319,76106,1,8,0:0:0:0:
266,377,76295,2,0,L|155:368,1,62.9999980773926,0|0,0:0|0:0,0:0:0:0:
397,229,76483,6,0,P|467:245|488:296,1,125.999996154785,2|0,0:0|0:0,0:0:0:0:
432,319,76766,1,0,0:0:0:0:
370,326,76861,1,8,0:0:0:0:
497,368,77049,1,0,0:0:0:0:
189,281,77238,6,0,P|219:228|279:220,1,125.999996154785,0|2,0:0|0:0,0:0:0:0:
335,222,77521,1,0,0:0:0:0:
397,229,77616,1,8,0:0:0:0:
376,133,77804,1,0,0:0:0:0:
54,123,77993,6,0,P|84:70|144:62,1,125.999996154785,12|0,0:0|0:0,0:0:0:0:
200,64,78276,1,0,0:0:0:0:
262,71,78371,1,8,0:0:0:0:
93,263,78559,2,0,L|25:273,1,62.9999980773926,0|0,0:0|0:0,0:0:0:0:
215,328,78747,6,0,L|391:351,1,125.999996154785,12|0,0:0|0:0,0:0:0:0:
483,292,79125,1,8,0:0:0:0:
297,235,79313,2,0,L|219:229,1,62.9999980773926,8|8,0:0|0:0,0:0:0:0:
417,199,79502,6,0,P|488:154|494:93,1,125.999996154785,6|0,0:0|0:0,0:0:0:0:
346,82,79879,1,8,0:0:0:0:
496,118,80068,2,0,L|482:227,1,62.9999980773926,0|0,0:0|0:0,0:0:0:0:
306,265,80257,6,0,L|237:275,1,62.9999980773926,2|8,0:0|0:0,0:0:0:0:
310,302,80445,2,0,L|385:307,1,62.9999980773926,2|0,0:0|0:0,0:0:0:0:
304,343,80634,1,8,0:0:0:0:
460,367,80823,2,0,L|353:357,1,62.9999980773926,0|0,0:0|0:0,0:0:0:0:
214,365,81012,6,0,L|54:339,1,125.999996154785,2|0,0:0|0:0,0:0:0:0:
276,255,81389,2,0,L|143:235,1,125.999996154785,8|0,0:0|0:0,0:0:0:0:
221,213,81672,1,0,0:0:0:0:
54,175,81766,2,0,L|32:107,2,62.9999980773926,2|0|0,0:0|0:0|0:0,0:0:0:0:
223,115,82144,1,8,0:0:0:0:
45,26,82332,2,0,L|26:122,1,62.9999980773926,0|0,0:0|0:0,0:0:0:0:
223,30,82521,6,0,L|385:16,1,125.999996154785,6|0,0:0|0:0,0:0:0:0:
164,138,82898,1,8,0:0:0:0:
223,151,82992,1,0,0:0:0:0:
248,206,83086,1,0,0:0:0:0:
220,260,83181,1,0,0:0:0:0:
160,270,83275,1,0,0:0:0:0:
221,298,83370,1,8,0:0:0:0:
399,336,83464,1,2,0:0:0:0:
259,348,83653,2,0,L|120:359,1,125.999996154785,8|0,0:0|0:0,0:0:0:0:
427,104,84030,6,0,P|480:165|392:211,1,188.999994232178,6|0,0:0|0:0,0:0:0:0:
346,208,84408,1,12,0:0:0:0:
144,99,84597,1,0,0:0:0:0:
208,88,84691,1,0,0:0:0:0:
391,38,84785,6,0,L|240:22,1,125.999996154785,12|8,0:0|0:0,0:0:0:0:
201,24,85068,1,8,0:0:0:0:
258,51,85162,1,8,3:2:0:0:
325,63,85257,1,8,0:0:0:0:
132,213,85351,2,8,L|43:217,1,62.9999980773926,8|8,0:0|0:0,0:0:0:0:
276,303,85540,5,6,0:0:0:0:
256,192,96106,12,4,97615,0:0:0:0:
296,356,98370,5,8,0:0:0:0:
46,302,98559,2,0,L|40:237,1,52.5,0|0,1:0|0:0,0:0:0:0:
241,198,98936,2,0,L|254:131,1,52.5,0|0,1:0|0:0,0:0:0:0:
461,115,99313,1,0,3:0:0:0:
175,58,99691,6,0,L|83:50,1,52.5,0|0,1:0|0:0,0:0:0:0:
350,246,100068,2,0,L|432:257,1,52.5,4|4,0:3|0:3,0:0:0:0:
201,317,100257,2,0,L|67:323,1,105,8|0,0:0|0:0,0:0:0:0:
388,366,100634,6,0,P|461:335|372:264,1,210,6|0,0:0|0:0,0:0:0:0:
274,250,101200,1,0,0:0:0:0:
444,171,101389,2,0,L|448:29,1,105,8|0,0:0|3:0,0:0:0:0:
342,31,101766,1,0,0:0:0:0:
144,144,101955,6,0,L|376:131,1,210,0|8,3:0|0:0,0:0:0:0:
203,194,102521,2,0,L|189:301,1,105,0|0,3:0|0:0,0:0:0:0:
337,337,102898,1,8,0:0:0:0:
42,342,103087,2,0,P|33:262|161:166,1,210,4|8,0:0|0:3,0:0:0:0:
176,164,103559,1,8,0:3:0:0:
355,70,103653,5,6,0:0:0:0:
449,109,103841,1,0,0:0:0:0:
485,205,104030,1,0,3:0:0:0:
443,298,104219,1,0,0:0:0:0:
298,353,104408,2,0,L|414:341,1,105,8|0,0:0|3:0,0:0:0:0:
234,286,104785,1,0,0:0:0:0:
437,257,104974,2,0,L|460:34,1,210,0|8,3:0|0:0,0:0:0:0:
320,31,105540,2,0,L|194:40,1,105,0|0,3:0|0:0,0:0:0:0:
424,157,105917,6,0,L|301:168,1,105,8|4,0:0|0:3,0:0:0:0:
265,187,106200,1,0,0:0:0:0:
319,217,106295,1,0,0:0:0:0:
476,257,106483,1,0,3:0:0:0:
182,367,106672,5,6,0:0:0:0:
87,331,106860,1,8,0:0:0:0:
58,233,107049,1,0,0:0:0:0:
118,152,107238,1,0,3:0:0:0:
220,151,107426,1,8,0:0:0:0:
67,78,107615,2,0,L|4:68,1,52.5,8|8,3:0|3:0,0:0:0:0:
197,46,107804,2,0,L|259:33,1,52.5,4|4,3:0|3:0,0:0:0:0:
186,25,107993,2,0,L|128:22,1,52.5,2|2,3:2|3:2,0:0:0:0:
330,138,108181,5,8,0:0:0:0:
468,187,109125,2,0,L|483:270,1,52.5,0|0,1:0|0:0,0:0:0:0:
278,286,109313,5,8,0:0:0:0:
427,351,109502,1,0,0:0:0:0:
395,355,109549,1,0,0:0:0:0:
364,359,109596,1,2,0:0:0:0:
172,356,109691,5,6,0:0:0:0:
123,327,109785,1,0,0:0:0:0:
111,273,109879,1,0,0:0:0:0:
143,226,109974,1,0,0:0:0:0:
198,219,110068,1,8,0:0:0:0:
40,157,110257,2,0,L|103:142,1,57.7500017623902,0|0,0:0|0:0,0:0:0:0:
157,129,110445,2,0,L|169:68,1,57.7500017623902,0|8,0:0|0:0,0:0:0:0:
368,42,110634,5,2,0:0:0:0:
230,22,110823,1,8,0:0:0:0:
389,145,111012,2,0,L|457:148,1,57.7500017623902,0|0,0:0|0:0,0:0:0:0:
272,229,111200,2,0,L|134:244,2,115.50000352478,2|0|8,0:0|0:0|0:0,0:0:0:0:
81,337,111766,2,0,L|223:353,1,115.50000352478,0|0,0:0|0:0,0:0:0:0:
298,328,112049,2,0,L|311:262,1,57.7500017623902,8|2,0:0|0:0,0:0:0:0:
147,215,112332,1,8,0:0:0:0:
317,134,112521,2,0,L|252:128,1,57.7500017623902,0|0,0:0|0:0,0:0:0:0:
84,140,112710,6,0,L|43:271,1,115.50000352478,2|0,0:0|0:0,0:0:0:0:
207,278,113087,1,8,0:0:0:0:
17,343,113276,2,0,L|149:362,1,115.50000352478,0|0,0:0|0:0,0:0:0:0:
316,274,113559,1,8,0:0:0:0:
380,238,113653,2,0,L|247:224,1,115.50000352478,2|8,0:0|0:0,0:0:0:0:
437,129,114030,2,0,L|505:119,1,57.7500017623902,0|0,0:0|0:0,0:0:0:0:
309,61,114219,6,0,L|223:49,2,57.7500017623902,2|0|0,0:0|0:0|0:0,0:0:0:0:
455,44,114596,1,8,0:0:0:0:
180,138,114785,2,0,L|319:159,1,115.50000352478,0|0,3:0|0:0,0:0:0:0:
358,177,115068,1,8,0:0:0:0:
295,204,115162,1,2,0:0:0:0:
116,257,115351,5,8,0:0:0:0:
146,305,115445,1,0,0:0:0:0:
196,332,115539,1,8,0:0:0:0:
253,332,115634,1,2,0:0:0:0:
42,195,115728,5,6,0:0:0:0:
170,151,115917,2,0,L|183:78,2,57.7500017623902,0|0|8,0:0|0:0|0:0,0:0:0:0:
332,88,116295,1,0,0:0:0:0:
312,39,116389,2,0,L|141:30,1,115.50000352478,0|0,0:0|0:0,0:0:0:0:
22,157,116672,1,2,0:0:0:0:
170,149,116861,2,0,L|185:286,1,115.50000352478,8|0,0:0|0:0,0:0:0:0:
35,300,117238,1,2,0:0:0:0:
215,346,117427,2,0,L|377:328,1,115.50000352478,0|8,0:0|0:0,0:0:0:0:
63,160,117804,6,0,L|218:149,1,115.50000352478,0|0,3:0|0:0,0:0:0:0:
262,75,118087,2,0,L|195:67,1,57.7500017623902,8|2,0:0|0:0,0:0:0:0:
55,33,118370,1,8,0:0:0:0:
17,74,118464,1,0,0:0:0:0:
27,129,118558,1,0,0:0:0:0:
76,154,118653,1,0,0:0:0:0:
262,126,118747,5,2,0:0:0:0:
392,185,118936,1,0,0:0:0:0:
322,221,119030,1,0,0:0:0:0:
243,238,119125,1,8,0:0:0:0:
499,352,119313,5,0,3:0:0:0:
348,355,119502,1,0,0:0:0:0:
303,330,119596,1,8,0:0:0:0:
290,281,119690,1,8,0:0:0:0:
319,238,119785,1,8,0:0:0:0:
399,215,119879,2,0,L|328:211,1,52.5,8|8,0:3|0:3,0:0:0:0:
157,116,120068,2,0,L|227:105,1,52.5,4|4,0:3|0:3,0:0:0:0:
441,88,120257,5,8,0:0:0:0:
454,43,120823,2,0,L|390:36,1,52.5,4|4,0:3|0:3,0:0:0:0:
229,32,121012,1,8,0:0:0:0:
148,102,121200,1,8,0:3:0:0:
190,192,121389,1,4,0:3:0:0:
308,211,121578,1,0,0:0:0:0:
27,293,121766,6,0,P|69:228|300:152,1,315,6|2,0:0|0:0,0:0:0:0:
129,157,122521,2,0,L|189:276,1,105,8|0,0:0|0:0,0:0:0:0:
341,323,122898,1,0,0:0:0:0:
75,340,123087,6,0,P|32:289|141:235,1,210,0|8,3:0|0:0,0:0:0:0:
276,143,123653,2,0,L|161:138,1,105,0|0,0:0|0:0,0:0:0:0:
19,54,124030,2,0,L|141:41,1,105,8|0,0:0|0:0,0:0:0:0:
182,29,124313,1,8,0:3:0:0:
241,30,124408,1,0,0:0:0:0:
87,194,124596,2,0,L|170:194,1,52.5,4|0,0:3|0:0,0:0:0:0:
319,313,124785,5,2,0:0:0:0:
461,233,124974,2,0,L|330:217,1,105,8|0,0:0|0:0,0:0:0:0:
220,279,125351,1,2,0:0:0:0:
389,380,125540,2,0,L|163:364,1,210,8|0,0:3|0:0,0:0:0:0:
453,305,126106,6,0,P|487:257|379:182,1,210,6|8,0:0|0:0,0:0:0:0:
255,153,126672,1,2,0:0:0:0:
408,71,126861,2,0,L|328:66,1,52.5,0|8,0:0|0:3,0:0:0:0:
181,54,127049,2,0,L|70:64,3,105,8|8|4|4,0:3|0:3|0:3|0:3,0:0:0:0:
364,55,127804,6,0,P|441:76|339:215,1,315,6|2,0:0|0:0,0:0:0:0:
223,229,128559,2,0,L|214:348,1,105,8|0,0:0|0:0,0:0:0:0:
346,357,128936,1,0,0:0:0:0:
85,217,129125,2,0,P|130:146|268:119,1,210,6|8,0:0|0:0,0:0:0:0:
77,116,129691,2,0,L|62:-10,1,105,0|2,0:0|0:0,0:0:0:0:
221,19,130068,1,8,0:0:0:0:
55,244,130257,2,0,L|190:254,1,105,0|2,0:0|0:0,0:0:0:0:
335,330,130634,2,0,L|261:344,1,52.5,0|8,0:0|0:3,0:0:0:0:
94,351,130823,5,6,0:0:0:0:
226,308,131012,2,0,L|352:289,1,105,8|0,0:0|0:0,0:0:0:0:
185,222,131389,1,2,0:0:0:0:
383,92,131578,2,0,L|393:322,1,210,8|2,0:0|0:0,0:0:0:0:
45,116,132332,6,0,L|190:107,1,105,4|0,0:0|0:0,0:0:0:0:
312,40,132710,2,0,L|183:27,1,105,8|0,0:0|0:0,0:0:0:0:
388,158,133087,2,0,L|275:155,1,105,8|4,0:0|3:0,0:0:0:0:
226,165,133370,1,4,3:0:0:0:
411,307,133464,5,4,3:0:0:0:
461,295,133558,1,4,3:0:0:0:
491,253,133652,1,4,3:0:0:0:
485,202,133747,1,0,0:0:0:0:
448,167,133842,2,0,L|323:152,1,105,0|8,0:0|0:0,0:0:0:0:
78,73,134219,6,0,L|201:64,1,105,12|4,0:0|0:3,0:0:0:0:
241,74,134502,1,4,0:3:0:0:
182,65,134596,1,8,0:3:0:0:
140,95,134690,1,8,0:3:0:0:
126,144,134784,1,8,0:3:0:0:
146,192,134879,1,8,0:3:0:0:
244,207,134973,1,8,0:0:0:0:
244,278,135067,1,0,0:0:0:0:
56,330,135162,2,0,L|65:266,1,52.5,8|8,0:0|0:0,0:0:0:0:
265,189,135351,6,0,P|338:208|333:325,1,188.999994232178,6|0,0:0|0:0,0:0:0:0:
261,336,135728,2,0,L|420:349,1,125.999996154785,8|0,0:0|0:0,0:0:0:0:
448,318,136012,1,0,0:0:0:0:
389,300,136106,1,0,0:0:0:0:
325,281,136200,1,8,0:0:0:0:
390,255,136295,1,2,0:0:0:0:
215,188,136483,2,0,L|361:174,1,125.999996154785,8|0,0:0|0:0,0:0:0:0:
403,168,136766,1,0,0:0:0:0:
229,98,136861,5,2,0:0:0:0:
361,69,137049,1,2,3:0:0:0:
95,43,137238,2,0,L|72:187,1,125.999996154785,8|0,0:0|0:0,0:0:0:0:
144,200,137521,1,0,0:0:0:0:
318,311,137615,2,0,L|414:322,2,62.9999980773926,0|8|2,0:0|0:0|0:0,0:0:0:0:
169,362,137993,1,8,0:0:0:0:
344,224,138181,2,0,L|270:215,1,62.9999980773926,0|0,0:0|0:0,0:0:0:0:
107,140,138370,6,0,P|30:98|25:58,1,125.999996154785,2|0,0:0|0:0,0:0:0:0:
183,47,138747,1,8,0:0:0:0:
25,237,138936,2,0,L|110:228,1,62.9999980773926,0|0,0:0|0:0,0:0:0:0:
161,293,139125,2,0,L|75:281,1,62.9999980773926,0|8,0:0|0:0,0:0:0:0:
26,293,139313,1,2,0:0:0:0:
194,361,139502,2,0,L|262:364,1,62.9999980773926,8|0,0:0|0:0,0:0:0:0:
187,325,139691,2,0,L|123:332,1,62.9999980773926,0|0,0:0|0:0,0:0:0:0:
310,260,139879,6,0,L|464:273,1,125.999996154785,2|0,0:0|0:0,0:0:0:0:
268,183,140257,2,0,L|247:115,1,62.9999980773926,8|0,0:0|0:0,0:0:0:0:
339,118,140445,2,0,L|359:46,1,62.9999980773926,0|2,0:0|0:0,0:0:0:0:
175,26,140634,2,0,L|28:33,1,125.999996154785,0|2,0:0|0:0,0:0:0:0:
111,68,140917,1,0,0:0:0:0:
185,79,141011,1,8,0:0:0:0:
26,204,141200,2,0,L|102:211,1,62.9999980773926,4|4,0:3|0:3,0:0:0:0:
277,319,141389,6,0,L|460:334,2,125.999996154785,6|0|8,0:0|0:0|0:0,0:0:0:0:
425,241,141955,2,0,L|503:235,1,62.9999980773926,0|0,0:0|0:0,0:0:0:0:
298,177,142144,2,0,L|195:166,2,62.9999980773926,0|8|0,0:0|0:0|0:0,0:0:0:0:
451,133,142521,1,8,0:0:0:0:
271,86,142710,2,0,L|120:76,1,125.999996154785,0|2,0:0|0:0,0:0:0:0:
206,44,142993,1,0,0:0:0:0:
277,37,143087,1,0,0:0:0:0:
22,132,143276,6,0,L|51:261,1,125.999996154785,8|0,0:0|0:0,0:0:0:0:
110,273,143559,1,0,0:0:0:0:
289,335,143653,1,0,0:0:0:0:
130,357,143842,2,0,L|275:369,1,125.999996154785,2|8,0:0|0:0,0:0:0:0:
421,334,144219,2,0,L|438:260,1,62.9999980773926,0|0,0:0|0:0,0:0:0:0:
250,228,144408,6,0,L|241:161,1,62.9999980773926,6|0,0:0|0:0,0:0:0:0:
291,138,144596,1,0,0:0:0:0:
463,138,144785,2,0,P|475:69|417:29,1,125.999996154785,8|0,0:0|0:0,0:0:0:0:
377,28,145068,1,0,0:0:0:0:
191,147,145162,6,0,L|218:82,1,62.9999980773926,4|0,0:0|0:0,0:0:0:0:
278,72,145350,1,2,0:0:0:0:
465,178,145540,2,0,P|430:244|359:279,1,125.999996154785,8|0,0:0|0:0,0:0:0:0:
323,276,145823,1,0,0:0:0:0:
131,331,145917,6,0,L|276:350,1,125.999996154785,6|0,0:0|0:0,0:0:0:0:
77,354,146295,1,12,0:0:0:0:
37,308,146389,1,0,0:0:0:0:
58,252,146483,1,0,0:0:0:0:
118,242,146578,1,0,0:0:0:0:
297,166,146672,6,0,L|377:156,1,62.9999980773926,12|8,0:0|0:0,0:0:0:0:
281,124,146861,2,0,L|202:114,1,62.9999980773926,8|8,0:0|0:0,0:0:0:0:
411,188,147049,1,12,0:0:0:0:
450,142,147143,1,8,0:0:0:0:
429,86,147237,1,8,0:0:0:0:
369,76,147332,1,8,0:0:0:0:
172,82,147427,6,0,P|218:149|345:134,1,188.999994232178,6|0,0:0|0:0,0:0:0:0:
236,193,147804,2,0,L|97:206,1,125.999996154785,8|0,0:0|0:0,0:0:0:0:
149,252,148087,1,0,0:0:0:0:
208,274,148181,1,0,0:0:0:0:
269,262,148276,1,8,0:0:0:0:
87,335,148370,1,2,0:0:0:0:
226,330,148559,1,8,0:0:0:0:
85,230,148747,2,0,L|1:220,1,62.9999980773926,0|0,0:0|0:0,0:0:0:0:
201,168,148936,6,0,L|356:149,1,125.999996154785,2|0,0:0|0:0,0:0:0:0:
130,88,149313,2,0,L|269:69,1,125.999996154785,8|0,0:0|0:0,0:0:0:0:
320,72,149596,1,0,0:0:0:0:
254,35,149691,2,0,L|184:31,1,62.9999980773926,0|8,0:0|0:0,0:0:0:0:
259,100,149879,1,2,0:0:0:0:
428,153,150068,2,0,P|478:228|478:278,1,125.999996154785,8|0,0:0|0:0,0:0:0:0:
412,281,150351,1,0,0:0:0:0:
219,344,150445,5,2,0:0:0:0:
383,346,150634,2,0,L|319:331,1,62.9999980773926,0|0,0:0|0:0,0:0:0:0:
254,320,150823,2,0,P|245:233|278:217,1,125.999996154785,8|0,0:0|0:0,0:0:0:0:
332,211,151106,1,0,0:0:0:0:
144,156,151200,5,0,0:0:0:0:
294,94,151389,2,0,L|203:82,1,62.9999980773926,2|0,0:0|0:0,0:0:0:0:
155,74,151578,2,0,P|194:147|283:164,1,125.999996154785,8|0,0:0|0:0,0:0:0:0:
299,171,151861,1,0,0:0:0:0:
101,218,151955,6,0,P|39:241|31:317,1,125.999996154785,6|0,0:0|0:0,0:0:0:0:
176,325,152332,1,8,0:0:0:0:
21,351,152521,2,0,L|117:366,1,62.9999980773926,0|0,0:0|0:0,0:0:0:0:
280,293,152710,6,0,L|426:283,2,125.999996154785,12|8|8,0:0|0:0|0:0,0:0:0:0:
456,201,153276,2,0,L|383:189,1,62.9999980773926,8|8,0:0|0:0,0:0:0:0:
205,137,153464,6,0,L|55:128,2,125.999996154785,6|0|8,0:0|0:0|0:0,0:0:0:0:
38,212,154030,1,0,0:0:0:0:
203,240,154219,2,0,L|223:307,1,62.9999980773926,0|8,0:0|0:0,0:0:0:0:
139,315,154408,2,0,L|118:391,1,62.9999980773926,0|0,0:0|0:0,0:0:0:0:
206,375,154596,1,8,0:0:0:0:
37,102,154785,2,0,L|112:92,1,62.9999980773926,0|0,0:0|0:0,0:0:0:0:
279,171,154974,6,0,L|434:178,1,125.999996154785,2|0,0:0|0:0,0:0:0:0:
278,225,155351,1,8,0:0:0:0:
138,260,155540,2,0,L|129:328,1,62.9999980773926,0|0,0:0|0:0,0:0:0:0:
301,356,155728,2,0,L|378:356,1,62.9999980773926,0|8,0:0|0:0,0:0:0:0:
171,293,156012,1,0,0:0:0:0:
104,269,156106,2,0,L|246:253,1,125.999996154785,8|0,0:0|0:0,0:0:0:0:
488,144,156483,6,0,L|319:129,1,125.999996154785,2|0,0:0|0:0,0:0:0:0:
434,99,156766,1,0,0:0:0:0:
346,62,156861,2,0,L|183:73,1,125.999996154785,8|0,0:0|0:0,0:0:0:0:
285,44,157144,1,0,0:0:0:0:
214,38,157238,2,0,L|129:40,1,62.9999980773926,2|0,0:0|0:0,0:0:0:0:
223,88,157427,1,0,0:0:0:0:
83,146,157615,1,8,0:0:0:0:
236,202,157804,2,0,L|319:206,1,62.9999980773926,0|0,0:0|0:0,0:0:0:0:
130,262,157993,6,0,P|46:291|136:346,1,188.999994232178,6|0,0:0|0:0,0:0:0:0:
153,355,158370,2,0,L|236:348,1,62.9999980773926,12|0,0:0|0:0,0:0:0:0:
146,286,158559,2,0,L|72:280,1,62.9999980773926,0|0,0:0|0:0,0:0:0:0:
284,233,158747,5,6,0:0:0:0:
129,151,158936,2,0,L|266:132,1,125.999996154785,0|12,0:0|0:0,0:0:0:0:
307,119,159219,1,8,0:0:0:0:
241,93,159313,1,8,0:0:0:0:
184,76,159408,1,8,0:0:0:0:
389,46,159502,5,6,0:0:0:0:
447,62,159596,1,0,0:0:0:0:
465,120,159690,1,0,0:0:0:0:
428,167,159785,1,0,0:0:0:0:
354,173,159879,2,0,L|285:138,3,62.9999980773926,0|0|0|0,0:0|0:0|0:0|0:0,0:0:0:0:
221,140,160257,5,8,0:0:0:0:
188,191,160351,1,0,0:0:0:0:
207,249,160445,1,0,0:0:0:0:
263,272,160540,1,0,0:0:0:0:
333,293,160634,2,0,L|246:296,1,62.9999980773926,0|0,0:0|0:0,0:0:0:0:
336,324,160823,2,0,L|421:332,1,62.9999980773926,0|0,0:0|0:0,0:0:0:0:
183,360,161012,5,2,0:0:0:0:
122,361,161106,1,0,0:0:0:0:
89,310,161200,1,8,0:0:0:0:
113,255,161295,1,0,0:0:0:0:
195,243,161389,2,0,L|230:187,3,62.9999980773926,2|0|0|0,0:0|0:0|0:0|0:0,0:0:0:0:
327,176,161766,5,8,0:0:0:0:
383,156,161860,1,0,0:0:0:0:
393,97,161954,1,0,0:0:0:0:
346,60,162049,1,0,0:0:0:0:
261,53,162144,2,0,L|237:126,3,62.9999980773926,2|0|0|0,0:0|0:0|0:0|0:0,0:0:0:0:
42,189,162521,5,6,0:0:0:0:
164,258,162710,2,0,L|303:276,1,125.999996154785,8|8,0:0|0:0,0:0:0:0:
102,350,163087,2,0,L|260:366,1,125.999996154785,2|0,0:0|0:0,0:0:0:0:
404,340,163464,2,0,L|477:326,2,62.9999980773926,0|2|2,0:0|0:0|0:0,0:0:0:0:
131,272,163842,6,0,P|90:222|222:126,1,251.999992309571,6|8,0:0|0:0,0:0:0:0:
48,100,164408,1,8,0:0:0:0:
326,41,164596,2,0,L|166:27,1,125.999996154785,6|0,0:0|0:0,0:0:0:0:
37,68,164974,1,2,0:0:0:0:
17,127,165068,1,0,0:0:0:0:
31,187,165162,1,4,0:0:0:0:
76,231,165257,1,0,0:0:0:0:
136,245,165351,1,0,0:0:0:0:
197,244,165445,1,0,0:0:0:0:
393,323,165540,6,0,P|463:285|383:203,1,188.999994232178,12|0,0:0|0:0,0:0:0:0:
354,172,165917,2,0,L|274:165,1,62.9999980773926,8|0,0:0|0:0,0:0:0:0:
459,134,166106,1,0,0:0:0:0:
401,93,166200,2,0,L|268:78,1,125.999996154785,0|8,0:0|0:0,0:0:0:0:
343,56,166483,1,2,0:0:0:0:
181,42,166672,1,8,0:0:0:0:
349,247,166861,2,0,L|264:233,1,62.9999980773926,0|0,0:0|0:0,0:0:0:0:
105,320,167049,6,0,L|89:254,1,62.9999980773926,2|0,0:0|0:0,0:0:0:0:
172,248,167238,2,0,L|190:184,1,62.9999980773926,0|0,0:0|0:0,0:0:0:0:
115,167,167427,2,0,L|43:149,1,62.9999980773926,8|0,0:0|0:0,0:0:0:0:
118,113,167615,2,0,L|206:100,1,62.9999980773926,0|0,0:0|0:0,0:0:0:0:
374,66,167804,5,2,0:0:0:0:
225,233,167993,2,0,L|354:245,1,125.999996154785,0|8,0:0|0:0,0:0:0:0:
502,356,168370,2,0,L|429:357,1,62.9999980773926,0|0,0:0|0:0,0:0:0:0:
263,351,168559,6,0,L|94:339,1,125.999996154785,6|0,0:0|0:0,0:0:0:0:
209,297,168842,1,0,0:0:0:0:
293,290,168936,1,8,0:0:0:0:
23,176,169125,2,0,L|183:149,1,136.499993751526,0|8,0:0|0:0,0:0:0:0:
234,135,169408,1,0,0:0:0:0:
315,139,169502,1,8,0:0:0:0:
56,72,169691,1,2,0:0:0:0:
394,75,169879,6,0,P|469:124|303:222,1,377.999988464356,6|0,0:0|0:0,0:0:0:0:
270,195,170539,1,0,0:0:0:0:
262,144,170634,1,0,0:0:0:0:
286,98,170728,1,0,0:0:0:0:
332,75,170823,1,0,0:0:0:0:
383,83,170915,6,0,L|318:72,1,52.5,0|2,0:0|0:0,0:0:0:0:
277,73,171100,1,2,0:0:0:0:
327,68,171193,1,2,0:0:0:0:
365,102,171279,1,2,0:0:0:0:
364,153,171365,1,2,0:0:0:0:
326,187,171451,1,2,0:0:0:0:
97,355,171556,6,0,P|48:276|94:228,1,170.625,2|0,0:0|0:0,0:0:0:0:
166,227,171955,2,0,L|199:175,2,52.5,2|2|0,0:0|0:0|0:0,0:0:0:0:
250,162,172238,2,0,L|299:126,2,52.5,2|2|0,0:0|0:0|0:0,0:0:0:0:
170,127,172521,2,0,L|104:94,2,52.5,2|2|0,0:0|0:0|0:0,0:0:0:0:
72,73,172804,2,0,L|21:85,2,52.5,2|2|2,0:0|0:0|0:0,0:0:0:0:
345,70,173087,5,2,0:0:0:0:
432,348,179125,6,0,L|450:221,1,105,0|0,0:0|0:0,0:0:0:0:
294,219,179502,1,0,0:0:0:0:
286,167,179596,1,0,0:0:0:0:
279,115,179690,1,0,0:0:0:0:
432,84,179879,5,0,0:0:0:0:
250,43,180068,2,0,L|138:43,1,105,0|0,0:0|0:0,0:0:0:0:
200,74,180351,2,0,L|274:75,1,52.5,0|0,0:0|0:0,0:0:0:0:
81,165,180634,5,0,0:0:0:0:
238,223,180823,2,0,L|303:228,2,52.5,0|0|0,0:0|0:0|0:0,0:0:0:0:
88,277,181200,1,0,0:0:0:0:
268,338,181389,5,0,0:0:0:0:
320,337,181483,1,0,0:0:0:0:
367,315,181577,1,0,0:0:0:0:
399,274,181672,1,0,0:0:0:0:
412,224,181766,1,0,0:0:0:0:
263,187,181955,1,0,0:0:0:0:
465,133,182144,6,0,P|429:78|310:48,1,157.5,0|0,0:0|0:0,0:0:0:0:
269,44,182521,1,0,0:0:0:0:
466,30,182710,1,0,0:0:0:0:
411,40,182804,2,0,L|231:49,1,157.5,0|0,0:0|0:0,0:0:0:0:
455,146,183276,2,0,L|467:277,1,105,4|0,0:0|0:0,0:0:0:0:
165,348,183653,5,8,0:0:0:0:
288,286,183842,1,8,0:0:0:0:
423,274,184030,1,2,0:0:0:0:
252,198,184219,1,8,0:0:0:0:
202,190,184313,1,8,0:0:0:0:
180,144,184407,1,8,0:0:0:0:
206,101,184502,1,8,0:0:0:0:
401,113,184596,5,8,0:0:0:0:
254,95,184785,1,8,0:3:0:0:
306,101,184879,1,4,0:3:0:0:
358,108,184973,1,8,0:3:0:0:
79,278,185162,6,0,P|26:243|131:149,1,231.000007049561,6|8,0:0|0:0,0:0:0:0:
275,97,185728,1,0,0:0:0:0:
227,65,185822,1,0,0:0:0:0:
153,57,185917,2,0,L|137:190,1,115.50000352478,2|0,0:0|0:0,0:0:0:0:
212,203,186200,2,0,L|284:203,1,57.7500017623902,0|8,0:0|0:0,0:0:0:0:
79,292,186483,2,0,L|159:304,1,57.7500017623902,0|0,0:0|0:0,0:0:0:0:
216,305,186672,2,0,L|240:175,1,115.50000352478,2|0,0:0|0:0,0:0:0:0:
159,151,186955,2,0,L|236:132,1,57.7500017623902,0|8,0:0|0:0,0:0:0:0:
408,97,187238,6,0,L|328:84,1,57.7500017623902,0|0,0:0|0:0,0:0:0:0:
281,68,187427,2,0,L|421:39,1,115.50000352478,2|0,0:0|0:0,0:0:0:0:
324,18,187710,2,0,L|238:17,1,57.7500017623902,0|8,0:0|0:0,0:0:0:0:
472,111,187993,2,0,L|379:121,1,57.7500017623902,0|0,0:0|0:0,0:0:0:0:
334,139,188181,2,0,L|306:275,1,115.50000352478,2|0,0:0|0:0,0:0:0:0:
396,293,188464,2,0,L|314:308,1,57.7500017623902,0|8,0:0|0:0,0:0:0:0:
154,358,188747,6,0,L|220:359,1,57.7500017623902,0|0,0:0|0:0,0:0:0:0:
281,348,188936,1,4,0:3:0:0:
255,296,189030,1,4,0:3:0:0:
212,259,189124,1,4,0:3:0:0:
157,243,189219,1,0,0:0:0:0:
100,250,189313,1,8,0:0:0:0:
268,177,189502,2,0,L|378:156,1,57.7500017623902,0|2,0:0|0:0,0:0:0:0:
142,84,189691,6,0,L|11:64,2,115.50000352478,2|0|8,0:0|0:0|0:0,0:0:0:0:
334,12,190257,2,0,L|210:31,1,115.50000352478,0|2,3:0|0:0,0:0:0:0:
171,58,190539,1,0,0:0:0:0:
159,113,190633,1,8,0:0:0:0:
191,160,190728,1,8,0:0:0:0:
282,185,190823,2,0,L|339:194,1,57.7500017623902,0|0,3:0|0:0,0:0:0:0:
260,238,191012,2,0,L|187:241,1,57.7500017623902,0|0,3:0|3:0,0:0:0:0:
367,340,191200,6,0,L|511:358,2,105,6|0|8,0:0|0:0|0:0,0:0:0:0:
213,360,191766,2,0,L|252:313,1,52.5,0|0,0:0|0:0,0:0:0:0:
304,298,191955,2,0,L|408:272,1,105,2|0,0:0|0:0,0:0:0:0:
257,209,192332,1,8,0:0:0:0:
430,182,192521,2,0,L|445:113,1,52.5,0|0,0:0|0:0,0:0:0:0:
265,90,192710,5,2,0:0:0:0:
136,68,192898,1,0,0:0:0:0:
276,25,193087,1,8,0:0:0:0:
92,146,193276,2,0,L|72:268,1,105,0|0,3:0|0:0,0:0:0:0:
138,278,193559,1,8,0:0:0:0:
210,286,193653,1,2,0:0:0:0:
37,342,193842,1,8,0:0:0:0:
176,362,194030,2,0,L|249:366,1,52.5,0|0,0:0|0:0,0:0:0:0:
408,346,194219,6,0,P|457:313|463:258,1,105,2|0,0:0|0:0,0:0:0:0:
312,220,194596,1,8,0:0:0:0:
472,153,194785,2,0,L|411:146,1,52.5,0|0,3:0|0:0,0:0:0:0:
253,84,194974,2,0,L|187:75,2,52.5,8|8|0,0:0|0:0|0:0,0:0:0:0:
427,29,195351,2,0,L|304:22,1,105,8|0,0:0|0:0,0:0:0:0:
266,30,195634,1,0,0:0:0:0:
454,156,195728,6,0,L|482:289,1,105,2|8,0:0|3:2,0:0:0:0:
308,303,196106,2,0,L|247:313,1,52.5,8|0,3:2|3:0,0:0:0:0:
323,333,196295,2,0,L|400:345,1,52.5,0|0,3:0|3:0,0:0:0:0:
196,192,196483,6,0,L|136:184,2,52.5,0|8|8,0:0|0:3|0:3,0:0:0:0:
46,109,196861,1,4,0:3:0:0:
226,76,197049,2,0,L|299:64,1,52.5,2|2,0:0|0:0,0:0:0:0:
79,322,197238,6,0,P|13:271|177:161,1,346.500010574341,6|0,0:0|0:0,0:0:0:0:
362,57,197993,2,0,L|120:37,1,231.000007049561,8|0,0:0|3:0,0:0:0:0:
405,51,198559,6,0,P|465:85|376:180,1,231.000007049561,4|8,0:0|0:0,0:0:0:0:
231,231,199125,2,0,L|229:360,1,115.50000352478,0|0,0:0|0:0,0:0:0:0:
427,357,199502,2,0,L|299:354,1,115.50000352478,8|0,0:0|0:0,0:0:0:0:
246,325,199785,1,8,0:3:0:0:
308,303,199879,1,0,0:0:0:0:
478,272,200068,1,4,0:3:0:0:
201,251,200257,6,0,P|151:200|319:95,1,346.500010574341,6|2,0:0|0:0,0:0:0:0:
53,38,201012,2,0,L|41:193,1,115.50000352478,12|0,0:0|0:0,0:0:0:0:
107,155,201294,1,2,0:0:0:0:
170,158,201388,1,0,0:0:0:0:
234,160,201483,1,0,0:0:0:0:
46,318,201578,6,0,P|23:249|171:189,1,231.000007049561,4|8,0:0|0:0,0:0:0:0:
293,157,202144,1,8,0:0:0:0:
124,100,202332,1,0,0:0:0:0:
389,63,202521,1,12,0:0:0:0:
234,37,202710,6,0,L|161:29,1,57.7500017623902,0|0,0:0|0:0,0:0:0:0:
365,179,202898,1,8,3:3:0:0:
309,177,202992,1,8,3:3:0:0:
276,222,203086,1,4,3:3:0:0:
295,274,203181,1,4,3:3:0:0:
483,357,203276,6,0,L|495:291,1,63,8|0,0:0|0:0,0:0:0:0:
163,204,204596,6,0,L|356:184,1,181.125003454685,12|0,0:0|0:0,0:0:0:0:
281,157,204974,1,8,0:0:0:0:
95,145,205162,2,0,L|82:284,1,120.750002303124,8|0,0:0|3:0,0:0:0:0:
113,270,205398,1,0,0:0:0:0:
143,276,205445,1,0,0:0:0:0:
312,353,205540,2,0,L|388:361,1,60.3750011515618,2|0,0:0|0:0,0:0:0:0:
301,317,205728,2,0,L|227:321,1,60.3750011515618,0|0,0:0|0:0,0:0:0:0:
439,289,205917,6,0,P|489:230|397:178,1,181.125003454685,12|0,0:0|0:0,0:0:0:0:
198,138,206295,5,6,0:0:0:0:
41,73,206483,1,0,0:0:0:0:
204,27,206672,2,0,P|117:59|77:151,1,167.999994873047,8|0,0:0|0:0,0:0:0:0:
202,157,207049,1,0,0:0:0:0:
255,184,207143,1,8,0:0:0:0:
261,244,207237,1,0,0:0:0:0:
214,282,207332,1,0,0:0:0:0:
123,289,207427,2,0,L|41:294,2,62.9999980773926,8|8|2,0:0|0:0|0:0,0:0:0:0:
387,366,207804,6,0,L|243:355,1,125.999996154785,6|8,0:0|0:0,0:0:0:0:
323,323,208087,1,0,0:0:0:0:
397,311,208181,1,0,0:0:0:0:
239,248,208370,2,0,L|150:230,1,62.9999980773926,8|0,0:0|0:0,0:0:0:0:
376,197,208559,1,2,0:0:0:0:
441,173,208653,2,0,L|280:148,1,125.999996154785,8|0,0:0|0:0,0:0:0:0:
130,103,208936,2,0,L|184:59,1,62.9999980773926,8|8,0:0|0:0,0:0:0:0:
256,48,209125,2,0,L|334:37,1,62.9999980773926,8|8,0:0|0:0,0:0:0:0:
119,30,209313,6,0,P|54:75|128:159,1,188.999994232178,6|0,0:0|0:0,0:0:0:0:
169,168,209691,1,8,0:0:0:0:
346,283,209879,2,0,L|267:284,1,62.9999980773926,0|0,0:0|0:0,0:0:0:0:
97,352,210068,1,0,0:0:0:0:
28,321,210162,2,0,L|181:301,1,125.999996154785,8|0,0:0|0:0,0:0:0:0:
261,252,210445,2,0,L|103:233,1,125.999996154785,8|0,0:0|0:0,0:0:0:0:
207,218,210728,1,2,0:0:0:0:
405,193,210823,6,0,P|472:160|487:90,1,125.999996154785,2|0,0:0|0:0,0:0:0:0:
415,79,211106,1,0,0:0:0:0:
332,78,211200,1,8,0:0:0:0:
495,317,211389,2,0,L|407:317,1,62.9999980773926,0|0,0:0|0:0,0:0:0:0:
239,367,211578,2,0,L|311:358,1,62.9999980773926,2|8,0:0|0:0,0:0:0:0:
379,346,211766,2,0,P|293:295|241:297,1,125.999996154785,0|8,0:0|0:0,0:0:0:0:
416,208,212144,2,0,L|326:197,1,52.5,0|0,0:0|0:0,0:0:0:0:
32,177,212332,6,0,L|26:53,1,105,8|0,0:0|0:0,0:0:0:0:
210,69,212710,2,0,L|223:-40,1,105,8|0,0:0|0:0,0:0:0:0:
431,22,213087,2,0,L|454:-87,1,105,8|0,0:0|0:0,0:0:0:0:
246,40,213464,2,0,L|99:57,1,105,8|0,0:0|0:0,0:0:0:0:
450,181,213842,6,0,L|319:195,1,105,8|0,0:0|0:0,0:0:0:0:
49,292,214219,2,0,L|178:302,1,105,8|0,0:0|0:0,0:0:0:0:
477,354,214596,2,0,L|340:366,1,105,8|8,0:0|0:0,0:0:0:0:
305,353,214879,1,0,0:0:0:0:
475,271,214974,2,0,L|401:264,1,52.5,8|8,0:0|0:0,0:0:0:0:
254,227,215162,2,0,L|185:222,1,52.5,8|8,0:0|0:0,0:0:0:0:
404,206,215351,6,0,P|464:144|356:123,1,188.999994232178,6|0,0:0|0:0,0:0:0:0:
316,67,215728,2,0,L|459:38,1,125.999996154785,8|0,0:0|0:0,0:0:0:0:
374,21,216012,1,0,0:0:0:0:
298,24,216106,1,0,0:0:0:0:
121,111,216200,2,0,L|106:183,1,62.9999980773926,8|2,0:0|0:0,0:0:0:0:
288,264,216483,2,0,L|145:272,1,125.999996154785,8|0,0:0|0:0,0:0:0:0:
230,298,216766,1,0,0:0:0:0:
44,340,216861,6,0,L|34:211,1,125.999996154785,2|0,0:0|0:0,0:0:0:0:
190,137,217238,1,8,0:0:0:0:
31,93,217427,2,0,L|105:73,1,62.9999980773926,0|8,0:0|0:0,0:0:0:0:
298,59,217615,1,2,0:0:0:0:
151,37,217804,1,2,0:0:0:0:
307,170,217993,2,0,L|466:182,1,125.999996154785,8|0,0:0|0:0,0:0:0:0:
361,207,218276,1,0,0:0:0:0:
165,231,218370,6,0,L|148:368,1,125.999996154785,6|0,0:0|0:0,0:0:0:0:
306,352,218747,2,0,L|222:338,1,62.9999980773926,8|0,0:0|0:0,0:0:0:0:
175,301,218936,2,0,L|277:292,1,62.9999980773926,0|0,0:0|0:0,0:0:0:0:
432,288,219125,6,0,L|459:160,1,125.999996154785,4|2,0:0|0:0,0:0:0:0:
386,136,219408,1,0,0:0:0:0:
294,106,219502,2,0,L|361:96,1,62.9999980773926,8|0,0:0|0:0,0:0:0:0:
426,42,219691,2,0,L|359:34,1,62.9999980773926,0|0,0:0|0:0,0:0:0:0:
167,140,219879,6,0,L|30:155,1,125.999996154785,6|0,0:0|0:0,0:0:0:0:
120,196,220162,1,0,0:0:0:0:
215,215,220257,2,0,L|70:236,1,125.999996154785,8|0,0:0|0:0,0:0:0:0:
169,256,220540,1,0,0:0:0:0:
391,350,220634,6,0,L|258:333,1,125.999996154785,12|10,0:0|0:0,0:0:0:0:
446,266,221012,1,8,0:0:0:0:
479,215,221106,1,0,0:0:0:0:
456,159,221200,1,8,0:0:0:0:
397,145,221295,1,8,0:0:0:0:
207,97,221389,6,0,L|48:77,2,125.999996154785,6|0|8,0:0|0:0|0:0,0:0:0:0:
270,123,221861,1,0,0:0:0:0:
207,161,221955,1,0,0:0:0:0:
32,223,222144,1,2,0:0:0:0:
90,260,222238,2,0,L|247:278,1,125.999996154785,8|0,0:0|0:0,0:0:0:0:
143,305,222521,1,8,0:0:0:0:
308,358,222710,2,0,L|385:365,1,62.9999980773926,0|0,0:0|0:0,0:0:0:0:
195,357,222898,6,0,L|57:358,1,125.999996154785,2|0,0:0|0:0,0:0:0:0:
134,313,223181,1,0,0:0:0:0:
207,300,223276,1,8,0:0:0:0:
39,247,223464,2,0,L|14:151,1,62.9999980773926,0|0,0:0|0:0,0:0:0:0:
202,133,223653,6,0,L|74:110,1,125.999996154785,0|0,0:0|0:0,0:0:0:0:
150,89,223936,1,0,0:0:0:0:
240,75,224030,2,0,L|101:51,1,125.999996154785,8|0,0:0|0:0,0:0:0:0:
183,28,224313,1,0,0:0:0:0:
366,120,224408,6,0,L|499:101,1,125.999996154785,0|0,0:0|0:0,0:0:0:0:
329,221,224785,2,0,L|232:210,1,62.9999980773926,8|0,0:0|0:0,0:0:0:0:
342,253,224974,2,0,L|451:253,1,62.9999980773926,0|0,0:0|0:0,0:0:0:0:
328,300,225162,2,0,L|243:293,1,62.9999980773926,2|8,0:0|0:0,0:0:0:0:
435,369,225351,2,0,L|511:360,1,62.9999980773926,0|0,0:0|0:0,0:0:0:0:
329,351,225540,2,0,L|196:330,1,125.999996154785,8|0,0:0|0:0,0:0:0:0:
278,306,225823,1,0,0:0:0:0:
75,280,225917,6,0,L|47:151,1,125.999996154785,6|0,0:0|0:0,0:0:0:0:
219,158,226295,2,0,L|257:27,1,125.999996154785,12|0,0:0|0:0,0:0:0:0:
321,28,226578,1,0,0:0:0:0:
143,36,226672,5,12,0:0:0:0:
106,84,226766,1,0,0:0:0:0:
125,142,226860,1,0,0:0:0:0:
183,159,226955,1,0,0:0:0:0:
354,224,227049,2,0,L|438:233,1,62.9999980773926,8|0,0:0|0:0,0:0:0:0:
237,306,227238,2,0,L|154:312,1,62.9999980773926,0|0,0:0|0:0,0:0:0:0:
366,355,227427,6,0,L|446:361,2,62.9999980773926,6|0|0,0:0|0:0|0:0,0:0:0:0:
297,335,227710,2,0,L|437:311,1,125.999996154785,0|0,0:0|0:0,0:0:0:0:
236,249,228087,1,0,0:0:0:0:
163,224,228181,2,0,L|303:204,1,125.999996154785,0|2,0:0|0:0,0:0:0:0:
219,178,228464,1,0,0:0:0:0:
287,148,228559,2,0,L|365:139,2,62.9999980773926,8|0|0,0:0|0:0|0:0,0:0:0:0:
104,84,228936,5,2,0:0:0:0:
68,132,229030,1,0,0:0:0:0:
91,188,229124,1,0,0:0:0:0:
160,202,229219,2,0,L|294:209,1,125.999996154785,0|0,0:0|0:0,0:0:0:0:
115,285,229502,1,0,0:0:0:0:
45,308,229596,2,0,L|128:324,1,62.9999980773926,0|0,0:0|0:0,0:0:0:0:
179,344,229785,2,0,L|104:351,1,62.9999980773926,8|2,0:0|0:0,0:0:0:0:
46,357,229974,2,0,L|35:224,1,125.999996154785,0|0,0:0|0:0,0:0:0:0:
101,204,230257,1,0,0:0:0:0:
290,170,230445,5,2,0:0:0:0:
230,161,230539,1,0,0:0:0:0:
211,105,230633,1,0,0:0:0:0:
252,62,230728,1,0,0:0:0:0:
430,46,230917,1,0,0:0:0:0:
244,40,231106,1,0,0:0:0:0:
179,45,231200,2,0,L|317:18,1,125.999996154785,2|2,0:0|0:0,0:0:0:0:
484,145,231483,2,0,L|473:218,1,62.9999980773926,0|8,0:0|0:0,0:0:0:0:
405,226,231672,2,0,L|384:303,1,62.9999980773926,0|0,0:0|0:0,0:0:0:0:
194,346,231955,5,2,0:0:0:0:
361,363,232144,2,0,L|293:351,1,62.9999980773926,0|0,0:0|0:0,0:0:0:0:
135,237,232332,2,0,L|273:218,1,125.999996154785,8|0,0:0|0:0,0:0:0:0:
77,153,232710,1,0,0:0:0:0:
140,141,232804,2,0,L|291:126,1,125.999996154785,8|0,0:0|0:0,0:0:0:0:
91,84,233087,1,8,0:0:0:0:
48,125,233181,1,8,0:0:0:0:
68,182,233275,1,8,0:0:0:0:
127,189,233370,1,8,0:0:0:0:
297,248,233464,6,0,L|435:255,1,125.999996154785,6|0,0:0|0:0,0:0:0:0:
350,289,233747,2,0,L|210:305,1,125.999996154785,0|0,0:0|0:0,0:0:0:0:
408,364,234125,1,0,0:0:0:0:
472,366,234219,2,0,L|487:231,1,125.999996154785,0|2,0:0|0:0,0:0:0:0:
326,197,234502,2,0,L|241:186,1,62.9999980773926,0|8,0:0|0:0,0:0:0:0:
337,156,234691,2,0,L|406:146,1,62.9999980773926,0|0,0:0|0:0,0:0:0:0:
219,73,234974,6,0,L|146:68,2,62.9999980773926,2|0|0,0:0|0:0|0:0,0:0:0:0:
296,88,235257,2,0,L|308:217,1,125.999996154785,2|0,0:0|0:0,0:0:0:0:
124,274,235634,1,2,0:0:0:0:
187,299,235728,2,0,L|289:314,1,62.9999980773926,0|8,0:0|0:0,0:0:0:0:
184,337,235917,1,2,0:0:0:0:
107,351,236012,2,0,L|73:203,1,125.999996154785,0|0,0:0|0:0,0:0:0:0:
146,200,236295,1,0,0:0:0:0:
426,169,236483,5,2,0:0:0:0:
387,119,236577,1,0,0:0:0:0:
332,90,236671,1,8,0:0:0:0:
270,86,236766,1,0,0:0:0:0:
390,48,236861,1,8,0:0:0:0:
440,80,236955,1,0,0:0:0:0:
434,139,237049,1,0,0:0:0:0:
379,162,237144,1,8,0:0:0:0:
197,254,237238,6,0,L|52:267,1,125.999996154785,0|0,0:0|0:0,0:0:0:0:
252,360,237521,2,0,L|329:366,1,62.9999980773926,10|8,0:0|0:0,0:0:0:0:
135,324,237804,2,0,L|102:181,1,125.999996154785,6|0,0:0|0:0,0:0:0:0:
296,144,238181,2,0,L|213:134,1,62.9999980773926,8|8,0:0|0:0,0:0:0:0:
169,83,238370,2,0,L|250:70,1,62.9999980773926,8|8,0:3|0:3,0:0:0:0:
406,53,238559,6,0,L|236:36,1,125.999996154785,4|2,0:3|0:0,0:0:0:0:
207,47,238842,1,4,0:3:0:0:
298,80,238936,1,8,0:0:0:0:
364,92,239030,1,4,0:3:0:0:
188,166,239125,2,0,L|112:170,1,62.9999980773926,8|8,0:3|3:0,0:0:0:0:
192,213,239313,2,0,L|274:218,1,62.9999980773926,4|0,3:0|3:0,0:0:0:0:
30,275,239502,5,4,0:0:0:0:
256,192,239691,12,2,245540,0:0:0:0:
