osu file format v14

[General]
AudioFilename: audio.mp3
AudioLeadIn: 0
PreviewTime: 135065
Countdown: 0
SampleSet: Soft
StackLeniency: 0.7
Mode: 2
LetterboxInBreaks: 0
WidescreenStoryboard: 1

[Editor]
Bookmarks: 239310
DistanceSpacing: 0.9
BeatDivisor: 8
GridSize: 32
TimelineZoom: 3.899998

[Metadata]
Title:Humanoid
TitleUnicode:ヒューマノイド
Artist:ZUTOMAYO
ArtistUnicode:ずっと真夜中でいいのに。
Creator:Jemzuu
Version:Cup
Source:
Tags:Zutto Mayonaka de Ii no ni. 正しい偽りからの起床 潜潜話 ずとまよ meg ajamez idu5t du5t dust idust xetopia imai lisa liyac cyanine californian darknessofblue japanese pop rock jrock j-rock jpop j-pop female vocal
BeatmapID:2237308
BeatmapSetID:1052572

[Difficulty]
HPDrainRate:3
CircleSize:2.5
OverallDifficulty:6
ApproachRate:6
SliderMultiplier:1.3
SliderTickRate:1

[Events]
//Background and Video events
0,0,"aaaaaaaaaaaaaaaaaaaaaaaaa.jpg",0,0
//Break Periods
2,85740,95056
2,173287,178075
//Storyboard Layer 0 (Background)
//Storyboard Layer 1 (Fail)
//Storyboard Layer 2 (Pass)
//Storyboard Layer 3 (Foreground)
//Storyboard Layer 4 (Overlay)
//Storyboard Sound Samples

[TimingPoints]
1012,377.358490566038,4,2,2,50,1,0
1012,-100,4,2,2,50,0,0
11578,-100,4,2,1,60,0,0
11955,-100,4,2,1,60,0,0
12144,-100,4,2,1,60,0,0
12332,-100,4,2,1,60,0,0
12521,-100,4,2,1,60,0,0
12710,-100,4,2,1,60,0,0
12898,-100,4,2,1,60,0,0
13087,-100,4,2,1,60,0,0
17615,-100,4,2,1,60,0,0
17804,-100,4,2,1,5,0,0
17898,-100,4,2,1,60,0,0
18087,-100,4,2,1,5,0,0
18181,-100,4,2,1,60,0,0
18370,-100,4,2,1,60,0,0
18464,-100,4,2,1,60,0,0
18653,-100,4,2,1,5,0,0
18747,-100,4,2,1,60,0,0
18936,-100,4,2,1,60,0,0
19125,-100,4,2,1,60,0,0
23747,-100,4,2,2,30,0,0
24030,-100,4,2,2,40,0,0
24313,-100,4,2,1,50,0,0
24596,-100,4,2,1,60,0,0
25162,-100,4,2,1,60,0,0
26483,-100,4,2,1,60,0,0
26578,-100,4,2,1,5,0,0
27238,-100,4,2,1,60,0,0
27427,-100,4,2,1,5,0,0
27521,-100,4,2,1,60,0,0
28181,-100,4,2,1,60,0,0
28276,-100,4,2,1,5,0,0
29502,-100,4,2,1,60,0,0
29691,-100,4,2,1,5,0,0
29879,-100,4,2,1,60,0,0
30634,-100,4,2,1,60,0,0
31200,-100,4,2,1,60,0,0
32521,-100,4,2,1,60,0,0
32615,-100,4,2,1,5,0,0
33276,-100,4,2,1,60,0,0
33464,-100,4,2,1,5,0,0
33653,-100,4,2,1,60,0,0
34219,-100,4,2,1,60,0,0
34313,-100,4,2,1,5,0,0
35351,-100,4,2,1,50,0,0
35540,-100,4,2,1,60,0,0
36106,-100,4,2,1,60,0,0
36483,-100,4,2,1,60,0,0
36672,-100,4,2,1,60,0,0
36861,-100,4,2,1,60,0,0
37238,-100,4,2,1,60,0,0
42898,-100,4,2,1,60,0,0
43276,-100,4,2,1,60,0,0
48559,-100,4,2,1,60,0,0
49219,-100,4,2,1,5,0,0
49313,-100,4,2,1,60,0,0
59125,-100,4,2,1,60,0,0
61012,-100,4,2,1,60,0,0
61389,-83.3333333333333,4,2,1,70,0,1
70445,-83.3333333333333,4,2,1,70,0,1
70823,-83.3333333333333,4,2,1,70,0,1
71200,-83.3333333333333,4,2,1,70,0,1
71578,-83.3333333333333,4,2,1,70,0,1
71955,-83.3333333333333,4,2,1,70,0,1
72332,-83.3333333333333,4,2,1,70,0,1
72710,-83.3333333333333,4,2,1,70,0,1
73087,-83.3333333333333,4,2,1,70,0,1
73464,-83.3333333333333,4,2,1,70,0,1
84313,-83.3333333333333,4,2,1,5,0,1
84408,-83.3333333333333,4,2,1,70,0,1
84691,-83.3333333333333,4,2,1,5,0,1
84785,-83.3333333333333,4,2,1,70,0,1
84974,-83.3333333333333,4,2,1,70,0,1
85162,-83.3333333333333,4,2,1,70,0,1
85351,-83.3333333333333,4,2,1,70,0,1
85540,-100,4,2,1,60,0,0
98559,-100,4,2,1,60,0,0
98653,-100,4,2,1,5,0,0
98936,-100,4,2,1,60,0,0
99030,-100,4,2,1,5,0,0
99313,-100,4,2,1,60,0,0
99785,-100,4,2,1,5,0,0
100068,-100,4,2,1,60,0,0
100257,-100,4,2,1,60,0,0
100634,-100,4,2,1,60,0,0
107804,-100,4,2,1,60,0,0
107993,-100,4,2,1,60,0,0
109313,-100,4,2,1,60,0,0
109691,-100,4,2,1,60,0,0
119502,-100,4,2,1,60,0,0
119879,-100,4,2,1,60,0,0
120257,-100,4,2,1,60,0,0
121766,-100,4,2,1,60,0,0
130823,-100,4,2,1,60,0,0
132333,-100,4,2,1,60,0,0
135351,-83.3333333333333,4,2,1,70,0,1
144785,-83.3333333333333,4,2,1,70,0,1
145162,-83.3333333333333,4,2,1,70,0,1
145540,-83.3333333333333,4,2,1,70,0,1
145917,-83.3333333333333,4,2,1,70,0,1
146295,-83.3333333333333,4,2,1,70,0,1
147427,-83.3333333333333,4,2,1,70,0,1
159502,-100,4,2,1,60,0,0
165540,-100,4,2,3,60,0,0
165823,-100,4,2,1,5,0,0
165917,-100,4,2,1,60,0,0
167804,-100,4,2,1,60,0,0
168370,-100,4,2,1,60,0,0
168559,-100,4,2,1,60,0,0
169125,-100,4,2,1,60,0,0
169313,-100,4,2,1,60,0,0
169879,-100,4,2,1,60,0,0
170351,-100,4,2,1,5,0,0
170445,-100,4,2,2,50,0,0
170540,-100,4,2,2,49,0,0
170634,-100,4,2,2,48,0,0
170728,-100,4,2,2,47,0,0
170823,370.37037037037,4,2,2,46,1,0
170823,-100,4,2,2,46,0,0
170917,-100,4,2,2,45,0,0
171008,-100,4,2,2,44,0,0
171012,-100,4,2,2,44,0,0
171100,-100,4,2,2,43,0,0
171106,-100,4,2,2,43,0,0
171193,344.827586206897,4,2,2,42,1,0
171200,-100,4,2,2,42,0,0
171279,-100,4,2,2,41,0,0
171295,-100,4,2,2,41,0,0
171365,-100,4,2,2,40,0,0
171389,-100,4,2,2,40,0,0
171451,-100,4,2,2,39,0,0
171483,-100,4,2,2,39,0,0
171556,376.175548589342,4,2,2,39,1,0
171578,-100,4,2,2,39,0,0
171672,377.358490566038,4,2,2,38,1,0
171861,-100,4,2,2,37,0,0
171955,-100,4,2,2,35,0,0
172238,-100,4,2,2,35,0,0
172521,-100,4,2,2,35,0,0
173087,377.358490566038,4,2,3,35,1,0
173087,-100,4,2,3,35,0,0
183653,-100,4,2,1,60,0,0
185162,-100,4,2,1,60,0,0
186672,-100,4,2,1,60,0,0
187427,-100,4,2,1,60,0,0
188181,-100,4,2,1,60,0,0
188936,-100,4,2,1,60,0,0
189691,-100,4,2,1,60,0,0
191200,-100,4,2,1,60,0,0
197238,-100,4,2,1,60,0,0
197710,-100,4,2,1,5,0,0
197804,-100,4,2,1,60,0,0
200822,-100,4,2,1,60,0,0
201012,-100,4,2,1,60,0,0
201861,-100,4,2,1,5,0,0
201955,-100,4,2,1,60,0,0
203276,-100,4,2,1,60,0,0
204408,-100,4,2,1,5,0,0
204596,-83.3333333333333,4,2,1,60,0,1
204690,-100,4,2,1,60,0,0
204878,-100,4,2,1,5,0,0
204879,-100,4,2,1,5,0,0
204973,-100,4,2,1,60,0,0
204974,-100,4,2,1,60,0,0
205540,-100,4,2,1,60,0,0
205917,-100,4,2,1,60,0,0
206199,-100,4,2,1,5,0,0
206200,-100,4,2,1,5,0,0
206294,-83.3333333333333,4,2,1,60,0,1
206388,-100,4,2,1,60,0,0
207804,-100,4,2,1,60,0,0
208936,-100,4,2,1,60,0,0
209313,-83.3333333333333,4,2,1,60,0,1
209691,-83.3333333333333,4,2,1,60,0,1
212143,-100,4,2,1,60,0,0
212332,-83.3333333333333,4,2,1,60,0,1
212426,-100,4,2,1,5,0,0
212521,-100,4,2,1,5,0,0
212709,-83.3333333333333,4,2,1,60,0,1
212803,-100,4,2,1,5,0,0
212898,-100,4,2,1,5,0,0
213087,-83.3333333333333,4,2,1,70,0,1
213181,-100,4,2,1,5,0,0
213276,-100,4,2,1,5,0,0
213464,-83.3333333333333,4,2,1,70,0,1
213558,-100,4,2,1,5,0,0
213653,-100,4,2,1,5,0,0
213841,-83.3333333333333,4,2,1,80,0,1
213936,-100,4,2,1,5,0,0
214030,-100,4,2,1,5,0,0
214219,-83.3333333333333,4,2,1,80,0,1
214313,-100,4,2,1,5,0,0
214408,-100,4,2,1,5,0,0
214596,-83.3333333333333,4,2,1,90,0,1
214690,-100,4,2,1,5,0,0
214878,-100,4,2,1,90,0,0
214879,-100,4,2,1,90,0,0
214973,-83.3333333333333,4,2,1,90,0,1
215068,-100,4,2,1,90,0,0
215351,-83.3333333333333,4,2,1,80,0,1
226199,-83.3333333333333,4,2,1,5,0,1
226200,-83.3333333333333,4,2,1,5,0,1
226294,-83.3333333333333,4,2,1,80,0,1
226295,-83.3333333333333,4,2,1,80,0,1
226577,-83.3333333333333,4,2,1,5,0,1
226578,-83.3333333333333,4,2,1,5,0,1
226671,-83.3333333333333,4,2,1,80,0,1
226672,-83.3333333333333,4,2,1,80,0,1
227426,-100,4,2,1,70,0,0
231955,-100,4,2,1,70,0,0
233464,-100,4,2,1,70,0,0
237238,-100,4,2,1,70,0,0
237804,-100,4,2,1,70,0,0
239595,-100,4,2,1,50,0,0
239596,-100,4,2,1,50,0,0
241011,-100,4,2,1,30,0,0
241012,-100,4,2,1,30,0,0
242520,-100,4,2,1,25,0,0
242521,-100,4,2,1,25,0,0
243275,-100,4,2,1,20,0,0
243276,-100,4,2,1,20,0,0
244029,-100,4,2,1,15,0,0
244030,-100,4,2,1,15,0,0
244784,-100,4,2,1,5,0,0
244785,-100,4,2,1,5,0,0
245539,-100,4,2,2,30,0,0
245540,-100,4,2,2,30,0,0

[Colours]
Combo1 : 128,64,64
Combo2 : 255,181,106
Combo3 : 64,184,255

[HitObjects]
452,326,1012,6,0,P|457:264|414:177,1,130,2|0,0:0|0:0,0:0:0:0:
295,181,1766,2,0,L|212:162,1,65,2|0,0:0|0:0,0:0:0:0:
387,98,2332,2,0,L|483:199,2,130,0|0|0,0:0|0:0|0:0,0:0:0:0:
241,113,3464,6,0,P|227:171|341:233,1,195,0|2,0:0|0:0,0:0:0:0:
383,262,4218,1,0,0:0:0:0:
404,322,4407,1,0,0:0:0:0:
375,377,4596,1,0,0:0:0:0:
245,365,4974,1,0,0:0:0:0:
105,331,5351,6,0,L|17:307,1,65,0|0,0:0|0:0,0:0:0:0:
114,266,5728,2,0,L|261:238,1,130,2|0,0:0|0:0,0:0:0:0:
299,188,6295,1,2,0:0:0:0:
239,167,6483,1,2,0:0:0:0:
49,186,7049,6,0,L|38:42,1,130,2|0,0:0|0:0,0:0:0:0:
184,22,7804,1,2,0:0:0:0:
253,29,7993,2,0,L|395:49,1,130,0|0,0:0|0:0,0:0:0:0:
230,173,8747,1,0,0:0:0:0:
360,201,9125,1,0,0:0:0:0:
489,209,9502,2,0,L|485:352,1,130,0|0,0:0|0:0,0:0:0:0:
399,368,10068,5,4,0:0:0:0:
256,192,10445,12,12,11578,0:0:0:0:
143,111,11955,6,0,P|126:178|188:208,1,130,2|8,0:0|0:0,0:0:0:0:
230,226,12521,1,8,0:3:0:0:
294,223,12710,1,4,0:3:0:0:
452,118,13087,6,0,L|471:263,1,130,6|8,0:0|0:0,0:0:0:0:
328,302,13842,2,0,L|234:294,1,65,2|0,0:0|0:0,0:0:0:0:
332,333,14219,2,0,L|411:329,1,65,8|0,0:0|0:0,0:0:0:0:
323,362,14596,6,0,L|178:347,1,130,2|0,0:0|0:0,0:0:0:0:
89,344,15257,2,0,L|67:268,1,65,0|8,0:0|0:0,0:0:0:0:
177,225,15728,1,0,0:0:0:0:
337,169,16106,6,0,P|308:122|215:104,1,130,2|0,0:0|0:0,0:0:0:0:
95,133,16861,2,0,L|135:199,1,65,2|0,0:0|0:0,0:0:0:0:
193,216,17238,2,0,L|341:228,1,130,8|2,0:0|0:0,0:0:0:0:
229,314,17898,1,0,0:0:0:0:
127,344,18181,1,0,0:0:0:0:
23,269,18464,1,0,0:0:0:0:
127,171,18747,2,0,L|215:159,1,65,4|8,0:0|0:0,0:0:0:0:
263,149,19125,6,0,L|310:303,1,130,6|8,0:0|0:0,0:0:0:0:
440,322,19879,2,0,L|445:244,1,65,2|0,0:0|0:0,0:0:0:0:
400,203,20257,2,0,L|255:172,1,130,8|2,0:0|0:0,0:0:0:0:
424,73,21012,6,0,P|464:131|457:165,1,97.5,0|0,0:0|0:0,0:0:0:0:
385,196,21483,1,8,0:0:0:0:
271,211,21766,2,0,L|185:197,1,65,0|0,0:0|0:0,0:0:0:0:
273,171,22144,1,2,0:0:0:0:
112,151,22521,6,0,P|66:137|31:56,1,130,0|2,0:0|0:0,0:0:0:0:
93,29,23087,1,0,0:0:0:0:
160,22,23276,2,0,L|274:32,1,97.5,2|8,0:0|0:0,0:0:0:0:
448,98,24313,6,0,L|456:145,1,32.5,8|8,0:0|0:0,0:0:0:0:
346,191,24691,1,8,0:3:0:0:
308,195,24785,2,0,L|241:208,1,65,8|8,0:0|0:3,0:0:0:0:
332,279,25162,5,4,0:0:0:0:
28,289,26483,1,0,1:0:0:0:
246,309,27238,1,0,1:0:0:0:
340,284,27521,2,0,L|259:275,1,65,4|4,3:0|3:0,0:0:0:0:
283,225,27804,1,8,0:0:0:0:
450,161,28181,5,0,1:0:0:0:
237,89,29502,1,0,1:0:0:0:
101,156,29879,1,0,0:0:0:0:
168,195,30068,2,0,L|259:215,1,65,0|4,3:0|0:3,0:0:0:0:
159,246,30445,1,4,0:3:0:0:
79,244,30634,6,0,P|38:302|135:349,1,195,4|0,0:0|1:0,0:0:0:0:
397,356,32144,2,0,L|408:278,1,65,4|8,3:0|0:0,0:0:0:0:
315,254,32521,1,0,1:0:0:0:
89,202,33276,5,0,1:0:0:0:
248,165,33653,1,0,0:0:0:0:
179,171,33841,1,0,0:0:0:0:
156,228,34030,1,0,0:0:0:0:
195,274,34219,5,0,1:0:0:0:
471,280,35351,2,0,L|476:190,1,65,2|4,0:0|3:0,0:0:0:0:
403,169,35728,2,0,L|330:158,1,65,8|0,0:0|3:0,0:0:0:0:
259,115,36106,6,0,L|407:92,1,130,12|8,0:0|0:3,0:0:0:0:
329,49,36672,1,4,0:3:0:0:
261,38,36861,1,12,0:0:0:0:
95,102,37238,6,0,P|32:126|50:193,1,130,6|8,0:0|0:0,0:0:0:0:
101,219,37804,1,2,0:0:0:0:
238,241,38181,2,0,L|258:323,1,65,2|8,0:2|0:0,0:0:0:0:
94,356,38747,2,0,P|119:321|208:291,1,130,2|8,0:0|0:0,0:0:0:0:
265,295,39313,2,0,L|283:190,1,97.5,2|2,0:0|0:0,0:0:0:0:
169,164,39879,1,8,0:0:0:0:
325,104,40257,6,0,L|463:88,1,130,2|8,0:0|0:0,0:0:0:0:
390,53,40823,2,0,L|251:46,1,130,0|0,0:0|0:0,0:0:0:0:
254,109,41389,1,8,0:0:0:0:
399,184,41766,2,0,L|472:189,2,65,2|0|8,0:0|0:0|0:0,0:0:0:0:
320,181,42332,2,0,P|321:229|406:269,1,130,4|2,3:0|3:2,0:0:0:0:
454,275,42898,1,8,0:0:0:0:
297,352,43276,6,0,L|147:328,1,130,6|8,0:0|0:0,0:0:0:0:
101,318,43842,1,2,0:0:0:0:
232,226,44219,1,2,0:2:0:0:
83,181,44596,1,2,0:0:0:0:
13,164,44785,2,0,P|60:118|138:97,1,130,2|8,0:0|0:0,0:0:0:0:
185,94,45351,5,2,0:0:0:0:
335,66,45728,1,2,0:2:0:0:
369,118,45916,1,8,0:0:0:0:
350,179,46105,1,0,0:0:0:0:
293,204,46295,6,0,P|248:231|287:299,1,130,2|8,0:0|0:0,0:0:0:0:
348,314,46861,2,0,L|500:286,1,130,2|8,3:2|3:0,0:0:0:0:
443,242,47427,1,4,3:0:0:0:
383,218,47615,1,4,3:0:0:0:
314,213,47804,5,8,0:0:0:0:
50,355,48559,2,0,L|61:131,1,195,2|0,0:0|0:0,0:0:0:0:
141,101,49313,6,0,P|219:64|240:200,1,260,6|8,0:0|0:0,0:0:0:0:
99,208,50445,1,2,0:0:0:0:
173,255,50634,6,0,L|306:276,1,130,2|8,0:0|0:0,0:0:0:0:
443,337,51389,2,0,L|402:278,1,65,2|8,0:0|0:0,0:0:0:0:
349,255,51766,2,0,L|207:228,1,130,8|4,0:3|0:3,0:0:0:0:
267,182,52332,1,2,0:0:0:0:
332,171,52521,1,8,0:0:0:0:
472,90,52898,1,0,0:0:0:0:
406,56,53087,2,0,L|259:38,1,130,8|0,0:0|0:0,0:0:0:0:
209,40,53653,5,0,0:0:0:0:
365,119,54030,1,8,0:0:0:0:
230,206,54408,1,0,0:0:0:0:
159,207,54596,2,0,P|98:222|56:302,1,130,8|0,0:3|0:0,0:0:0:0:
126,309,55162,1,0,0:0:0:0:
205,323,55351,6,0,P|244:284|137:142,1,260,6|8,0:0|0:0,0:0:0:0:
19,93,56483,2,0,L|95:75,1,65,0|0,0:0|0:0,0:0:0:0:
239,39,57049,2,0,L|261:173,1,130,8|0,0:0|0:0,0:0:0:0:
195,197,57615,1,8,0:0:0:0:
58,249,57993,1,0,0:0:0:0:
219,322,58370,5,2,0:0:0:0:
293,351,58559,2,0,L|451:366,1,130,8|0,0:0|0:0,0:0:0:0:
348,353,59125,2,0,P|304:346|281:266,1,130,0|2,0:0|0:0,0:0:0:0:
338,238,59691,1,0,0:0:0:0:
413,228,59879,5,8,0:0:0:0:
481,95,60823,2,0,L|400:88,1,65,8|8,0:3|0:0,0:0:0:0:
246,159,61389,6,0,L|380:250,2,155.999995239258,6|8|0,0:0|0:0|0:0,0:0:0:0:
171,136,62332,1,2,0:0:0:0:
241,109,62521,2,0,L|343:107,1,77.999997619629,8|0,0:0|0:0,0:0:0:0:
152,95,63087,1,0,0:0:0:0:
72,103,63276,6,0,P|59:148|155:193,1,155.999995239258,8|0,0:0|0:0,0:0:0:0:
208,203,63842,1,2,0:0:0:0:
137,248,64030,2,0,L|37:266,1,77.999997619629,8|0,0:0|0:0,0:0:0:0:
214,348,64596,1,0,0:0:0:0:
292,358,64785,6,0,L|444:287,1,155.999995239258,8|0,0:0|0:0,0:0:0:0:
373,251,65351,1,2,0:0:0:0:
296,246,65540,1,8,0:0:0:0:
463,212,65917,6,0,L|485:39,1,155.999995239258,2|8,0:0|0:0,0:0:0:0:
407,38,66483,1,0,0:0:0:0:
331,37,66672,1,0,0:0:0:0:
163,198,67049,2,0,L|257:175,1,77.999997619629,8|4,0:0|0:3,0:0:0:0:
316,279,67427,6,0,L|149:237,1,155.999995239258,6|8,0:0|0:0,0:0:0:0:
31,284,68181,1,0,0:0:0:0:
35,207,68369,1,2,0:0:0:0:
88,153,68558,1,8,0:0:0:0:
164,149,68747,5,0,0:0:0:0:
336,87,69125,1,0,0:0:0:0:
264,68,69313,2,0,L|88:40,1,155.999995239258,8|2,0:0|0:0,0:0:0:0:
35,50,69879,1,0,0:0:0:0:
113,96,70068,1,8,0:0:0:0:
280,132,70445,6,0,L|303:297,1,155.999995239258,6|8,0:0|0:0,0:0:0:0:
458,191,71200,2,0,L|490:365,1,155.999995239258,6|8,0:0|0:0,0:0:0:0:
313,370,71955,2,0,L|150:335,1,155.999995239258,6|12,0:0|0:0,0:0:0:0:
216,290,72521,1,0,0:0:0:0:
286,278,72710,1,6,0:0:0:0:
436,271,73087,1,12,0:0:0:0:
260,204,73464,6,0,L|100:159,1,155.999995239258,6|8,0:0|0:0,0:0:0:0:
261,82,74219,2,0,L|285:177,1,77.999997619629,0|2,0:0|0:0,0:0:0:0:
198,190,74596,2,0,L|183:274,1,77.999997619629,8|0,0:0|0:0,0:0:0:0:
27,337,75162,1,0,0:0:0:0:
110,361,75351,6,0,L|279:329,1,155.999995239258,8|0,0:0|0:0,0:0:0:0:
211,290,75917,1,2,0:0:0:0:
140,275,76106,1,8,0:0:0:0:
297,209,76483,6,0,L|416:101,1,155.999995239258,2|8,0:0|0:0,0:0:0:0:
272,104,77238,2,0,L|406:15,1,155.999995239258,0|8,0:0|0:0,0:0:0:0:
234,74,77993,6,0,L|63:41,1,155.999995239258,12|8,0:0|0:0,0:0:0:0:
235,174,78747,1,12,0:0:0:0:
79,198,79125,2,0,L|17:249,1,77.999997619629,8|8,0:0|0:0,0:0:0:0:
96,297,79502,6,0,L|241:381,2,155.999995239258,6|8|2,0:0|0:0|0:0,0:0:0:0:
69,252,80445,1,2,0:0:0:0:
98,202,80634,1,8,0:0:0:0:
248,143,81012,6,0,L|411:85,1,155.999995239258,2|8,0:0|0:0,0:0:0:0:
243,334,81766,2,0,L|211:156,1,155.999995239258,2|8,0:0|0:0,0:0:0:0:
269,129,82332,1,0,0:0:0:0:
338,102,82521,5,6,0:0:0:0:
482,76,82898,1,8,0:0:0:0:
320,61,83276,2,0,L|250:19,1,77.999997619629,0|2,0:0|0:0,0:0:0:0:
321,90,83653,2,0,L|405:133,1,77.999997619629,8|0,0:0|0:0,0:0:0:0:
463,127,84030,6,0,P|470:205|404:273,1,155.999995239258,6|12,0:0|0:0,0:0:0:0:
245,349,84785,1,12,0:0:0:0:
303,299,84973,1,8,0:0:0:0:
378,281,85162,1,8,3:2:0:0:
306,256,85351,1,8,0:0:0:0:
216,243,85540,5,6,0:0:0:0:
256,192,96106,12,4,97615,0:0:0:0:
405,113,98370,5,8,0:0:0:0:
333,77,98559,1,0,1:0:0:0:
202,93,98936,1,0,1:0:0:0:
70,165,99313,1,0,3:0:0:0:
226,278,99691,5,0,1:0:0:0:
57,351,100068,2,0,L|47:268,1,65,4|8,0:3|0:0,0:0:0:0:
216,187,100634,6,0,L|68:154,2,130,6|0|8,0:0|0:0|0:0,0:0:0:0:
281,178,101578,1,0,3:0:0:0:
425,154,101955,2,0,L|441:82,2,65,0|0|8,3:0|0:0|0:0,0:0:0:0:
287,186,102710,1,0,0:0:0:0:
457,273,103087,2,0,L|305:290,1,130,4|8,0:0|0:3,0:0:0:0:
268,266,103652,5,6,0:0:0:0:
247,207,103841,1,0,0:0:0:0:
280,153,104030,1,0,3:0:0:0:
343,146,104218,1,0,0:0:0:0:
492,96,104596,1,0,3:0:0:0:
350,60,104974,1,0,3:0:0:0:
194,135,105351,6,0,L|336:150,1,130,8|0,0:0|0:0,0:0:0:0:
394,185,105917,1,8,0:0:0:0:
317,217,106106,2,0,L|182:228,1,130,4|0,0:3|3:0,0:0:0:0:
113,226,106672,5,6,0:0:0:0:
255,175,107049,1,0,0:0:0:0:
315,192,107237,1,0,3:0:0:0:
338,250,107426,1,8,0:0:0:0:
308,305,107615,1,8,3:0:0:0:
141,341,107993,6,0,L|65:332,1,65,2|8,3:2|0:0,0:0:0:0:
338,161,109125,1,0,1:0:0:0:
256,137,109313,1,8,0:0:0:0:
103,222,109691,6,0,L|78:75,1,130,6|8,0:0|0:0,0:0:0:0:
149,76,110257,1,0,0:0:0:0:
13,73,110634,1,2,0:0:0:0:
165,178,111012,1,0,0:0:0:0:
232,231,111200,2,0,L|82:248,1,130,2|8,0:0|0:0,0:0:0:0:
32,255,111766,5,0,0:0:0:0:
139,331,112049,2,0,L|246:330,1,97.5,8|8,0:0|0:0,0:0:0:0:
395,292,112710,6,0,L|409:161,1,130,2|8,0:0|0:0,0:0:0:0:
338,134,113276,1,0,0:0:0:0:
477,76,113653,2,0,L|484:152,1,65,2|8,0:0|0:0,0:0:0:0:
417,186,114030,1,0,0:0:0:0:
346,209,114219,6,0,P|286:227|258:296,1,130,2|8,0:0|0:0,0:0:0:0:
326,315,114785,1,0,3:0:0:0:
182,353,115162,2,0,L|50:339,1,130,2|8,0:0|0:0,0:0:0:0:
96,286,115728,5,6,0:0:0:0:
243,235,116106,2,0,L|308:222,1,65,8|0,0:0|0:0,0:0:0:0:
158,148,116672,2,0,L|81:135,1,65,2|8,0:0|0:0,0:0:0:0:
166,97,117049,1,0,0:0:0:0:
241,91,117238,6,0,P|262:129|233:218,1,130,2|8,0:0|0:0,0:0:0:0:
172,227,117804,1,0,3:0:0:0:
43,302,118087,2,0,L|21:199,1,97.5,8|8,0:0|0:0,0:0:0:0:
171,149,118747,2,0,L|313:119,1,130,2|8,0:0|0:0,0:0:0:0:
219,101,119313,6,0,P|179:119|185:200,1,130,0|8,3:0|0:0,0:0:0:0:
243,215,119879,2,0,L|310:205,1,65,8|4,0:3|0:3,0:0:0:0:
235,250,120257,5,8,0:0:0:0:
60,317,120823,2,0,L|44:238,2,65,4|8|8,0:3|0:0|0:3,0:0:0:0:
317,351,121766,6,0,P|357:313|254:184,1,260,6|8,0:0|0:0,0:0:0:0:
102,146,122898,1,0,0:0:0:0:
175,97,123087,6,0,L|334:74,1,130,0|8,3:0|0:0,0:0:0:0:
445,190,123842,1,0,0:0:0:0:
374,223,124030,2,0,L|271:209,2,97.5,8|8|4,0:0|0:3|0:3,0:0:0:0:
447,308,124785,6,0,L|372:318,1,65,2|8,0:0|0:0,0:0:0:0:
250,361,125351,1,2,0:0:0:0:
177,317,125540,2,0,L|337:302,1,130,8|0,0:3|0:0,0:0:0:0:
375,290,126106,5,6,0:0:0:0:
219,212,126483,1,8,0:0:0:0:
156,212,126671,1,2,0:0:0:0:
122,160,126860,1,0,0:0:0:0:
148,103,127049,5,8,0:3:0:0:
306,49,127427,2,0,L|237:37,1,65,4|4,0:3|0:3,0:0:0:0:
164,41,127804,6,0,P|108:51|119:228,1,260,6|8,0:0|0:0,0:0:0:0:
260,279,128936,1,0,0:0:0:0:
196,322,129125,2,0,L|59:328,1,130,6|8,0:0|0:0,0:0:0:0:
46,267,129691,1,0,0:0:0:0:
180,193,130068,2,0,L|326:186,1,130,8|2,0:0|0:0,0:0:0:0:
150,284,130823,6,0,L|129:138,1,130,6|0,0:0|0:0,0:0:0:0:
185,113,131389,1,2,0:0:0:0:
254,102,131578,1,8,0:0:0:0:
116,63,131955,1,2,0:0:0:0:
274,35,132332,6,0,L|423:64,2,130,4|8|8,0:0|0:0|0:0,0:0:0:0:
239,87,133275,1,4,3:0:0:0:
262,145,133464,1,4,3:0:0:0:
323,159,133653,1,4,3:0:0:0:
484,276,134030,1,8,0:0:0:0:
413,315,134219,6,0,L|260:348,1,130,12|8,0:0|0:3,0:0:0:0:
340,298,134785,1,8,0:3:0:0:
409,282,134974,1,8,0:0:0:0:
233,230,135351,6,0,L|91:137,2,155.999995239258,6|8|0,0:0|0:0|0:0,0:0:0:0:
167,257,136295,1,2,0:0:0:0:
97,270,136483,2,0,L|86:363,1,77.999997619629,8|0,0:0|0:0,0:0:0:0:
249,367,137049,1,2,3:0:0:0:
179,349,137238,6,0,P|93:338|52:280,1,155.999995239258,8|0,0:0|0:0,0:0:0:0:
111,239,137804,1,2,0:0:0:0:
180,224,137993,2,0,L|264:198,1,77.999997619629,8|0,0:0|0:0,0:0:0:0:
95,145,138559,1,0,0:0:0:0:
21,107,138747,6,0,P|103:68|178:69,1,155.999995239258,8|0,0:0|0:0,0:0:0:0:
231,70,139313,1,2,0:0:0:0:
290,58,139502,1,8,0:0:0:0:
461,80,139879,6,0,P|466:132|381:199,1,155.999995239258,2|8,0:0|0:0,0:0:0:0:
326,202,140445,1,0,0:0:0:0:
263,187,140634,1,0,0:0:0:0:
437,301,141012,2,0,L|354:329,1,77.999997619629,8|4,0:0|0:3,0:0:0:0:
291,370,141389,6,0,L|262:196,1,155.999995239258,6|8,0:0|0:0,0:0:0:0:
418,141,142144,2,0,L|504:171,2,77.999997619629,0|0|8,0:0|0:0|0:0,0:0:0:0:
335,139,142710,2,0,P|353:198|434:257,1,155.999995239258,0|0,0:0|0:0,0:0:0:0:
345,248,143276,5,8,0:0:0:0:
194,338,143653,2,0,L|108:352,1,77.999997619629,0|2,0:0|0:0,0:0:0:0:
270,259,144219,1,0,0:0:0:0:
190,255,144408,6,0,P|141:248|107:137,1,155.999995239258,6|8,0:0|0:0,0:0:0:0:
252,80,145162,2,0,P|292:114|235:181,1,155.999995239258,4|8,0:0|0:0,0:0:0:0:
73,295,145917,6,0,L|221:368,1,155.999995239258,6|12,0:0|0:0,0:0:0:0:
278,341,146483,1,0,0:0:0:0:
208,304,146672,1,12,0:0:0:0:
65,268,147049,1,12,0:0:0:0:
231,194,147427,6,0,L|389:144,1,155.999995239258,6|8,0:0|0:0,0:0:0:0:
229,89,148181,1,0,0:0:0:0:
195,156,148369,1,2,0:0:0:0:
229,223,148558,1,8,0:0:0:0:
303,237,148747,1,0,0:0:0:0:
160,338,149125,1,0,0:0:0:0:
88,351,149313,6,0,L|57:191,1,155.999995239258,8|0,0:0|0:0,0:0:0:0:
109,147,149879,1,2,0:0:0:0:
176,134,150068,1,8,0:0:0:0:
348,44,150445,6,0,L|214:144,1,155.999995239258,2|8,0:0|0:0,0:0:0:0:
391,178,151200,2,0,P|446:198|456:290,1,155.999995239258,0|8,0:0|0:0,0:0:0:0:
306,332,151955,5,6,0:0:0:0:
456,350,152332,1,8,0:0:0:0:
297,260,152710,6,0,L|151:180,1,155.999995239258,12|8,0:0|0:0,0:0:0:0:
85,160,153276,1,8,0:0:0:0:
166,128,153464,6,0,L|342:72,1,155.999995239258,6|8,0:0|0:0,0:0:0:0:
165,38,154219,2,0,L|83:6,1,77.999997619629,0|0,0:0|0:0,0:0:0:0:
170,85,154596,2,0,L|254:133,1,77.999997619629,8|0,0:0|0:0,0:0:0:0:
98,192,155162,2,0,L|28:230,2,77.999997619629,0|8|0,0:0|0:0|0:0,0:0:0:0:
176,232,155728,2,0,L|18:160,1,155.999995239258,0|8,0:0|0:0,0:0:0:0:
88,124,156295,1,0,0:0:0:0:
153,110,156483,5,2,0:0:0:0:
304,162,156861,1,8,0:0:0:0:
165,266,157238,1,2,0:0:0:0:
319,312,157615,2,0,L|407:335,1,77.999997619629,8|0,0:0|0:0,0:0:0:0:
481,358,157993,6,0,L|499:182,1,155.999995239258,6|12,0:0|0:0,0:0:0:0:
354,112,158747,1,6,0:0:0:0:
321,175,158935,1,0,0:0:0:0:
268,223,159124,1,12,0:0:0:0:
202,251,159313,1,8,0:0:0:0:
131,254,159501,5,6,0:0:0:0:
281,339,159879,1,0,0:0:0:0:
426,312,160257,1,8,0:0:0:0:
286,213,160634,1,0,0:0:0:0:
153,182,161012,1,2,0:0:0:0:
286,115,161389,1,2,0:0:0:0:
414,109,161766,1,8,0:0:0:0:
296,57,162144,1,2,0:0:0:0:
152,55,162521,5,6,0:0:0:0:
213,64,162709,1,8,0:0:0:0:
236,122,162898,1,8,0:0:0:0:
200,172,163087,1,2,0:0:0:0:
41,236,163464,2,0,L|88:298,1,65,0|2,0:0|0:0,0:0:0:0:
145,307,163842,6,0,L|275:343,1,130,6|8,0:0|0:0,0:0:0:0:
334,299,164408,1,8,0:0:0:0:
266,266,164596,1,6,0:0:0:0:
109,232,164974,1,2,0:0:0:0:
51,194,165162,1,4,0:0:0:0:
112,173,165351,1,0,0:0:0:0:
183,164,165540,6,0,L|319:133,1,130,12|8,0:0|0:0,0:0:0:0:
241,114,166106,1,0,0:0:0:0:
376,45,166483,1,2,0:0:0:0:
438,50,166671,1,8,0:0:0:0:
466,105,166860,1,0,0:0:0:0:
435,160,167049,5,2,0:0:0:0:
290,205,167427,1,8,0:0:0:0:
446,267,167804,1,2,0:0:0:0:
377,298,167993,2,0,L|227:320,1,130,0|0,0:0|0:0,0:0:0:0:
180,322,168559,1,6,0:0:0:0:
336,222,168936,5,8,0:0:0:0:
262,196,169125,2,0,L|112:162,1,130,0|8,0:0|0:0,0:0:0:0:
207,131,169691,1,2,0:0:0:0:
121,112,169879,5,6,0:0:0:0:
256,192,170257,12,2,173087,0:0:0:0:
56,277,179125,6,0,L|41:128,1,130,0|0,0:0|0:0,0:0:0:0:
175,98,179879,2,0,L|185:24,1,65,0|0,0:0|0:0,0:0:0:0:
329,202,180445,1,0,0:0:0:0:
258,215,180634,2,0,L|128:279,2,130,0|0|0,0:0|0:0|0:0,0:0:0:0:
331,244,181578,1,0,0:0:0:0:
475,343,181955,6,0,L|396:355,1,65,0|0,0:0|0:0,0:0:0:0:
267,356,182521,1,0,0:0:0:0:
333,325,182710,2,0,L|193:307,1,130,0|0,0:0|0:0,0:0:0:0:
130,284,183276,5,4,0:0:0:0:
274,191,183653,2,0,L|358:181,2,65,8|8|2,0:0|0:0|0:0,0:0:0:0:
205,185,184219,1,8,0:0:0:0:
61,128,184596,2,0,L|172:114,1,97.5,8|4,0:0|0:3,0:0:0:0:
26,90,185162,6,0,P|30:157|85:201,1,130,6|8,0:0|0:0,0:0:0:0:
205,182,185917,2,0,L|221:321,1,130,2|8,0:0|0:0,0:0:0:0:
359,148,186672,6,0,L|435:264,1,130,2|8,0:0|0:0,0:0:0:0:
366,288,187238,1,0,0:0:0:0:
296,299,187427,2,0,L|184:266,2,97.5,2|0|0,0:0|0:0|0:0,0:0:0:0:
371,340,188181,6,0,L|479:326,2,97.5,2|0|0,0:0|0:0|0:0,0:0:0:0:
304,342,188936,1,4,0:3:0:0:
152,322,189313,1,8,0:0:0:0:
299,273,189691,5,2,0:0:0:0:
261,220,189879,1,0,0:0:0:0:
203,191,190068,1,8,0:0:0:0:
139,192,190257,1,0,3:0:0:0:
293,122,190634,2,0,L|309:35,1,65,8|0,0:0|3:0,0:0:0:0:
137,235,191200,6,0,P|86:240|21:297,1,130,6|8,0:0|0:0,0:0:0:0:
83,325,191766,1,0,0:0:0:0:
226,343,192144,2,0,L|299:324,1,65,0|8,0:0|0:0,0:0:0:0:
445,296,192710,6,0,P|426:268|317:241,1,130,2|8,0:0|0:0,0:0:0:0:
266,244,193276,2,0,L|250:119,1,97.5,0|8,3:0|0:0,0:0:0:0:
374,111,193842,1,8,0:0:0:0:
222,64,194219,6,0,L|71:53,1,130,2|8,0:0|0:0,0:0:0:0:
25,89,194785,1,0,3:0:0:0:
96,127,194974,2,0,L|175:140,2,65,8|0|8,0:0|0:0|0:0,0:0:0:0:
225,238,195728,2,0,L|306:216,1,65,2|8,0:0|3:2,0:0:0:0:
358,187,196106,6,0,P|379:216|356:315,1,130,8|0,3:2|0:0,0:0:0:0:
304,333,196672,1,8,0:3:0:0:
236,344,196861,1,4,0:3:0:0:
403,367,197238,6,0,P|460:342|451:216,1,195,6|0,0:0|0:0,0:0:0:0:
390,200,197993,1,8,0:0:0:0:
232,221,198370,1,0,3:0:0:0:
298,188,198559,6,0,L|439:175,1,130,4|8,0:0|0:0,0:0:0:0:
278,115,199313,1,0,0:0:0:0:
210,96,199502,2,0,L|72:78,1,130,8|0,0:0|0:0,0:0:0:0:
248,41,200257,6,0,P|301:62|254:169,1,195,6|2,0:0|0:0,0:0:0:0:
194,184,201012,1,12,0:0:0:0:
22,314,201389,1,2,0:0:0:0:
97,335,201578,6,0,L|239:357,1,130,4|8,0:0|0:0,0:0:0:0:
267,309,202143,1,8,0:0:0:0:
247,250,202332,1,0,0:0:0:0:
187,238,202521,2,0,L|98:228,2,65,12|0|8,0:0|0:0|3:3,0:0:0:0:
372,184,203276,5,8,0:0:0:0:
476,79,204596,6,0,P|479:133|374:175,1,155.999995239258,12|8,0:0|0:0,0:0:0:0:
310,176,205162,2,0,P|299:202|337:303,1,130,8|2,0:0|0:0,0:0:0:0:
404,315,205728,1,0,0:0:0:0:
331,338,205917,1,12,0:0:0:0:
163,383,206295,6,0,L|133:204,1,155.999995239258,6|8,0:0|0:0,0:0:0:0:
283,204,207049,1,0,0:0:0:0:
248,149,207237,1,0,0:0:0:0:
183,116,207426,1,8,0:0:0:0:
112,111,207615,1,2,0:0:0:0:
194,82,207804,6,0,L|339:71,1,130,6|0,0:0|0:0,0:0:0:0:
257,35,208370,1,8,0:0:0:0:
181,26,208559,2,0,L|34:49,1,130,2|8,0:0|0:0,0:0:0:0:
221,124,209313,6,0,P|237:181|180:277,1,155.999995239258,6|8,0:0|0:0,0:0:0:0:
46,324,210068,1,0,0:0:0:0:
26,250,210256,1,2,0:0:0:0:
63,183,210445,1,8,0:0:0:0:
135,161,210634,1,0,0:0:0:0:
306,89,211012,1,0,0:0:0:0:
228,73,211200,6,0,P|188:86|152:194,1,155.999995239258,8|2,0:0|0:0,0:0:0:0:
209,223,211766,1,0,0:0:0:0:
280,232,211955,1,8,0:0:0:0:
462,367,212332,6,0,L|470:193,1,155.999995239258,8|8,0:0|0:0,0:0:0:0:
303,251,213087,2,0,L|269:74,1,155.999995239258,8|8,0:0|0:0,0:0:0:0:
99,57,213842,6,0,L|239:148,1,155.999995239258,8|8,0:0|0:0,0:0:0:0:
66,191,214596,2,0,L|23:278,2,77.999997619629,8|8|8,0:0|0:0|0:0,0:0:0:0:
233,350,215351,6,0,L|91:271,2,155.999995239258,6|8|0,0:0|0:0|0:0,0:0:0:0:
274,287,216294,1,2,0:0:0:0:
246,218,216483,1,8,0:0:0:0:
172,203,216672,1,0,0:0:0:0:
328,134,217049,1,0,0:0:0:0:
402,115,217238,6,0,P|419:178|400:299,1,155.999995239258,8|2,0:0|0:0,0:0:0:0:
354,303,217804,1,2,0:0:0:0:
286,310,217993,1,8,0:0:0:0:
454,362,218370,6,0,P|466:312|401:210,1,155.999995239258,6|8,0:0|0:0,0:0:0:0:
342,211,218936,1,0,0:0:0:0:
263,220,219125,2,0,P|223:208|182:96,1,155.999995239258,4|8,0:0|0:0,0:0:0:0:
343,64,219879,6,0,L|199:5,1,155.999995239258,6|8,0:0|0:0,0:0:0:0:
350,118,220634,1,12,0:0:0:0:
195,153,221012,2,0,L|120:119,1,77.999997619629,8|8,0:0|0:0,0:0:0:0:
50,149,221389,6,0,P|45:217|97:300,1,155.999995239258,6|8,0:0|0:0,0:0:0:0:
244,340,222144,1,2,0:0:0:0:
170,327,222332,1,0,0:0:0:0:
144,258,222521,1,8,0:0:0:0:
191,200,222710,5,0,0:0:0:0:
340,164,223087,2,0,L|426:199,2,77.999997619629,0|8|0,0:0|0:0|0:0,0:0:0:0:
261,151,223653,1,0,0:0:0:0:
409,78,224030,1,8,0:0:0:0:
246,60,224408,6,0,P|195:69|133:171,1,155.999995239258,0|8,0:0|0:0,0:0:0:0:
152,196,224974,1,0,0:0:0:0:
201,215,225162,1,2,0:0:0:0:
340,242,225540,1,8,0:0:0:0:
479,265,225917,5,6,0:0:0:0:
348,346,226295,1,12,0:0:0:0:
193,357,226672,1,12,0:0:0:0:
240,296,226860,1,0,0:0:0:0:
308,259,227049,1,8,0:0:0:0:
385,250,227238,1,0,0:0:0:0:
304,219,227427,6,0,L|164:187,1,130,6|8,0:0|0:0,0:0:0:0:
35,112,228181,2,0,L|107:93,1,65,0|2,0:0|0:0,0:0:0:0:
173,105,228559,2,0,P|186:153|160:230,1,130,8|2,0:0|0:0,0:0:0:0:
91,251,229125,1,0,0:0:0:0:
218,337,229502,1,0,0:0:0:0:
61,357,229879,2,0,P|26:308|71:236,1,130,2|0,0:0|0:0,0:0:0:0:
119,222,230445,5,2,0:0:0:0:
258,189,230823,1,8,0:0:0:0:
103,129,231200,1,2,0:0:0:0:
261,68,231578,2,0,L|329:67,1,65,8|0,0:0|0:0,0:0:0:0:
402,96,231955,6,0,L|425:240,1,130,2|8,0:0|0:0,0:0:0:0:
268,229,232710,1,0,0:0:0:0:
204,247,232898,1,2,0:0:0:0:
266,278,233087,1,8,0:0:0:0:
336,290,233276,1,8,0:0:0:0:
250,336,233464,6,0,L|106:306,1,130,6|8,0:0|0:0,0:0:0:0:
271,254,234219,1,0,0:0:0:0:
433,226,234596,2,0,L|376:186,1,65,8|0,0:0|0:0,0:0:0:0:
308,159,234974,6,0,L|170:141,1,130,2|0,0:0|0:0,0:0:0:0:
38,43,235728,2,0,L|183:22,1,130,0|10,0:0|0:0,0:0:0:0:
233,35,236295,1,0,0:0:0:0:
162,86,236483,6,0,L|19:123,1,130,2|8,0:0|0:0,0:0:0:0:
183,208,237238,1,0,0:0:0:0:
19,277,237615,1,8,0:0:0:0:
90,309,237804,6,0,L|230:317,1,130,6|8,0:0|0:0,0:0:0:0:
357,352,238559,1,4,0:3:0:0:
192,376,238936,1,8,0:0:0:0:
248,333,239124,1,8,0:3:0:0:
321,332,239313,1,4,3:0:0:0:
233,298,239502,5,4,0:0:0:0:
256,192,239879,12,2,245540,0:0:0:0:
