osu file format v14

[General]
AudioFilename: audio.mp3
AudioLeadIn: 0
PreviewTime: 191440
Countdown: 0
SampleSet: Soft
StackLeniency: 0.4
Mode: 0
LetterboxInBreaks: 0
WidescreenStoryboard: 1

[Editor]
Bookmarks: 3362,62743,82537,104805,114702,136970,159238,169135,193877,203774,216145,235939
DistanceSpacing: 1.7
BeatDivisor: 6
GridSize: 8
TimelineZoom: 2.2

[Metadata]
Title:DARKEN
TitleUnicode:暗く黒く
Artist:ZUTOMAYO
ArtistUnicode:ずっと真夜中でいいのに。
Creator:Seros
Version:climb & Seros' Collab Hard
Source:さんかく窓の外側は夜
Tags:superbox climbx3145 acane ぐされ 米山舞 japanese pop The Night Beyond the Tricornered Window gusare yoneyamai Zutto Mayonaka de Ii no ni. collab collaboration Kuraku Kuroku
BeatmapID:2836860
BeatmapSetID:1347758

[Difficulty]
HPDrainRate:5
CircleSize:3.6
OverallDifficulty:6
ApproachRate:8
SliderMultiplier:2
SliderTickRate:1

[Events]
//Background and Video events
0,0,"esc.3.jpg",0,0
Video,1000,"video.mp4"
//Break Periods
//Storyboard Layer 0 (Background)
//Storyboard Layer 1 (Fail)
//Storyboard Layer 2 (Pass)
//Storyboard Layer 3 (Foreground)
//Storyboard Layer 4 (Overlay)
//Storyboard Sound Samples

[TimingPoints]
3362,618.556701030928,4,2,1,50,1,0
3362,-142.857142857143,4,2,1,30,0,0
3980,-142.857142857143,4,2,1,5,0,0
5836,-142.857142857143,4,2,1,30,0,0
6454,-142.857142857143,4,2,1,5,0,0
8310,-142.857142857143,4,2,1,30,0,0
8929,-142.857142857143,4,2,1,5,0,0
9547,-142.857142857143,4,2,1,30,0,0
10166,-142.857142857143,4,2,1,5,0,0
10784,-142.857142857143,4,2,1,30,0,0
11403,-142.857142857143,4,2,1,5,0,0
12021,-142.857142857143,4,2,1,30,0,0
16351,-142.857142857143,4,2,1,5,0,0
17588,-142.857142857143,4,2,1,30,0,0
18825,-142.857142857143,4,2,1,5,0,0
19444,-142.857142857143,4,2,1,30,0,0
21300,-142.857142857143,4,2,1,5,0,0
21918,-142.857142857143,4,2,1,30,0,0
22537,-142.857142857143,4,2,1,30,0,0
23155,-142.857142857143,4,2,1,30,0,0
23310,-142.857142857143,4,2,1,5,0,0
23465,-142.857142857143,4,2,1,30,0,0
25784,-142.857142857143,4,2,1,5,0,0
25939,-142.857142857143,4,2,1,30,0,0
27176,-142.857142857143,4,2,1,5,0,0
27485,-142.857142857143,4,2,1,30,0,0
28258,-142.857142857143,4,2,1,5,0,0
28413,-142.857142857143,4,2,1,30,0,0
30733,-142.857142857143,4,2,1,5,0,0
33052,-125,4,2,1,25,0,0
42949,-111.111111111111,4,2,1,40,0,0
80063,-142.857142857143,4,2,1,40,0,0
81764,-100,4,2,1,50,0,0
82537,-76.9230769230769,4,2,1,68,0,1
97382,-111.111111111111,4,2,1,68,0,0
102331,-100,4,2,1,68,0,0
103568,-90.9090909090909,4,2,1,68,0,0
104805,309.278350515464,4,2,1,50,1,0
104805,-181.818181818182,4,2,1,50,0,0
114702,-166.666666666667,4,2,1,50,0,0
134496,-125,4,2,1,50,0,0
136970,618.556701030928,4,2,1,50,1,0
136970,-76.9230769230769,4,2,1,68,0,1
151815,-111.111111111111,4,2,1,68,0,0
156764,-100,4,2,1,68,0,0
157382,600,4,2,1,50,1,0
157982,-90.9090909090909,4,2,1,68,0,0
158282,674.157303370787,4,2,1,50,1,0
158619,618.556701030928,4,2,1,50,1,0
158619,-90.9090909090909,4,2,1,68,0,0
159238,-100,4,2,1,50,0,0
169135,-100,4,2,1,50,0,0
186454,-125,4,2,1,50,0,0
188310,571.428571428572,4,2,1,50,1,0
188500,779.22077922078,4,2,1,50,1,0
188629,618.556701030928,4,2,1,50,1,0
188937,-142.857142857143,4,2,1,50,0,0
188938,579.710144927536,4,2,1,50,1,0
189227,661.521499448732,4,2,1,50,1,0
189557,621.761658031088,4,2,1,50,1,0
189867,617.919670442843,4,2,1,50,1,0
190175,576.923076923077,4,2,1,50,1,0
190463,594.059405940594,4,2,1,50,1,0
190661,833.333333333333,4,2,1,50,1,0
190799,631.578947368421,4,2,1,50,1,0
191116,648.648648648649,4,2,1,50,1,0
191440,554.016620498615,4,2,1,50,1,0
191440,-125,4,2,1,50,0,0
191578,560.747663551402,4,2,1,50,1,0
191718,652.173913043478,4,2,1,50,1,0
191826,572.519083969466,4,2,1,50,1,0
192006,649.350649350649,4,2,1,50,1,0
192330,560.224089635854,4,2,1,50,1,0
192470,621.11801242236,4,2,1,50,1,0
192625,659.340659340659,4,2,1,50,1,0
192844,618.556701030928,4,2,1,50,1,0
193256,612.244897959184,4,2,1,50,1,0
193868,618.556701030928,4,2,1,50,1,1
193868,-76.9230769230769,4,2,1,73,0,1
194022,638.297872340426,4,2,1,73,1,1
194341,-76.9230769230769,4,2,1,50,0,1
194500,618.556701030928,4,2,1,73,1,1
194654,618.556701030928,4,2,1,73,1,1
194654,-76.9230769230769,4,2,1,50,0,1
195117,618.556701030928,4,2,1,73,1,1
195117,-76.9230769230769,4,2,1,50,0,1
196354,-76.9230769230769,4,2,1,50,0,1
197436,582.52427184466,4,2,1,73,1,1
197581,606.060606060606,4,2,1,73,1,1
197581,-76.9230769230769,4,2,1,50,0,1
198187,618.556701030928,4,2,1,73,1,1
198187,-76.9230769230769,4,2,1,50,0,1
198828,618.556701030928,4,2,1,73,1,1
198828,-76.9230769230769,4,2,1,50,0,1
208106,652.173913043478,4,2,1,73,1,1
208724,618.556701030928,4,2,1,62,1,0
208724,-111.111111111111,4,2,1,73,0,0
213672,-100,4,2,1,73,0,0
214917,-90.9090909090909,4,2,1,73,0,0
216146,309.278350515464,4,2,1,50,1,0
216146,-181.818181818182,4,2,1,70,0,0
226042,-173.913043478261,4,2,1,80,0,0
235939,-166.666666666667,4,2,1,90,0,0
245836,-166.666666666667,4,2,1,50,0,0

[Colours]
Combo1 : 84,84,171
Combo2 : 152,137,239
Combo3 : 216,188,239
Combo4 : 227,147,236

[HitObjects]
415,80,3362,6,0,P|368:129|366:198,1,139.999995727539,2|0,0:0|0:0,0:0:0:0:
276,286,5836,2,0,P|229:236|227:167,1,139.999995727539,2|0,0:0|0:0,0:0:0:0:
228,41,8310,6,0,P|162:55|84:47,1,139.999995727539,2|0,0:0|0:0,0:0:0:0:
59,77,9547,2,0,P|73:145|66:214,1,139.999995727539,2|0,0:0|0:0,0:0:0:0:
93,247,10784,2,0,P|161:240|217:278,1,139.999995727539,2|0,0:0|0:0,0:0:0:0:
241,313,12021,2,0,P|309:319|365:281,1,139.999995727539,2|0,0:0|0:0,0:0:0:0:
381,241,13258,6,0,B|330:134|421:159|370:37,1,209.999993591309,2|2,0:0|0:0,0:0:0:0:
284,98,15733,2,0,P|227:59|159:66,1,139.999995727539,2|0,0:0|0:0,0:0:0:0:
100,125,17588,1,2,0:0:0:0:
74,136,18207,6,0,P|35:192|42:260,1,139.999995727539,2|0,0:0|0:0,0:0:0:0:
82,272,19444,2,0,P|113:257|147:261,2,69.9999978637696,2|2|2,0:0|0:0|0:0,0:0:0:0:
73,313,20681,2,0,P|129:351|197:344,1,139.999995727539,2|0,0:0|0:0,0:0:0:0:
221,310,21918,2,0,P|205:242|207:172,1,139.999995727539,2|0,0:0|0:0,0:0:0:0:
223,133,23155,6,0,L|230:99,1,34.9999989318848,2|0,1:2|0:0,0:0:0:0:
286,51,24392,2,0,L|423:75,1,139.999995727539,2|0,0:0|0:0,0:0:0:0:
442,79,25166,1,2,1:2:0:0:
435,109,25630,6,0,L|428:143,1,34.9999989318848,2|0,1:2|0:0,0:0:0:0:
414,194,26557,2,0,P|348:174|285:202,1,139.999995727539,2|0,0:0|0:0,0:0:0:0:
276,220,27485,2,0,P|283:254|287:288,1,69.9999978637696,2|0,0:0|0:0,0:0:0:0:
275,306,28104,2,0,L|269:340,1,34.9999989318848,2|0,1:2|0:0,0:0:0:0:
225,370,29032,6,0,P|168:332|101:346,1,139.999995727539,2|0,0:0|0:0,0:0:0:0:
73,326,29959,2,0,L|80:291,1,34.9999989318848,2|0,0:0|1:0,0:0:0:0:
112,250,30578,2,0,L|106:216,1,34.9999989318848,2|0,1:2|0:0,0:0:0:0:
274,54,33052,6,0,P|293:52|311:61,3,40,2|2|2|2,1:2|0:0|0:0|0:0,0:0:0:0:
338,91,33671,1,8,0:0:0:0:
323,169,33980,1,2,0:0:0:0:
374,229,34289,2,0,P|393:230|411:221,1,40,2|2,0:0|0:0,0:0:0:0:
444,198,34599,1,0,1:2:0:0:
497,257,34908,1,8,0:0:0:0:
457,326,35217,2,0,P|437:327|419:318,1,40,2|2,0:0|0:0,0:0:0:0:
380,327,35526,6,0,P|360:325|342:334,3,40,2|2|2|2,1:2|0:0|0:0|0:0,0:0:0:0:
308,356,36145,1,8,0:0:0:0:
244,306,36454,2,0,P|243:286|252:268,1,40,2|2,0:0|0:0,0:0:0:0:
274,235,36764,2,0,P|275:215|266:197,1,40,2|2,0:0|0:0,0:0:0:0:
242,165,37073,1,0,1:2:0:0:
265,88,37382,1,8,0:0:0:0:
120,18,38001,6,0,P|100:16|82:25,3,40,2|2|2|2,1:2|0:0|0:0|0:0,0:0:0:0:
57,55,38619,1,8,0:0:0:0:
28,130,38929,1,2,0:0:0:0:
97,169,39238,2,0,P|105:186|104:206,1,40,2|2,0:0|0:0,0:0:0:0:
80,238,39547,1,0,1:2:0:0:
20,291,39856,1,8,0:0:0:0:
69,353,40166,2,0,P|89:354|107:345,1,40,2|2,0:0|0:0,0:0:0:0:
145,353,40475,6,0,P|164:350|182:359,3,40,2|2|2|2,1:2|0:0|0:0|0:0,0:0:0:0:
216,381,41093,1,8,0:0:0:0:
270,322,41403,2,0,P|290:321|308:330,1,40,2|2,0:0|0:0,0:0:0:0:
337,356,41712,2,0,P|357:357|375:348,1,40,2|2,0:0|0:0,0:0:0:0:
402,319,42021,1,0,1:2:0:0:
379,242,42331,2,0,L|385:202,1,40,8|2,0:0|0:0,0:0:0:0:
415,175,42640,2,0,L|408:135,1,40,2|2,0:0|0:0,0:0:0:0:
374,105,42949,6,0,P|380:61|362:20,2,89.9999972534181,2|2|10,1:2|0:0|0:0,0:0:0:0:
289,74,43877,2,0,L|200:58,1,89.9999972534181,2|0,0:0|0:0,0:0:0:0:
111,42,44496,1,2,1:2:0:0:
43,100,44805,1,8,0:0:0:0:
126,134,45114,2,0,L|118:178,1,44.999998626709,2|2,0:0|0:0,0:0:0:0:
134,220,45423,6,0,P|200:219|252:264,1,134.999995880127,2|2,1:2|0:0,0:0:0:0:
278,298,46042,1,8,0:0:0:0:
358,257,46351,2,0,P|402:256|440:279,1,89.9999972534181,0|0,0:0|0:0,0:0:0:0:
490,355,46970,1,2,1:2:0:0:
403,381,47279,1,8,0:0:0:0:
314,365,47588,2,0,L|269:357,1,44.999998626709,2|0,0:0|0:0,0:0:0:0:
237,324,47898,6,0,P|242:264|181:263,1,134.999995880127,2|2,1:2|0:0,0:0:0:0:
146,291,48516,1,8,0:0:0:0:
57,276,48825,2,0,L|72:186,1,89.9999972534181,2|0,0:0|0:0,0:0:0:0:
138,125,49444,1,2,1:2:0:0:
226,110,49753,2,0,L|314:94,1,89.9999972534181,10|2,0:0|0:0,0:0:0:0:
404,85,50372,6,0,P|349:118|357:181,1,134.999995880127,2|2,1:2|0:0,0:0:0:0:
387,215,50990,1,8,0:0:0:0:
477,212,51300,1,2,0:0:0:0:
498,299,51609,2,0,P|481:339|443:363,1,89.9999972534181,2|0,0:0|1:2,0:0:0:0:
353,354,52227,1,10,0:0:0:0:
316,271,52537,1,2,0:0:0:0:
387,215,52846,6,0,L|402:126,1,89.9999972534181,2|2,1:2|0:0,0:0:0:0:
371,94,53310,1,2,0:0:0:0:
371,94,53465,2,0,L|355:5,2,89.9999972534181,8|2|2,0:0|0:0|0:0,0:0:0:0:
306,157,54392,1,0,1:2:0:0:
226,113,54702,1,8,0:0:0:0:
163,177,55011,2,0,L|170:221,1,44.999998626709,2|2,0:0|0:0,0:0:0:0:
145,258,55320,6,0,P|108:232|63:231,2,89.9999972534181,2|2|10,1:2|0:0|0:0,0:0:0:0:
190,336,56248,2,0,P|226:361|271:362,1,89.9999972534181,2|2,0:0|0:0,0:0:0:0:
353,326,56867,1,0,1:2:0:0:
312,245,57176,2,0,L|319:200,2,44.999998626709,10|2|2,0:0|0:0|0:0,0:0:0:0:
270,263,57640,1,2,0:0:0:0:
270,263,57794,6,0,P|225:261|188:236,1,89.9999972534181,2|2,1:2|0:0,0:0:0:0:
142,158,58413,1,8,0:0:0:0:
188,81,58722,2,0,L|232:88,1,44.999998626709,2|2,0:0|0:0,0:0:0:0:
276,97,59032,1,2,0:0:0:0:
323,173,59341,1,2,1:2:0:0:
399,125,59650,1,10,0:0:0:0:
399,125,60269,6,0,B|454:84|500:121|500:121|487:200,1,179.999994506836,2|8,1:2|0:0,0:0:0:0:
407,230,61197,2,0,L|422:318,1,89.9999972534181,2|0,0:0|0:0,0:0:0:0:
358,381,61815,1,2,1:2:0:0:
276,342,62124,1,10,0:0:0:0:
276,342,62743,6,0,P|281:300|253:255,1,89.9999972534181,6|0,1:2|0:0,0:0:0:0:
234,233,63207,1,0,1:2:0:0:
199,226,63362,2,0,P|173:204|170:141,1,89.9999972534181,2|8,0:0|0:0,0:0:0:0:
238,96,63980,5,2,0:0:0:0:
312,144,64289,1,2,1:2:0:0:
371,68,64599,1,10,0:0:0:0:
371,68,64753,2,0,P|351:46|342:19,1,44.999998626709,0|2,1:2|0:0,0:0:0:0:
471,80,65217,6,0,P|458:127|414:158,1,89.9999972534181,2|0,1:2|0:0,0:0:0:0:
393,165,65681,1,0,1:2:0:0:
366,187,65836,2,0,P|346:220|349:275,1,89.9999972534181,2|8,0:0|0:0,0:0:0:0:
428,312,66454,5,2,0:0:0:0:
375,383,66764,1,2,1:2:0:0:
283,369,67073,1,10,0:0:0:0:
283,369,67227,2,0,P|272:326|251:302,1,44.999998626709,0|2,1:2|0:0,0:0:0:0:
148,377,67691,5,2,1:2:0:0:
148,377,68310,6,0,P|113:373|97:362,1,44.999998626709,2|0,0:0|0:0,0:0:0:0:
25,384,68619,2,0,P|27:344|37:329,1,44.999998626709,10|0,0:0|0:0,0:0:0:0:
91,291,68929,2,0,L|71:104,1,179.999994506836,2|10,0:0|0:0,0:0:0:0:
119,48,69702,1,0,1:2:0:0:
310,5,70166,6,0,P|292:29|270:37,1,44.999998626709,0|0,1:2|0:0,0:0:0:0:
201,45,70475,2,0,P|209:75|223:95,1,44.999998626709,2|0,0:0|1:2,0:0:0:0:
284,123,70784,2,0,P|267:147|242:160,1,44.999998626709,2|0,0:0|0:0,0:0:0:0:
176,157,71093,2,0,P|182:190|199:213,1,44.999998626709,8|0,0:0|0:0,0:0:0:0:
261,248,71403,1,2,0:0:0:0:
341,204,71712,1,2,1:2:0:0:
337,294,72021,2,0,L|358:350,2,44.999998626709,10|0|0,0:0|1:2|0:0,0:0:0:0:
341,204,72640,6,0,P|358:164|404:148,1,89.9999972534181,6|0,1:2|0:0,0:0:0:0:
434,137,73104,1,0,1:2:0:0:
457,109,73258,2,0,P|462:75|425:34,1,89.9999972534181,2|8,0:0|0:0,0:0:0:0:
334,36,73877,5,2,0:0:0:0:
293,112,74186,1,2,1:2:0:0:
231,50,74496,1,10,0:0:0:0:
231,50,74650,2,0,P|205:46|180:56,1,44.999998626709,0|2,1:2|0:0,0:0:0:0:
104,156,75114,6,0,P|105:99|85:64,1,89.9999972534181,2|0,1:2|0:0,0:0:0:0:
56,53,75578,1,0,1:2:0:0:
19,63,75733,2,0,P|-4:114|6:162,1,89.9999972534181,2|8,0:0|0:0,0:0:0:0:
62,235,76351,6,0,P|120:246|153:229,1,89.9999972534181,2|2,0:0|1:2,0:0:0:0:
191,151,76970,1,10,0:0:0:0:
191,151,77124,2,0,P|245:143|283:160,1,89.9999972534181,0|0,1:2|0:0,0:0:0:0:
352,97,77588,6,0,P|370:136|366:182,1,89.9999972534181,2|0,1:2|0:0,0:0:0:0:
333,219,78052,1,2,1:2:0:0:
293,238,78207,1,2,0:0:0:0:
293,238,78516,2,0,P|301:275|319:289,1,44.999998626709,10|0,0:0|0:0,0:0:0:0:
391,275,78825,6,0,P|447:286|467:310,1,89.9999972534181,2|0,0:0|1:2,0:0:0:0:
465,355,79289,1,2,0:0:0:0:
436,384,79444,1,10,0:0:0:0:
243,343,79753,2,0,P|229:322|218:317,2,22.4999993133545,2|0|0,0:0|0:0|0:0,0:0:0:0:
259,369,80063,6,0,P|246:259|261:88,1,279.999991455078,2|0,1:2|0:0,0:0:0:0:
270,66,81764,6,0,P|273:52|279:39,2,25,8|8|8,0:0|0:0|0:0,0:0:0:0:
202,0,82073,1,8,0:0:0:0:
116,21,82227,1,4,0:3:0:0:
116,21,82537,6,0,P|108:52|104:84,1,64.9999970245363,6|0,1:2|1:2,0:0:0:0:
41,151,82846,1,2,0:0:0:0:
108,212,83001,2,0,P|139:204|171:200,1,64.9999970245363,2|8,0:0|0:0,0:0:0:0:
244,145,83310,2,0,P|276:148|307:156,1,64.9999970245363,2|0,0:0|0:0,0:0:0:0:
394,185,83619,1,2,0:0:0:0:
391,302,83774,6,0,P|387:334|370:361,1,64.9999970245363,2|0,1:2|1:2,0:0:0:0:
303,298,84083,2,0,P|278:318|246:325,1,64.9999970245363,2|0,0:0|1:2,0:0:0:0:
242,234,84392,2,0,P|209:230|182:213,1,64.9999970245363,10|0,0:0|0:0,0:0:0:0:
244,145,84702,2,0,P|223:120|216:88,1,64.9999970245363,2|0,0:0|0:0,0:0:0:0:
227,64,84934,1,2,0:0:0:0:
246,46,85011,6,0,L|310:57,1,64.9999970245363,6|0,1:2|1:2,0:0:0:0:
449,97,85320,2,0,L|385:108,1,64.9999970245363,2|0,0:0|0:0,0:0:0:0:
330,181,85630,2,0,L|341:245,1,64.9999970245363,10|0,0:0|0:0,0:0:0:0:
381,384,85939,2,0,L|392:320,1,64.9999970245363,2|0,0:0|1:2,0:0:0:0:
436,240,86248,6,0,P|470:267|513:272,2,86.6666626993817,6|0|2,1:2|0:0|0:0,0:0:0:0:
330,181,86867,2,0,P|296:207|253:212,2,86.6666626993817,10|0|2,0:0|0:0|0:0,0:0:0:0:
320,60,87485,6,0,P|288:52|256:48,1,64.9999970245363,6|0,1:2|1:2,0:0:0:0:
168,75,87794,1,2,0:0:0:0:
170,166,87949,2,0,P|166:198|158:229,1,64.9999970245363,2|8,0:0|0:0,0:0:0:0:
88,287,88258,2,0,P|91:319|99:350,1,64.9999970245363,2|0,0:0|0:0,0:0:0:0:
184,384,88568,1,2,0:0:0:0:
253,325,88722,5,2,1:2:0:0:
253,325,88877,1,2,1:2:0:0:
343,336,89032,2,0,P|375:332|406:324,1,64.9999970245363,2|0,0:0|0:0,0:0:0:0:
495,304,89341,2,0,P|487:272|483:240,1,64.9999970245363,10|0,0:0|0:0,0:0:0:0:
487,149,89650,1,2,0:0:0:0:
487,149,89959,6,0,P|454:145|427:128,1,64.9999970245363,6|0,1:2|0:0,0:0:0:0:
364,194,90269,2,0,P|343:169|336:137,1,64.9999970245363,2|0,0:0|1:2,0:0:0:0:
245,140,90578,2,0,P|248:107|265:80,1,64.9999970245363,10|0,0:0|0:0,0:0:0:0:
350,43,90887,1,2,0:0:0:0:
350,43,91042,1,2,0:0:0:0:
244,0,91197,6,0,P|192:36|166:95,1,129.999994049073,6|8,1:2|0:0,0:0:0:0:
165,186,91660,1,2,1:2:0:0:
75,170,91815,2,0,P|43:162|11:158,2,64.9999970245363,2|8|4,0:0|0:3|0:3,0:0:0:0:
106,255,92279,1,2,0:0:0:0:
224,257,92434,6,0,P|256:253|287:245,1,64.9999970245363,6|0,1:2|1:2,0:0:0:0:
352,181,92743,1,2,0:0:0:0:
302,104,92898,2,0,P|305:71|313:40,1,64.9999970245363,2|8,0:0|0:0,0:0:0:0:
404,35,93207,2,0,P|396:66|392:98,1,64.9999970245363,2|0,0:0|0:0,0:0:0:0:
445,173,93516,1,2,0:0:0:0:
394,279,93671,6,0,P|362:271|330:267,1,64.9999970245363,2|0,1:2|1:2,0:0:0:0:
258,324,93980,2,0,P|225:327|194:335,1,64.9999970245363,2|0,0:0|1:2,0:0:0:0:
104,316,94289,2,0,P|111:284|115:252,1,64.9999970245363,10|0,0:0|0:0,0:0:0:0:
107,164,94599,1,2,0:0:0:0:
107,164,94753,1,2,0:0:0:0:
205,98,94908,6,0,P|237:101|264:118,1,64.9999970245363,6|0,1:2|0:0,0:0:0:0:
336,182,95217,1,2,0:0:0:0:
336,182,95372,1,2,1:2:0:0:
418,140,95526,5,10,0:0:0:0:
418,140,95681,1,2,0:0:0:0:
489,196,95836,2,0,P|492:228|480:257,1,64.9999970245363,2|2,0:0|1:2,0:0:0:0:
410,316,96145,6,0,P|320:283|234:323,1,194.999991073609,2|2,1:2|1:2,0:0:0:0:
163,381,96764,1,10,0:0:0:0:
163,381,97382,5,10,1:2:0:0:
38,360,97691,1,10,0:3:0:0:
63,236,98001,1,6,0:3:0:0:
186,258,98310,1,14,1:2:0:0:
186,258,98929,5,2,1:2:0:0:
154,136,99238,1,14,1:2:0:0:
154,136,99856,6,0,B|156:166|89:165|28:112|93:15|204:0|188:128|297:57,1,314.999990386963,6|0,1:2|0:0,0:0:0:0:
320,63,101093,2,0,B|371:145|314:223|314:223|284:163|225:163,1,269.999991760254,6|0,1:2|0:0,0:0:0:0:
240,164,102331,5,6,1:2:0:0:
453,347,102949,1,6,1:2:0:0:
146,375,103568,2,0,L|91:365,1,55.0000016784668,10|0,0:0|1:2,0:0:0:0:
192,299,103877,2,0,L|246:289,1,55.0000016784668,10|0,0:0|1:2,0:0:0:0:
310,225,104186,2,0,L|337:229,3,27.5000008392334,10|8|2|8,0:0|0:0|1:2|0:3,0:0:0:0:
378,260,104496,2,0,L|405:255,3,27.5000008392334,2|0|10|8,1:2|1:2|0:0|0:3,0:0:0:0:
449,280,104805,6,0,P|461:241|464:212,1,55.0000016784668,6|0,1:2|1:2,0:0:0:0:
473,150,105114,1,8,0:0:0:0:
473,150,105269,1,2,0:0:0:0:
355,34,105578,6,0,P|379:8|418:-4,1,55.0000016784668,2|8,1:2|0:0,0:0:0:0:
426,76,105887,1,0,0:0:0:0:
355,119,106042,6,0,P|304:102|287:78,1,55.0000016784668,2|0,1:2|1:2,0:0:0:0:
272,31,106351,1,8,0:0:0:0:
272,31,106506,1,2,0:0:0:0:
169,159,106815,6,0,P|169:195|186:221,1,55.0000016784668,2|8,1:2|0:0,0:0:0:0:
248,168,107124,1,0,0:0:0:0:
214,92,107279,6,0,P|190:77|154:80,1,55.0000016784668,2|0,1:2|1:2,0:0:0:0:
95,123,107588,1,8,0:0:0:0:
95,123,107743,1,2,0:0:0:0:
13,271,108052,6,0,P|34:298|63:306,1,55.0000016784668,2|8,1:2|0:0,0:0:0:0:
84,228,108362,1,0,0:0:0:0:
134,293,108516,6,0,P|132:332|117:357,1,55.0000016784668,2|0,1:2|1:2,0:0:0:0:
201,378,108825,1,8,0:0:0:0:
201,378,108980,1,2,0:0:0:0:
364,356,109289,6,0,L|374:294,1,55.0000016784668,2|8,1:2|0:0,0:0:0:0:
343,223,109599,1,0,0:0:0:0:
286,163,109753,6,0,P|265:196|267:239,1,55.0000016784668,2|0,1:2|1:2,0:0:0:0:
208,274,110063,1,8,0:0:0:0:
208,274,110217,1,2,0:0:0:0:
45,245,110526,6,0,P|57:217|83:197,1,55.0000016784668,2|8,1:2|0:0,0:0:0:0:
158,203,110836,1,0,0:0:0:0:
116,129,110990,6,0,P|86:114|48:118,1,55.0000016784668,2|0,1:2|1:2,0:0:0:0:
50,39,111300,1,8,0:0:0:0:
50,39,111454,1,2,0:0:0:0:
207,21,111764,6,0,P|230:42|237:71,1,55.0000016784668,2|8,1:2|0:0,0:0:0:0:
289,125,112073,1,0,0:0:0:0:
375,108,112227,5,2,1:2:0:0:
375,108,112382,1,0,1:2:0:0:
375,108,112537,2,0,L|384:47,2,55.0000016784668,8|2|0,0:0|0:0|0:0,0:0:0:0:
473,102,113001,1,2,1:2:0:0:
461,198,113155,2,0,P|411:184|389:190,1,55.0000016784668,12|0,0:0|1:2,0:0:0:0:
380,262,113465,6,0,L|382:294,2,27.5000008392334,8|8|4,1:2|0:0|0:3,0:0:0:0:
330,197,113774,2,0,P|291:211|256:202,1,55.0000016784668,8|8,0:0|1:2,0:0:0:0:
195,213,114083,2,0,P|181:248|189:278,1,55.0000016784668,0|2,1:2|0:0,0:0:0:0:
218,343,114392,1,10,0:0:0:0:
120,382,114547,1,10,0:0:0:0:
120,382,114624,1,8,0:0:0:0:
120,382,114702,6,0,P|87:372|60:371,2,59.9999981689454,6|2|10,1:2|1:2|0:0,0:0:0:0:
133,292,115166,2,0,P|76:277|35:234,1,119.999996337891,2|2,0:0|1:2,0:0:0:0:
21,150,115630,1,8,0:0:0:0:
21,150,115784,1,2,0:0:0:0:
109,131,115939,6,0,P|167:120|222:96,1,119.999996337891,2|10,1:2|0:0,0:0:0:0:
307,65,116403,2,0,P|303:94|299:124,1,59.9999981689454,2|0,0:0|0:0,0:0:0:0:
239,191,116712,2,0,P|242:220|246:250,1,59.9999981689454,2|8,1:2|0:0,0:0:0:0:
313,310,117021,1,2,0:0:0:0:
228,341,117176,6,0,P|198:337|168:333,2,59.9999981689454,2|0|8,1:2|1:2|0:0,0:0:0:0:
313,310,117640,1,2,0:0:0:0:
399,332,117794,2,0,P|395:302|391:272,1,59.9999981689454,2|2,0:0|1:2,0:0:0:0:
333,149,118104,2,0,P|329:179|326:209,1,59.9999981689454,10|2,0:0|0:0,0:0:0:0:
246,250,118413,6,0,P|188:234|128:225,1,119.999996337891,2|10,1:2|0:0,0:0:0:0:
39,240,118877,2,0,P|35:210|31:180,1,59.9999981689454,2|0,0:0|0:0,0:0:0:0:
110,135,119186,2,0,P|113:105|117:75,2,59.9999981689454,2|10|0,1:2|0:0|0:0,0:0:0:0:
199,145,119650,6,0,P|202:115|206:85,1,59.9999981689454,2|0,1:2|1:2,0:0:0:0:
222,67,119882,1,2,0:0:0:0:
241,52,119959,2,0,P|270:55|300:59,1,59.9999981689454,10|2,0:0|0:0,0:0:0:0:
388,38,120269,2,0,P|391:67|395:97,1,59.9999981689454,2|0,0:0|1:2,0:0:0:0:
459,161,120578,1,10,0:0:0:0:
407,234,120733,6,0,P|377:230|347:226,1,59.9999981689454,2|0,0:0|1:2,0:0:0:0:
257,215,121042,2,0,P|260:244|264:274,1,59.9999981689454,2|8,1:2|0:0,0:0:0:0:
273,363,121351,2,0,P|333:357|392:347,1,119.999996337891,2|2,0:0|1:2,0:0:0:0:
470,299,121815,1,8,0:0:0:0:
470,299,121970,1,2,0:0:0:0:
407,234,122124,6,0,P|377:237|347:241,1,59.9999981689454,2|2,1:2|1:2,0:0:0:0:
336,150,122434,2,0,P|365:146|395:142,1,59.9999981689454,10|2,0:0|0:0,0:0:0:0:
413,54,122743,2,0,P|353:59|293:67,1,119.999996337891,2|10,0:0|0:0,0:0:0:0:
205,50,123207,6,0,P|208:79|212:109,1,59.9999981689454,2|0,0:0|1:2,0:0:0:0:
155,179,123516,2,0,P|125:175|95:171,2,59.9999981689454,2|8|2,0:0|0:0|0:0,0:0:0:0:
322,246,124135,1,2,1:2:0:0:
311,338,124289,1,10,0:0:0:0:
311,338,124444,1,2,0:0:0:0:
232,292,124599,6,0,P|202:288|172:284,2,59.9999981689454,6|2|10,1:2|0:0|0:0,0:0:0:0:
230,384,125063,2,0,P|170:373|111:368,1,119.999996337891,2|2,0:0|1:2,0:0:0:0:
41,321,125526,1,8,0:0:0:0:
41,321,125681,1,2,0:0:0:0:
103,256,125836,6,0,P|99:226|95:196,1,59.9999981689454,2|0,1:2|1:2,0:0:0:0:
71,109,126145,1,10,0:0:0:0:
161,107,126300,2,0,P|190:103|220:99,1,59.9999981689454,2|2,0:0|0:0,0:0:0:0:
296,51,126609,1,2,1:2:0:0:
357,117,126764,2,0,P|353:146|349:176,1,59.9999981689454,10|2,0:0|0:0,0:0:0:0:
404,248,127073,6,0,P|433:244|463:240,2,59.9999981689454,2|0|8,1:2|1:2|0:0,0:0:0:0:
339,310,127537,1,2,0:0:0:0:
280,242,127691,2,0,P|250:245|220:249,1,59.9999981689454,2|2,0:0|1:2,0:0:0:0:
130,262,128001,2,0,P|133:232|137:202,1,59.9999981689454,10|2,0:0|0:0,0:0:0:0:
146,112,128310,6,0,P|205:108|265:98,1,119.999996337891,2|10,1:2|0:0,0:0:0:0:
351,125,128774,2,0,P|354:95|358:65,1,59.9999981689454,0|2,0:0|0:0,0:0:0:0:
287,8,129083,1,2,1:2:0:0:
203,32,129238,1,10,0:0:0:0:
203,32,129392,1,2,0:0:0:0:
265,98,129547,6,0,P|261:127|257:157,2,59.9999981689454,6|0|8,1:2|1:2|0:0,0:0:0:0:
287,8,130011,1,2,0:0:0:0:
369,44,130166,2,0,P|398:40|428:36,1,59.9999981689454,2|0,0:0|1:2,0:0:0:0:
449,48,130398,1,2,0:0:0:0:
466,64,130475,2,0,P|462:93|458:123,1,59.9999981689454,10|2,0:0|0:0,0:0:0:0:
441,140,130707,1,2,0:0:0:0:
424,156,130784,6,0,P|437:214|449:273,1,119.999996337891,2|10,1:2|0:0,0:0:0:0:
490,353,131248,1,2,0:0:0:0:
402,376,131403,2,0,P|372:372|342:368,1,59.9999981689454,2|0,0:0|1:2,0:0:0:0:
253,381,131712,2,0,P|256:351|260:321,1,59.9999981689454,10|0,0:0|0:0,0:0:0:0:
320,255,132021,5,2,1:2:0:0:
320,255,132176,1,2,0:0:0:0:
256,191,132331,2,0,P|226:194|196:197,1,59.9999981689454,10|4,0:0|0:3,0:0:0:0:
111,228,132640,2,0,P|108:198|104:168,1,59.9999981689454,2|0,0:0|1:2,0:0:0:0:
24,125,132949,2,0,P|27:95|30:65,1,59.9999981689454,10|4,0:0|0:3,0:0:0:0:
102,9,133258,5,2,1:2:0:0:
102,9,133413,1,0,0:0:0:0:
162,83,133568,1,8,0:0:0:0:
162,83,133722,1,0,0:0:0:0:
234,29,133877,2,0,P|261:41|291:40,2,59.9999981689454,2|0|8,0:0|1:2|0:0,0:0:0:0:
399,259,136970,6,0,P|371:247|335:252,1,64.9999970245363,6|0,1:2|1:2,0:0:0:0:
301,168,137279,1,2,0:0:0:0:
226,221,137434,2,0,L|247:282,1,64.9999970245363,2|8,0:0|0:0,0:0:0:0:
183,348,137743,2,0,L|161:286,1,64.9999970245363,2|0,0:0|0:0,0:0:0:0:
74,256,138052,1,2,0:0:0:0:
0,383,138207,6,0,P|4:338|25:310,1,64.9999970245363,2|0,1:2|1:2,0:0:0:0:
74,256,138516,2,0,P|76:201|61:175,1,64.9999970245363,2|0,0:0|1:2,0:0:0:0:
8,130,138825,2,0,P|11:84|44:56,1,64.9999970245363,10|0,0:0|0:0,0:0:0:0:
113,59,139135,2,0,P|164:63|185:35,1,64.9999970245363,2|0,0:0|0:0,0:0:0:0:
187,40,139367,1,2,0:0:0:0:
199,23,139444,6,0,P|221:66|224:93,1,64.9999970245363,6|0,1:2|1:2,0:0:0:0:
321,93,139753,2,0,P|309:137|273:167,1,64.9999970245363,2|0,0:0|1:2,0:0:0:0:
315,248,140063,2,0,P|354:232|380:194,1,64.9999970245363,10|0,0:0|0:0,0:0:0:0:
462,245,140372,2,0,P|465:195|450:161,1,64.9999970245363,2|0,0:0|1:2,0:0:0:0:
416,327,140681,6,0,P|471:340|506:326,2,86.6666626993817,6|2|2,1:2|0:0|0:0,0:0:0:0:
315,248,141300,2,0,P|274:234|232:244,2,86.6666626993817,10|0|2,0:0|0:0|0:0,0:0:0:0:
272,360,141918,6,0,P|225:368|195:356,1,64.9999970245363,6|0,1:2|1:2,0:0:0:0:
136,309,142227,1,2,0:0:0:0:
63,364,142382,2,0,P|45:322|53:286,1,64.9999970245363,2|8,0:0|0:0,0:0:0:0:
90,223,142691,2,0,P|95:181|79:144,1,64.9999970245363,2|0,0:0|0:0,0:0:0:0:
26,93,143001,1,2,0:0:0:0:
118,24,143155,5,2,1:2:0:0:
118,24,143310,1,2,1:2:0:0:
207,44,143465,2,0,L|291:56,1,64.9999970245363,2|0,0:0|1:2,0:0:0:0:
352,10,143774,2,0,P|362:52|349:98,1,64.9999970245363,10|0,0:0|0:0,0:0:0:0:
328,159,144083,1,2,0:0:0:0:
328,159,144392,6,0,L|339:240,1,64.9999970245363,6|0,1:2|1:2,0:0:0:0:
423,254,144702,2,0,L|412:173,1,64.9999970245363,2|0,0:0|1:2,0:0:0:0:
491,140,145011,2,0,L|502:221,1,64.9999970245363,10|0,0:0|0:0,0:0:0:0:
512,295,145320,1,2,0:0:0:0:
512,295,145475,1,2,0:0:0:0:
435,375,145630,6,0,B|398:394|357:368|368:360|337:333|292:353,1,129.999994049073,6|8,1:2|0:0,0:0:0:0:
228,375,146093,1,2,1:2:0:0:
164,310,146248,2,0,P|139:346|140:384,2,64.9999970245363,2|8|4,0:0|0:3|0:3,0:0:0:0:
243,265,146712,1,2,0:0:0:0:
258,153,146867,6,0,L|240:79,1,64.9999970245363,6|0,1:2|1:2,0:0:0:0:
218,2,147176,1,2,0:0:0:0:
144,55,147331,2,0,P|109:51|71:66,1,64.9999970245363,2|8,0:0|0:0,0:0:0:0:
107,147,147640,2,0,P|148:152|191:130,1,64.9999970245363,2|0,0:0|0:0,0:0:0:0:
242,89,147949,1,2,0:0:0:0:
347,139,148104,6,0,P|356:177|342:223,1,64.9999970245363,2|0,1:2|1:2,0:0:0:0:
443,215,148413,2,0,P|421:266|392:278,1,64.9999970245363,2|0,0:0|1:2,0:0:0:0:
454,353,148722,2,0,P|402:361|371:348,1,64.9999970245363,10|0,0:0|0:0,0:0:0:0:
316,304,149032,1,2,0:0:0:0:
316,304,149186,1,2,0:0:0:0:
196,366,149341,6,0,P|224:319|255:309,1,64.9999970245363,6|0,1:2|0:0,0:0:0:0:
316,304,149650,1,2,0:0:0:0:
316,304,149805,1,2,1:2:0:0:
198,224,149959,6,0,P|254:220|285:235,1,64.9999970245363,10|2,0:0|0:0,0:0:0:0:
316,304,150269,1,2,0:0:0:0:
316,304,150423,1,2,1:2:0:0:
339,186,150578,6,0,P|326:162|171:98,1,194.999991073609,2|2,1:2|1:2,0:0:0:0:
97,134,151197,1,10,0:0:0:0:
97,134,151815,5,10,1:2:0:0:
48,250,152124,1,10,0:3:0:0:
163,301,152434,1,6,0:3:0:0:
212,185,152743,1,14,1:2:0:0:
212,185,153362,5,2,1:2:0:0:
182,62,153672,1,14,1:2:0:0:
182,62,154289,6,0,B|245:39|294:83|286:87|361:156|439:125|414:24|354:30,1,314.999990386963,6|0,1:2|0:0,0:0:0:0:
337,37,155526,2,0,B|378:98|317:155|299:127|231:198|280:274,1,269.999991760254,6|0,1:2|0:0,0:0:0:0:
279,273,156764,5,6,1:2:0:0:
405,213,157073,1,8,0:3:0:0:
452,248,157227,1,0,0:0:0:0:
464,311,157382,1,6,1:2:0:0:
464,311,157532,2,0,P|410:333|361:330,1,100,8|0,0:3|1:2,0:0:0:0:
279,273,157982,5,10,0:0:0:0:
165,169,158282,1,10,0:3:0:0:
165,169,158450,1,8,1:3:0:0:
165,169,158619,2,0,L|158:215,1,36.6666677856446,14|0,0:3|0:0,0:0:0:0:
134,231,158825,2,0,L|147:266,3,36.6666677856446,8|2|8|8,0:0|1:2|0:3|0:3,0:0:0:0:
179,288,159238,5,6,1:2:0:0:
179,288,159392,2,0,P|230:272|275:285,1,100,0|0,1:2|1:2,0:0:0:0:
344,322,159856,2,0,P|368:319|391:309,1,50,10|2,0:0|0:0,0:0:0:0:
348,241,160166,2,0,P|363:221|372:198,1,50,2|10,0:0|0:0,0:0:0:0:
375,118,160475,1,2,1:2:0:0:
375,118,160630,1,10,0:0:0:0:
295,119,160784,2,0,P|270:116|247:106,1,50,2|2,1:2|0:0,0:0:0:0:
186,53,161093,2,0,P|188:28|198:5,2,50,10|2|2,0:0|1:2|0:0,0:0:0:0:
161,129,161557,1,8,0:0:0:0:
161,129,161712,6,0,P|166:202|116:256,1,150,2|0,1:2|1:2,0:0:0:0:
40,280,162331,1,8,0:0:0:0:
75,362,162485,1,2,0:0:0:0:
75,362,162563,1,8,0:0:0:0:
75,362,162640,2,0,P|99:359|122:349,1,50,2|10,0:0|0:0,0:0:0:0:
192,310,162949,2,0,P|216:312|239:322,1,50,2|2,1:2|0:0,0:0:0:0:
305,368,163258,1,4,1:2:0:0:
305,368,163568,2,0,P|315:345|317:320,1,50,10|0,0:0|1:2,0:0:0:0:
393,295,163877,2,0,P|384:271|368:252,1,50,14|0,0:0|0:0,0:0:0:0:
406,181,164186,6,0,P|358:173|314:194,1,100,2|2,1:2|0:0,0:0:0:0:
252,246,164650,1,0,1:2:0:0:
252,246,164805,2,0,P|216:249|181:236,2,75,10|8|10,0:0|0:0|0:0,0:0:0:0:
226,170,165423,2,0,P|210:150|201:127,1,50,2|10,1:2|0:0,0:0:0:0:
280,111,165733,2,0,P|282:86|292:63,2,50,6|0|10,1:2|0:0|0:0,0:0:0:0:
309,185,166197,1,2,1:2:0:0:
364,127,166351,2,0,P|386:116|411:114,1,50,2|10,0:0|0:0,0:0:0:0:
488,136,166660,6,0,B|474:161|484:196|484:196|446:180|398:205,1,150,6|0,1:2|1:2,0:0:0:0:
386,227,167202,1,0,1:2:0:0:
372,248,167279,2,0,P|399:288|394:336,1,100,4|0,0:0|1:2,0:0:0:0:
320,367,167743,1,10,0:0:0:0:
240,353,167898,2,0,P|215:355|192:365,1,50,6|10,1:2|0:0,0:0:0:0:
113,351,168207,1,6,0:3:0:0:
143,276,168362,1,2,0:0:0:0:
143,276,168439,1,8,0:3:0:0:
143,276,168516,2,0,P|140:251|130:228,1,50,2|10,1:2|0:3,0:0:0:0:
70,175,168825,1,6,0:3:0:0:
70,175,168980,1,6,0:3:0:0:
70,175,169135,5,6,1:2:0:0:
70,175,169289,2,0,P|127:139|192:122,1,100,0|0,1:2|1:2,0:0:0:0:
122,55,169753,2,0,P|199:49|241:66,1,100,10|0,0:0|0:0,0:0:0:0:
300,67,170217,1,8,0:0:0:0:
339,146,170372,6,0,P|323:173|295:191,1,50,2|0,1:2|0:0,0:0:0:0:
342,255,170681,2,0,P|311:262|279:255,1,50,6|0,1:2|0:0,0:0:0:0:
269,334,170990,2,0,P|241:318|224:290,1,50,10|0,0:0|0:0,0:0:0:0:
217,220,171300,1,2,1:2:0:0:
217,220,171454,1,8,0:0:0:0:
217,220,171609,5,2,1:2:0:0:
217,220,171764,2,0,B|162:227|135:279,1,100,8|0,0:0|1:2,0:0:0:0:
70,343,172227,2,0,P|47:281|56:226,1,100,10|0,0:0|0:0,0:0:0:0:
96,169,172691,1,8,0:0:0:0:
22,120,172846,5,2,1:2:0:0:
22,120,173001,1,8,0:0:0:0:
22,120,173155,2,0,P|7:84|17:47,1,50,6|0,1:2|0:0,0:0:0:0:
107,73,173465,1,10,0:0:0:0:
107,73,173619,2,0,P|159:63|222:67,1,100,0|0,1:2|1:2,0:0:0:0:
269,111,174083,5,2,1:2:0:0:
363,232,174702,6,0,P|381:197|374:165,1,50,10|0,0:0|0:0,0:0:0:0:
466,173,175011,2,0,P|453:135|426:117,1,50,2|8,1:2|0:0,0:0:0:0:
368,105,175320,2,0,P|317:103|256:114,1,100,2|4,1:2|1:2,0:0:0:0:
196,191,175939,5,10,0:0:0:0:
196,191,176093,2,0,P|247:189|296:196,1,100,0|8,1:2|0:0,0:0:0:0:
375,254,176557,6,0,P|342:281|313:286,1,50,2|0,1:2|0:0,0:0:0:0:
323,370,176867,2,0,P|277:349|265:319,1,50,2|0,0:0|1:2,0:0:0:0:
245,271,177176,2,0,P|209:296|194:328,1,50,10|0,0:0|0:0,0:0:0:0:
199,384,177485,2,0,P|164:378|135:348,1,50,2|0,0:0|1:2,0:0:0:0:
119,289,177794,5,2,1:2:0:0:
47,340,177949,1,8,0:0:0:0:
47,340,178104,2,0,P|33:300|37:275,1,50,6|0,1:2|0:0,0:0:0:0:
88,91,178413,5,2,1:2:0:0:
141,115,178568,1,8,0:3:0:0:
160,153,178722,1,4,0:3:0:0:
158,183,178877,1,4,0:3:0:0:
151,203,179032,6,0,P|243:189|327:208,1,150,6|0,1:2|1:2,0:0:0:0:
333,118,179650,2,0,P|391:164|410:226,1,100,10|0,0:0|0:0,0:0:0:0:
408,262,180114,1,8,0:0:0:0:
342,333,180269,5,2,1:2:0:0:
342,333,180423,1,8,0:0:0:0:
342,333,180578,2,0,P|329:296|309:274,1,50,2|0,1:2|0:0,0:0:0:0:
235,256,180887,1,10,0:0:0:0:
235,256,181042,2,0,P|179:257|118:284,1,100,0|0,1:2|0:0,0:0:0:0:
85,331,181506,5,2,1:2:0:0:
85,331,182124,6,0,P|51:269|42:159,1,150,10|0,0:0|1:2,0:0:0:0:
106,120,182743,2,0,P|143:116|172:106,1,50,2|8,0:0|0:0,0:0:0:0:
203,44,183052,2,0,P|231:76|237:99,1,50,6|0,1:2|0:0,0:0:0:0:
224,169,183362,5,10,0:0:0:0:
224,169,183516,2,0,P|233:208|244:224,2,50,0|2|8,1:2|0:0|0:0,0:0:0:0:
155,112,183980,6,0,P|81:136|37:194,1,150,6|2,1:2|1:2,0:0:0:0:
37,274,184599,1,10,0:0:0:0:
171,366,184908,5,2,0:0:0:0:
213,350,185063,1,10,0:0:0:0:
233,310,185217,2,0,P|150:294|104:232,1,150,2|2,1:2|0:0,0:0:0:0:
80,165,185836,5,10,0:0:0:0:
92,104,185990,1,8,0:3:0:0:
140,64,186145,1,6,0:3:0:0:
140,64,186454,6,0,B|229:67|275:165|230:227|288:326|415:329,1,400,6|0,1:2|0:0,0:0:0:0:
411,306,188155,2,0,P|418:290|425:271,2,20,8|8|8,0:0|0:0|0:0,0:0:0:0:
401,242,188500,1,8,0:3:0:0:
393,223,188629,1,8,0:3:0:0:
488,248,188938,6,0,P|510:193|506:151,1,100,0|0,1:2|0:0,0:0:0:0:
453,96,189447,1,0,1:2:0:0:
422,74,189557,2,0,L|321:64,1,100,8|0,0:0|0:0,0:0:0:0:
270,1,190175,6,0,P|237:68|240:90,1,100,0|0,1:2|0:0,0:0:0:0:
287,153,190661,1,0,1:2:0:0:
317,177,190799,2,0,L|418:181,1,100,8|8,0:0|0:0,0:0:0:0:
488,257,191440,5,0,1:2:0:0:
498,302,191578,2,0,P|495:326|483:350,1,50,8|8,0:0|1:2,0:0:0:0:
457,370,191826,1,8,1:2:0:0:
371,384,192006,2,0,P|347:383|319:372,2,50,8|8|4,1:2|0:3|0:3,0:0:0:0:
358,301,192470,5,0,1:2:0:0:
358,301,192547,1,0,1:2:0:0:
358,301,192625,2,0,P|346:270|346:247,1,50,8|0,0:0|0:0,0:0:0:0:
342,212,192844,2,0,P|338:194|329:178,2,33.3333333333333,8|8|8,0:0|0:0|0:0,0:0:0:0:
269,130,193256,2,0,P|220:127|169:141,1,100,4|2,0:0|0:0,0:0:0:0:
85,215,193868,6,0,P|117:218|149:226,1,64.9999970245363,6|0,1:2|1:2,0:0:0:0:
230,267,194181,1,2,0:0:0:0:
156,320,194341,2,0,P|159:352|167:383,1,64.9999970245363,2|8,1:2|0:0,0:0:0:0:
77,368,194654,2,0,P|69:336|65:304,1,64.9999970245363,2|0,0:0|0:0,0:0:0:0:
85,215,194963,1,2,0:0:0:0:
195,175,195117,6,0,P|227:171|254:154,1,64.9999970245363,2|0,1:2|1:2,0:0:0:0:
207,25,195426,2,0,P|193:54|195:89,1,64.9999970245363,2|0,0:0|1:2,0:0:0:0:
331,117,195735,2,0,P|312:90|283:75,1,64.9999970245363,10|0,0:0|0:0,0:0:0:0:
329,208,196044,2,0,P|347:234|376:249,1,64.9999970245363,2|0,0:0|0:0,0:0:0:0:
402,249,196276,1,0,0:0:0:0:
427,243,196354,6,0,P|458:235|493:230,1,64.9999970245363,6|0,1:2|1:2,0:0:0:0:
442,332,196663,2,0,P|473:324|505:320,1,64.9999970245363,2|0,0:0|1:2,0:0:0:0:
365,384,196972,2,0,P|355:352|342:323,1,64.9999970245363,10|0,0:0|0:0,0:0:0:0:
268,377,197281,2,0,P|258:345|245:316,1,64.9999970245363,2|0,0:0|0:0,0:0:0:0:
171,264,197581,6,0,P|127:264|73:246,2,86.6666626993817,6|2|2,1:2|1:2|0:0,0:0:0:0:
144,145,198187,2,0,P|112:113|90:72,2,86.6666626993817,10|2|2,0:0|1:2|0:0,0:0:0:0:
261,173,198828,6,0,P|292:163|321:150,1,64.9999970245363,4|0,1:2|1:2,0:0:0:0:
365,70,199137,1,2,0:0:0:0:
453,93,199291,2,0,P|466:122|475:153,1,64.9999970245363,2|8,1:2|0:0,0:0:0:0:
451,241,199601,1,2,0:0:0:0:
381,299,199755,2,0,P|351:285|320:276,1,64.9999970245363,2|10,0:0|0:0,0:0:0:0:
235,260,200065,5,2,1:2:0:0:
235,260,200219,1,2,1:2:0:0:
261,173,200374,2,0,P|251:141|238:112,1,64.9999970245363,2|0,0:0|1:2,0:0:0:0:
183,46,200683,1,10,0:0:0:0:
183,46,200838,1,2,0:0:0:0:
267,7,200992,1,2,0:0:0:0:
267,7,201147,1,10,0:0:0:0:
373,55,201302,6,0,P|386:84|395:115,1,64.9999970245363,6|0,1:2|0:0,0:0:0:0:
478,153,201611,2,0,P|466:183|451:212,1,64.9999970245363,2|0,0:0|1:2,0:0:0:0:
476,299,201920,2,0,P|446:312|415:321,1,64.9999970245363,12|0,0:0|0:0,0:0:0:0:
329,307,202230,1,2,0:0:0:0:
329,307,202384,1,2,0:0:0:0:
321,190,202539,6,0,P|312:126|270:78,1,129.999994049073,6|10,1:2|0:0,0:0:0:0:
201,19,203003,1,2,1:2:0:0:
131,78,203157,2,0,P|99:68|70:55,2,64.9999970245363,0|8|4,1:2|0:3|0:3,0:0:0:0:
198,139,203621,1,0,0:0:0:0:
194,256,203776,6,0,P|240:261|264:249,1,64.9999970245363,6|0,1:2|1:2,0:0:0:0:
322,190,204085,1,2,0:0:0:0:
381,259,204240,2,0,P|410:208|409:184,1,64.9999970245363,2|8,1:2|0:0,0:0:0:0:
386,115,204549,2,0,P|381:70|398:41,1,64.9999970245363,2|2,0:0|0:0,0:0:0:0:
468,8,204858,1,2,0:0:0:0:
388,52,205013,6,0,P|340:40|301:49,1,64.9999970245363,6|0,1:2|0:0,0:0:0:0:
248,91,205322,2,0,P|204:99|171:89,1,64.9999970245363,2|0,0:0|1:2,0:0:0:0:
101,56,205632,2,0,P|104:99|90:133,1,64.9999970245363,8|0,0:0|0:0,0:0:0:0:
33,181,205941,2,0,P|57:203|92:208,1,64.9999970245363,2|0,0:0|0:0,0:0:0:0:
223,220,206250,5,6,1:2:0:0:
196,307,206405,1,2,1:2:0:0:
83,291,206559,2,0,P|37:296|7:322,1,64.9999970245363,2|0,0:0|0:0,0:0:0:0:
81,384,206869,5,10,0:0:0:0:
81,384,207023,2,0,P|127:380|147:370,1,64.9999970245363,0|2,0:0|0:0,0:0:0:0:
196,307,207333,1,2,0:0:0:0:
223,220,207487,6,0,P|315:184|393:247,1,194.999991073609,2|2,1:2|0:0,0:0:0:0:
414,323,208106,1,8,0:0:0:0:
414,323,208724,5,6,1:2:0:0:
476,213,209033,1,10,0:3:0:0:
381,129,209343,1,6,0:3:0:0:
443,19,209651,1,8,1:2:0:0:
443,19,210270,5,2,1:2:0:0:
319,42,210579,1,14,1:2:0:0:
319,42,211198,6,0,B|280:119|176:77|186:55|87:21|27:114,1,314.999990386963,6|0,1:2|0:0,0:0:0:0:
36,92,212435,2,0,B|100:140|135:249|49:330|-31:254|6:194,1,269.999991760254,6|0,1:2|0:0,0:0:0:0:
10,208,213517,1,0,0:0:0:0:
45,306,213672,5,6,1:2:0:0:
45,306,213827,2,0,P|110:295|191:301,1,100
201,359,214291,1,6,1:2:0:0:
201,359,214445,2,0,P|230:306|218:251,1,100
194,197,214909,5,10,0:0:0:0:
194,197,215064,1,0,1:2:0:0:
260,156,215218,1,10,0:0:0:0:
260,156,215373,1,0,1:2:0:0:
338,194,215527,5,10,0:0:0:0:
338,194,215605,1,8,0:0:0:0:
338,194,215682,2,0,P|348:232|351:242,1,27.5000008392334,2|8,1:2|0:3,0:0:0:0:
354,258,215837,2,0,L|354:295,3,27.5000008392334,2|0|10|8,1:2|1:2|0:0|0:3,0:0:0:0:
375,324,216146,6,0,L|441:312,2,55.0000016784668,6|2|10,1:2|1:2|0:0,0:0:0:0:
308,382,216609,2,0,L|199:362,1,110.000003356934,2|2,0:0|1:2,0:0:0:0:
115,336,217073,1,8,0:0:0:0:
115,336,217382,6,0,L|124:281,2,55.0000016784668,2|2|10,1:2|1:2|0:0,0:0:0:0:
27,347,217846,2,0,L|46:238,1,110.000003356934,2|2,0:0|1:2,0:0:0:0:
60,151,218310,1,8,0:0:0:0:
60,151,218619,6,0,P|32:148|8:136,2,55.0000016784668,2|2|10,1:2|1:2|0:0,0:0:0:0:
134,104,219083,2,0,P|188:96|239:114,1,110.000003356934,2|2,0:0|1:2,0:0:0:0:
306,171,219547,1,8,0:0:0:0:
272,252,219702,1,2,0:0:0:0:
272,252,219856,2,0,P|296:264|323:266,1,55.0000016784668,2|2,1:2|1:2,0:0:0:0:
341,353,220166,2,0,P|366:344|388:326,1,55.0000016784668,10|2,0:0|0:0,0:0:0:0:
459,378,220475,2,0,P|471:353|473:326,1,55.0000016784668,2|2,0:0|1:2,0:0:0:0:
433,247,220784,1,10,0:0:0:0:
433,247,221094,6,0,L|442:191,2,55.0000016784668,2|2|10,1:2|1:2|0:0,0:0:0:0:
345,253,221557,2,0,L|364:144,1,110.000003356934,2|2,0:0|1:2,0:0:0:0:
381,58,222021,1,8,0:0:0:0:
381,58,222331,6,0,L|435:48,2,55.0000016784668,2|2|10,1:2|1:2|0:0,0:0:0:0:
297,85,222794,2,0,L|188:65,1,110.000003356934,2|2,0:0|1:2,0:0:0:0:
100,67,223258,1,8,0:0:0:0:
100,67,223568,6,0,P|102:39|114:15,2,55.0000016784668,2|2|10,1:2|1:2|0:0,0:0:0:0:
136,147,224032,2,0,P|143:201|125:252,1,110.000003356934,2|2,0:0|1:2,0:0:0:0:
99,336,224496,1,8,0:0:0:0:
182,366,224650,1,2,0:0:0:0:
182,366,224805,2,0,P|206:378|233:380,1,55.0000016784668,2|2,1:2|1:2,0:0:0:0:
230,292,225114,2,0,P|255:283|277:265,1,55.0000016784668,10|2,0:0|1:2,0:0:0:0:
214,204,225423,2,0,P|226:179|228:152,1,55.0000016784668,10|2,0:0|1:2,0:0:0:0:
200,67,225733,1,10,0:0:0:0:
200,67,226042,6,0,L|143:57,2,57.5000010967255,6|2|10,1:2|1:2|0:0,0:0:0:0:
290,84,226506,1,2,1:2:0:0:
290,84,226815,2,0,L|346:74,1,57.5000010967255,2|8,1:2|0:0,0:0:0:0:
491,188,227279,6,0,L|481:244,2,57.5000010967255,2|2|10,1:2|1:2|0:0,0:0:0:0:
411,142,227743,2,0,L|391:255,1,115.000002193451,2|2,0:0|1:2,0:0:0:0:
368,344,228207,1,8,0:0:0:0:
368,344,228516,6,0,L|311:334,2,57.5000010967255,2|2|10,1:2|1:2|0:0,0:0:0:0:
391,255,228980,2,0,L|277:235,1,115.000002193451,2|2,0:0|1:2,0:0:0:0:
186,218,229444,1,8,0:0:0:0:
241,144,229599,1,2,0:0:0:0:
241,144,229676,1,0,0:0:0:0:
241,144,229753,2,0,L|231:87,1,57.5000010967255,2|2,1:2|0:0,0:0:0:0:
212,73,229985,1,0,1:2:0:0:
191,62,230063,2,0,L|134:71,1,57.5000010967255,10|2,0:0|0:0,0:0:0:0:
42,81,230372,2,0,L|32:137,1,57.5000010967255,2|2,0:0|1:2,0:0:0:0:
13,227,230681,1,10,0:0:0:0:
13,227,230991,6,0,P|41:228|66:216,2,57.5000010967255,2|2|10,1:2|1:2|0:0,0:0:0:0:
2,318,231454,2,0,P|57:327|110:307,1,115.000002193451,2|2,1:2|1:2,0:0:0:0:
188,257,231918,1,8,0:0:0:0:
188,257,232228,6,0,P|200:282|198:310,2,57.5000010967255,2|2|10,1:2|1:2|0:0,0:0:0:0:
138,178,232691,2,0,P|128:122|148:69,1,115.000002193451,2|2,1:2|1:2,0:0:0:0:
219,10,233155,1,8,0:0:0:0:
219,10,233465,6,0,P|247:8|277:24,2,57.5000010967255,2|2|10,1:2|1:2|0:0,0:0:0:0:
228,101,233929,2,0,P|274:133|297:185,1,115.000002193451,2|2,1:2|1:2,0:0:0:0:
328,271,234392,1,8,0:0:0:0:
250,321,234547,1,2,0:0:0:0:
250,321,234702,2,0,P|224:333|196:331,1,57.5000010967255,2|2,1:2|0:0,0:0:0:0:
210,240,235011,2,0,P|183:230|164:209,1,57.5000010967255,10|2,0:0|0:0,0:0:0:0:
238,154,235320,2,0,P|225:128|227:100,1,57.5000010967255,2|2,1:2|1:2,0:0:0:0:
269,17,235630,1,10,0:0:0:0:
380,112,235939,6,0,P|346:108|315:113,2,59.9999981689454,6|2|10,1:2|0:0|0:0,0:0:0:0:
463,78,236403,2,0,P|421:33|355:16,1,119.999996337891,2|2,1:2|1:2,0:0:0:0:
269,17,236867,1,8,0:0:0:0:
89,50,237176,6,0,P|53:40|37:25,2,59.9999981689454,2|2|10,1:2|1:2|0:0,0:0:0:0:
179,35,237640,2,0,P|185:101|165:170,1,119.999996337891,2|2,1:2|1:2,0:0:0:0:
120,227,238104,1,8,0:0:0:0:
120,227,238413,6,0,P|160:245|200:236,2,59.9999981689454,2|2|10,1:2|1:2|0:0,0:0:0:0:
28,231,238877,2,0,P|52:294|112:333,1,119.999996337891,2|2,1:2|1:2,0:0:0:0:
179,351,239341,1,8,0:0:0:0:
264,313,239496,1,2,0:0:0:0:
264,313,239650,2,0,L|258:246,1,59.9999981689454,2|2,1:2|1:2,0:0:0:0:
320,189,239960,2,0,L|325:118,1,59.9999981689454,10|2,0:0|1:2,0:0:0:0:
254,70,240269,1,2,0:0:0:0:
311,0,240423,1,2,1:2:0:0:
393,38,240578,1,10,0:0:0:0:
480,3,240733,1,0,0:0:0:0:
480,3,240810,1,0,0:0:0:0:
480,3,240887,6,0,P|488:39|483:67,2,59.9999981689454,2|2|10,1:2|0:0|0:0,0:0:0:0:
393,38,241351,2,0,P|389:96|414:159,1,119.999996337891,2|0,1:2|1:2,0:0:0:0:
469,223,241815,1,8,0:0:0:0:
469,223,242125,6,0,P|485:262|481:296,2,59.9999981689454,2|2|10,1:2|1:2|0:0,0:0:0:0:
410,153,242588,2,0,L|287:174,1,119.999996337891,2|2,1:2|1:2,0:0:0:0:
202,160,243052,2,0,L|140:170,1,59.9999981689454,8|0,0:0|0:0,0:0:0:0:
113,175,243284,1,0,0:0:0:0:
84,185,243362,6,0,P|63:214|65:257,2,59.9999981689454,2|2|10,1:2|1:2|0:0,0:0:0:0:
92,101,243826,2,0,P|39:110|16:132,1,59.9999981689454,2|0,1:2|0:0,0:0:0:0:
89,13,244135,2,0,P|119:17|145:32,1,59.9999981689454,2|8,1:2|0:0,0:0:0:0:
230,0,244444,1,2,0:0:0:0:
273,81,244599,6,0,P|245:91|216:91,1,59.9999981689454,2|2,1:2|0:0,0:0:0:0:
164,165,244908,2,0,P|190:179|228:181,1,59.9999981689454,10|2,0:0|1:2,0:0:0:0:
297,241,245217,5,10,0:0:0:0:
297,241,245371,1,2,1:2:0:0:
209,273,245526,5,10,0:0:0:0:
280,329,245681,1,10,0:0:0:0:
256,192,245836,12,0,247691,0:0:0:0:
