osu file format v14

[General]
AudioFilename: audio.mp3
AudioLeadIn: 0
PreviewTime: 191440
Countdown: 0
SampleSet: Soft
StackLeniency: 0.7
Mode: 0
LetterboxInBreaks: 0
WidescreenStoryboard: 1

[Editor]
Bookmarks: 104805,188629,216146,226042,247692
DistanceSpacing: 1.7
BeatDivisor: 4
GridSize: 8
TimelineZoom: 2.7

[Metadata]
Title:DARKEN
TitleUnicode:暗く黒く
Artist:ZUTOMAYO
ArtistUnicode:ずっと真夜中でいいのに。
Creator:Seros
Version:Seros & SB's Satisfying Loneliness
Source:さんかく窓の外側は夜
Tags:superbox climbx3145 acane ぐされ 米山舞 japanese pop The Night Beyond the Tricornered Window gusare yoneyamai Zutto Mayonaka de Ii no ni. collab collaboration Kuraku Kuroku
BeatmapID:2791064
BeatmapSetID:1347758

[Difficulty]
HPDrainRate:6.2
CircleSize:4.6
OverallDifficulty:7.3
ApproachRate:9.1
SliderMultiplier:3
SliderTickRate:1

[Events]
//Background and Video events
0,0,"esc.3.jpg",0,0
Video,1000,"video.mp4"
//Break Periods
//Storyboard Layer 0 (Background)
//Storyboard Layer 1 (Fail)
//Storyboard Layer 2 (Pass)
//Storyboard Layer 3 (Foreground)
//Storyboard Layer 4 (Overlay)
//Storyboard Sound Samples

[TimingPoints]
3362,618.556701030928,4,2,1,50,1,0
3362,-66.6666666666667,4,2,1,30,0,0
3439,-66.6666666666667,4,2,1,5,0,0
5836,-58.8235294117647,4,2,1,30,0,0
5913,-58.8235294117647,4,2,1,5,0,0
8001,-333.333333333333,4,2,1,20,0,0
8155,-333.333333333333,4,2,1,5,0,0
8310,-66.6666666666667,4,2,1,30,0,0
8387,-66.6666666666667,4,2,1,5,0,0
9547,-66.6666666666667,4,2,1,30,0,0
9624,-66.6666666666667,4,2,1,5,0,0
10784,-76.9230769230769,4,2,1,30,0,0
10862,-76.9230769230769,4,2,1,5,0,0
12021,-76.9230769230769,4,2,1,30,0,0
13258,-66.6666666666667,4,2,1,30,0,0
13336,-66.6666666666667,4,2,1,5,0,0
14186,-66.6666666666667,4,2,1,20,0,0
15733,-66.6666666666667,4,2,1,30,0,0
15810,-66.6666666666667,4,2,1,5,0,0
17588,-66.6666666666667,4,2,1,20,0,0
18207,-76.9230769230769,4,2,1,30,0,0
18284,-76.9230769230769,4,2,1,5,0,0
19444,-76.9230769230769,4,2,1,20,0,0
20681,-76.9230769230769,4,2,1,30,0,0
20758,-76.9230769230769,4,2,1,5,0,0
21918,-76.9230769230769,4,2,1,30,0,0
21996,-76.9230769230769,4,2,1,5,0,0
23155,-333.333333333334,4,2,1,25,0,0
26635,-333.333333333334,4,2,1,5,0,0
27485,-333.333333333334,4,2,1,25,0,0
33052,-133.333333333333,4,2,1,25,0,0
42949,-133.333333333333,4,2,1,40,0,0
43877,-181.818181818181,4,2,1,40,0,0
44959,-285.714285714284,4,2,1,40,0,0
45423,-133.333333333333,4,2,1,40,0,0
45887,-181.818181818181,4,2,1,40,0,0
46351,-285.714285714284,4,2,1,40,0,0
47898,-133.333333333333,4,2,1,40,0,0
48362,-181.818181818181,4,2,1,40,0,0
48825,-222.222222222221,4,2,1,40,0,0
50372,-133.333333333333,4,2,1,40,0,0
50836,-181.818181818181,4,2,1,40,0,0
52846,-133.333333333333,4,2,1,40,0,0
53310,-181.818181818181,4,2,1,40,0,0
54702,-133.333333333333,4,2,1,40,0,0
57176,-285.714285714284,4,2,1,40,0,0
57794,-133.333333333333,4,2,1,40,0,0
59032,-153.846153846153,4,2,1,40,0,0
59650,-133.333333333333,4,2,1,40,0,0
61197,-222.222222222221,4,2,1,40,0,0
62124,-285.714285714284,4,2,1,40,0,0
62743,-133.333333333333,4,2,1,50,0,0
64599,-117.647058823529,4,2,1,50,0,0
65217,-100,4,2,1,50,0,0
65836,-181.818181818181,4,2,1,50,0,0
66764,-100,4,2,1,50,0,0
67691,-133.333333333333,4,2,1,50,0,0
68929,-153.846153846153,4,2,1,50,0,0
69547,-133.333333333333,4,2,1,50,0,0
70166,-100,4,2,1,50,0,0
70784,-90.9090909090909,4,2,1,50,0,0
71712,-181.818181818181,4,2,1,50,0,0
72021,-100,4,2,1,50,0,0
72640,-90.9090909090909,4,2,1,50,0,0
73877,-100,4,2,1,50,0,0
74496,-90.9090909090909,4,2,1,50,0,0
75733,-181.818181818181,4,2,1,50,0,0
76351,-100,4,2,1,50,0,0
77124,-133.333333333333,4,2,1,50,0,0
77588,-100,4,2,1,50,0,0
78207,-133.333333333333,4,2,1,50,0,0
78825,-100,4,2,1,50,0,0
79753,-133.333333333333,4,2,1,50,0,0
80063,-222.222222222222,4,2,1,50,0,0
81764,-100,4,2,1,50,0,0
82537,-66.6666666666667,4,2,1,68,0,1
83155,-133.333333333333,4,2,1,68,0,1
83465,-181.818181818181,4,2,1,68,0,1
83774,-66.6666666666667,4,2,1,68,0,1
84392,-100,4,2,1,68,0,1
85011,-100,4,2,1,68,0,1
85320,-83.3333333333333,4,2,1,68,0,1
85630,-90.9090909090909,4,2,1,68,0,1
85939,-100,4,2,1,68,0,1
86248,-90.9090909090909,4,2,1,68,0,1
86557,-90.9090909090909,4,2,1,68,0,1
87485,-66.6666666666667,4,2,1,68,0,1
88104,-133.333333333333,4,2,1,68,0,1
88722,-100,4,2,1,68,0,1
89341,-133.333333333333,4,2,1,68,0,1
89959,-80,4,2,1,68,0,1
90269,-100,4,2,1,68,0,1
90578,-133.333333333333,4,2,1,68,0,1
91197,-76.9230769230769,4,2,1,68,0,1
91815,-66.6666666666667,4,2,1,68,0,1
92279,-133.333333333333,4,2,1,68,0,1
92434,-66.6666666666667,4,2,1,68,0,1
93052,-133.333333333333,4,2,1,68,0,1
93516,-181.818181818181,4,2,1,68,0,1
93671,-66.6666666666667,4,2,1,68,0,1
94289,-133.333333333333,4,2,1,68,0,1
94908,-79.9999999999999,4,2,1,68,0,1
95217,-79.9999999999999,4,2,1,68,0,1
95526,-79.9999999999999,4,2,1,68,0,1
95836,-79.9999999999999,4,2,1,68,0,1
96145,-100,4,2,1,68,0,1
96609,-133.333333333333,4,2,1,68,0,1
96764,-90.9090909090909,4,2,1,68,0,1
97382,-90.9090909090909,4,2,1,56,0,0
99238,-133.333333333333,4,2,1,59,0,0
99856,-100,4,2,1,62,0,0
100166,-200,4,2,1,58,0,0
101093,-100,4,2,1,64,0,0
101403,-133.333333333333,4,2,1,60,0,0
102021,-133.333333333333,4,2,1,58,0,0
102331,-79.9999999999999,4,2,1,66,0,0
102640,-79.9999999999999,4,2,1,62,0,0
102949,-79.9999999999999,4,2,1,68,0,0
103258,-79.9999999999999,4,2,1,62,0,0
103568,-79.9999999999999,4,2,1,68,0,0
103722,-79.9999999999999,4,2,1,68,0,0
103877,-79.9999999999999,4,2,1,70,0,0
104032,-79.9999999999999,4,2,1,70,0,0
104186,-79.9999999999999,4,2,1,74,0,0
104805,309.278350515464,4,2,1,50,1,0
104805,-200,4,2,1,50,0,0
114702,-160,4,2,1,50,0,0
136970,618.556701030928,4,2,1,50,1,0
136970,-66.6666666666667,4,2,1,68,0,1
137588,-133.333333333333,4,2,1,68,0,1
137898,-181.818181818181,4,2,1,68,0,1
138207,-66.6666666666667,4,2,1,68,0,1
138825,-100,4,2,1,68,0,1
139444,-100,4,2,1,68,0,1
139753,-83.3333333333333,4,2,1,68,0,1
140063,-90.9090909090909,4,2,1,68,0,1
140372,-100,4,2,1,68,0,1
140681,-90.9090909090909,4,2,1,68,0,1
140990,-90.9090909090909,4,2,1,68,0,1
141918,-66.6666666666667,4,2,1,68,0,1
142537,-133.333333333333,4,2,1,68,0,1
143155,-100,4,2,1,68,0,1
143774,-133.333333333333,4,2,1,68,0,1
144392,-80,4,2,1,68,0,1
144701,-100,4,2,1,68,0,1
145011,-133.333333333333,4,2,1,68,0,1
145630,-76.9230769230769,4,2,1,68,0,1
146248,-66.6666666666667,4,2,1,68,0,1
146712,-133.333333333333,4,2,1,68,0,1
146867,-66.6666666666667,4,2,1,68,0,1
147485,-133.333333333333,4,2,1,68,0,1
147949,-181.818181818181,4,2,1,68,0,1
148104,-66.6666666666667,4,2,1,68,0,1
148722,-133.333333333333,4,2,1,68,0,1
149341,-79.9999999999999,4,2,1,68,0,1
149650,-79.9999999999999,4,2,1,68,0,1
149959,-79.9999999999999,4,2,1,68,0,1
150269,-79.9999999999999,4,2,1,68,0,1
150578,-100,4,2,1,68,0,1
151042,-133.333333333333,4,2,1,68,0,1
151197,-90.9090909090909,4,2,1,68,0,1
151815,-90.9090909090909,4,2,1,56,0,0
153671,-133.333333333333,4,2,1,59,0,0
154289,-100,4,2,1,62,0,0
154599,-100,4,2,1,58,0,0
155526,-100,4,2,1,64,0,0
155836,-100,4,2,1,60,0,0
156454,-133.333333333333,4,2,1,58,0,0
156764,-79.9999999999999,4,2,1,66,0,0
157073,-79.9999999999999,4,2,1,62,0,0
157382,600,4,2,1,50,1,0
157682,-79.9999999999999,4,2,1,62,0,0
157982,-79.9999999999999,4,2,1,68,0,0
158155,-79.9999999999999,4,2,1,68,0,0
158282,674.157303370787,4,2,1,50,1,0
158282,-79.9999999999999,4,2,1,70,0,0
158450,-79.9999999999999,4,2,1,70,0,0
158619,618.556701030928,4,2,1,50,1,0
158619,-79.9999999999999,4,2,1,74,0,0
159238,-100,4,2,1,50,0,0
161712,-133.333333333333,4,2,1,50,0,0
162640,-100,4,2,1,50,0,0
163877,-66.6666666666667,4,2,1,50,0,0
164186,-100,4,2,1,50,0,0
164496,-133.333333333333,4,2,1,50,0,0
165269,-66.6666666666667,4,2,1,50,0,0
166660,-133.333333333333,4,2,1,50,0,0
167279,-100,4,2,1,50,0,0
169135,-133.333333333333,4,2,1,50,0,0
172227,-100,4,2,1,50,0,0
176557,-66.6666666666667,4,2,1,50,0,0
179032,-133.333333333333,4,2,1,50,0,0
182124,-100,4,2,1,50,0,0
186454,-133.333333333333,4,2,1,50,0,0
188310,571.428571428572,4,2,1,50,1,0
188500,779.22077922078,4,2,1,50,1,0
188629,618.556701030928,4,2,1,50,1,0
188938,579.710144927536,4,2,1,50,1,0
189227,661.521499448732,4,2,1,50,1,0
189557,621.761658031088,4,2,1,50,1,0
189557,-100,4,2,1,50,0,0
189867,617.919670442843,4,2,1,50,1,0
190175,576.923076923077,4,2,1,50,1,0
190175,-133.333333333333,4,2,1,50,0,0
190463,594.059405940594,4,2,1,50,1,0
190661,833.333333333333,4,2,1,50,1,0
190661,-100,4,2,1,50,0,0
190799,631.578947368421,4,2,1,50,1,0
190799,-100,4,2,1,50,0,0
191116,648.648648648649,4,2,1,50,1,0
191440,554.016620498615,4,2,1,50,1,0
191440,-133.333333333333,4,2,1,50,0,0
191578,560.747663551402,4,2,1,50,1,0
191718,652.173913043478,4,2,1,50,1,0
191826,572.519083969466,4,2,1,50,1,0
191826,-100,4,2,1,50,0,0
192006,649.350649350649,4,2,1,50,1,0
192330,560.224089635854,4,2,1,50,1,0
192470,621.11801242236,4,2,1,50,1,0
192625,659.340659340659,4,2,1,50,1,0
192844,618.556701030928,4,2,1,50,1,0
193256,612.244897959184,4,2,1,50,1,0
193868,618.556701030928,4,2,1,50,1,1
193868,-100,4,2,1,50,0,1
194022,638.297872340426,4,2,1,73,1,1
194022,-57.1428571428571,4,2,1,73,0,1
194500,618.556701030928,4,2,1,73,1,1
194500,-80,4,2,1,73,0,1
194654,618.556701030928,4,2,1,73,1,1
194808,-66.6666666666667,4,2,1,73,0,1
194963,-80,4,2,1,73,0,1
195117,618.556701030928,4,2,1,73,1,1
195117,-57.1428571428571,4,2,1,73,0,1
195735,-80,4,2,1,73,0,1
196199,-133.333333333333,4,2,1,73,0,1
196354,-66.6666666666667,4,2,1,73,0,1
197436,582.52427184466,4,2,1,73,1,1
197436,-133.333333333333,4,2,1,73,0,1
197581,606.060606060606,4,2,1,73,1,1
198187,618.556701030928,4,2,1,73,1,1
198828,618.556701030928,4,2,1,73,1,1
198828,-57.1428571428571,4,2,1,73,0,1
199446,-80,4,2,1,73,0,1
199755,-66.6666666666667,4,2,1,73,0,1
200065,-57.1428571428571,4,2,1,73,0,1
201302,-80,4,2,1,73,0,1
201611,-133.333333333333,4,2,1,73,0,1
202539,-79.9999999999999,4,2,1,73,0,1
203157,-66.6666666666667,4,2,1,73,0,1
203467,-100,4,2,1,73,0,1
203776,-57.1428571428571,4,2,1,73,0,1
204395,-80,4,2,1,73,0,1
204704,-66.6666666666667,4,2,1,73,0,1
204858,-79.9999999999999,4,2,1,73,0,1
205013,-57.1428571428571,4,2,1,73,0,1
205632,-80,4,2,1,73,0,1
205941,-100,4,2,1,73,0,1
206250,-66.6666666666667,4,2,1,73,0,1
206869,-80,4,2,1,73,0,1
207487,-133.333333333333,4,2,1,73,0,1
208106,652.173913043478,4,2,1,73,1,1
208724,618.556701030928,4,2,1,62,1,0
208724,-80,4,2,1,62,0,0
210579,-200,4,2,1,62,0,0
211198,-100,4,2,1,66,0,0
211507,-133.333333333333,4,2,1,66,0,0
212435,-100,4,2,1,43,0,0
213672,-80,4,2,1,53,0,0
214291,-66.6666666666667,4,2,1,68,0,0
214600,-66.6666666666667,4,2,1,78,0,0
214909,-66.6666666666667,4,2,1,74,0,0
215064,-66.6666666666667,4,2,1,74,0,0
215218,-66.6666666666667,4,2,1,78,0,0
215373,-66.6666666666667,4,2,1,78,0,0
215528,-66.6666666666667,4,2,1,79,0,0
216146,309.278350515464,4,2,1,50,1,0
216146,-160,4,2,1,70,0,0
226042,-147.058823529412,4,2,1,80,0,0
228053,-266.666666666667,4,2,1,80,0,0
228207,-147.058823529412,4,2,1,80,0,0
235939,-133.333333333333,4,2,1,90,0,0
244135,-266.666666666667,4,2,1,90,0,0
244290,-133.333333333333,4,2,1,90,0,0
245836,-133.333333333333,4,2,1,50,0,0

[Colours]
Combo1 : 84,84,171
Combo2 : 152,137,239
Combo3 : 216,188,239
Combo4 : 227,147,236

[HitObjects]
365,274,3362,6,0,B|372:278|355:299|355:299|335:282|342:275,1,56.2500021457673,2|0,0:0|0:0,0:0:0:0:
116,229,5836,6,0,B|106:237|120:258|120:258|142:247|138:234,1,63.7500012159348,2|0,0:0|0:0,0:0:0:0:
384,139,8001,6,0,L|379:111,1,22.4999993133545,0|0,0:0|0:0,0:0:0:0:
347,17,8310,2,0,B|346:28|364:38|364:38|377:23|372:14,1,56.2500021457673,2|0,0:0|0:0,0:0:0:0:
186,160,9547,6,0,B|185:150|204:140|204:140|216:158|211:166,1,56.2500021457673,2|0,0:0|0:0,0:0:0:0:
67,14,10784,6,0,B|60:21|69:37|69:37|90:32|90:24,1,48.7499977684022,2|0,0:0|0:0,0:0:0:0:
10,189,12021,5,2,0:0:0:0:
87,161,12331,5,0,0:0:0:0:
147,228,12640,5,0,0:0:0:0:
223,255,12949,5,0,0:0:0:0:
79,330,13258,6,0,B|73:320|83:301|83:301|106:310|107:320,1,56.2500021457673,2|0,0:0|0:0,0:0:0:0:
208,170,14186,5,2,0:0:0:0:
368,274,15733,6,0,B|371:264|358:248|358:248|341:260|342:269,1,56.2500021457673,2|0,0:0|0:0,0:0:0:0:
394,100,17588,5,2,0:0:0:0:
494,124,18207,6,0,B|490:116|487:100|487:100|481:115|474:122,1,48.7499977684022,2|0,0:0|0:0,0:0:0:0:
313,17,19444,5,2,0:0:0:0:
309,95,19753,5,2,0:0:0:0:
245,151,20063,5,2,0:0:0:0:
100,52,20681,6,0,B|107:59|114:73|114:73|115:58|120:48,1,48.7499977684022,2|0,0:0|0:0,0:0:0:0:
39,198,21918,6,0,B|41:192|21:185|27:179|27:179|34:184|13:193|17:200,1,48.7499977684022,2|0,0:0|0:0,0:0:0:0:
163,335,23155,6,0,P|218:321|266:316,1,89.9999972534181,2|0,1:2|0:0,0:0:0:0:
250,316,24392,2,0,P|236:318|225:320,1,22.4999993133545,2|0,0:0|0:0,0:0:0:0:
163,335,25166,5,2,1:2:0:0:
163,335,25630,6,0,P|108:321|60:316,1,89.9999972534181,2|0,1:2|0:0,0:0:0:0:
2,355,26557,2,0,L|6:338,1,11.2499996566773,2|0,0:0|0:0,0:0:0:0:
43,156,27485,5,2,0:0:0:0:
37,181,28104,6,0,P|80:177|127:178,1,89.9999972534181,2|0,1:2|0:0,0:0:0:0:
242,222,29032,5,2,0:0:0:0:
312,196,29650,5,0,0:0:0:0:
409,276,29959,5,2,0:0:0:0:
409,276,30114,1,0,1:0:0:0:
484,180,30578,6,0,P|441:176|394:177,1,89.9999972534181,2|0,1:2|0:0,0:0:0:0:
312,196,31506,5,0,0:0:0:0:
249,167,31815,5,0,0:0:0:0:
163,65,32434,5,0,0:0:0:0:
138,91,32743,5,0,0:0:0:0:
143,259,33052,5,2,1:2:0:0:
136,245,33207,1,2,0:0:0:0:
149,238,33362,1,2,0:0:0:0:
156,252,33516,1,2,0:0:0:0:
147,250,33671,5,8,0:0:0:0:
382,148,33980,5,2,0:0:0:0:
389,130,34135,1,0,0:0:0:0:
374,123,34290,1,2,0:0:0:0:
366,140,34444,1,2,0:0:0:0:
377,136,34599,5,0,1:2:0:0:
291,83,34908,1,8,0:0:0:0:
180,154,35217,5,2,0:0:0:0:
180,154,35372,1,2,0:0:0:0:
116,58,35526,5,2,1:2:0:0:
102,82,35680,1,2,0:0:0:0:
128,95,35835,1,2,0:0:0:0:
141,69,35990,1,2,0:0:0:0:
123,76,36145,5,8,0:0:0:0:
339,264,36454,5,2,0:0:0:0:
330,237,36608,1,2,0:0:0:0:
359,230,36763,1,2,0:0:0:0:
365,258,36918,1,2,0:0:0:0:
347,245,37073,5,0,1:2:0:0:
312,340,37382,1,8,0:0:0:0:
111,368,38001,5,2,1:2:0:0:
97,339,38155,1,2,0:0:0:0:
127,328,38310,1,2,0:0:0:0:
139,358,38464,1,2,0:0:0:0:
119,349,38619,5,8,0:0:0:0:
383,314,38929,5,2,0:0:0:0:
375,339,39083,1,0,0:0:0:0:
400,347,39238,1,2,0:0:0:0:
408,322,39392,1,2,0:0:0:0:
390,331,39547,5,0,1:2:0:0:
424,226,39856,1,8,0:0:0:0:
208,191,40166,5,2,0:0:0:0:
208,191,40320,1,2,0:0:0:0:
117,226,40475,5,2,1:2:0:0:
123,244,40630,1,2,0:0:0:0:
141,238,40784,1,2,0:0:0:0:
135,220,40939,1,2,0:0:0:0:
129,234,41093,5,8,0:0:0:0:
351,92,41403,5,2,0:0:0:0:
368,112,41557,1,2,0:0:0:0:
351,125,41712,1,2,0:0:0:0:
334,105,41866,1,2,0:0:0:0:
351,112,42021,5,0,1:2:0:0:
90,47,42331,5,8,0:0:0:0:
160,43,42485,5,2,0:0:0:0:
207,88,42640,5,2,0:0:0:0:
213,136,42794,5,2,0:0:0:0:
209,158,42949,6,0,P|149:152|93:167,2,112.500004291535,2|2|10,1:2|0:0|0:0,0:0:0:0:
298,212,43877,2,0,P|342:219|389:215,1,82.5000025177003,2|0,0:0|0:0,0:0:0:0:
448,174,44496,1,2,1:2:0:0:
506,275,44805,5,8,0:0:0:0:
506,275,44959,2,0,L|469:296,2,26.2499991989136,2|2|2,0:0|0:0|0:0,0:0:0:0:
456,359,45423,2,0,P|464:299|435:238,1,112.500004291535,2|0,1:2|0:0,0:0:0:0:
379,216,45887,2,0,P|373:195|373:173,1,41.2500012588501,2|8,0:0|0:0,0:0:0:0:
459,14,46351,6,0,P|468:45|469:81,1,52.4999983978272,0|0,0:0|0:0,0:0:0:0:
457,134,46970,1,2,1:2:0:0:
330,89,47279,5,8,0:0:0:0:
250,57,47588,1,2,0:0:0:0:
303,5,47898,2,0,P|293:78|295:132,1,112.500004291535,2|0,1:2|0:0,0:0:0:0:
293,116,48362,2,0,B|294:147|287:162|274:172,1,41.2500012588501,2|8,0:0|0:0,0:0:0:0:
90,123,48825,2,0,P|131:114|179:121,1,67.4999979400635,2|0,0:0|0:0,0:0:0:0:
224,126,49444,1,2,1:2:0:0:
105,264,49753,5,10,0:0:0:0:
133,189,50063,1,2,0:0:0:0:
209,318,50372,6,0,P|156:320|96:352,1,112.500004291535,2|0,1:2|0:0,0:0:0:0:
103,345,50836,2,0,B|78:370|55:376|42:368,1,41.2500012588501,2|8,0:0|0:0,0:0:0:0:
0,252,51300,1,2,0:0:0:0:
65,284,51609,1,2,0:0:0:0:
59,212,51918,1,0,1:2:0:0:
240,85,52227,5,10,0:0:0:0:
216,159,52537,1,2,0:0:0:0:
152,122,52846,2,0,P|213:114|277:123,1,112.500004291535,2|2,1:2|0:0,0:0:0:0:
380,174,53310,2,0,B|349:177|329:186,1,41.2500012588501,2|8,0:0|0:0,0:0:0:0:
300,243,53774,1,2,0:0:0:0:
333,111,54083,1,2,0:0:0:0:
333,111,54392,1,0,1:2:0:0:
402,28,54702,6,0,P|343:36|273:25,1,112.500004291535,8|2,0:0|0:0,0:0:0:0:
215,4,55166,1,2,0:0:0:0:
215,4,55320,6,0,P|170:6|133:21,1,56.2500021457673,2|0,1:2|0:0,0:0:0:0:
79,57,55630,2,0,P|48:85|36:109,1,56.2500021457673,2|0,0:0|0:0,0:0:0:0:
56,256,55939,1,10,0:0:0:0:
12,180,56248,1,2,0:0:0:0:
12,180,56557,2,0,P|73:170|149:174,1,112.500004291535,2|0,0:0|1:2,0:0:0:0:
273,212,57176,6,0,L|269:243,3,26.2499991989136,10|2|2|2,0:0|0:0|0:0|0:0,0:0:0:0:
320,285,57794,2,0,P|303:230|327:148,1,112.500004291535,2|2,1:2|0:0,0:0:0:0:
382,109,58413,1,8,0:0:0:0:
197,26,58722,5,2,0:0:0:0:
197,26,58877,1,2,0:0:0:0:
234,87,59032,2,0,P|228:133|221:153,1,48.7499977684022,2|0,0:0|0:0,0:0:0:0:
166,185,59341,2,0,P|172:231|179:251,1,48.7499977684022,2|0,1:2|0:0,0:0:0:0:
280,367,59650,6,0,P|236:336|190:372,1,112.500004291535,10|0,0:0|0:0,0:0:0:0:
269,238,60269,1,2,1:2:0:0:
166,185,60887,5,8,0:0:0:0:
166,185,61197,2,0,P|140:210|125:260,1,67.4999979400635,2|0,0:0|0:0,0:0:0:0:
155,305,61815,1,2,1:2:0:0:
99,136,62124,2,0,P|71:126|41:128,1,52.4999983978272,10|2,0:0|0:0,0:0:0:0:
25,157,62743,6,0,B|68:136|104:160|90:166|119:185|143:176,1,112.500004291535,6|0,1:2|0:0,0:0:0:0:
162,96,63207,1,0,1:2:0:0:
162,96,63362,2,0,P|168:41|161:22,1,56.2500021457673,2|0,0:0|0:0,0:0:0:0:
243,0,63671,2,0,L|321:18,1,56.2500021457673,8|0,0:0|0:0,0:0:0:0:
404,78,63980,6,0,B|372:76|343:97|348:112,1,56.2500021457673,2|0,0:0|0:0,0:0:0:0:
362,169,64289,2,0,B|389:202|389:220|378:233,1,56.2500021457673,2|0,1:2|0:0,0:0:0:0:
310,226,64599,2,0,B|302:221|267:224|255:249,1,63.7500012159348,10|0,0:0|1:2,0:0:0:0:
214,312,64908,2,0,B|177:279|160:278|141:287,1,63.7500012159348,2|0,0:0|0:0,0:0:0:0:
166,375,65217,6,0,P|184:257|154:137,1,225,2|0,1:2|1:2,0:0:0:0:
13,133,65836,2,0,P|63:140|118:119,1,82.5000025177003,2|8,0:0|0:0,0:0:0:0:
201,59,66454,5,2,0:0:0:0:
201,59,66764,2,0,P|165:41|212:45,1,75,2|0,1:2|0:0,0:0:0:0:
282,0,67073,5,10,0:0:0:0:
360,124,67227,1,0,1:2:0:0:
407,61,67382,1,2,0:0:0:0:
312,197,67691,6,0,P|384:163|387:227,1,168.750006437302,2|0,1:2|1:2,0:0:0:0:
495,185,68310,6,0,P|442:169|427:159,1,56.2500021457673,2|0,0:0|0:0,0:0:0:0:
304,127,68619,2,0,P|352:125|377:117,1,56.2500021457673,10|0,0:0|0:0,0:0:0:0:
219,61,68929,2,0,B|235:164|216:62|231:164,1,97.4999955368044,2|0,0:0|1:2,0:0:0:0:
81,107,69547,6,0,P|106:91|136:87,1,56.2500021457673,10|0,0:0|1:2,0:0:0:0:
150,93,69856,1,2,0:0:0:0:
137,282,70166,6,0,B|117:304|89:293|89:293|110:286|120:277,1,75,0|0,1:2|0:0,0:0:0:0:
18,229,70475,2,0,B|22:245|19:266|19:266|26:246|46:235,1,75,2|0,0:0|1:2,0:0:0:0:
185,223,70784,2,0,P|211:254|213:294,1,82.5000025177003,2|0,0:0|0:0,0:0:0:0:
166,373,71093,2,0,B|179:368|204:368|204:368|180:363|167:347,1,82.5000025177003,8|0,0:0|0:0,0:0:0:0:
284,226,71403,1,2,0:0:0:0:
284,226,71712,6,0,L|265:172,1,41.2500012588501,2|0,1:2|0:0,0:0:0:0:
366,104,72021,1,10,0:0:0:0:
366,104,72176,2,0,P|364:199|395:270,1,150,0|0,1:2|0:0,0:0:0:0:
504,365,72640,6,0,P|480:343|474:384,1,82.5000025177003,6|0,1:2|0:0,0:0:0:0:
259,296,73104,1,0,1:2:0:0:
230,375,73258,2,0,P|320:352|404:341,1,165.000005035401,2|8,0:0|0:0,0:0:0:0:
391,342,73877,6,0,P|335:362|308:399,1,75,2|0,0:0|0:0,0:0:0:0:
259,296,74186,2,0,P|218:292|185:274,1,75,2|0,1:2|0:0,0:0:0:0:
101,340,74496,1,10,0:0:0:0:
101,340,74650,2,0,P|115:278|78:183,1,165.000005035401,0|0,1:2|0:0,0:0:0:0:
9,146,75114,1,2,1:2:0:0:
173,36,75733,2,0,P|153:9|104:40,1,82.5000025177003,2|8,0:0|0:0,0:0:0:0:
248,132,76351,6,0,P|302:141|351:131,1,75,2|0,0:0|0:0,0:0:0:0:
372,85,76660,1,2,1:2:0:0:
477,165,76970,5,10,0:0:0:0:
477,165,77124,2,0,B|441:160|441:160|405:190|436:234|469:235,1,112.500004291535,0|0,1:2|0:0,0:0:0:0:
473,362,77588,6,0,P|480:291|437:220,1,150,2|0,1:2|0:0,0:0:0:0:
387,272,78052,1,2,1:2:0:0:
325,324,78207,2,0,B|296:202|329:323|300:201,1,112.500004291535,2|10,0:0|0:0,0:0:0:0:
123,339,78825,6,0,B|218:318|161:271|239:250,1,150,2|0,0:0|1:2,0:0:0:0:
256,330,79289,1,2,0:0:0:0:
256,330,79444,1,10,0:0:0:0:
198,113,79753,6,0,L|188:71,2,37.5000014305115,2|0|0,0:0|0:0|0:0,0:0:0:0:
265,155,80063,2,0,B|218:133|142:140|127:199|48:221|1:178,1,269.999991760254,2|0,1:2|0:0,0:0:0:0:
8,184,81764,6,0,P|27:193|53:198,2,37.5,8|8|8,0:0|0:0|0:0,0:0:0:0:
98,119,82073,2,0,P|109:149|111:173,1,37.5,8|0,0:0|0:0,0:0:0:0:
25,272,82227,1,4,0:3:0:0:
91,291,82382,1,0,0:0:0:0:
117,370,82537,5,6,1:2:0:0:
117,370,82691,2,0,B|98:315|138:249|174:274|212:204|178:149,1,225.000008583069,0|2,1:2|0:0,0:0:0:0:
156,0,83155,2,0,L|167:61,1,56.2500021457673,8|2,0:0|0:0,0:0:0:0:
309,80,83465,6,0,L|277:83,2,20.6250006294251,0|0|2,0:0|0:0|0:0,0:0:0:0:
357,20,83774,5,2,1:2:0:0:
357,20,83929,2,0,B|322:69|340:134|378:137|394:195|349:253,1,225.000008583069,0|0,1:2|1:2,0:0:0:0:
304,354,84392,2,0,P|346:372|390:357,1,75,10|0,0:0|0:0,0:0:0:0:
438,250,84702,5,2,0:0:0:0:
414,174,84856,2,0,P|389:158|354:156,1,37.5,0|2,0:0|0:0,0:0:0:0:
229,171,85011,5,6,1:2:0:0:
229,171,85166,1,0,1:2:0:0:
278,220,85320,6,0,B|235:199|190:231,1,89.9999972534181,2|0,0:0|0:0,0:0:0:0:
82,301,85630,2,0,B|40:284|37:236,1,82.5000025177003,10|0,0:0|0:0,0:0:0:0:
148,165,85939,2,0,B|108:191|115:246,1,75,2|0,0:0|1:2,0:0:0:0:
136,359,86248,6,0,P|87:381|34:365,1,110.000003356934,6|2,1:2|0:0,0:0:0:0:
82,301,86660,5,2,0:0:0:0:
37,237,86867,5,10,0:0:0:0:
51,197,87073,5,0,0:0:0:0:
39,179,87279,5,2,0:0:0:0:
34,12,87485,5,6,1:2:0:0:
34,12,87640,2,0,B|13:49|39:118|114:95|138:169|123:212,1,225.000008583069,0|2,1:2|0:0,0:0:0:0:
89,355,88104,2,0,P|80:308|91:277,1,56.2500021457673,8|2,0:0|0:0,0:0:0:0:
263,36,88568,5,2,0:0:0:0:
328,120,88722,5,2,1:2:0:0:
328,120,88877,1,2,1:2:0:0:
328,120,89032,2,0,B|310:94|335:83|340:65|340:65|355:77,1,75,2|0,0:0|0:0,0:0:0:0:
501,2,89341,2,0,B|387:9,1,112.500004291535,10|2,0:0|0:0,0:0:0:0:
388,8,89805,1,0,0:0:0:0:
484,132,89959,6,0,P|473:103|486:130,1,93.75,6|0,1:2|0:0,0:0:0:0:
436,232,90269,2,0,P|440:210|439:230,1,75,2|0,0:0|1:2,0:0:0:0:
348,311,90578,2,0,P|355:294|352:310,1,56.2500021457673,10|0,0:0|0:0,0:0:0:0:
459,307,90887,5,2,0:0:0:0:
459,307,91042,1,2,0:0:0:0:
496,376,91197,2,0,B|460:391|430:380|430:380|404:369|378:380|378:380|351:395|305:376,1,194.999991073609,6|8,1:2|0:0,0:0:0:0:
121,317,91660,5,2,1:2:0:0:
160,379,91815,2,0,B|141:314|159:273|196:257,2,112.500004291535,2|8|4,0:0|0:3|0:3,0:0:0:0:
2,281,92279,6,0,L|20:313,1,28.1250010728836,2|0,0:0|0:0,0:0:0:0:
43,381,92434,5,6,1:2:0:0:
43,381,92588,2,0,B|15:327|35:264|85:286|111:222|85:163,1,225.000008583069,0|2,1:2|0:0,0:0:0:0:
33,0,93052,2,0,P|29:22|10:3,1,56.2500021457673,8|2,0:0|0:0,0:0:0:0:
240,31,93516,6,0,L|237:58,1,20.6250006294251,2|0,0:0|0:0,0:0:0:0:
181,97,93671,5,2,1:2:0:0:
181,97,93825,2,0,B|224:71|283:93|307:135|361:154|402:125,1,225.000008583069,0|0,1:2|1:2,0:0:0:0:
512,22,94289,2,0,P|464:37|455:67,1,56.2500021457673,10|0,0:0|0:0,0:0:0:0:
393,130,94599,1,2,0:0:0:0:
442,194,94753,1,2,0:0:0:0:
354,343,94908,6,0,P|389:304|421:317,1,93.75,6|0,1:2|0:0,0:0:0:0:
435,347,95217,1,2,0:0:0:0:
373,260,95372,1,2,1:2:0:0:
220,354,95526,5,10,0:0:0:0:
182,226,95681,1,2,0:0:0:0:
285,242,95836,1,2,0:0:0:0:
246,328,95990,1,2,1:2:0:0:
45,301,96145,6,0,B|94:262|150:252|188:262,1,150,2|0,1:2|0:0,0:0:0:0:
204,115,96609,2,0,L|199:79,1,28.1250010728836,2|0,1:2|0:0,0:0:0:0:
253,164,96764,2,0,B|182:135|110:128|79:153,1,165.000005035401,10|0,0:0|0:0,0:0:0:0:
2,179,97382,5,10,1:2:0:0:
94,46,97691,5,10,0:3:0:0:
204,115,98001,5,6,0:3:0:0:
299,0,98310,5,14,1:2:0:0:
408,279,98929,5,2,1:2:0:0:
480,213,99238,2,0,B|395:198|295:207,1,168.750006437302,14|0,1:2|0:0,0:0:0:0:
284,237,99856,6,0,P|216:242|179:237,1,75,6|2,1:2|0:0,0:0:0:0:
73,154,100320,5,2,0:0:0:0:
34,222,100475,2,0,L|41:265,1,37.5,2|2,0:0|0:0,0:0:0:0:
106,369,100887,5,2,0:0:0:0:
102,354,101093,6,0,P|152:355|203:350,1,100,6|0,1:2|0:0,0:0:0:0:
256,307,101441,2,0,P|290:295|361:327,1,112.500004291535,2|2,0:0|0:0,0:0:0:0:
486,306,102021,2,0,P|453:315|433:338,1,56.2500021457673,2|0,0:0|0:0,0:0:0:0:
496,376,102331,6,0,B|470:329|480:273|517:285|522:242|492:190,1,187.5,6|2,1:2|0:0,0:0:0:0:
411,6,102949,2,0,B|431:38|438:75|423:97|423:97|426:69|456:49|503:37,1,187.5,6|0,1:2|0:0,0:0:0:0:
504,122,103413,1,2,0:0:0:0:
330,68,103568,5,10,0:0:0:0:
364,186,103722,1,0,1:2:0:0:
237,8,103877,5,10,0:0:0:0:
193,149,104032,1,0,1:2:0:0:
64,35,104186,6,0,P|86:45|124:50,3,46.875,10|8|2|8,0:0|0:0|1:2|0:3,0:0:0:0:
121,73,104496,2,0,P|145:69|173:57,3,46.875,2|0|10|8,1:2|1:2|0:0|0:3,0:0:0:0:
193,75,104805,5,6,1:2:0:0:
238,183,104959,1,0,1:2:0:0:
134,221,105114,1,8,0:0:0:0:
134,221,105269,2,0,P|59:209|0:160,1,150,2|2,0:0|1:2,0:0:0:0:
32,241,105733,1,8,0:0:0:0:
18,318,105887,1,0,0:0:0:0:
146,330,106042,6,0,P|218:307|293:326,1,150,2|8,1:2|0:0,0:0:0:0:
370,322,106506,1,2,0:0:0:0:
370,322,106815,5,2,1:2:0:0:
453,355,106970,1,8,0:0:0:0:
490,271,107124,1,0,0:0:0:0:
387,199,107279,6,0,L|307:191,2,75,2|0|8,1:2|1:2|0:0,0:0:0:0:
464,159,107743,2,0,P|483:70|451:24,1,150,2|2,0:0|1:2,0:0:0:0:
380,55,108207,1,8,0:0:0:0:
303,21,108362,1,0,0:0:0:0:
202,74,108516,6,0,L|194:154,2,75,2|0|8,1:2|1:2|0:0,0:0:0:0:
117,70,108980,2,0,P|88:156|120:205,1,150,2|2,0:0|1:2,0:0:0:0:
255,213,109444,1,8,0:0:0:0:
255,213,109599,1,0,0:0:0:0:
400,222,109753,5,2,1:2:0:0:
400,222,110063,1,8,0:0:0:0:
432,126,110217,1,2,0:0:0:0:
432,126,110526,5,2,1:2:0:0:
347,99,110681,1,8,0:0:0:0:
280,152,110836,1,0,0:0:0:0:
176,120,110990,5,2,1:2:0:0:
176,120,111300,1,8,0:0:0:0:
192,224,111454,1,2,0:0:0:0:
192,224,111764,5,2,1:2:0:0:
272,232,111918,1,8,0:0:0:0:
280,152,112073,1,0,0:0:0:0:
200,144,112227,5,2,1:2:0:0:
200,144,112382,1,0,1:2:0:0:
137,186,112536,1,8,0:0:0:0:
62,179,112691,1,2,0:0:0:0:
14,122,112845,1,0,0:0:0:0:
14,122,113001,1,2,1:2:0:0:
47,188,113155,1,12,0:0:0:0:
46,263,113310,1,0,1:2:0:0:
11,332,113465,6,0,L|18:378,2,37.5,8|8|4,1:2|0:0|0:3,0:0:0:0:
67,269,113774,1,8,0:0:0:0:
149,251,113929,1,8,1:2:0:0:
228,277,114083,1,0,1:2:0:0:
147,228,114238,1,2,0:0:0:0:
118,138,114392,1,10,0:0:0:0:
145,48,114547,1,10,0:0:0:0:
235,21,114702,6,0,P|282:32|335:30,1,93.75,6|2,1:2|1:2,0:0:0:0:
393,83,115011,1,10,0:0:0:0:
498,46,115166,2,0,B|518:114|499:190|453:222,2,187.5,2|2|2,0:0|1:2|0:0,0:0:0:0:
404,96,115939,2,0,B|394:153|311:210|229:190,1,187.5,2|10,1:2|0:0,0:0:0:0:
190,149,116403,2,0,B|216:121|243:110|283:117,1,93.75,2|0,0:0|0:0,0:0:0:0:
190,149,116712,5,2,1:2:0:0:
168,292,116867,1,8,0:0:0:0:
112,215,117021,1,2,0:0:0:0:
255,283,117176,2,0,B|306:267|389:324|399:381,1,187.5,2|8,1:2|0:0,0:0:0:0:
429,260,117640,1,2,0:0:0:0:
429,260,117794,2,0,P|437:229|403:258,1,93.75,2|2,0:0|1:2,0:0:0:0:
493,164,118104,1,10,0:0:0:0:
387,125,118258,1,2,0:0:0:0:
254,169,118413,6,0,B|184:188|120:161|104:84,1,187.5,2|10,1:2|0:0,0:0:0:0:
230,56,118877,2,0,P|219:95|191:67,1,93.75,2|0,0:0|0:0,0:0:0:0:
108,172,119186,2,0,P|63:160|14:167,2,93.75,2|10|0,1:2|0:0|0:0,0:0:0:0:
59,270,119650,5,2,1:2:0:0:
59,270,119805,2,0,B|120:241|192:273|216:330,1,187.5,0|2,1:2|0:0,0:0:0:0:
357,384,120269,2,0,P|378:340|368:280,1,93.75,2|0,0:0|1:2,0:0:0:0:
298,326,120578,1,10,0:0:0:0:
462,318,120733,2,0,P|451:264|409:224,1,93.75,2|0,0:0|1:2,0:0:0:0:
512,167,121042,2,0,P|471:136|406:130,1,93.75,2|8,1:2|0:0,0:0:0:0:
369,38,121351,6,0,P|308:99|200:98,1,187.5,2|2,0:0|1:2,0:0:0:0:
71,92,121815,1,8,0:0:0:0:
71,92,121970,1,2,0:0:0:0:
19,36,122124,5,2,1:2:0:0:
84,161,122279,1,2,1:2:0:0:
107,31,122434,1,10,0:0:0:0:
3,122,122588,1,2,0:0:0:0:
146,105,122743,2,0,P|242:115|317:178,1,187.5,2|10,0:0|0:0,0:0:0:0:
356,94,123207,2,0,P|309:88|263:102,1,93.75,2|0,0:0|1:2,0:0:0:0:
246,227,123516,5,2,0:0:0:0:
340,255,123671,1,8,0:0:0:0:
246,227,123825,1,2,0:0:0:0:
450,240,124135,5,2,1:2:0:0:
417,349,124289,1,10,0:0:0:0:
330,271,124444,1,2,0:0:0:0:
293,376,124599,6,0,P|247:356|200:348,1,93.75,6|2,1:2|0:0,0:0:0:0:
80,326,124908,1,10,0:0:0:0:
87,315,125063,2,0,P|65:260|32:335,2,187.5,2|2|2,0:0|1:2|0:0,0:0:0:0:
47,171,125836,6,0,P|97:161|140:140,1,93.75,2|0,1:2|1:2,0:0:0:0:
226,35,126145,1,10,0:0:0:0:
215,42,126300,2,0,P|126:39|22:-9,1,187.5,2|2,0:0|1:2,0:0:0:0:
34,165,126764,1,10,0:0:0:0:
101,51,126918,1,2,0:0:0:0:
209,128,127073,6,0,P|275:172|254:98,1,187.5,2|8,1:2|0:0,0:0:0:0:
249,141,127537,1,2,0:0:0:0:
268,235,127691,1,2,0:0:0:0:
361,186,127846,1,2,1:2:0:0:
341,77,128001,1,10,0:0:0:0:
466,65,128155,1,2,0:0:0:0:
487,202,128310,6,0,P|470:251|461:297,1,93.75,2|0,1:2|1:2,0:0:0:0:
362,371,128619,1,10,0:0:0:0:
365,359,128774,2,0,P|322:277|233:226,1,187.5,0|2,0:0|1:2,0:0:0:0:
388,283,129238,1,10,0:0:0:0:
388,283,129392,1,2,0:0:0:0:
243,311,129547,6,0,P|330:277|371:181,1,187.5,6|8,1:2|0:0,0:0:0:0:
351,97,130011,1,2,0:0:0:0:
191,155,130166,2,0,P|232:134|278:142,1,93.75,2|0,0:0|1:2,0:0:0:0:
283,151,130398,1,2,0:0:0:0:
288,159,130475,2,0,P|264:111|269:67,1,93.75,10|2,0:0|0:0,0:0:0:0:
263,63,130707,1,2,0:0:0:0:
258,54,130784,6,0,B|220:114|145:131|78:82,1,187.5,2|10,1:2|0:0,0:0:0:0:
31,27,131248,1,2,0:0:0:0:
4,188,131403,2,0,P|45:191|37:151,1,93.75,2|0,0:0|1:2,0:0:0:0:
1,194,131712,2,0,P|13:239|19:297,1,93.75,10|0,0:0|0:0,0:0:0:0:
84,356,132021,5,2,1:2:0:0:
112,257,132176,1,2,0:0:0:0:
193,322,132331,1,10,0:0:0:0:
112,257,132485,1,4,0:3:0:0:
226,238,132640,6,0,B|318:292|414:251,1,187.5,2|10,0:0|0:0,0:0:0:0:
405,255,133104,1,4,0:3:0:0:
347,343,133258,5,2,1:2:0:0:
328,249,133413,1,0,0:0:0:0:
389,173,133568,1,8,0:0:0:0:
484,174,133722,1,0,0:0:0:0:
512,84,133877,6,0,L|499:43,16,23.4375,2|0|0|0|0|0|0|0|8|0|0|0|0|0|0|0|0,3:0|3:0|3:0|3:0|1:2|3:0|3:0|3:0|0:0|3:0|3:0|3:0|3:0|3:0|3:0|3:0|3:0,0:0:0:0:
77,0,136970,5,6,1:2:0:0:
77,0,137124,2,0,B|165:-4|176:89|317:58,1,225.000008583069,0|2,1:2|0:0,0:0:0:0:
475,25,137588,2,0,L|414:36,1,56.2500021457673,8|2,0:0|0:0,0:0:0:0:
287,62,137898,2,0,P|295:87|301:112,1,41.2500012588501,0|2,0:0|0:0,0:0:0:0:
387,132,138207,5,2,1:2:0:0:
387,132,138362,2,0,B|300:103|267:204|156:146,1,225.000008583069,0|0,1:2|1:2,0:0:0:0:
23,234,138825,2,0,P|7:190|13:145,1,75,10|0,0:0|0:0,0:0:0:0:
122,92,139134,5,2,0:0:0:0:
170,152,139289,2,0,P|175:177|175:200,1,37.5,0|2,0:0|0:0,0:0:0:0:
255,230,139444,5,6,1:2:0:0:
255,230,139599,1,0,1:2:0:0:
291,71,139753,6,0,B|270:114|302:159,1,89.9999972534181,2|0,0:0|1:2,0:0:0:0:
357,245,140063,2,0,B|399:228|402:180,1,82.5000025177003,10|0,0:0|0:0,0:0:0:0:
477,113,140372,2,0,B|451:73|396:80,1,75,2|0,0:0|1:2,0:0:0:0:
210,89,140681,6,0,P|155:84|102:70,1,110.000003356934,6|2,1:2|0:0,0:0:0:0:
0,127,141093,5,2,0:0:0:0:
124,156,141300,5,10,0:0:0:0:
13,244,141506,5,0,0:0:0:0:
95,236,141712,5,2,0:0:0:0:
1,342,141918,5,6,1:2:0:0:
1,342,142073,2,0,B|63:374|132:288|218:323,1,225.000008583069,0|2,1:2|0:0,0:0:0:0:
399,384,142537,2,0,L|338:380,1,56.2500021457673,8|2,0:0|0:0,0:0:0:0:
219,212,143001,5,2,0:0:0:0:
337,110,143155,5,2,1:2:0:0:
310,192,143310,1,2,1:2:0:0:
394,177,143465,2,0,P|435:180|470:155,1,75,2|0,0:0|1:2,0:0:0:0:
298,175,143774,2,0,P|259:136|199:134,1,112.500004291535,10|2,0:0|0:0,0:0:0:0:
205,133,144238,1,0,0:0:0:0:
122,288,144392,6,0,P|167:306|233:297,1,93.75,6|0,1:2|1:2,0:0:0:0:
58,330,144701,2,0,P|26:354|6:391,1,75,2|0,0:0|0:0,0:0:0:0:
54,252,145011,2,0,P|49:221|33:194,1,56.2500021457673,10|0,0:0|0:0,0:0:0:0:
47,46,145320,5,2,0:0:0:0:
47,46,145475,1,2,0:0:0:0:
0,126,145630,2,0,B|38:203|138:120|178:239,1,194.999991073609,6|8,1:2|0:0,0:0:0:0:
351,205,146093,5,2,1:2:0:0:
354,280,146248,2,0,B|371:245|429:238|443:196,2,112.500004291535,2|8|4,0:0|0:3|0:3,0:0:0:0:
217,149,146712,6,0,L|249:131,1,28.1250010728836,2|0,0:0|0:0,0:0:0:0:
288,70,146867,5,6,1:2:0:0:
288,70,147021,2,0,B|323:138|225:232|246:288,1,225.000008583069,0|2,1:2|0:0,0:0:0:0:
397,376,147485,2,0,L|456:361,1,56.2500021457673,8|2,0:0|0:0,0:0:0:0:
512,196,147949,6,0,L|485:199,1,20.6250006294251,2|0,0:0|0:0,0:0:0:0:
410,169,148104,5,2,1:2:0:0:
410,169,148258,2,0,B|367:195|308:173|284:131|217:108|172:145,1,225.000008583069,0|0,1:2|1:2,0:0:0:0:
16,191,148722,2,0,L|1:118,1,56.2500021457673,10|0,0:0|0:0,0:0:0:0:
144,232,149032,1,2,0:0:0:0:
29,186,149186,1,2,0:0:0:0:
109,104,149341,6,0,P|158:111|202:111,1,93.75,6|0,1:2|0:0,0:0:0:0:
308,69,149650,1,2,0:0:0:0:
308,69,149805,1,2,1:2:0:0:
328,201,149959,5,10,0:0:0:0:
334,82,150114,1,2,0:0:0:0:
336,324,150269,5,2,0:0:0:0:
300,209,150423,1,2,1:2:0:0:
315,345,150578,6,0,B|369:347|415:348|470:355,1,150,2|0,1:2|0:0,0:0:0:0:
470,208,151042,2,0,L|434:213,1,28.1250010728836,2|0,1:2|0:0,0:0:0:0:
386,253,151197,2,0,B|327:266|273:269|207:271,1,165.000005035401,10|0,0:0|0:0,0:0:0:0:
43,370,151815,5,10,1:2:0:0:
197,234,152124,5,10,0:3:0:0:
349,181,152434,5,6,0:3:0:0:
242,145,152743,5,14,1:2:0:0:
138,9,153362,5,2,1:2:0:0:
175,81,153671,2,0,B|266:108|339:34,1,168.750006437302,14|0,1:2|0:0,0:0:0:0:
329,130,154289,6,0,P|286:126|237:139,1,75,6|0,1:2|0:0,0:0:0:0:
246,323,154753,5,2,0:0:0:0:
249,344,154908,5,2,0:0:0:0:
284,309,155063,5,2,0:0:0:0:
272,256,155217,5,2,0:0:0:0:
209,241,155372,5,2,0:0:0:0:
169,308,155526,6,0,B|142:276|79:259|16:282,1,150,6|2,1:2|0:0,0:0:0:0:
216,162,156145,5,2,0:0:0:0:
372,191,156454,2,0,P|397:180|427:174,1,56.2500021457673,2|0,0:0|0:0,0:0:0:0:
477,117,156764,6,0,B|409:152|333:106|334:30,1,187.5,6|10,1:2|0:3,0:0:0:0:
109,59,157382,1,6,1:2:0:0:
0,153,157532,1,10,0:3:0:0:
136,206,157682,1,0,0:0:0:0:
136,206,157832,1,2,1:2:0:0:
81,145,157982,5,10,0:0:0:0:
81,145,158282,1,10,0:3:0:0:
2,272,158450,1,8,1:3:0:0:
100,384,158619,6,0,P|160:377|142:259,1,187.5,14|2,0:3|1:2,0:0:0:0:
150,279,159031,2,0,P|156:313|157:352,1,62.5,8|8,0:3|0:3,0:0:0:0:
234,275,159238,6,0,B|310:318|392:261|389:174,1,225,6|0,1:2|1:2,0:0:0:0:
341,249,159856,1,10,0:0:0:0:
435,256,160011,1,2,0:0:0:0:
480,193,160166,1,2,0:0:0:0:
472,139,160320,1,10,0:0:0:0:
435,99,160475,5,2,1:2:0:0:
390,129,160630,1,10,0:0:0:0:
346,98,160784,1,2,1:2:0:0:
298,153,160939,5,2,0:0:0:0:
232,112,161093,1,10,0:0:0:0:
199,191,161248,1,2,1:2:0:0:
118,107,161403,5,2,0:0:0:0:
5,149,161557,1,8,0:0:0:0:
0,51,161712,2,0,B|97:44|115:220|250:202,1,281.250010728836,2|2,1:2|0:0,0:0:0:0:
223,203,162640,1,2,0:0:0:0:
274,264,162794,2,0,P|304:243|338:227,1,75,10|2,0:0|1:2,0:0:0:0:
445,226,163104,6,0,P|485:177|462:86,1,150,2|0,0:0|0:0,0:0:0:0:
375,119,163568,2,0,P|381:156|406:134,1,75,10|0,0:0|1:2,0:0:0:0:
383,288,163877,2,0,P|353:256|362:306,1,112.500004291535,14|0,0:0|0:0,0:0:0:0:
245,282,164186,6,0,P|249:322|265:361,1,75,2|0,1:2|0:0,0:0:0:0:
263,355,164496,2,0,B|276:258|190:215|106:243,1,225.000008583069,2|0,0:0|0:0,0:0:0:0:
39,227,165269,5,10,0:0:0:0:
0,130,165423,1,2,1:2:0:0:
26,237,165578,1,10,0:0:0:0:
21,126,165733,2,0,P|105:164|247:131,1,225.000008583069,6|10,1:2|0:0,0:0:0:0:
327,33,166197,5,2,1:2:0:0:
310,135,166351,1,2,0:0:0:0:
229,61,166506,1,10,0:0:0:0:
115,88,166660,6,0,P|132:160|158:120,1,168.750006437302,6|0,1:2|1:2,0:0:0:0:
126,123,167279,2,0,B|159:179|114:216|153:278,1,150,4|0,0:0|1:2,0:0:0:0:
147,268,167743,1,10,0:0:0:0:
174,348,167898,5,6,1:2:0:0:
241,296,168052,1,10,0:0:0:0:
276,222,168207,1,6,0:3:0:0:
362,305,168362,5,2,0:0:0:0:
303,236,168516,1,2,1:2:0:0:
289,145,168671,1,10,0:3:0:0:
206,190,168825,5,6,0:3:0:0:
276,115,168980,1,6,0:3:0:0:
266,20,169135,6,0,B|181:105|103:-9|36:39,2,225.000008583069,6|10|2,1:2|0:0|1:2,0:0:0:0:
266,20,170681,1,6,1:2:0:0:
470,92,170990,1,10,0:0:0:0:
315,236,171300,1,2,1:2:0:0:
320,222,171454,1,8,0:0:0:0:
330,232,171609,2,0,P|276:223|195:233,1,112.500004291535,2|0,1:2|0:0,0:0:0:0:
145,259,172073,5,0,1:2:0:0:
4,173,172227,2,0,P|107:183|166:76,1,225,10|8,0:0|0:0,0:0:0:0:
117,29,172846,5,2,1:2:0:0:
65,93,173001,1,8,0:0:0:0:
65,93,173155,1,6,1:2:0:0:
260,144,173465,5,10,0:0:0:0:
315,76,173619,1,0,1:2:0:0:
384,132,173774,1,2,0:0:0:0:
511,39,174083,6,0,P|504:148|498:280,1,225,2|0,1:2|1:2,0:0:0:0:
447,337,174702,1,10,0:0:0:0:
414,233,174856,1,0,0:0:0:0:
414,233,175011,1,2,1:2:0:0:
340,291,175166,5,8,0:0:0:0:
295,223,175320,2,0,P|181:264|93:201,1,225,2|0,1:2|0:0,0:0:0:0:
8,155,175939,5,10,0:0:0:0:
3,271,176093,1,0,1:2:0:0:
3,271,176248,1,2,0:0:0:0:
237,328,176557,6,0,B|245:280|281:240|281:240|322:192|326:110,3,225.000008583069,2|2|10|2,1:2|0:0|0:0|0:0,0:0:0:0:
126,65,177794,1,2,1:2:0:0:
180,137,177949,1,8,0:0:0:0:
259,91,178104,1,6,1:2:0:0:
259,91,178413,5,2,1:2:0:0:
360,57,178568,1,8,0:3:0:0:
381,168,178722,1,4,0:3:0:0:
465,157,178877,1,4,0:3:0:0:
501,226,179032,6,0,B|411:292|338:192|270:272,2,225.000008583069,6|10|2,1:2|0:0|1:2,0:0:0:0:
430,265,180423,1,8,0:0:0:0:
419,343,180578,1,2,1:2:0:0:
419,343,180887,5,10,0:0:0:0:
337,322,181042,1,0,1:2:0:0:
350,233,181197,1,2,0:0:0:0:
432,250,181351,1,0,0:0:0:0:
324,340,181506,2,0,P|269:326|210:326,1,112.500004291535,2|0,1:2|0:0,0:0:0:0:
134,345,181970,5,0,1:2:0:0:
79,195,182124,2,0,P|188:216|287:167,1,225,10|0,0:0|1:2,0:0:0:0:
303,75,182743,1,2,0:0:0:0:
217,124,182898,1,8,0:0:0:0:
167,44,183052,1,6,1:2:0:0:
95,100,183207,5,0,0:0:0:0:
117,176,183362,1,10,0:0:0:0:
62,236,183516,1,0,1:2:0:0:
42,166,183671,1,2,0:0:0:0:
42,166,183980,6,0,B|101:151|199:190|238:259,1,225,6|2,1:2|1:2,0:0:0:0:
332,332,184599,2,0,L|355:233,1,75,10|0,0:0|0:0,0:0:0:0:
388,160,184908,1,2,0:0:0:0:
284,196,185063,1,10,0:0:0:0:
301,117,185217,6,0,P|317:201|330:279,1,150,2|0,1:2|1:2,0:0:0:0:
201,315,185681,1,2,0:0:0:0:
134,261,185836,5,10,0:0:0:0:
162,143,185990,1,8,0:3:0:0:
194,2,186145,1,6,0:3:0:0:
194,2,186454,6,0,B|146:17|140:69|66:64|66:64|148:158|217:46|316:104|340:199|269:283|190:282|142:253|136:205|156:170|189:175,1,618.75002360344,6|8,1:2|0:0,0:0:0:0:
197,184,188233,1,8,0:0:0:0:
202,193,188310,1,8,0:0:0:0:
281,250,188500,5,8,0:3:0:0:
274,277,188629,5,8,0:3:0:0:
213,356,188938,6,0,P|142:342|71:392,1,150,0|0,1:2|0:0,0:0:0:0:
11,279,189447,5,0,1:2:0:0:
24,265,189557,2,0,P|122:264|174:217,1,150,8|0,0:0|0:0,0:0:0:0:
211,171,190175,6,0,P|261:162|323:194,1,112.500004291535,0|0,1:2|0:0,0:0:0:0:
413,93,190661,5,0,1:2:0:0:
400,80,190799,2,0,P|302:79|259:38,1,150,8|8,0:0|0:0,0:0:0:0:
415,170,191440,5,0,1:2:0:0:
448,249,191578,2,0,L|443:296,2,37.5,8|8|8,0:0|1:2|1:2,0:0:0:0:
465,236,191826,1,8,1:2:0:0:
347,266,192006,5,8,1:2:0:0:
305,211,192168,1,8,0:3:0:0:
242,238,192330,1,4,0:3:0:0:
125,125,192625,6,0,L|131:156,1,18.75,8|0,0:0|0:0,0:0:0:0:
85,233,192844,1,8,0:0:0:0:
65,240,192947,1,8,0:0:0:0:
52,226,193050,1,8,0:0:0:0:
137,116,193256,5,4,0:0:0:0:
211,0,193868,5,6,1:2:0:0:
211,0,194022,2,0,B|250:49|252:130|188:136|192:226|245:259,1,262.500002503395,0|2,1:2|1:2,0:0:0:0:
380,366,194500,2,0,B|342:341|284:351|262:373,1,93.75,8|2,0:0|0:0,0:0:0:0:
30,296,194808,6,0,P|38:325|50:351,1,56.2500021457673
98,267,194963,2,0,L|112:329,1,46.875,2|0,0:0|0:0,0:0:0:0:
124,384,195117,5,2,1:2:0:0:
124,384,195271,2,0,B|59:340|76:243|135:243|150:164|106:120,1,262.500002503395,0|0,1:2|1:2,0:0:0:0:
32,21,195735,2,0,B|20:14|9:16|9:16|41:3|69:16|85:37,1,93.75,10|0,0:0|0:0,0:0:0:0:
227,101,196044,5,2,0:0:0:0:
279,50,196199,2,0,P|278:31|273:13,1,28.1250010728836,0|2,0:0|0:0,0:0:0:0:
367,122,196354,5,6,1:2:0:0:
367,122,196508,1,0,1:2:0:0:
512,50,196663,2,0,B|465:60|433:42|435:37|398:11|345:42|345:42|383:34|412:58,2,225.000008583069,2|10|2,0:0|0:0|0:0,0:0:0:0:
511,146,197436,2,0,L|504:198,1,28.1250010728836
493,305,197581,5,6,1:2:0:0:
377,222,197783,5,2,1:2:0:0:
300,309,197985,5,2,0:0:0:0:
195,338,198187,5,10,0:0:0:0:
147,235,198393,5,2,1:2:0:0:
229,260,198599,5,2,0:0:0:0:
64,373,198828,5,4,1:2:0:0:
64,373,198982,2,0,B|91:305|85:255|40:237,1,131.250001251698,0|2,1:2|0:0,0:0:0:0:
24,50,199291,1,2,1:2:0:0:
0,146,199446,2,0,B|47:102|111:99|131:124,1,93.75,8|2,0:0|0:0,0:0:0:0:
333,118,199755,6,0,P|299:125|265:128,1,56.2500021457673,2|0,0:0|0:0,0:0:0:0:
289,203,199910,2,0,L|231:183,1,56.2500021457673,10|0,0:0|0:0,0:0:0:0:
166,0,200065,5,2,1:2:0:0:
223,38,200219,1,2,1:2:0:0:
189,66,200374,2,0,B|187:138|238:100|235:200,1,131.250001251698,2|0,0:0|1:2,0:0:0:0:
163,375,200683,5,10,0:0:0:0:
217,304,200838,5,2,0:0:0:0:
293,290,200992,5,2,0:0:0:0:
359,316,201147,5,10,0:0:0:0:
502,377,201302,6,0,P|510:324|500:279,1,93.75,6|0,1:2|0:0,0:0:0:0:
431,302,201611,2,0,P|435:338|426:373,1,56.2500021457673,2|0,0:0|1:2,0:0:0:0:
293,290,201920,5,12,0:0:0:0:
347,232,202075,5,0,0:0:0:0:
412,209,202230,5,2,0:0:0:0:
375,194,202384,5,2,0:0:0:0:
198,163,202539,5,6,1:2:0:0:
254,210,202693,2,0,B|234:172|241:133|264:99,1,93.75,0|10,0:0|0:0,0:0:0:0:
168,29,203003,5,2,1:2:0:0:
139,114,203157,2,0,B|140:50|117:18|97:9,2,112.500004291535,2|8|4,1:2|0:3|0:3,0:3:0:0:
101,320,203621,6,0,P|83:295|61:282,1,37.5,2|0,0:0|0:0,0:0:0:0:
26,372,203776,5,6,1:2:0:0:
26,372,203931,2,0,B|46:309|102:278|167:299|213:271|234:211,1,262.500002503395,0|2,1:2|1:2,0:0:0:0:
253,0,204395,2,0,B|260:41|286:69|329:74,1,93.75,8|2,0:0|0:0,0:0:0:0:
504,146,204704,6,0,P|470:155|430:157,1,56.2500021457673,2|0,0:0|0:0,0:0:0:0:
494,227,204858,2,0,L|429:224,1,46.875,2|0,0:0|0:0,0:0:0:0:
188,128,205013,5,6,1:2:0:0:
188,128,205168,2,0,B|262:108|315:159|318:228|397:249|448:224,1,295.312502816319,0|0,0:0|1:2,0:0:0:0:
512,303,205632,2,0,B|474:299|444:312|431:349,1,93.75,8|0,0:0|0:0,0:0:0:0:
347,383,205941,2,0,P|352:345|338:309,1,75,2|0,0:0|0:0,0:0:0:0:
113,263,206250,5,6,1:2:0:0:
204,289,206405,1,2,1:2:0:0:
175,224,206559,2,0,P|157:302|161:356,1,112.500004291535,2|0,0:0|0:0,0:0:0:0:
244,368,206791,5,0,1:2:0:0:
273,351,206869,2,0,P|274:234|260:69,1,281.25,10|2,0:0|0:0,0:0:0:0:
191,29,207410,5,0,0:0:0:0:
183,55,207487,2,0,P|184:122|170:247,1,168.750006437302,2|2,1:2|0:0,0:0:0:0:
89,192,208029,5,0,1:2:0:0:
100,181,208106,2,0,P|98:121|91:62,2,100,8|0|0,0:0|0:0|0:0,0:0:0:0:
45,341,208724,5,6,1:2:0:0:
204,289,209033,5,10,0:3:0:0:
100,181,209342,5,6,0:3:0:0:
243,34,209651,5,8,1:2:0:0:
400,181,210270,5,2,1:2:0:0:
453,133,210579,2,0,P|394:141|323:139,1,100,14|0,1:2|0:0,0:0:0:0:
272,96,211198,6,0,P|279:137|280:176,1,75,6|2,1:2|0:0,0:0:0:0:
210,315,211662,5,2,0:0:0:0:
138,285,211816,2,0,P|134:245|136:208,1,75.000002861023,2|2,0:0|0:0,0:0:0:0:
32,87,212280,5,2,0:0:0:0:
13,163,212435,6,0,L|51:158,15,37.5,6|0|0|0|0|0|0|0|0|0|0|0|2|0|2|0,1:2|0:0|0:0|0:0|0:0|0:0|0:0|0:0|0:0|0:0|0:0|0:0|0:0|0:0|0:0|0:0,0:0:0:0:
118,188,213672,2,0,L|165:196,7,46.875,6|0|2|0|0|0|2|0,1:2|0:0|0:0|0:0|0:0|0:0|0:0|0:0,0:0:0:0:
213,140,214291,2,0,L|270:127,7,56.2500021457673,6|0|2|0|0|0|2|0,1:2|0:0|0:0|0:0|0:0|0:0|0:0|0:0,0:0:0:0:
326,78,214909,5,10,0:0:0:0:
359,237,215064,1,0,1:2:0:0:
233,279,215218,2,0,L|237:223,3,56.2500021457673,10|0|0|0,0:0|0:0|1:2|0:0,0:0:0:0:
164,195,215528,5,10,0:0:0:0:
153,213,215605,1,8,0:0:0:0:
151,240,215682,1,2,1:2:0:0:
34,321,215837,5,2,1:2:0:0:
78,303,215914,1,0,1:2:0:0:
128,310,215992,1,10,0:0:0:0:
169,349,216069,1,8,0:3:0:0:
220,363,216146,6,0,P|264:370|321:374,1,93.75,6|2,1:2|1:2,0:0:0:0:
386,384,216455,1,10,0:0:0:0:
422,274,216609,2,0,P|369:269|327:268,1,93.75,2|0,0:0|0:0,0:0:0:0:
238,223,216919,1,2,1:2:0:0:
151,240,217073,1,8,0:0:0:0:
138,152,217228,1,0,0:0:0:0:
230,139,217383,6,0,P|236:98|241:41,2,93.75,2|2|10,1:2|1:2|0:0,0:0:0:0:
357,119,217847,2,0,P|352:162|347:216,1,93.75,2|0,0:0|0:0,0:0:0:0:
477,170,218156,1,2,1:2:0:0:
477,170,218310,2,0,P|483:131|489:75,1,93.75,8|0,0:0|0:0,0:0:0:0:
420,244,218620,5,2,1:2:0:0:
334,216,218774,1,2,1:2:0:0:
290,300,218929,1,10,0:0:0:0:
205,236,219084,2,0,P|154:236|110:229,1,93.75,2|0,0:0|0:0,0:0:0:0:
38,278,219393,2,0,P|32:235|21:180,1,93.75,2|8,1:2|0:0,0:0:0:0:
22,185,219702,1,2,0:0:0:0:
7,93,219857,5,2,1:2:0:0:
96,76,220011,1,2,1:2:0:0:
144,156,220166,1,10,0:0:0:0:
221,109,220321,1,2,0:0:0:0:
272,192,220475,1,2,0:0:0:0:
343,140,220630,1,2,1:2:0:0:
434,172,220785,5,10,0:0:0:0:
434,172,221094,6,0,P|426:214|423:267,1,93.75,2|2,1:2|1:2,0:0:0:0:
505,218,221403,1,10,0:0:0:0:
343,140,221558,2,0,P|348:95|349:45,1,93.75,2|0,0:0|0:0,0:0:0:0:
256,194,221867,1,2,1:2:0:0:
273,281,222022,1,8,0:0:0:0:
185,294,222176,1,0,0:0:0:0:
172,202,222331,6,0,P|131:195|77:194,2,93.75,2|2|10,1:2|1:2|0:0,0:0:0:0:
103,42,222795,2,0,P|82:77|44:121,1,93.75,2|0,0:0|0:0,0:0:0:0:
239,134,223104,1,2,1:2:0:0:
239,134,223259,2,0,P|218:99|201:44,1,93.75,8|0,0:0|0:0,0:0:0:0:
141,121,223568,5,2,1:2:0:0:
40,103,223723,1,2,1:2:0:0:
22,201,223877,1,10,0:0:0:0:
115,227,224032,2,0,P|168:214|209:205,1,93.75,2|0,0:0|0:0,0:0:0:0:
208,368,224341,2,0,P|164:364|107:358,1,93.75,2|8,1:2|0:0,0:0:0:0:
114,358,224651,1,2,0:0:0:0:
52,303,224805,5,2,1:2:0:0:
93,221,224960,1,2,1:2:0:0:
172,267,225115,1,10,0:0:0:0:
220,333,225269,1,2,1:2:0:0:
270,251,225424,1,10,0:0:0:0:
352,311,225578,1,2,1:2:0:0:
394,236,225733,5,10,0:0:0:0:
394,236,226042,6,0,P|400:167|396:128,1,102.000000622559,6|2,1:2|1:2,0:0:0:0:
380,14,226352,1,10,0:0:0:0:
512,12,226506,2,0,P|485:59|417:50,1,102.000000622559,2|0,1:2|0:0,0:0:0:0:
261,127,226816,2,0,P|297:79|352:88,2,102.000000622559,2|8|0,1:2|0:0|0:0,0:0:0:0:
235,210,227280,5,2,1:2:0:0:
69,170,227434,1,2,1:2:0:0:
131,216,227589,1,10,0:0:0:0:
56,32,227743,2,0,P|18:81|12:129,1,102.000000622559,2|0,0:0|0:0,0:0:0:0:
41,319,228053,2,0,L|71:320,1,28.1250010728836,2|0,1:2|0:0,0:0:0:0:
31,338,228207,2,0,B|85:349|124:347|157:333,1,102.000000622559,8|0,0:0|0:0,0:0:0:0:
355,305,228517,6,0,P|380:345|330:349,2,102.000000622559,2|2|10,1:2|1:2|0:0,0:0:0:0:
282,295,228981,2,0,P|275:244|280:191,1,102.000000622559,2|0,0:0|0:0,0:0:0:0:
324,72,229290,1,2,1:2:0:0:
439,123,229444,2,0,P|391:121|352:157,1,102.000000622559,8|2,0:0|0:0,0:0:0:0:
279,193,229754,5,2,1:2:0:0:
370,237,229908,1,2,0:0:0:0:
282,295,230063,1,10,0:0:0:0:
193,335,230218,1,2,0:0:0:0:
344,374,230372,1,2,0:0:0:0:
421,321,230527,1,2,1:2:0:0:
492,384,230682,5,10,0:0:0:0:
492,384,230991,6,0,B|485:318|496:284|526:271,2,102.000000622559,2|2|10,1:2|1:2|0:0,0:0:0:0:
419,307,231455,2,0,B|411:237|402:208|380:203,1,102.000000622559,2|0,1:2|0:0,0:0:0:0:
273,111,231764,1,2,1:2:0:0:
430,117,231919,2,0,B|298:137|377:179|246:195,1,204.000001245117,8|2,0:0|1:2,0:0:0:0:
70,174,232383,2,0,B|107:159|129:172|129:172|112:173|90:193,1,102.000000622559,2|10,1:2|0:0,0:0:0:0:
52,359,232692,2,0,B|32:332|52:275|52:275|30:264|22:257|12:240,1,102.000000622559,2|0,1:2|0:0,0:0:0:0:
18,259,233001,1,2,1:2:0:0:
127,305,233156,2,0,B|133:313|136:329|136:329|141:306|139:282|149:290|159:253|142:215,1,102.000000622559,8|0,0:0|0:0,0:0:0:0:
93,190,233388,1,0,0:0:0:0:
107,196,233465,6,0,P|120:143|113:81,1,102.000000622559,2|2,1:2|1:2,0:0:0:0:
73,23,233774,1,10,0:0:0:0:
16,96,233929,2,0,P|4:129|17:96,1,102.000000622559,2|0,1:2|0:0,0:0:0:0:
198,22,234238,2,0,P|210:55|197:22,1,102.000000622559,2|8,1:2|0:0,0:0:0:0:
199,42,234548,1,2,0:0:0:0:
302,11,234702,5,2,1:2:0:0:
239,158,234857,1,2,0:0:0:0:
275,96,235011,1,10,0:0:0:0:
320,244,235166,1,2,0:0:0:0:
375,195,235321,1,2,1:2:0:0:
205,292,235475,1,2,1:2:0:0:
260,339,235630,5,10,0:0:0:0:
260,339,235939,6,0,B|246:275|283:292|265:218,1,112.500004291535,6|2,1:2|0:0,0:0:0:0:
275,96,236249,1,10,0:0:0:0:
131,140,236403,2,0,P|149:193|200:215,1,112.500004291535,2|0,1:2|0:0,0:0:0:0:
427,356,236713,2,0,P|383:318|326:338,2,112.500004291535,2|8|0,1:2|0:0|0:0,0:0:0:0:
498,378,237099,1,0,0:0:0:0:
507,384,237176,6,0,B|519:311|502:276|488:267,1,112.500004291535,2|2,1:2|1:2,0:0:0:0:
393,227,237486,1,10,0:0:0:0:
481,83,237640,2,0,B|512:132|499:172|499:172|484:137|462:131,1,112.500004291535,2|0,1:2|0:0,0:0:0:0:
299,176,237950,2,0,B|362:151|391:151|391:151|420:96,1,112.500004291535,2|8,1:2|0:0,0:0:0:0:
384,16,238259,5,0,0:0:0:0:
384,16,238336,1,0,0:0:0:0:
384,16,238414,2,0,P|403:60|412:131,2,112.500004291535,2|2|10,1:2|1:2|0:0,0:0:0:0:
308,44,238877,2,0,B|251:58|218:55|196:45,1,112.500004291535,2|0,1:2|0:0,0:0:0:0:
17,0,239187,2,0,B|42:-8|110:10|110:10|89:11|75:37,1,112.500004291535,2|8,1:2|0:0,0:0:0:0:
26,87,239496,1,2,0:0:0:0:
164,243,239651,5,2,1:2:0:0:
98,138,239805,1,2,1:2:0:0:
27,317,239960,1,10,0:0:0:0:
87,217,240115,1,2,1:2:0:0:
237,384,240269,1,2,0:0:0:0:
121,335,240424,1,2,1:2:0:0:
239,291,240578,5,10,0:0:0:0:
239,291,240888,6,0,P|319:286|363:292,1,112.500004291535,2|2,1:2|0:0,0:0:0:0:
370,295,241120,1,0,0:0:0:0:
376,302,241197,2,0,P|402:251|401:212,1,56.2500021457673,10|0,0:0|0:0,0:0:0:0:
469,273,241352,2,0,P|479:338|480:390,1,112.500004291535,2|0,1:2|0:0,0:0:0:0:
512,213,241661,1,0,1:2:0:0:
512,213,241816,2,0,B|466:172|424:163|396:171,1,112.500004291535,8|0,0:0|0:0,0:0:0:0:
194,184,242125,6,0,P|205:137|266:152,2,112.500004291535,2|2|10,1:2|1:2|0:0,0:0:0:0:
238,283,242589,2,0,B|168:287|123:297|120:320,1,112.500004291535,2|0,1:2|0:0,0:0:0:0:
33,371,242898,1,2,1:2:0:0:
33,371,243053,2,0,B|16:338|26:304|46:327|58:285|44:253,1,112.500004291535,8|0,0:0|0:0,0:0:0:0:
111,27,243362,5,2,1:2:0:0:
16,135,243517,1,2,1:2:0:0:
117,98,243671,1,10,0:0:0:0:
14,62,243826,2,0,B|40:58|73:78|50:84|86:104|122:97,1,112.500004291535,2|0,1:2|0:0,0:0:0:0:
236,90,244135,6,0,P|220:101|193:104,1,28.1250010728836,2|0,1:2|0:0,0:0:0:0:
212,7,244290,2,0,B|260:5|301:22|313:47,1,112.500004291535,8|2,0:0|0:0,0:0:0:0:
454,24,244599,5,2,1:2:0:0:
331,136,244754,1,2,0:0:0:0:
472,218,244908,1,10,0:0:0:0:
258,193,245063,1,2,1:2:0:0:
377,345,245218,1,10,0:0:0:0:
354,235,245372,1,2,1:2:0:0:
265,342,245527,5,10,0:0:0:0:
265,342,245682,1,10,0:0:0:0:
256,192,245836,12,0,247691,0:0:0:0:
