osu file format v14

[General]
AudioFilename: audio.mp3
AudioLeadIn: 0
PreviewTime: 15021
Countdown: 0
SampleSet: Soft
StackLeniency: 0.5
Mode: 0
LetterboxInBreaks: 0
WidescreenStoryboard: 1

[Editor]
DistanceSpacing: 1.8
BeatDivisor: 8
GridSize: 4
TimelineZoom: 1.799999

[Metadata]
Title:Byoushin o Kamu
TitleUnicode:秒針を噛む
Artist:ZUTOMAYO
ArtistUnicode:ずっと真夜中でいいのに。
Creator:semaphore
Version:tokiko's Insane
Source:
Tags:Fser Natteke desu jounzan EvilElvis EvilElvisV2 ChronoSP tokiko attendant Zutto Mayonaka de Ii no ni. byoshin wo ACAね ACANE NE ぬゆり nulut ね×ぬゆり 正しい偽りからの起床 Tadashii Itsuwari Kara no Kishou japanese rock
BeatmapID:2800905
BeatmapSetID:1352963

[Difficulty]
HPDrainRate:5
CircleSize:4
OverallDifficulty:7
ApproachRate:8
SliderMultiplier:1.49999990463257
SliderTickRate:1

[Events]
//Background and Video events
0,0,"asdgrdfhehj.jpg",0,0
//Break Periods
2,166663,171252
//Storyboard Layer 0 (Background)
//Storyboard Layer 1 (Fail)
//Storyboard Layer 2 (Pass)
//Storyboard Layer 3 (Foreground)
//Storyboard Layer 4 (Overlay)
//Storyboard Sound Samples

[TimingPoints]
310,461.538461538462,4,2,1,40,1,0
15079,-62.5,4,2,1,70,0,1
29848,-100,4,2,1,50,0,0
76002,-62.5,4,2,1,70,0,1
88925,-100,4,2,1,70,0,0
90310,-100,4,2,1,50,0,0
90771,-62.5,4,2,1,70,0,1
105540,-100,4,2,1,50,0,0
148002,-100,4,2,1,50,0,0
149617,-100,4,2,1,60,0,0
149848,-62.5,4,2,1,70,0,1
162771,-100,4,2,1,60,0,0
183079,-100,4,2,1,50,0,0
183540,-100,4,2,1,50,0,0
184002,-100,4,2,1,50,0,0
184463,-100,4,2,1,50,0,0
184925,-100,4,2,1,50,0,0
189540,-71.4285714285714,4,2,1,50,0,0
190463,-62.5,4,2,1,70,0,1
204310,-100,4,2,1,50,0,0
205233,-125,4,2,1,50,0,0
215386,-100,4,2,1,50,0,0
216310,-100,4,2,1,50,0,0
220002,-125,4,2,1,60,0,0
220463,-62.5,4,2,1,70,0,1
236617,-100,4,2,1,60,0,0
237079,-100,4,2,1,50,0,0
238463,-62.5,4,2,1,70,0,1
253002,-100,4,2,1,60,0,0
253233,-100,4,2,1,5,0,0
255310,-100,4,2,1,5,0,0

[Colours]
Combo1 : 17,254,176
Combo2 : 173,255,95
Combo3 : 255,88,100
Combo4 : 255,94,55

[HitObjects]
188,92,310,6,0,L|200:168,1,74.9999952316285,2|0,0:0|0:0,0:0:0:0:
228,128,656,2,0,L|239:53,1,74.9999952316285,2|0,0:0|0:0,0:0:0:0:
60,176,1117,2,0,L|41:286,1,112.499992847443,2|0,0:0|0:0,0:0:0:0:
0,92,1694,1,2,0:0:0:0:
115,33,1925,1,0,0:0:0:0:
288,88,2156,5,2,0:0:0:0:
400,136,2386,1,0,0:0:0:0:
400,136,2502,1,2,0:0:0:0:
380,24,2733,1,0,0:0:0:0:
288,228,2963,2,0,L|177:204,1,112.499992847443,2|0,0:0|0:0,0:0:0:0:
316,308,3540,1,2,0:0:0:0:
200,364,3771,1,0,0:0:0:0:
496,320,4002,6,0,L|509:246,1,74.9999952316285,2|0,0:0|0:0,0:0:0:0:
468,284,4348,2,0,L|481:357,1,74.9999952316285,2|0,0:0|0:0,0:0:0:0:
288,228,4810,2,0,L|268:117,1,112.499992847443,2|2,0:0|0:0,0:0:0:0:
388,272,5386,1,2,0:0:0:0:
287,355,5617,1,0,0:0:0:0:
56,292,5848,5,2,0:0:0:0:
164,328,6079,1,0,0:0:0:0:
164,328,6194,1,2,0:0:0:0:
140,216,6425,1,0,0:0:0:0:
256,16,6656,2,0,L|367:1,1,112.499992847443,2|0,0:0|0:0,0:0:0:0:
500,192,7233,2,0,B|472:156|472:156|484:88,1,112.499992847443,2|0,0:0|0:0,0:0:0:0:
384,180,7694,6,0,P|349:165|312:156,1,74.9999952316285,4|0,0:0|0:0,0:0:0:0:
240,192,8040,1,2,0:0:0:0:
192,336,8271,1,0,0:0:0:0:
24,264,8502,2,0,P|9:229|0:192,1,74.9999952316285,2|0,0:0|0:0,0:0:0:0:
28,116,8848,1,0,0:0:0:0:
168,40,9079,1,2,0:0:0:0:
304,132,9310,1,0,0:0:0:0:
340,120,9425,1,0,0:0:0:0:
376,107,9540,6,0,P|390:73|399:37,1,74.9999952316285,2|0,0:0|0:0,0:0:0:0:
488,120,9886,2,0,P|497:156|511:190,1,74.9999952316285,2|0,0:0|0:0,0:0:0:0:
392,352,10348,2,0,P|342:325|288:308,1,112.499992847443,2|0,0:0|0:0,0:0:0:0:
72,352,10925,1,2,0:0:0:0:
72,352,11156,1,0,0:0:0:0:
148,136,11386,6,0,L|140:96,1,37.4999976158143,2|0,0:0|0:0,0:0:0:0:
56,192,11617,1,2,0:0:0:0:
56,192,11848,2,0,L|63:228,1,37.4999976158143,2|0,0:0|0:0,0:0:0:0:
160,256,12078,2,0,L|167:292,1,37.4999976158143,2|0,0:0|0:0,0:0:0:0:
328,336,12310,6,0,L|288:344,1,37.4999976158143,2|0,0:0|0:0,0:0:0:0:
380,232,12540,1,2,0:0:0:0:
380,232,12771,2,0,L|416:224,1,37.4999976158143,2|0,0:0|0:0,0:0:0:0:
452,100,13002,2,0,L|488:92,1,37.4999976158143,2|0,0:0|0:0,0:0:0:0:
256,40,13233,5,2,0:0:0:0:
256,40,14386,1,8,1:3:0:0:
188,212,14617,2,0,B|144:216|144:216|120:200|120:200|81:192,1,112.499992847443,4|0,0:3|0:0,0:0:0:0:
139,319,15079,6,0,P|169:268|187:211,1,119.999992370606,4|8,1:0|1:3,0:0:0:0:
63,135,15425,2,0,P|70:164|80:192,1,59.9999961853028,0|8,1:3|1:0,0:0:0:0:
256,292,15656,2,0,P|284:281|313:274,1,59.9999961853028,0|8,0:0|1:3,0:0:0:0:
504,328,15886,1,8,1:0:0:0:
504,328,16117,1,8,1:3:0:0:
504,328,16233,1,8,1:0:0:0:
288,156,16463,1,8,1:0:0:0:
452,124,16694,1,8,1:3:0:0:
452,124,16810,1,0,1:3:0:0:
452,124,16925,6,0,L|509:108,2,59.9999961853028,4|8|8,1:0|1:3|1:3,0:0:0:0:
313,274,17271,2,0,L|255:258,1,59.9999961853028,0|8,1:3|1:0,0:0:0:0:
136,100,17502,2,0,L|120:157,1,59.9999961853028,0|8,0:0|1:3,0:0:0:0:
72,364,17733,1,8,1:0:0:0:
72,364,17963,1,8,1:3:0:0:
72,364,18079,1,8,1:0:0:0:
313,274,18310,1,8,1:0:0:0:
40,88,18540,1,8,1:3:0:0:
56,120,18656,1,0,1:3:0:0:
72,152,18771,6,0,L|48:269,1,119.999992370606,4|8,1:0|1:3,0:0:0:0:
196,220,19117,2,0,L|140:240,1,59.9999961853028,0|8,1:3|1:0,0:0:0:0:
288,360,19348,2,0,L|344:340,1,59.9999961853028,0|8,0:0|1:3,0:0:0:0:
432,160,19579,1,8,1:0:0:0:
432,160,19810,1,8,1:3:0:0:
432,160,19925,1,8,1:0:0:0:
224,0,20156,1,8,1:0:0:0:
128,168,20386,1,8,1:3:0:0:
128,168,20502,1,0,1:3:0:0:
128,168,20617,6,0,L|69:179,2,59.9999961853028,4|8|8,1:0|1:3|1:3,0:0:0:0:
256,80,20963,2,0,L|314:91,1,59.9999961853028,0|8,1:3|1:0,0:0:0:0:
468,192,21194,2,0,L|418:225,1,59.9999961853028,0|8,0:0|1:0,0:0:0:0:
248,360,21425,1,8,1:3:0:0:
248,360,21656,1,8,1:3:0:0:
248,360,21771,1,8,1:0:0:0:
468,192,22002,1,8,1:0:0:0:
144,108,22233,1,8,1:3:0:0:
188,146,22348,1,0,1:3:0:0:
248,136,22463,6,0,P|244:76|212:24,1,119.999992370606,4|8,1:0|1:3,0:0:0:0:
87,89,22810,2,0,P|115:99|144:108,1,59.9999961853028,0|8,1:3|1:0,0:0:0:0:
312,216,23040,2,0,P|283:223|255:234,1,59.9999961853028,0|8,0:0|1:3,0:0:0:0:
92,372,23271,1,8,1:0:0:0:
92,372,23502,1,8,1:3:0:0:
92,372,23617,1,8,1:0:0:0:
17,168,23848,1,8,1:0:0:0:
240,72,24079,1,8,1:3:0:0:
240,72,24194,1,0,1:3:0:0:
240,72,24310,6,0,L|297:56,2,59.9999961853028,4|8|8,1:0|1:3|1:3,0:0:0:0:
160,192,24656,2,0,L|101:206,1,59.9999961853028,0|8,1:3|1:0,0:0:0:0:
288,308,24886,2,0,L|346:293,1,59.9999961853028,0|8,0:0|1:3,0:0:0:0:
476,140,25117,1,8,1:0:0:0:
476,140,25348,1,8,1:3:0:0:
476,140,25463,1,8,1:0:0:0:
512,384,25694,1,8,1:0:0:0:
296,316,25925,1,8,1:3:0:0:
296,316,26040,1,0,1:3:0:0:
296,316,26156,6,0,L|280:196,1,119.999992370606,4|8,1:0|1:3,0:0:0:0:
144,132,26502,2,0,L|135:191,1,59.9999961853028,0|8,1:3|1:0,0:0:0:0:
300,108,26733,2,0,L|291:48,1,59.9999961853028,0|8,0:0|1:3,0:0:0:0:
92,4,26963,1,8,1:0:0:0:
92,4,27194,1,8,1:3:0:0:
92,4,27310,1,8,1:0:0:0:
0,236,27540,1,8,1:0:0:0:
224,352,27771,1,8,1:3:0:0:
224,352,27886,1,0,1:3:0:0:
224,352,28002,5,4,1:0:0:0:
72,376,28233,1,8,1:3:0:0:
252,192,28463,2,0,L|312:180,1,59.9999961853028,8|8,1:0|1:3,0:0:0:0:
468,280,28694,1,8,1:0:0:0:
468,280,28810,2,0,L|490:162,1,119.999992370606,8|8,1:0|1:3,0:0:0:0:
512,8,29156,1,8,1:0:0:0:
292,96,29386,1,8,1:0:0:0:
232,88,29501,1,8,1:3:0:0:
173,80,29616,1,8,1:3:0:0:
113,72,29732,1,0,1:3:0:0:
54,64,29848,6,0,P|39:98|25:133,1,74.9999952316285,12|0,1:3|0:0,0:0:0:0:
24,133,30194,1,8,1:3:0:0:
24,133,30310,1,8,1:0:0:0:
180,228,30540,2,0,P|166:193|150:158,1,74.9999952316285,8|0,1:3|0:0,0:0:0:0:
107,229,30886,1,8,1:3:0:0:
143,235,31001,1,8,1:3:0:0:
180,228,31116,1,8,1:0:0:0:
211,208,31232,1,0,0:0:0:0:
292,24,31463,1,8,1:3:0:0:
408,224,31694,5,12,1:3:0:0:
408,224,31810,1,8,1:3:0:0:
408,224,31925,1,8,1:0:0:0:
356,372,32156,1,8,1:0:0:0:
192,300,32386,2,0,L|200:344,1,37.4999976158143,8|8,1:3|1:0,0:0:0:0:
296,224,32617,1,0,0:0:0:0:
296,224,32733,1,8,1:3:0:0:
296,224,32848,2,0,L|289:187,1,37.4999976158143,8|8,1:0|1:0,0:0:0:0:
160,136,33079,2,0,L|166:99,1,37.4999976158143,8|8,1:3|1:0,0:0:0:0:
300,8,33310,1,8,1:3:0:0:
300,8,33540,5,12,1:3:0:0:
24,124,33771,1,0,0:0:0:0:
420,92,34002,5,8,1:0:0:0:
166,98,34233,1,8,1:0:0:0:
205,137,34348,1,8,1:3:0:0:
258,126,34463,1,8,1:3:0:0:
258,126,34694,5,0,0:0:0:0:
205,137,34809,1,8,1:0:0:0:
216,190,34925,1,8,1:0:0:0:
269,179,35040,1,0,0:0:0:0:
216,190,35156,6,0,P|202:224|193:260,1,74.9999952316285,8|12,1:0|1:3,0:0:0:0:
424,192,35733,1,8,1:3:0:0:
424,192,35848,2,0,P|414:155|400:121,1,74.9999952316285,8|12,1:0|1:3,0:0:0:0:
184,0,36425,1,8,1:3:0:0:
184,0,36540,1,8,1:3:0:0:
48,224,36771,1,8,1:0:0:0:
292,160,37002,1,8,1:0:0:0:
36,56,37233,6,0,L|18:128,1,74.9999952316285,12|0,1:3|0:0,0:0:0:0:
17,128,37579,1,8,1:3:0:0:
17,128,37694,1,8,1:0:0:0:
168,224,37925,2,0,L|186:296,1,74.9999952316285,8|8,1:3|3:0,0:0:0:0:
256,328,38271,1,8,1:3:0:0:
292,319,38386,1,8,1:3:0:0:
329,310,38501,1,8,1:0:0:0:
365,302,38617,1,0,0:0:0:0:
512,168,38848,1,8,1:3:0:0:
312,48,39079,6,0,L|385:34,1,74.9999952316285,12|8,1:3|1:0,0:0:0:0:
385,34,39425,1,8,1:3:0:0:
385,34,39540,1,8,1:0:0:0:
256,172,39771,1,8,1:3:0:0:
256,172,39886,2,0,L|220:156,1,37.4999976158143,8|0,1:0|0:0,0:0:0:0:
144,108,40117,1,8,1:3:0:0:
144,108,40232,1,8,1:0:0:0:
216,0,40463,1,8,1:3:0:0:
216,0,40579,2,0,L|253:-3,1,37.4999976158143,8|8,1:0|1:3,0:0:0:0:
380,160,40925,6,0,P|372:196|358:231,1,74.9999952316285,12|8,1:3|1:3,0:0:0:0:
180,192,41386,2,0,P|187:155|201:120,1,74.9999952316285,8|8,1:0|1:0,0:0:0:0:
256,260,41848,1,12,1:3:0:0:
256,260,42079,1,0,0:0:0:0:
428,324,42310,1,8,1:0:0:0:
512,116,42540,6,0,L|500:40,1,74.9999952316285,12|8,1:3|1:0,0:0:0:0:
500,41,42886,1,8,1:3:0:0:
500,41,43002,1,8,1:3:0:0:
256,0,43233,1,8,1:0:0:0:
292,120,43463,1,4,1:3:0:0:
105,76,43694,1,8,1:3:0:0:
68,68,43809,1,8,1:0:0:0:
32,60,43925,2,0,L|28:40,3,18.7499988079071,8|0|8|0,3:0|0:0|1:3|0:0,0:0:0:0:
105,76,44156,1,8,1:0:0:0:
122,109,44271,1,8,1:3:0:0:
127,146,44386,1,8,1:3:0:0:
120,183,44502,1,8,1:0:0:0:
100,214,44617,6,0,L|26:204,1,74.9999952316285,12|0,1:3|0:0,0:0:0:0:
26,204,44963,1,8,1:3:0:0:
26,204,45079,1,8,1:0:0:0:
183,352,45310,2,0,L|257:341,1,74.9999952316285,8|8,1:3|3:0,0:0:0:0:
379,323,45656,1,8,1:3:0:0:
426,344,45771,1,8,1:3:0:0:
397,348,45886,1,8,1:0:0:0:
412,324,46002,2,0,L|486:313,1,74.9999952316285,0|8,0:0|1:3,0:0:0:0:
360,156,46463,5,12,1:3:0:0:
350,104,46579,1,8,1:3:0:0:
402,95,46694,1,8,1:0:0:0:
411,146,46810,1,8,1:3:0:0:
360,156,46925,2,0,L|320:164,1,37.4999976158143,8|8,1:0|1:0,0:0:0:0:
220,52,47156,2,0,L|256:44,1,37.4999976158143,8|8,1:3|1:0,0:0:0:0:
184,224,47386,6,0,L|110:238,1,74.9999952316285,8|8,1:0|1:3,0:0:0:0:
72,344,47848,1,8,1:0:0:0:
160,372,47963,2,0,L|234:358,1,74.9999952316285,8|8,1:0|1:0,0:0:0:0:
383,260,48310,6,0,P|368:294|360:330,1,74.9999952316285,12|8,1:3|1:0,0:0:0:0:
368,348,48656,1,8,1:3:0:0:
380,364,48771,1,8,1:0:0:0:
512,224,49002,1,8,1:3:0:0:
316,144,49233,2,0,P|300:109|292:73,1,74.9999952316285,12|8,1:3|1:0,0:0:0:0:
300,56,49579,1,8,1:0:0:0:
312,40,49694,1,8,1:0:0:0:
172,172,49925,6,0,P|134:168|98:158,1,74.9999952316285,8|12,1:0|1:3,0:0:0:0:
68,136,50271,1,8,1:3:0:0:
152,304,50502,1,8,1:3:0:0:
182,281,50617,2,0,P|217:270|255:267,1,74.9999952316285,8|12,1:0|1:3,0:0:0:0:
456,332,51194,1,8,1:3:0:0:
456,332,51310,1,8,1:3:0:0:
382,202,51540,1,12,1:3:0:0:
427,204,51656,1,8,1:3:0:0:
451,243,51771,1,8,1:0:0:0:
440,288,51886,1,8,1:3:0:0:
456,332,52002,6,0,L|380:348,1,74.9999952316285,12|0,1:3|0:0,0:0:0:0:
382,347,52348,1,8,1:3:0:0:
382,347,52463,1,8,1:0:0:0:
256,224,52694,2,0,L|182:208,1,74.9999952316285,8|0,1:3|0:0,0:0:0:0:
144,200,53040,1,8,1:3:0:0:
112,24,53271,1,8,1:0:0:0:
112,24,53386,1,0,0:0:0:0:
0,224,53617,1,8,1:3:0:0:
292,104,53848,5,12,1:3:0:0:
292,104,54079,1,8,1:0:0:0:
328,111,54194,1,8,1:3:0:0:
365,118,54309,1,8,1:0:0:0:
496,24,54540,1,8,1:3:0:0:
496,23,54656,2,0,P|473:52|458:86,1,74.9999952316285,8|8,1:0|1:3,0:0:0:0:
468,124,55002,1,8,1:0:0:0:
511,307,55233,1,8,1:3:0:0:
511,307,55349,2,0,P|506:322|494:340,1,37.4999976158143,8|8,1:0|1:3,0:0:0:0:
288,376,55694,6,0,L|208:356,1,74.9999952316285,12|8,1:3|1:3,0:0:0:0:
108,192,56156,1,8,1:0:0:0:
71,201,56271,1,8,1:3:0:0:
35,210,56386,2,0,L|25:246,1,37.4999976158143,8|8,1:0|1:3,0:0:0:0:
108,336,56617,2,0,L|117:299,1,37.4999976158143,12|8,1:3|1:0,0:0:0:0:
164,124,56848,1,0,0:0:0:0:
108,336,57079,1,8,1:0:0:0:
364,216,57310,6,0,P|398:201|435:192,1,74.9999952316285,12|8,1:3|1:0,0:0:0:0:
340,344,57771,1,8,1:3:0:0:
288,72,58002,1,8,1:0:0:0:
164,124,58233,1,4,1:3:0:0:
127,114,58348,1,0,0:0:0:0:
91,104,58463,2,0,L|84:64,1,37.4999976158143,8|8,1:3|1:0,0:0:0:0:
184,0,58694,1,0,0:0:0:0:
20,180,58925,2,0,L|13:219,1,37.4999976158143,12|8,1:3|1:0,0:0:0:0:
113,284,59156,1,8,1:3:0:0:
150,274,59271,1,8,1:0:0:0:
187,264,59386,5,12,1:3:0:0:
256,128,59617,2,0,L|248:88,1,37.4999976158143,8|8,1:3|1:3,0:0:0:0:
176,176,59848,1,8,1:0:0:0:
356,144,60079,1,8,1:3:0:0:
356,144,60194,2,0,L|396:152,1,37.4999976158143,8|0,1:0|0:0,0:0:0:0:
480,276,60425,1,8,1:3:0:0:
480,276,60540,2,0,L|440:284,1,37.4999976158143,8|0,1:0|0:0,0:0:0:0:
288,312,60771,1,8,1:3:0:0:
40,192,61002,6,0,L|21:264,1,74.9999952316285,12|12,1:3|1:3,0:0:0:0:
21,264,61348,1,0,0:0:0:0:
21,264,61463,1,8,1:3:0:0:
204,192,61694,2,0,L|185:119,1,74.9999952316285,8|8,1:0|1:3,0:0:0:0:
112,64,62040,1,8,1:0:0:0:
112,64,62156,2,0,L|124:28,1,37.4999976158143,0|8,0:0|1:3,0:0:0:0:
300,0,62386,2,0,L|288:36,1,37.4999976158143,8|0,1:0|0:0,0:0:0:0:
240,192,62617,1,8,1:3:0:0:
472,136,62848,1,12,1:3:0:0:
472,136,63079,6,0,L|398:120,1,74.9999952316285,12|8,1:3|1:3,0:0:0:0:
320,168,63425,1,8,1:3:0:0:
320,168,63540,2,0,L|328:204,1,37.4999976158143,8|0,1:0|0:0,0:0:0:0:
448,276,63771,1,8,1:3:0:0:
448,276,63886,1,8,1:0:0:0:
448,276,64002,2,0,L|440:312,1,37.4999976158143,8|8,1:0|1:3,0:0:0:0:
296,376,64233,1,8,1:0:0:0:
104,320,64463,1,8,1:3:0:0:
344,280,64694,1,12,1:3:0:0:
202,88,64925,5,12,1:3:0:0:
202,88,65040,1,0,0:0:0:0:
128,100,65271,5,8,1:3:0:0:
128,100,65386,2,0,L|202:88,1,74.9999952316285,8|8,1:0|1:3,0:0:0:0:
220,96,65733,1,8,1:0:0:0:
236,104,65848,1,12,1:3:0:0:
356,192,66079,2,0,L|365:155,1,37.4999976158143,8|8,1:0|1:3,0:0:0:0:
208,232,66310,1,8,1:0:0:0:
216,268,66425,1,8,1:0:0:0:
224,305,66540,1,12,1:3:0:0:
28,372,66771,5,12,1:3:0:0:
0,224,67002,2,0,L|40:232,1,37.4999976158143,8|8,1:3|1:3,0:0:0:0:
128,160,67233,1,8,1:0:0:0:
8,44,67463,1,8,1:3:0:0:
8,44,67579,2,0,L|0:7,1,37.4999976158143,8|8,1:0|1:3,0:0:0:0:
152,28,67810,1,8,1:3:0:0:
152,28,67926,2,0,L|144:64,1,37.4999976158143,8|0,1:0|0:0,0:0:0:0:
128,160,68156,1,8,1:3:0:0:
173,150,68271,1,8,1:3:0:0:
219,141,68386,2,0,L|254:155,1,37.4999976158143,12|0,1:3|0:0,0:0:0:0:
360,296,68617,6,0,L|291:325,1,74.9999952316285,12|8,1:3|1:3,0:0:0:0:
368,128,69079,1,12,1:3:0:0:
291,325,69310,1,8,1:3:0:0:
94,248,69540,1,12,1:3:0:0:
171,51,69771,2,0,L|208:40,2,37.4999976158143,8|0|8,1:3|0:0|1:3,0:0:0:0:
96,136,70117,1,8,1:3:0:0:
96,136,70233,2,0,L|60:125,1,37.4999976158143,8|8,1:3|1:3,0:0:0:0:
171,51,70463,5,12,1:3:0:0:
94,248,70695,1,8,1:0:0:0:
291,325,70925,1,8,1:0:0:0:
368,128,71156,1,8,1:0:0:0:
171,51,71386,5,8,1:0:0:0:
368,128,71617,2,0,L|355:162,1,37.4999976158143,8|8,1:0|1:3,0:0:0:0:
291,325,71848,1,12,1:3:0:0:
256,312,71963,1,8,1:3:0:0:
221,299,72079,2,0,L|186:286,1,37.4999976158143,8|8,1:0|1:0,0:0:0:0:
171,51,72310,6,0,B|275:92,1,112.499992847443,12|0,1:3|0:0,0:0:0:0:
275,92,73463,1,8,1:3:0:0:
288,232,73694,2,0,L|398:213,1,112.499992847443,8|0,1:3|0:0,0:0:0:0:
436,208,74156,5,4,1:0:0:0:
460,92,74386,1,10,3:0:0:0:
512,328,74617,1,8,1:0:0:0:
412,368,74848,1,10,3:0:0:0:
412,368,74963,1,8,1:0:0:0:
412,368,75079,2,0,L|372:356,1,37.4999976158143,0|8,0:0|1:0,0:0:0:0:
256,268,75310,2,0,L|220:278,1,37.4999976158143,10|8,3:0|1:0,0:0:0:0:
36,323,75540,1,12,1:3:0:0:
36,323,76002,6,0,P|17:267|5:208,1,119.999992370606,12|10,1:3|3:0,0:0:0:0:
168,316,76348,1,8,3:0:0:0:
168,316,76463,2,0,P|178:344|186:372,1,59.9999961853028,8|8,1:0|3:0,0:0:0:0:
55,373,76694,2,0,P|62:344|73:316,1,59.9999961853028,10|8,3:0|3:0,0:0:0:0:
160,157,76925,6,0,P|217:141|277:134,1,119.999992370606,8|10,1:0|3:0,0:0:0:0:
496,224,77386,2,0,P|506:251|511:281,1,59.9999961853028,8|8,1:3|1:3,0:0:0:0:
368,224,77617,2,0,P|372:194|383:166,1,59.9999961853028,10|10,3:0|3:0,0:0:0:0:
431,336,77848,6,0,P|343:348|266:304,1,179.999988555908,12|8,1:3|3:0,0:0:0:0:
461,362,78310,2,0,P|391:309|368:224,1,179.999988555908,8|8,1:0|3:0,0:0:0:0:
476,136,78771,2,0,P|471:106|460:78,1,59.9999961853028,8|8,1:0|1:0,0:0:0:0:
324,0,79002,1,10,3:0:0:0:
100,84,79233,1,8,1:3:0:0:
204,132,79463,1,10,3:0:0:0:
40,364,79694,6,0,L|20:245,1,119.999992370606,12|10,1:3|3:0,0:0:0:0:
160,344,80040,1,8,3:0:0:0:
160,344,80156,2,0,B|204:368|204:368|271:351,1,119.999992370606,8|10,1:0|3:0,0:0:0:0:
152,212,80502,1,8,3:0:0:0:
152,212,80617,2,0,L|136:269,1,59.9999961853028,8|8,1:0|1:0,0:0:0:0:
304,208,80848,2,0,L|288:150,1,59.9999961853028,10|8,3:0|1:0,0:0:0:0:
144,32,81079,1,8,1:3:0:0:
144,32,81310,6,0,L|263:16,1,119.999992370606,10|12,3:0|1:3,0:0:0:0:
380,64,81656,1,0,0:0:0:0:
380,64,81771,2,0,L|364:122,1,59.9999961853028,10|10,3:0|3:0,0:0:0:0:
308,304,82002,1,8,1:0:0:0:
512,216,82233,1,14,3:0:0:0:
512,216,82348,2,0,B|472:184|472:184|404:192,1,119.999992370606,8|8,3:0|1:0,0:0:0:0:
448,284,82694,1,10,3:0:0:0:
504,44,82925,1,12,1:3:0:0:
180,84,83156,1,10,3:0:0:0:
152,136,83271,1,10,1:3:0:0:
175,191,83386,6,0,P|127:151|67:147,1,119.999992370606,12|10,1:3|3:0,0:0:0:0:
92,316,83733,1,8,3:0:0:0:
92,316,83848,2,0,P|106:290|120:260,1,59.9999961853028,8|8,1:0|3:0,0:0:0:0:
288,192,84079,2,0,P|272:217|260:245,1,59.9999961853028,10|8,3:0|3:0,0:0:0:0:
415,160,84310,2,0,P|389:213|367:269,1,119.999992370606,8|10,1:0|3:0,0:0:0:0:
368,269,84771,1,8,1:3:0:0:
336,64,85002,1,10,3:0:0:0:
88,160,85233,6,0,P|33:137|0:88,1,119.999992370606,12|10,1:3|3:0,0:0:0:0:
144,88,85579,1,10,3:0:0:0:
231,159,85694,2,0,P|197:110|143:87,1,119.999992370606,12|10,1:3|3:0,0:0:0:0:
0,300,86156,2,0,P|33:348|87:371,1,119.999992370606,8|10,1:0|3:0,0:0:0:0:
112,356,86502,1,8,1:0:0:0:
136,336,86617,2,0,L|144:276,1,59.9999961853028,12|8,1:3|1:0,0:0:0:0:
256,236,86848,2,0,L|248:296,1,59.9999961853028,10|8,3:0|1:0,0:0:0:0:
424,356,87079,5,12,1:3:0:0:
424,356,87310,2,0,L|432:296,1,59.9999961853028,10|8,3:0|3:0,0:0:0:0:
508,140,87540,2,0,L|389:155,1,119.999992370606,8|10,1:0|3:0,0:0:0:0:
456,24,87886,1,8,3:0:0:0:
456,24,88002,2,0,L|396:32,1,59.9999961853028,8|8,1:0|1:0,0:0:0:0:
256,116,88233,1,10,3:0:0:0:
196,108,88348,1,8,1:0:0:0:
136,100,88463,2,0,L|76:92,1,59.9999961853028,8|8,1:3|1:3,0:0:0:0:
8,232,88694,2,0,L|68:224,1,59.9999961853028,10|10,3:0|3:0,0:0:0:0:
172,212,88925,6,0,L|160:286,1,74.9999952316285,12|0,1:3|0:0,0:0:0:0:
156,324,89386,2,0,L|230:312,1,74.9999952316285,0|0,0:0|0:0,0:0:0:0:
408,288,89848,1,2,0:3:0:0:
324,368,90079,1,8,3:0:0:0:
288,120,90310,2,0,L|299:45,1,74.9999952316285,12|0,1:3|0:0,0:0:0:0:
428,0,90656,1,0,0:0:0:0:
428,0,90771,6,0,L|412:118,1,119.999992370606,4|8,1:0|1:3,0:0:0:0:
312,236,91117,2,0,L|253:221,1,59.9999961853028,0|8,1:3|1:0,0:0:0:0:
144,56,91348,2,0,L|85:70,1,59.9999961853028,0|8,0:0|1:3,0:0:0:0:
0,244,91579,1,8,1:0:0:0:
0,244,91810,1,8,1:3:0:0:
0,244,91925,1,8,1:0:0:0:
256,348,92156,1,8,1:0:0:0:
208,216,92386,1,8,1:3:0:0:
208,216,92502,1,0,1:3:0:0:
208,216,92617,6,0,L|224:156,2,59.9999961853028,4|8|8,1:0|1:3|1:3,0:0:0:0:
76,368,92963,2,0,L|60:310,1,59.9999961853028,0|8,1:3|1:0,0:0:0:0:
12,120,93194,2,0,L|69:135,1,59.9999961853028,0|8,0:0|1:3,0:0:0:0:
268,64,93425,1,8,1:0:0:0:
268,64,93656,1,8,1:3:0:0:
268,64,93771,1,8,1:0:0:0:
316,304,94002,1,8,1:0:0:0:
512,40,94233,1,8,1:3:0:0:
480,52,94348,1,0,1:3:0:0:
448,64,94463,6,0,L|428:183,1,119.999992370606,4|8,1:0|1:3,0:0:0:0:
452,336,94810,2,0,L|509:351,1,59.9999961853028,0|8,1:3|1:0,0:0:0:0:
360,232,95040,2,0,L|302:216,1,59.9999961853028,0|8,0:0|1:3,0:0:0:0:
108,264,95271,1,8,1:0:0:0:
108,264,95502,1,8,1:3:0:0:
108,264,95617,1,8,1:0:0:0:
40,28,95848,1,8,1:0:0:0:
232,96,96079,1,8,1:3:0:0:
232,96,96194,1,0,1:3:0:0:
232,96,96310,6,0,L|248:36,2,59.9999961853028,4|8|8,1:0|1:3|1:3,0:0:0:0:
96,176,96656,2,0,L|111:233,1,59.9999961853028,0|8,1:3|1:0,0:0:0:0:
256,344,96886,2,0,L|286:292,1,59.9999961853028,0|8,0:0|1:0,0:0:0:0:
408,104,97117,1,8,1:3:0:0:
408,104,97348,1,8,1:3:0:0:
408,104,97463,1,8,1:0:0:0:
512,364,97694,1,8,1:0:0:0:
164,292,97925,1,8,1:3:0:0:
223,291,98040,1,0,1:3:0:0:
231,348,98156,6,0,P|179:376|121:368,1,119.999992370606,4|8,1:0|1:3,0:0:0:0:
12,288,98502,2,0,P|4:260|0:228,1,59.9999961853028,0|8,1:3|1:0,0:0:0:0:
172,100,98733,2,0,P|168:129|160:158,1,59.9999961853028,0|8,0:0|1:3,0:0:0:0:
16,24,98963,1,8,1:0:0:0:
16,24,99194,1,8,1:3:0:0:
16,24,99310,1,8,1:0:0:0:
288,0,99540,1,8,1:0:0:0:
440,136,99771,1,8,1:3:0:0:
440,136,99886,1,0,1:3:0:0:
440,136,100002,6,0,L|451:194,2,59.9999961853028,4|8|8,1:0|1:3|1:3,0:0:0:0:
324,224,100348,2,0,L|335:282,1,59.9999961853028,0|8,1:3|1:0,0:0:0:0:
132,220,100579,2,0,L|121:162,1,59.9999961853028,0|8,0:0|1:3,0:0:0:0:
260,16,100810,1,8,1:0:0:0:
260,16,101040,1,8,1:3:0:0:
260,16,101156,1,8,1:0:0:0:
492,88,101386,1,8,1:0:0:0:
344,304,101617,1,8,1:3:0:0:
344,304,101733,1,0,1:3:0:0:
344,304,101848,6,0,B|224:284,1,119.999992370606,4|8,1:0|1:3,0:0:0:0:
108,192,102194,2,0,L|168:182,1,59.9999961853028,0|8,1:3|1:0,0:0:0:0:
104,352,102425,2,0,L|44:342,1,59.9999961853028,0|8,0:0|1:3,0:0:0:0:
4,136,102656,1,8,1:0:0:0:
4,136,102886,1,8,1:3:0:0:
4,136,103002,1,8,1:0:0:0:
204,0,103233,1,8,1:0:0:0:
440,80,103463,1,8,1:3:0:0:
440,80,103579,1,0,1:3:0:0:
440,80,103694,5,4,1:0:0:0:
292,112,103925,1,8,1:3:0:0:
500,260,104156,2,0,L|512:320,1,59.9999961853028,8|8,1:0|1:3,0:0:0:0:
344,384,104386,1,8,1:0:0:0:
344,384,104502,2,0,L|225:364,1,119.999992370606,8|8,1:0|1:3,0:0:0:0:
72,340,104848,1,8,1:0:0:0:
296,248,105079,1,8,1:0:0:0:
313,190,105194,1,8,1:3:0:0:
326,132,105309,1,8,1:3:0:0:
335,72,105425,1,0,1:3:0:0:
339,12,105540,6,0,P|302:3|265:0,1,74.9999952316285,12|0,1:3|0:0,0:0:0:0:
156,28,106002,1,8,1:0:0:0:
44,160,106233,2,0,P|81:156|117:148,1,74.9999952316285,8|0,1:3|0:0,0:0:0:0:
71,92,106579,1,8,1:3:0:0:
51,124,106694,1,8,1:3:0:0:
44,160,106809,1,8,1:0:0:0:
48,197,106925,1,0,0:0:0:0:
168,364,107156,1,8,1:3:0:0:
368,260,107386,6,0,L|379:185,1,74.9999952316285,12|8,1:3|1:0,0:0:0:0:
364,152,107733,2,0,L|327:145,2,37.4999976158143,8|8|0,1:3|1:0|0:0,0:0:0:0:
488,128,108079,1,8,1:3:0:0:
488,128,108194,2,0,L|499:53,1,74.9999952316285,8|8,1:0|1:3,0:0:0:0:
508,16,108540,1,8,1:0:0:0:
328,68,108771,1,8,1:3:0:0:
328,68,108886,2,0,L|291:61,1,37.4999976158143,8|8,1:0|1:3,0:0:0:0:
144,44,109117,1,8,1:0:0:0:
144,44,109233,5,12,1:3:0:0:
73,316,109463,1,0,0:0:0:0:
73,316,109694,1,8,1:0:0:0:
124,310,109809,1,0,0:0:0:0:
177,304,109924,1,8,1:0:0:0:
177,304,110156,2,0,L|194:231,1,74.9999952316285,8|0,1:3|0:0,0:0:0:0:
234,204,110502,1,8,1:0:0:0:
284,211,110617,1,8,1:0:0:0:
308,255,110733,1,0,0:0:0:0:
289,301,110848,1,8,1:0:0:0:
72,224,111079,6,0,L|89:151,1,74.9999952316285,12|0,1:3|0:0,0:0:0:0:
36,56,111425,1,8,1:3:0:0:
36,56,111540,1,8,1:0:0:0:
216,128,111771,1,12,1:3:0:0:
216,128,111886,2,0,L|289:111,1,74.9999952316285,8|8,1:0|1:3,0:0:0:0:
402,85,112233,1,8,1:3:0:0:
277,55,112463,5,8,1:0:0:0:
289,110,112579,1,8,1:3:0:0:
304,165,112694,1,8,1:0:0:0:
316,220,112810,1,8,1:3:0:0:
371,233,112925,6,0,P|406:218|438:200,1,74.9999952316285,12|0,1:3|0:0,0:0:0:0:
438,200,113271,1,8,1:3:0:0:
438,200,113386,1,8,1:0:0:0:
289,110,113617,2,0,P|274:75|264:39,1,74.9999952316285,8|0,1:3|0:0,0:0:0:0:
353,73,113963,1,8,1:3:0:0:
324,97,114078,1,8,1:3:0:0:
289,110,114193,1,8,1:0:0:0:
252,110,114309,1,0,0:0:0:0:
60,48,114540,1,8,1:3:0:0:
35,259,114771,5,12,1:3:0:0:
50,309,114886,1,8,1:3:0:0:
102,293,115002,1,8,1:0:0:0:
84,241,115117,1,8,1:3:0:0:
35,259,115233,2,0,L|-1:271,1,37.4999976158143,8|0,1:0|0:0,0:0:0:0:
199,320,115463,1,8,1:3:0:0:
199,320,115579,2,0,L|270:297,1,74.9999952316285,8|8,1:0|1:3,0:0:0:0:
309,316,115925,2,0,L|321:352,1,37.4999976158143,8|8,1:0|1:0,0:0:0:0:
453,368,116156,1,8,1:3:0:0:
453,368,116271,2,0,L|441:332,1,37.4999976158143,8|8,1:0|1:3,0:0:0:0:
256,152,116617,6,0,P|290:137|326:128,1,74.9999952316285,12|8,1:3|1:3,0:0:0:0:
492,224,117079,2,0,P|457:238|421:247,1,74.9999952316285,8|8,1:0|1:0,0:0:0:0:
256,152,117540,1,12,1:3:0:0:
224,40,117771,1,0,0:0:0:0:
96,172,118002,1,8,1:0:0:0:
200,372,118233,6,0,L|274:360,1,74.9999952316285,12|8,1:3|1:0,0:0:0:0:
274,360,118694,1,8,1:3:0:0:
472,192,118925,1,8,1:0:0:0:
436,72,119156,2,0,L|399:64,1,37.4999976158143,4|8,1:3|1:0,0:0:0:0:
256,120,119386,1,8,1:3:0:0:
256,120,119502,1,8,1:0:0:0:
256,120,119617,2,0,L|248:156,1,37.4999976158143,0|8,0:0|1:3,0:0:0:0:
96,68,119848,1,8,1:0:0:0:
96,68,119964,1,8,1:3:0:0:
96,68,120079,2,0,L|103:31,1,37.4999976158143,8|8,1:3|1:0,0:0:0:0:
148,224,120310,6,0,L|132:297,1,74.9999952316285,12|0,1:3|0:0,0:0:0:0:
288,368,120771,2,0,L|361:352,1,74.9999952316285,8|8,1:0|1:3,0:0:0:0:
400,344,121117,2,0,L|415:270,1,74.9999952316285,8|8,1:0|1:3,0:0:0:0:
420,232,121463,2,0,L|383:225,2,37.4999976158143,8|8|0,1:3|1:0|0:0,0:0:0:0:
460,28,121925,1,8,1:3:0:0:
212,72,122156,5,12,1:3:0:0:
212,72,122271,1,8,1:3:0:0:
212,72,122386,2,0,L|205:108,1,37.4999976158143,8|8,1:0|1:3,0:0:0:0:
92,160,122617,2,0,L|107:86,1,74.9999952316285,8|8,1:0|1:3,0:0:0:0:
184,208,122963,2,0,L|168:281,1,74.9999952316285,8|8,1:0|1:3,0:0:0:0:
56,340,123310,2,0,L|62:303,1,37.4999976158143,8|8,1:3|1:3,0:0:0:0:
168,281,123540,1,8,1:0:0:0:
205,273,123655,1,8,1:0:0:0:
241,265,123770,1,8,1:3:0:0:
492,360,124002,5,12,1:3:0:0:
492,360,124117,1,8,1:3:0:0:
492,360,124233,2,0,L|455:366,1,37.4999976158143,8|8,1:0|1:3,0:0:0:0:
376,264,124463,2,0,L|391:190,1,74.9999952316285,8|8,1:0|1:3,0:0:0:0:
390,190,124810,1,8,1:0:0:0:
390,190,124925,1,12,1:3:0:0:
449,278,125156,2,0,L|375:263,1,74.9999952316285,8|8,1:0|1:0,0:0:0:0:
336,68,125617,1,8,1:0:0:0:
224,352,125848,5,12,1:3:0:0:
80,264,126079,1,8,1:0:0:0:
68,300,126194,1,8,1:3:0:0:
56,336,126310,1,8,1:0:0:0:
196,220,126540,1,12,1:3:0:0:
56,88,126771,1,8,1:3:0:0:
224,40,127002,1,8,1:3:0:0:
212,76,127117,1,8,1:0:0:0:
200,112,127233,1,12,1:3:0:0:
235,100,127348,1,8,1:3:0:0:
271,88,127463,1,8,1:0:0:0:
307,77,127579,1,8,1:3:0:0:
342,65,127694,5,12,1:3:0:0:
424,112,127925,1,0,0:0:0:0:
452,212,128156,1,8,1:0:0:0:
452,212,128386,1,8,1:3:0:0:
452,212,128502,1,8,1:0:0:0:
452,212,128848,2,0,P|439:247|429:283,1,74.9999952316285,8|0,1:3|0:0,0:0:0:0:
468,368,129310,1,8,1:3:0:0:
256,252,129540,5,12,1:3:0:0:
144,284,129771,1,8,1:0:0:0:
56,208,130002,1,8,1:0:0:0:
56,208,130233,1,8,1:3:0:0:
56,208,130348,2,0,P|45:172|37:135,1,74.9999952316285,8|8,1:0|1:3,0:0:0:0:
52,100,130694,1,8,1:0:0:0:
144,32,130925,1,8,1:3:0:0:
144,32,131040,1,8,1:0:0:0:
144,32,131156,2,0,L|180:24,1,37.4999976158143,8|8,1:3|1:0,0:0:0:0:
272,120,131386,6,0,L|257:193,1,74.9999952316285,12|8,1:3|1:3,0:0:0:0:
232,352,131733,1,8,1:3:0:0:
232,352,131963,1,8,1:3:0:0:
232,352,132079,1,8,1:0:0:0:
512,320,132310,6,0,L|438:305,1,74.9999952316285,12|8,1:3|1:3,0:0:0:0:
280,280,132657,1,8,1:0:0:0:
280,280,132887,1,8,1:3:0:0:
280,280,133003,1,12,1:3:0:0:
352,336,133233,5,8,1:0:0:0:
438,305,133694,1,0,0:0:0:0:
460,216,134156,1,2,2:0:0:0:
460,216,134386,5,8,1:3:0:0:
430,169,134501,1,8,1:3:0:0:
456,117,134617,1,8,1:0:0:0:
411,79,134732,1,8,1:0:0:0:
353,85,134847,1,8,1:3:0:0:
311,121,134963,1,8,1:0:0:0:
299,177,135079,5,12,1:3:0:0:
380,304,135310,2,0,L|372:340,1,37.4999976158143,8|8,1:3|1:3,0:0:0:0:
256,376,135540,1,8,1:0:0:0:
136,248,135771,1,8,1:3:0:0:
136,248,135886,2,0,L|100:240,1,37.4999976158143,8|0,1:0|0:0,0:0:0:0:
36,112,136117,1,8,1:3:0:0:
36,112,136232,2,0,L|72:104,1,37.4999976158143,8|0,1:0|0:0,0:0:0:0:
228,76,136463,1,8,1:3:0:0:
488,160,136694,6,0,L|500:86,1,74.9999952316285,12|12,1:3|1:3,0:0:0:0:
472,52,137040,1,0,0:0:0:0:
472,52,137156,2,0,L|435:44,1,37.4999976158143,8|8,1:3|1:3,0:0:0:0:
312,156,137386,2,0,L|324:229,1,74.9999952316285,8|8,1:0|1:3,0:0:0:0:
412,284,137733,1,8,1:0:0:0:
412,284,137848,2,0,L|405:320,1,37.4999976158143,0|8,0:0|1:3,0:0:0:0:
232,372,138079,2,0,L|195:365,1,37.4999976158143,8|0,1:0|0:0,0:0:0:0:
32,340,138310,1,8,1:3:0:0:
192,160,138540,1,12,1:3:0:0:
192,160,138771,6,0,L|179:85,1,74.9999952316285,12|8,1:3|1:3,0:0:0:0:
240,16,139117,1,8,1:3:0:0:
240,16,139233,2,0,L|276:9,1,37.4999976158143,8|0,1:0|0:0,0:0:0:0:
396,84,139463,1,8,1:3:0:0:
396,84,139579,1,8,1:0:0:0:
396,84,139694,2,0,L|389:120,1,37.4999976158143,8|8,1:0|1:3,0:0:0:0:
288,240,139925,1,8,1:0:0:0:
480,300,140156,1,8,1:3:0:0:
256,372,140386,1,12,1:3:0:0:
216,132,140617,5,12,1:3:0:0:
216,132,140733,1,0,0:0:0:0:
236,59,140963,5,8,1:3:0:0:
236,59,141079,2,0,L|216:131,1,74.9999952316285,8|8,1:0|1:3,0:0:0:0:
204,148,141425,1,8,1:0:0:0:
192,165,141540,2,0,L|155:157,1,37.4999976158143,12|8,1:3|1:0,0:0:0:0:
220,280,141771,2,0,L|256:272,1,37.4999976158143,8|8,1:0|1:3,0:0:0:0:
112,368,142002,1,8,1:0:0:0:
75,361,142117,1,8,1:0:0:0:
38,354,142232,1,12,1:3:0:0:
0,144,142463,5,12,1:3:0:0:
136,72,142694,2,0,L|128:36,1,37.4999976158143,8|8,1:3|1:3,0:0:0:0:
20,0,142925,1,8,1:0:0:0:
88,164,143156,1,8,1:3:0:0:
88,164,143271,2,0,L|80:200,1,37.4999976158143,8|0,1:0|0:0,0:0:0:0:
8,336,143502,1,8,1:3:0:0:
8,336,143617,2,0,L|0:300,1,37.4999976158143,8|0,1:0|0:0,0:0:0:0:
112,368,143848,1,8,1:3:0:0:
224,264,144079,1,12,1:3:0:0:
432,360,144310,6,0,L|452:288,1,74.9999952316285,12|8,1:3|1:3,0:0:0:0:
416,80,144771,1,12,1:3:0:0:
452,287,145002,1,8,1:3:0:0:
245,323,145233,1,0,0:0:0:0:
209,116,145463,2,0,L|216:79,2,37.4999976158143,12|0|12,1:3|0:0|1:3,0:0:0:0:
320,156,145810,1,8,1:3:0:0:
320,156,145925,2,0,L|327:193,1,37.4999976158143,8|8,1:3|1:3,0:0:0:0:
416,80,146156,5,12,1:3:0:0:
209,116,146386,1,8,1:0:0:0:
245,323,146617,1,8,1:0:0:0:
452,287,146848,1,8,1:0:0:0:
416,80,147079,5,8,1:0:0:0:
452,287,147310,2,0,L|415:294,1,37.4999976158143,8|8,1:0|1:3,0:0:0:0:
245,323,147540,2,0,L|238:286,1,37.4999976158143,12|8,1:3|1:3,0:0:0:0:
209,116,147771,2,0,L|246:109,1,37.4999976158143,8|8,1:0|1:0,0:0:0:0:
416,80,148002,5,12,1:3:0:0:
416,80,148694,1,8,0:3:0:0:
213,120,148925,1,8,0:3:0:0:
213,120,149040,1,8,1:0:0:0:
249,327,149271,1,8,0:3:0:0:
249,327,149386,1,8,1:0:0:0:
456,291,149617,1,12,1:3:0:0:
456,291,149848,6,0,P|400:268|342:252,1,119.999992370606,12|10,1:3|3:0,0:0:0:0:
160,292,150194,1,8,3:0:0:0:
160,292,150310,2,0,P|144:262|136:236,1,59.9999961853028,8|8,1:0|3:0,0:0:0:0:
260,136,150540,2,0,P|250:164|236:190,1,59.9999961853028,10|8,3:0|3:0,0:0:0:0:
4,224,150771,6,0,P|26:168|62:121,1,119.999992370606,8|10,1:0|3:0,0:0:0:0:
264,48,151233,2,0,P|236:35|207:28,1,59.9999961853028,8|8,1:3|1:3,0:0:0:0:
280,160,151463,2,0,P|309:153|336:140,1,59.9999961853028,10|10,3:0|3:0,0:0:0:0:
496,56,151694,6,0,P|452:134|424:219,1,179.999988555908,12|8,1:3|3:0,0:0:0:0:
388,28,152156,2,0,P|431:106|460:192,1,179.999988555908,8|8,1:0|3:0,0:0:0:0:
392,312,152617,2,0,P|362:304|334:294,1,59.9999961853028,8|8,1:0|1:0,0:0:0:0:
196,212,152848,1,10,3:0:0:0:
84,0,153079,1,8,1:3:0:0:
32,108,153310,1,10,3:0:0:0:
304,192,153540,6,0,L|422:172,1,119.999992370606,12|10,1:3|3:0,0:0:0:0:
484,328,153886,1,8,3:0:0:0:
484,328,154002,2,0,B|512:288|512:288|484:222,1,119.999992370606,8|10,1:0|3:0,0:0:0:0:
320,296,154348,1,8,3:0:0:0:
320,296,154463,2,0,L|379:306,1,59.9999961853028,8|8,1:0|1:0,0:0:0:0:
436,132,154694,2,0,L|377:142,1,59.9999961853028,10|8,3:0|1:0,0:0:0:0:
200,172,154925,1,8,1:3:0:0:
200,172,155156,6,0,L|180:53,1,119.999992370606,10|12,3:0|1:3,0:0:0:0:
64,36,155502,1,0,0:0:0:0:
64,36,155617,2,0,L|5:26,1,59.9999961853028,10|10,3:0|3:0,0:0:0:0:
80,192,155848,1,8,1:0:0:0:
304,152,156079,1,14,3:0:0:0:
304,152,156194,2,0,B|324:108|324:108|303:38,1,119.999992370606,8|8,3:0|1:0,0:0:0:0:
212,76,156540,1,10,3:0:0:0:
448,156,156771,1,12,1:3:0:0:
204,364,157002,1,10,3:0:0:0:
256,340,157117,1,10,1:3:0:0:
315,351,157233,6,0,P|280:302|267:244,1,119.999992370606,12|10,1:3|3:0,0:0:0:0:
428,292,157579,1,8,3:0:0:0:
428,292,157694,2,0,P|398:285|371:271,1,59.9999961853028,8|8,1:0|3:0,0:0:0:0:
288,108,157925,2,0,P|317:114|344:128,1,59.9999961853028,10|8,3:0|3:0,0:0:0:0:
360,184,158156,2,0,P|310:151|252:136,1,119.999992370606,8|10,1:0|3:0,0:0:0:0:
136,172,158617,1,8,1:3:0:0:
76,368,158848,1,10,3:0:0:0:
359,295,159079,6,0,P|378:239|359:183,1,119.999992370606,12|10,1:3|3:0,0:0:0:0:
256,80,159425,1,10,3:0:0:0:
256,191,159540,2,0,P|236:135|256:80,1,119.999992370606,12|10,1:3|3:0,0:0:0:0:
492,4,160002,2,0,P|511:59|491:115,1,119.999992370606,8|10,1:0|3:0,0:0:0:0:
464,128,160348,1,8,1:0:0:0:
436,140,160463,2,0,L|376:128,1,59.9999961853028,12|8,1:3|1:0,0:0:0:0:
324,20,160694,2,0,L|382:31,1,59.9999961853028,10|8,3:0|1:0,0:0:0:0:
256,160,160925,5,12,1:3:0:0:
256,160,161156,2,0,L|197:148,1,59.9999961853028,10|8,3:0|3:0,0:0:0:0:
52,40,161386,2,0,L|75:157,1,119.999992370606,8|10,1:0|3:0,0:0:0:0:
152,24,161733,1,8,3:0:0:0:
152,24,161848,2,0,L|163:82,1,59.9999961853028,8|8,1:0|1:0,0:0:0:0:
200,248,162079,1,10,3:0:0:0:
464,192,162310,1,8,1:3:0:0:
464,192,162540,2,0,L|405:180,1,59.9999961853028,10|10,3:0|3:0,0:0:0:0:
348,92,162771,6,0,L|421:77,1,74.9999952316285,12|0,1:3|0:0,0:0:0:0:
380,64,163233,2,0,L|306:49,1,74.9999952316285,0|0,0:0|0:0,0:0:0:0:
140,108,163694,1,0,1:0:0:0:
140,108,163810,1,0,0:0:0:0:
256,144,164040,1,0,0:0:0:0:
256,144,164156,1,12,1:3:0:0:
108,240,164386,1,8,3:0:0:0:
300,320,164617,6,0,L|373:305,1,74.9999952316285,4|2,1:3|0:0,0:0:0:0:
256,192,165079,12,4,166463,1:3:0:0:
472,48,172002,5,6,1:0:0:0:
472,48,172117,6,0,P|436:41|400:30,1,74.9999952316285,0|2,0:0|1:0,0:0:0:0:
328,96,172463,1,8,0:1:0:0:
328,96,172579,2,0,P|291:103|255:114,1,74.9999952316285,0|8,0:0|0:1,0:0:0:0:
200,192,172925,1,8,0:0:0:0:
56,152,173156,1,2,0:0:0:0:
56,152,173271,2,0,P|43:106|36:60,1,93.7499940395356,8|0,0:0|0:0,0:0:0:0:
104,280,173848,5,6,1:0:0:0:
104,280,173963,2,0,P|93:316|88:353,1,74.9999952316285,0|2,0:0|1:0,0:0:0:0:
188,344,174310,1,8,0:1:0:0:
188,344,174425,2,0,P|198:307|203:270,1,74.9999952316285,0|8,0:0|0:1,0:0:0:0:
172,180,174771,1,8,0:1:0:0:
236,48,175002,1,2,1:0:0:0:
236,48,175117,2,0,P|281:36|327:29,1,93.7499940395356
508,164,175694,5,6,1:0:0:0:
508,164,175810,1,0,0:0:0:0:
372,220,176040,1,2,1:0:0:0:
348,192,176156,2,0,P|312:181|275:173,1,74.9999952316285,8|2,0:1|1:0,0:0:0:0:
240,180,176502,1,8,0:1:0:0:
240,180,176617,1,8,0:0:0:0:
96,236,176848,1,2,0:0:0:0:
96,236,176963,2,0,L|56:224,1,37.4999976158143,8|8,0:0|0:1,0:0:0:0:
28,136,177194,1,8,3:0:0:0:
28,136,177310,1,2,1:0:0:0:
224,8,177540,5,6,1:0:0:0:
224,8,177656,1,0,0:0:0:0:
364,56,177886,1,2,1:0:0:0:
392,83,178002,1,8,0:1:0:0:
392,83,178117,2,0,P|402:118|410:155,1,74.9999952316285,8|2,0:3|0:0,0:0:0:0:
400,192,178463,1,2,1:0:0:0:
240,288,178694,1,2,0:0:0:0:
240,288,178810,1,2,1:0:0:0:
258,215,179040,2,0,P|247:250|239:287,1,74.9999952316285,10|2,0:1|1:0,0:0:0:0:
328,364,179386,5,6,1:0:0:0:
328,364,179617,1,2,0:0:0:0:
400,308,179848,1,8,0:1:0:0:
320,140,180079,1,2,1:0:0:0:
416,180,180310,1,8,0:0:0:0:
361,180,180425,1,8,0:0:0:0:
320,140,180540,1,8,0:0:0:0:
320,140,180656,2,0,L|332:104,1,37.4999976158143,8|8,0:0|0:0,0:0:0:0:
461,37,180886,2,0,L|438:111,1,74.9999952316285
212,69,181233,5,6,1:0:0:0:
212,69,181463,1,2,0:0:0:0:
0,132,181694,1,8,0:1:0:0:
182,173,181925,1,2,1:0:0:0:
166,222,182040,1,8,0:1:0:0:
151,271,182155,1,8,0:1:0:0:
298,210,182386,1,2,1:0:0:0:
313,160,182502,2,0,L|323:123,1,37.4999976158143,8|8,1:0|3:0,0:0:0:0:
120,32,182733,2,0,L|99:104,1,74.9999952316285,0|2,0:0|0:0,0:0:0:0:
166,222,183079,5,6,1:0:0:0:
298,210,183540,1,6,1:0:0:0:
380,312,184002,1,6,1:0:0:0:
512,300,184463,1,6,1:0:0:0:
512,300,184925,6,0,L|516:281,1,18.7499988079071,4|0,0:3|0:0,0:0:0:0:
512,300,186310,1,8,1:0:0:0:
380,312,186540,1,8,3:0:0:0:
160,104,186771,6,0,L|144:28,2,74.9999952316285,4|8|8,1:0|1:0|3:0,0:0:0:0:
304,52,187463,1,8,1:0:0:0:
464,160,187694,2,0,L|480:84,2,74.9999952316285,4|8|8,1:0|1:0|3:0,0:0:0:0:
380,312,188386,1,8,1:0:0:0:
88,248,188617,5,4,1:0:0:0:
16,160,188848,1,8,1:0:0:0:
16,160,188963,1,8,1:0:0:0:
16,160,189079,2,0,L|8:116,2,37.4999976158143,0|8|8,0:0|1:0|1:0,0:0:0:0:
124,104,189425,1,8,1:0:0:0:
124,104,189540,2,0,B|158:98|158:98|186:114|186:114|223:106,1,104.999990119935,4|8,1:0|1:0,0:0:0:0:
456,56,190002,1,0,0:0:0:0:
505,289,190233,1,8,1:0:0:0:
272,338,190463,6,0,P|243:253|255:164,1,179.999988555908,4|0,1:0|1:3,0:0:0:0:
316,180,190925,2,0,P|231:208|143:193,1,179.999988555908,8|8,1:0|1:0,0:0:0:0:
0,76,191502,1,8,1:3:0:0:
0,76,191617,1,8,1:0:0:0:
236,12,191848,2,0,L|355:0,1,119.999992370606,8|8,1:0|1:3,0:0:0:0:
472,92,192194,1,0,1:3:0:0:
472,92,192310,6,0,B|496:152|496:152|462:262,2,179.999988555908,4|0|8,1:0|1:3|1:3,0:0:0:0:
320,117,193117,1,8,1:0:0:0:
320,117,193233,2,0,L|379:123,1,59.9999961853028,8|8,1:3|1:3,0:0:0:0:
161,153,193463,1,10,1:0:0:0:
161,153,193579,2,0,L|220:159,1,59.9999961853028,0|10,0:0|1:0,0:0:0:0:
60,44,193810,2,0,P|31:96|10:152,1,119.999992370606,8|0,1:3|1:3,0:0:0:0:
88,288,194156,6,0,P|141:261|197:240,1,119.999992370606,4|8,1:0|1:3,0:0:0:0:
184,284,194502,2,0,P|157:230|136:174,1,119.999992370606,0|0,1:3|0:0,0:0:0:0:
204,64,194848,2,0,P|230:50|260:43,1,59.9999961853028,8|8,1:3|1:0,0:0:0:0:
380,124,195079,2,0,P|433:150|489:171,1,119.999992370606,0|8,0:0|1:0,0:0:0:0:
444,192,195425,2,0,P|387:212|334:239,1,119.999992370606,0|8,0:0|1:3,0:0:0:0:
312,284,195771,1,8,1:3:0:0:
84,368,196002,6,0,P|65:310|52:252,1,119.999992370606,4|8,1:0|1:3,0:0:0:0:
76,235,196348,1,0,1:3:0:0:
103,220,196463,1,8,1:0:0:0:
130,207,196579,2,0,P|135:177|140:147,1,59.9999961853028,0|8,0:0|1:0,0:0:0:0:
16,40,196810,2,0,P|71:16|129:1,1,119.999992370606,8|8,1:3|1:3,0:0:0:0:
146,58,197156,2,0,L|128:0,1,59.9999961853028,8|0,1:0|0:0,0:0:0:0:
8,136,197386,1,8,1:0:0:0:
8,136,197502,2,0,L|25:193,1,59.9999961853028,8|8,1:3|1:3,0:0:0:0:
172,336,197733,1,0,1:3:0:0:
172,336,197848,6,0,P|229:319|271:277,1,119.999992370606,4|8,1:0|1:3,0:0:0:0:
327,257,198194,2,0,L|271:277,1,59.9999961853028,0|8,1:3|1:0,0:0:0:0:
448,360,198425,2,0,L|392:340,1,59.9999961853028,0|8,0:0|1:3,0:0:0:0:
508,192,198656,2,0,B|528:148|528:148|509:78,1,119.999992370606,8|8,1:0|1:3,0:0:0:0:
488,60,199002,1,8,1:0:0:0:
464,44,199117,1,0,0:0:0:0:
440,28,199233,2,0,L|382:12,2,59.9999961853028,8|8|8,1:0|1:3|1:3,0:0:0:0:
368,160,199579,1,0,1:3:0:0:
368,160,199694,6,0,B|324:184|324:184|256:160,1,119.999992370606,4|8,1:0|1:3,0:0:0:0:
245,101,200040,2,0,P|253:131|257:160,1,59.9999961853028,0|8,1:3|1:0,0:0:0:0:
112,248,200271,2,0,P|116:218|123:189,1,59.9999961853028,0|8,0:0|1:3,0:0:0:0:
256,304,200502,2,0,P|201:328|151:361,2,119.999992370606,8|8|0,1:0|1:3|0:0,0:0:0:0:
376,324,201079,2,0,L|387:382,1,59.9999961853028,8|8,1:0|1:3,0:0:0:0:
512,268,201310,2,0,L|500:209,1,59.9999961853028,8|0,1:3|1:3,0:0:0:0:
380,48,201540,6,0,B|344:59|316:32|316:32|287:38|268:68|268:68|231:79|221:27|162:51,1,239.999984741211,4|8,1:0|1:0,0:0:0:0:
28,208,202233,1,8,1:3:0:0:
28,208,202348,1,8,1:0:0:0:
345,132,202579,1,8,1:3:0:0:
345,132,202694,2,0,P|286:141|228:156,1,119.999992370606,8|8,1:0|1:0,0:0:0:0:
140,260,203040,2,0,P|199:268|257:283,1,119.999992370606,8|0,1:3|1:3,0:0:0:0:
472,348,203386,6,0,P|412:356|354:371,1,119.999992370606,4|8,1:0|1:3,0:0:0:0:
488,312,203733,2,0,P|428:320|370:335,1,119.999992370606,0|8,1:3|1:3,0:0:0:0:
504,276,204079,2,0,P|474:279|444:284,1,59.9999961853028,8|8,1:0|1:0,0:0:0:0:
296,144,204310,6,0,P|333:148|369:156,1,74.9999952316285,8|8,1:3|1:0,0:0:0:0:
280,108,204656,2,0,P|317:112|353:120,1,74.9999952316285,8|8,1:3|1:3,0:0:0:0:
263,71,205002,2,0,P|282:74|300:79,1,37.4999976158143,8|0,1:3|1:3,0:0:0:0:
512,4,205233,6,0,P|452:12|394:25,1,119.999992370606,12|2,1:3|0:0,0:0:0:0:
480,136,205925,1,2,0:0:0:0:
480,136,206040,1,2,0:0:0:0:
480,136,206156,2,0,P|420:144|362:157,1,119.999992370606,0|2,0:0|0:0,0:0:0:0:
288,228,206848,1,2,0:0:0:0:
172,156,207079,6,0,P|154:98|144:39,2,119.999992370606,2|2|0,0:0|0:0|0:0,0:0:0:0:
172,156,208117,1,2,0:0:0:0:
172,156,208233,1,2,0:0:0:0:
288,228,208463,1,2,0:0:0:0:
220,300,208694,1,2,0:0:0:0:
220,300,208810,1,2,0:0:0:0:
220,300,208925,6,0,L|208:358,2,59.9999961853028,2|2|2,0:0|0:0|0:0,0:0:0:0:
376,256,209617,1,2,0:0:0:0:
376,256,209733,2,0,L|364:314,1,59.9999961853028,2|2,0:0|0:0,0:0:0:0:
356,352,210079,1,2,0:0:0:0:
400,152,210310,1,2,0:0:0:0:
344,80,210540,1,2,0:0:0:0:
344,80,210656,1,2,0:0:0:0:
344,80,210771,6,0,P|315:70|286:64,2,59.9999961853028,2|2|2,0:0|0:0|0:0,0:0:0:0:
452,240,211463,1,2,0:0:0:0:
452,240,211579,1,2,0:0:0:0:
452,240,211694,6,0,P|481:230|510:224,2,59.9999961853028,0|2|2,0:0|0:0|0:0,0:0:0:0:
312,368,212386,1,2,0:0:0:0:
223,322,212617,6,0,P|166:302|107:290,1,119.999992370606,4|8,0:2|0:3,0:0:0:0:
153,206,213310,1,2,0:0:0:0:
266,167,213540,2,0,P|209:182|154:206,1,119.999992370606,0|8,0:0|0:3,0:0:0:0:
144,112,214233,1,2,0:0:0:0:
215,15,214463,6,0,P|177:61|145:112,2,119.999992370606,2|8|0,0:0|0:3|1:0,0:0:0:0:
215,15,215617,1,8,3:0:0:0:
412,72,215848,1,8,1:0:0:0:
312,140,216079,1,8,3:0:0:0:
488,252,216310,6,0,L|472:325,1,74.9999952316285,12|8,1:3|3:0,0:0:0:0:
304,264,216771,2,0,L|288:337,1,74.9999952316285,8|12,1:0|1:3,0:0:0:0:
32,216,217233,6,0,L|24:179,1,37.4999976158143,8|0,3:0|0:0,0:0:0:0:
8,108,217463,2,0,L|15:144,1,37.4999976158143,8|0,1:0|0:0,0:0:0:0:
216,228,217694,2,0,L|208:191,1,37.4999976158143,12|0,1:3|0:0,0:0:0:0:
192,120,217924,2,0,L|199:156,1,37.4999976158143,8|0,1:0|0:0,0:0:0:0:
44,333,218156,5,12,1:3:0:0:
140,365,218386,1,8,1:0:0:0:
176,358,218501,1,12,1:3:0:0:
213,351,218616,1,10,3:0:0:0:
250,344,218732,1,8,1:0:0:0:
287,337,218848,2,0,L|295:300,1,37.4999976158143,12|10,1:3|3:0,0:0:0:0:
420,244,219079,1,12,1:3:0:0:
413,281,219195,1,8,1:0:0:0:
406,318,219311,2,0,L|369:326,1,37.4999976158143,8|12,1:0|1:3,0:0:0:0:
284,192,219540,2,0,L|320:183,1,37.4999976158143,10|8,3:0|1:0,0:0:0:0:
484,152,219771,2,0,L|492:115,1,37.4999976158143,12|12,1:3|1:3,0:0:0:0:
372,24,220002,6,0,L|284:4,1,89.9999942779542,12|0,1:3|0:0,0:0:0:0:
256,28,220463,6,0,P|286:33|314:41,1,59.9999961853028,8|8,1:0|3:0,0:0:0:0:
187,143,220694,2,0,P|177:116|173:86,1,59.9999961853028,10|8,3:0|3:0,0:0:0:0:
392,192,220925,6,0,P|380:252|356:308,1,119.999992370606,8|10,1:0|3:0,0:0:0:0:
140,352,221386,2,0,P|128:324|120:295,1,59.9999961853028,8|8,1:3|1:3,0:0:0:0:
256,224,221617,2,0,P|248:253|236:280,1,59.9999961853028,10|10,3:0|3:0,0:0:0:0:
144,112,221848,6,0,P|226:75|313:53,1,179.999988555908,12|8,1:3|3:0,0:0:0:0:
440,204,222310,2,0,P|357:167|270:145,1,179.999988555908,8|8,1:0|3:0,0:0:0:0:
192,264,222771,2,0,P|218:250|247:241,1,59.9999961853028,8|8,1:0|1:0,0:0:0:0:
376,336,223002,1,10,3:0:0:0:
512,136,223233,1,8,1:3:0:0:
460,32,223463,1,10,3:0:0:0:
208,156,223694,6,0,L|192:36,1,119.999992370606,12|10,1:3|3:0,0:0:0:0:
312,160,224040,1,8,3:0:0:0:
312,160,224156,2,0,B|348:192|348:192|419:182,1,119.999992370606,8|10,1:0|3:0,0:0:0:0:
304,8,224502,1,8,3:0:0:0:
304,8,224617,2,0,L|296:68,1,59.9999961853028,8|8,1:0|1:0,0:0:0:0:
132,160,224848,2,0,L|124:100,1,59.9999961853028,10|8,3:0|1:0,0:0:0:0:
220,272,225079,1,8,1:3:0:0:
220,272,225310,6,0,L|101:256,1,119.999992370606,10|12,3:0|1:3,0:0:0:0:
8,332,225656,1,0,0:0:0:0:
8,332,225771,2,0,L|0:272,1,59.9999961853028,10|10,3:0|3:0,0:0:0:0:
44,88,226002,1,8,1:0:0:0:
256,176,226233,1,14,3:0:0:0:
256,176,226348,2,0,B|200:192|200:192|140:168,1,119.999992370606,8|8,3:0|1:0,0:0:0:0:
212,92,226694,1,10,3:0:0:0:
256,340,226925,1,12,1:3:0:0:
496,268,227156,1,10,3:0:0:0:
400,336,227386,6,0,P|379:279|368:220,1,119.999992370606,12|10,1:3|3:0,0:0:0:0:
468,108,227733,1,8,3:0:0:0:
468,108,227848,2,0,P|440:99|408:92,1,59.9999961853028,8|8,1:0|3:0,0:0:0:0:
244,16,228079,2,0,P|271:7|304:0,1,59.9999961853028,10|8,3:0|3:0,0:0:0:0:
200,152,228310,2,0,P|257:136|316:124,1,119.999992370606,8|10,1:0|3:0,0:0:0:0:
316,124,228771,1,8,1:3:0:0:
108,72,229002,1,10,3:0:0:0:
15,327,229233,6,0,P|-11:275|-2:217,1,119.999992370606,12|10,1:3|3:0,0:0:0:0:
135,191,229579,1,10,3:0:0:0:
214,269,229694,2,0,P|162:243|134:190,1,119.999992370606,12|10,1:3|3:0,0:0:0:0:
380,124,230156,2,0,P|321:132|269:105,1,119.999992370606,8|10,1:0|3:0,0:0:0:0:
260,76,230502,1,8,1:0:0:0:
256,48,230617,2,0,L|272:-12,1,59.9999961853028,12|8,1:3|1:0,0:0:0:0:
395,66,230848,2,0,L|379:123,1,59.9999961853028,10|8,3:0|1:0,0:0:0:0:
224,224,231079,5,12,1:3:0:0:
224,224,231310,2,0,L|208:281,1,59.9999961853028,10|8,3:0|3:0,0:0:0:0:
372,344,231540,2,0,L|256:376,1,119.999992370606,8|10,1:0|3:0,0:0:0:0:
120,320,231886,1,8,3:0:0:0:
120,320,232002,2,0,L|62:335,1,59.9999961853028,8|8,1:0|1:0,0:0:0:0:
92,192,232233,2,0,L|149:176,1,59.9999961853028,10|8,3:0|1:0,0:0:0:0:
340,136,232463,1,8,1:3:0:0:
256,64,232694,1,10,3:0:0:0:
256,64,232810,1,10,3:0:0:0:
256,64,232925,6,0,L|198:48,1,59.9999961853028,12|0,1:3|0:0,0:0:0:0:
256,192,233156,2,0,L|313:207,1,59.9999961853028,10|8,3:0|3:0,0:0:0:0:
472,124,233386,2,0,L|504:8,1,119.999992370606,8|10,1:0|3:0,0:0:0:0:
464,36,233733,1,8,3:0:0:0:
464,36,233848,2,0,L|406:20,2,59.9999961853028,8|8|10,1:0|1:0|3:0,0:0:0:0:
328,100,234194,1,8,1:0:0:0:
328,100,234310,2,0,L|344:158,1,59.9999961853028,8|8,1:3|1:3,0:0:0:0:
504,240,234540,2,0,L|488:298,1,59.9999961853028,10|10,3:0|3:0,0:0:0:0:
292,376,234771,5,12,1:3:0:0:
256,264,235002,1,10,3:0:0:0:
116,376,235233,2,0,L|0:344,1,119.999992370606,8|10,1:0|3:0,0:0:0:0:
0,344,235579,1,8,3:0:0:0:
0,344,235694,1,8,1:0:0:0:
152,224,235925,1,10,3:0:0:0:
20,48,236156,2,0,L|136:16,1,119.999992370606,8|10,1:3|3:0,0:0:0:0:
172,151,236617,6,0,L|152:224,1,74.9999952316285,12|0,1:3|0:0,0:0:0:0:
172,256,237079,2,0,L|244:235,1,74.9999952316285,2|8,0:3|3:0,0:0:0:0:
320,72,237540,1,12,1:3:0:0:
320,72,237656,1,0,0:0:0:0:
368,184,237886,1,8,3:0:0:0:
368,184,238002,1,4,1:3:0:0:
337,315,238233,1,0,0:0:0:0:
0,348,238463,6,0,P|14:289|31:232,1,119.999992370606,4|8,1:3|1:3,0:0:0:0:
160,300,238810,2,0,P|132:310|102:315,1,59.9999961853028,0|8,1:3|1:0,0:0:0:0:
4,144,239040,2,0,P|15:116|33:92,1,59.9999961853028,0|8,0:0|1:3,0:0:0:0:
208,4,239271,1,8,1:0:0:0:
208,4,239502,1,8,1:3:0:0:
208,4,239617,1,8,1:0:0:0:
444,156,239848,1,8,1:0:0:0:
308,120,240079,1,12,1:3:0:0:
308,120,240194,1,0,1:3:0:0:
308,120,240310,6,0,L|249:105,2,59.9999961853028,4|8|8,1:3|1:3|1:3,0:0:0:0:
444,272,240656,2,0,L|385:286,1,59.9999961853028,0|8,1:3|1:0,0:0:0:0:
176,384,240886,2,0,L|161:325,1,59.9999961853028,0|8,0:0|1:3,0:0:0:0:
116,136,241117,1,8,1:0:0:0:
116,136,241348,1,8,1:3:0:0:
116,136,241463,1,8,1:0:0:0:
0,376,241694,1,12,1:3:0:0:
312,244,241925,1,8,1:3:0:0:
324,216,242040,1,0,1:3:0:0:
336,188,242156,6,0,L|324:68,1,119.999992370606,4|8,1:3|1:3,0:0:0:0:
184,16,242502,2,0,L|243:37,1,59.9999961853028,0|8,1:3|1:0,0:0:0:0:
315,162,242733,2,0,L|258:141,1,59.9999961853028,0|12,0:0|1:3,0:0:0:0:
92,224,242963,1,8,1:0:0:0:
92,224,243194,1,8,1:3:0:0:
92,224,243310,1,8,1:0:0:0:
316,360,243540,1,12,1:3:0:0:
468,296,243771,1,8,1:3:0:0:
468,296,243886,1,0,1:3:0:0:
468,296,244002,6,0,L|483:238,2,59.9999961853028,4|8|8,1:3|1:3|1:3,0:0:0:0:
336,224,244348,1,0,1:3:0:0:
336,224,244463,2,0,L|351:166,1,59.9999961853028,8|0,1:0|0:0,0:0:0:0:
456,32,244694,1,8,1:0:0:0:
496,104,244810,2,0,B|448:116|448:116|384:84,1,119.999992370606,8|8,1:3|1:3,0:0:0:0:
356,64,245156,1,8,1:0:0:0:
104,156,245386,1,8,1:0:0:0:
320,329,245617,1,12,1:3:0:0:
351,280,245733,1,0,1:3:0:0:
336,224,245848,6,0,P|277:212|217:204,1,119.999992370606,4|8,1:3|1:3,0:0:0:0:
108,312,246194,2,0,P|137:305|166:300,1,59.9999961853028,0|8,1:3|1:0,0:0:0:0:
288,136,246425,2,0,P|258:130|229:124,1,59.9999961853028,0|8,0:0|1:3,0:0:0:0:
44,36,246656,1,8,1:0:0:0:
44,36,246886,1,8,1:3:0:0:
44,36,247002,1,8,1:0:0:0:
253,3,247233,1,12,1:3:0:0:
452,88,247463,1,8,1:3:0:0:
452,88,247579,1,0,1:3:0:0:
452,88,247694,6,0,L|512:72,2,59.9999961853028,4|8|8,1:3|1:3|1:3,0:0:0:0:
372,208,248040,2,0,L|314:192,1,59.9999961853028,0|8,1:3|1:0,0:0:0:0:
200,12,248271,2,0,L|142:27,1,59.9999961853028,0|8,0:0|1:3,0:0:0:0:
36,224,248502,1,8,1:0:0:0:
36,224,248733,1,8,1:3:0:0:
36,224,248848,1,8,1:0:0:0:
256,332,249079,1,12,1:3:0:0:
487,239,249310,1,8,1:3:0:0:
487,239,249425,1,0,1:3:0:0:
487,239,249540,6,0,L|371:207,1,119.999992370606,4|8,1:3|1:3,0:0:0:0:
272,92,249886,2,0,L|256:34,1,59.9999961853028,0|8,1:3|1:0,0:0:0:0:
432,0,250117,2,0,L|416:57,1,59.9999961853028,0|8,0:0|1:3,0:0:0:0:
356,296,250348,1,8,1:0:0:0:
356,296,250579,1,8,1:3:0:0:
356,296,250694,1,8,1:0:0:0:
56,136,250925,1,8,1:0:0:0:
200,84,251156,1,12,1:3:0:0:
200,84,251271,1,0,1:3:0:0:
200,84,251386,6,0,L|256:104,2,59.9999961853028,4|8|8,1:3|1:3|1:3,0:0:0:0:
56,136,251733,2,0,L|0:156,1,59.9999961853028,4|8,1:3|1:0,0:0:0:0:
192,244,251963,2,0,L|217:190,1,59.9999961853028,8|12,1:3|1:3,0:0:0:0:
48,324,252194,2,0,L|68:379,2,59.9999961853028,8|8|8,1:0|1:3|1:3,0:0:0:0:
20,236,252540,1,8,1:0:0:0:
292,360,252771,1,12,1:3:0:0:
292,360,253002,6,0,L|387:346,1,74.9999952316285,4|0,1:3|0:0,0:0:0:0:
256,192,253348,12,0,255310,0:0:0:0:
