osu file format v14

[General]
AudioFilename: 5.mp3
AudioLeadIn: 0
PreviewTime: 25114
Countdown: 0
SampleSet: Normal
StackLeniency: 0.7
Mode: 1
LetterboxInBreaks: 0
WidescreenStoryboard: 0

[Editor]
DistanceSpacing: 1
BeatDivisor: 4
GridSize: 32
TimelineZoom: 2.799999

[Metadata]
Title:ZUNTATA Touhou Arrangement Pack
TitleUnicode:ZUNTATA東方アレンジパック
Artist:ZUNTATA
ArtistUnicode:ZUNTATA
Creator:Felt7z
Version:MASAKI (ZUNTATA) - Touhou Gaimaden
Source:
Tags:
BeatmapID:1290559
BeatmapSetID:611314

[Difficulty]
HPDrainRate:5
CircleSize:5
OverallDifficulty:6.5
ApproachRate:5
SliderMultiplier:1.4
SliderTickRate:1

[Events]
//Background and Video events
0,0,"Kanjuden.jpg",0,0
//Break Periods
2,45157,46219
2,127619,131142
//Storyboard Layer 0 (Background)
//Storyboard Layer 1 (Fail)
//Storyboard Layer 2 (Pass)
//Storyboard Layer 3 (Foreground)
//Storyboard Sound Samples

[TimingPoints]
650,307.692307692308,4,1,0,100,1,0
12957,-100,4,1,0,100,0,0
24957,-50,4,1,0,100,0,0
25265,-100,4,1,0,100,0,0
54803,-90.9090909090909,4,1,0,100,0,0
57265,-100,4,1,0,100,0,0
75726,-90.9090909090909,4,1,0,100,0,1
85573,-90.9090909090909,4,1,0,100,0,0
85880,-100,4,1,0,100,0,0
88188,-95.2380952380952,4,1,0,100,0,0
107726,-90.9090909090909,4,1,0,100,0,1
127419,-100,4,1,0,100,0,0
128650,-95.2380952380952,4,1,0,100,0,0
129880,-90.9090909090909,4,1,0,100,0,0
131111,-86.9565217391304,4,1,0,100,0,0
132342,-83.3333333333333,4,1,0,100,0,0
134803,-80,4,1,0,100,0,0
137265,-76.9230769230769,4,1,0,100,0,0

[HitObjects]
256,192,2034,5,0,0:0:0:0:
256,192,2086,1,0,0:0:0:0:
256,192,2137,1,0,0:0:0:0:
256,192,2188,1,8,0:0:0:0:
256,192,2342,1,0,0:0:0:0:
256,192,2419,1,0,0:0:0:0:
256,192,2496,1,8,0:0:0:0:
256,192,2650,1,0,0:0:0:0:
256,192,2727,1,8,0:0:0:0:
256,192,2881,1,8,0:0:0:0:
256,192,3034,1,0,0:0:0:0:
256,192,3111,1,8,0:0:0:0:
256,192,3265,1,0,0:0:0:0:
256,192,3342,1,8,0:0:0:0:
256,192,3419,1,0,0:0:0:0:
256,192,3496,1,0,0:0:0:0:
256,192,3573,1,0,0:0:0:0:
256,192,3727,1,8,0:0:0:0:
256,192,3881,1,0,0:0:0:0:
256,192,3957,1,0,0:0:0:0:
256,192,4034,1,8,0:0:0:0:
256,192,4111,1,0,0:0:0:0:
256,192,4188,1,0,0:0:0:0:
256,192,4342,1,8,0:0:0:0:
256,192,4496,1,0,0:0:0:0:
256,192,4573,1,0,0:0:0:0:
256,192,4650,1,0,0:0:0:0:
256,192,4727,1,8,0:0:0:0:
256,192,4804,1,0,0:0:0:0:
256,192,4957,1,8,0:0:0:0:
256,192,5111,1,0,0:0:0:0:
256,192,5265,1,8,0:0:0:0:
256,192,5419,1,0,0:0:0:0:
256,192,5573,1,8,0:0:0:0:
256,192,5727,1,0,0:0:0:0:
256,192,5804,1,8,0:0:0:0:
256,192,5881,1,8,0:0:0:0:
256,192,5957,1,0,0:0:0:0:
256,192,6034,1,0,0:0:0:0:
256,192,6188,1,8,0:0:0:0:
256,192,6342,1,0,0:0:0:0:
256,192,6419,1,0,0:0:0:0:
256,192,6496,1,8,0:0:0:0:
256,192,6573,1,8,0:0:0:0:
256,192,6650,1,0,0:0:0:0:
256,192,6804,1,12,0:0:0:0:
256,192,7419,1,4,0:0:0:0:
256,192,7727,1,4,0:0:0:0:
256,192,8034,1,0,0:0:0:0:
256,192,8342,1,8,0:0:0:0:
256,192,8650,1,8,0:0:0:0:
256,192,8957,1,8,0:0:0:0:
256,192,9265,1,8,0:0:0:0:
256,192,9573,1,8,0:0:0:0:
256,192,9881,1,8,0:0:0:0:
256,192,10188,1,8,0:0:0:0:
256,192,10496,1,8,0:0:0:0:
256,192,10650,1,8,0:0:0:0:
256,192,10804,1,8,0:0:0:0:
256,192,10957,1,8,0:0:0:0:
256,192,11111,1,8,0:0:0:0:
256,192,11265,1,8,0:0:0:0:
256,192,11419,1,8,0:0:0:0:
256,192,11573,1,8,0:0:0:0:
256,192,11727,1,8,0:0:0:0:
256,192,11804,1,8,0:0:0:0:
256,192,11881,1,0,0:0:0:0:
256,192,11957,1,8,0:0:0:0:
256,192,12034,1,0,0:0:0:0:
256,192,12111,1,0,0:0:0:0:
256,192,12188,1,8,0:0:0:0:
256,192,12265,1,0,0:0:0:0:
256,192,12342,1,8,0:0:0:0:
256,192,12419,1,8,0:0:0:0:
256,192,12496,1,8,0:0:0:0:
256,192,12650,1,4,0:0:0:0:
256,192,12957,1,8,0:0:0:0:
256,192,13111,1,8,0:0:0:0:
256,192,13188,1,8,0:0:0:0:
256,192,13265,1,0,0:0:0:0:
256,192,13419,1,0,0:0:0:0:
256,192,13496,1,0,0:0:0:0:
256,192,13573,1,0,0:0:0:0:
256,192,13727,1,0,0:0:0:0:
256,192,13804,1,0,0:0:0:0:
256,192,13881,1,8,0:0:0:0:
256,192,14034,1,8,0:0:0:0:
256,192,14111,1,8,0:0:0:0:
256,192,14188,1,8,0:0:0:0:
256,192,14342,1,8,0:0:0:0:
256,192,14419,1,8,0:0:0:0:
256,192,14496,1,0,0:0:0:0:
256,192,14650,1,0,0:0:0:0:
256,192,14727,1,0,0:0:0:0:
256,192,14804,1,0,0:0:0:0:
256,192,14957,1,0,0:0:0:0:
256,192,15034,1,0,0:0:0:0:
256,192,15111,1,8,0:0:0:0:
256,192,15265,1,8,0:0:0:0:
256,192,15342,1,8,0:0:0:0:
256,192,15419,1,8,0:0:0:0:
256,192,15573,1,0,0:0:0:0:
256,192,15650,1,0,0:0:0:0:
256,192,15727,1,8,0:0:0:0:
256,192,15881,1,0,0:0:0:0:
256,192,15957,1,0,0:0:0:0:
256,192,16034,1,0,0:0:0:0:
256,192,16188,1,8,0:0:0:0:
256,192,16265,1,8,0:0:0:0:
256,192,16342,1,0,0:0:0:0:
256,192,16496,1,8,0:0:0:0:
256,192,16573,1,8,0:0:0:0:
256,192,16650,1,8,0:0:0:0:
256,192,16804,1,0,0:0:0:0:
256,192,16881,1,0,0:0:0:0:
256,192,16957,1,8,0:0:0:0:
256,192,17111,1,0,0:0:0:0:
256,192,17188,1,0,0:0:0:0:
256,192,17265,1,0,0:0:0:0:
256,192,17419,1,8,0:0:0:0:
256,192,17496,1,8,0:0:0:0:
256,192,17573,1,0,0:0:0:0:
256,192,17727,1,8,0:0:0:0:
256,192,17804,1,8,0:0:0:0:
256,192,17881,1,8,0:0:0:0:
256,192,18034,1,0,0:0:0:0:
256,192,18111,1,8,0:0:0:0:
256,192,18188,1,0,0:0:0:0:
256,192,18342,1,0,0:0:0:0:
256,192,18419,1,0,0:0:0:0:
256,192,18496,1,0,0:0:0:0:
256,192,18650,1,8,0:0:0:0:
256,192,18727,1,0,0:0:0:0:
256,192,18804,1,8,0:0:0:0:
256,192,18957,1,8,0:0:0:0:
256,192,19034,1,8,0:0:0:0:
256,192,19111,1,8,0:0:0:0:
256,192,19265,1,0,0:0:0:0:
256,192,19342,1,8,0:0:0:0:
256,192,19419,1,0,0:0:0:0:
256,192,19573,1,0,0:0:0:0:
256,192,19650,1,0,0:0:0:0:
256,192,19727,1,0,0:0:0:0:
256,192,19881,1,8,0:0:0:0:
256,192,19957,1,0,0:0:0:0:
256,192,20034,1,8,0:0:0:0:
256,192,20188,1,8,0:0:0:0:
256,192,20265,1,8,0:0:0:0:
256,192,20342,1,8,0:0:0:0:
256,192,20496,1,0,0:0:0:0:
256,192,20573,1,0,0:0:0:0:
256,192,20650,1,0,0:0:0:0:
256,192,20804,1,0,0:0:0:0:
256,192,20881,1,0,0:0:0:0:
256,192,20957,1,0,0:0:0:0:
256,192,21111,1,8,0:0:0:0:
256,192,21188,1,8,0:0:0:0:
256,192,21265,1,8,0:0:0:0:
256,192,21419,1,8,0:0:0:0:
256,192,21496,1,8,0:0:0:0:
256,192,21573,1,8,0:0:0:0:
256,192,21727,1,0,0:0:0:0:
256,192,21804,1,0,0:0:0:0:
256,192,21881,1,0,0:0:0:0:
256,192,22034,1,0,0:0:0:0:
256,192,22111,1,0,0:0:0:0:
256,192,22188,1,0,0:0:0:0:
256,192,22342,1,8,0:0:0:0:
256,192,22419,1,8,0:0:0:0:
256,192,22496,1,8,0:0:0:0:
256,192,22650,1,8,0:0:0:0:
256,192,22727,1,8,0:0:0:0:
256,192,22804,1,8,0:0:0:0:
256,192,22957,1,8,0:0:0:0:
256,192,23111,1,8,0:0:0:0:
256,192,23265,1,8,0:0:0:0:
256,192,23419,1,12,0:0:0:0:
256,192,23573,1,12,0:0:0:0:
256,192,23727,1,12,0:0:0:0:
256,192,23881,1,12,0:0:0:0:
256,192,24034,1,4,0:0:0:0:
256,192,24342,1,4,0:0:0:0:
256,192,24650,1,4,0:0:0:0:
256,192,24957,1,8,0:0:0:0:
256,192,25265,1,0,0:0:0:0:
256,192,25419,1,8,0:0:0:0:
256,192,25573,1,0,0:0:0:0:
256,192,25727,1,8,0:0:0:0:
256,192,25881,1,0,0:0:0:0:
256,192,25957,1,0,0:0:0:0:
256,192,26034,1,0,0:0:0:0:
256,192,26188,1,0,0:0:0:0:
256,192,26342,1,8,0:0:0:0:
256,192,26419,1,8,0:0:0:0:
256,192,26496,1,0,0:0:0:0:
256,192,26650,1,8,0:0:0:0:
256,192,26804,1,8,0:0:0:0:
256,192,26957,1,0,0:0:0:0:
256,192,27034,1,0,0:0:0:0:
256,192,27111,1,8,0:0:0:0:
256,192,27188,1,0,0:0:0:0:
256,192,27265,1,0,0:0:0:0:
256,192,27419,1,8,0:0:0:0:
256,192,27573,1,0,0:0:0:0:
256,192,27650,1,0,0:0:0:0:
256,192,27727,1,0,0:0:0:0:
256,192,27881,1,8,0:0:0:0:
256,192,27957,1,8,0:0:0:0:
256,192,28034,1,0,0:0:0:0:
256,192,28188,1,8,0:0:0:0:
256,192,28265,1,0,0:0:0:0:
256,192,28342,1,8,0:0:0:0:
256,192,28419,1,0,0:0:0:0:
256,192,28496,1,0,0:0:0:0:
256,192,28650,1,8,0:0:0:0:
256,192,28804,1,0,0:0:0:0:
256,192,28881,1,0,0:0:0:0:
256,192,28957,1,0,0:0:0:0:
256,192,29111,1,8,0:0:0:0:
256,192,29265,1,8,0:0:0:0:
256,192,29419,1,0,0:0:0:0:
256,192,29496,1,0,0:0:0:0:
256,192,29573,1,8,0:0:0:0:
256,192,29650,1,0,0:0:0:0:
256,192,29727,1,8,0:0:0:0:
256,192,29804,1,0,0:0:0:0:
256,192,29881,1,8,0:0:0:0:
256,192,29957,1,8,0:0:0:0:
256,192,30034,1,0,0:0:0:0:
256,192,30188,1,0,0:0:0:0:
256,192,30342,1,8,0:0:0:0:
256,192,30496,1,0,0:0:0:0:
256,192,30650,1,8,0:0:0:0:
256,192,30804,1,0,0:0:0:0:
256,192,30881,1,0,0:0:0:0:
256,192,30957,1,0,0:0:0:0:
256,192,31111,1,0,0:0:0:0:
256,192,31265,1,8,0:0:0:0:
256,192,31342,1,8,0:0:0:0:
256,192,31419,1,0,0:0:0:0:
256,192,31573,1,8,0:0:0:0:
256,192,31727,1,8,0:0:0:0:
256,192,31881,1,0,0:0:0:0:
256,192,31957,1,0,0:0:0:0:
256,192,32034,1,8,0:0:0:0:
256,192,32111,1,0,0:0:0:0:
256,192,32188,1,0,0:0:0:0:
256,192,32342,1,8,0:0:0:0:
256,192,32496,1,0,0:0:0:0:
256,192,32573,1,0,0:0:0:0:
256,192,32650,1,0,0:0:0:0:
256,192,32804,1,8,0:0:0:0:
256,192,32881,1,8,0:0:0:0:
256,192,32957,1,0,0:0:0:0:
256,192,33111,1,8,0:0:0:0:
256,192,33188,1,0,0:0:0:0:
256,192,33265,1,8,0:0:0:0:
256,192,33342,1,0,0:0:0:0:
256,192,33419,1,0,0:0:0:0:
256,192,33573,1,8,0:0:0:0:
256,192,33727,1,0,0:0:0:0:
256,192,33804,1,0,0:0:0:0:
256,192,33881,1,0,0:0:0:0:
256,192,34034,1,0,0:0:0:0:
256,192,34188,1,8,0:0:0:0:
256,192,34342,1,8,0:0:0:0:
256,192,34419,1,8,0:0:0:0:
256,192,34496,1,4,0:0:0:0:
256,192,34804,1,4,0:0:0:0:
256,192,35111,1,0,0:0:0:0:
256,192,35265,1,8,0:0:0:0:
256,192,35419,1,0,0:0:0:0:
256,192,35573,1,8,0:0:0:0:
256,192,35727,1,0,0:0:0:0:
256,192,35804,1,0,0:0:0:0:
256,192,35881,1,8,0:0:0:0:
256,192,36034,1,8,0:0:0:0:
256,192,36188,1,8,0:0:0:0:
256,192,36265,1,8,0:0:0:0:
256,192,36342,1,0,0:0:0:0:
256,192,36496,1,8,0:0:0:0:
256,192,36650,1,8,0:0:0:0:
256,192,36804,1,0,0:0:0:0:
256,192,36881,1,0,0:0:0:0:
256,192,36957,1,8,0:0:0:0:
256,192,37034,1,8,0:0:0:0:
256,192,37111,1,0,0:0:0:0:
256,192,37265,1,8,0:0:0:0:
256,192,37419,1,0,0:0:0:0:
256,192,37496,1,0,0:0:0:0:
256,192,37573,1,0,0:0:0:0:
256,192,37727,1,8,0:0:0:0:
256,192,37804,1,8,0:0:0:0:
256,192,37881,1,0,0:0:0:0:
256,192,38034,1,8,0:0:0:0:
256,192,38111,1,0,0:0:0:0:
256,192,38188,1,8,0:0:0:0:
256,192,38265,1,8,0:0:0:0:
256,192,38342,1,0,0:0:0:0:
256,192,38496,1,8,0:0:0:0:
256,192,38650,1,0,0:0:0:0:
256,192,38727,1,0,0:0:0:0:
256,192,38804,1,0,0:0:0:0:
256,192,38957,1,8,0:0:0:0:
256,192,39111,1,8,0:0:0:0:
256,192,39265,1,8,0:0:0:0:
256,192,39342,1,0,0:0:0:0:
256,192,39419,1,8,0:0:0:0:
256,192,39496,1,8,0:0:0:0:
256,192,39573,1,8,0:0:0:0:
256,192,39650,1,0,0:0:0:0:
256,192,39727,1,8,0:0:0:0:
256,192,39804,1,8,0:0:0:0:
256,192,39881,1,0,0:0:0:0:
256,192,40034,1,0,0:0:0:0:
256,192,40188,1,8,0:0:0:0:
256,192,40342,1,0,0:0:0:0:
256,192,40496,1,8,0:0:0:0:
256,192,40650,1,0,0:0:0:0:
256,192,40727,1,0,0:0:0:0:
256,192,40803,1,8,0:0:0:0:
256,192,40957,1,8,0:0:0:0:
256,192,41111,1,8,0:0:0:0:
256,192,41188,1,8,0:0:0:0:
256,192,41265,1,0,0:0:0:0:
256,192,41419,1,8,0:0:0:0:
256,192,41573,1,8,0:0:0:0:
256,192,41727,1,0,0:0:0:0:
256,192,41804,1,0,0:0:0:0:
256,192,41881,1,8,0:0:0:0:
256,192,41957,1,8,0:0:0:0:
256,192,42034,1,0,0:0:0:0:
256,192,42188,1,8,0:0:0:0:
256,192,42342,1,0,0:0:0:0:
256,192,42419,1,0,0:0:0:0:
256,192,42496,1,0,0:0:0:0:
256,192,42650,1,8,0:0:0:0:
256,192,42727,1,8,0:0:0:0:
256,192,42804,1,0,0:0:0:0:
256,192,42957,1,8,0:0:0:0:
256,192,43034,1,0,0:0:0:0:
256,192,43111,1,8,0:0:0:0:
256,192,43188,1,8,0:0:0:0:
256,192,43265,1,0,0:0:0:0:
256,192,43419,1,8,0:0:0:0:
256,192,43573,1,0,0:0:0:0:
256,192,43650,1,0,0:0:0:0:
256,192,43727,1,0,0:0:0:0:
256,192,43881,1,0,0:0:0:0:
256,192,44034,1,0,0:0:0:0:
256,192,44188,1,0,0:0:0:0:
256,192,44342,1,0,0:0:0:0:
256,192,44419,1,0,0:0:0:0:
256,192,44496,1,0,0:0:0:0:
256,192,44650,1,12,0:0:0:0:
256,192,44957,1,0,0:0:0:0:
256,192,47419,5,0,0:0:0:0:
256,192,47496,1,8,0:0:0:0:
256,192,47573,1,0,0:0:0:0:
256,192,47650,1,8,0:0:0:0:
256,192,47727,1,0,0:0:0:0:
256,192,47881,1,8,0:0:0:0:
256,192,47957,1,8,0:0:0:0:
256,192,48034,1,0,0:0:0:0:
256,192,48111,1,8,0:0:0:0:
256,192,48188,1,8,0:0:0:0:
256,192,48342,1,0,0:0:0:0:
256,192,48419,1,0,0:0:0:0:
256,192,48496,1,8,0:0:0:0:
256,192,48573,1,0,0:0:0:0:
256,192,48650,1,0,0:0:0:0:
256,192,48804,1,8,0:0:0:0:
256,192,48881,1,0,0:0:0:0:
256,192,48957,1,8,0:0:0:0:
256,192,49034,1,0,0:0:0:0:
256,192,49111,1,8,0:0:0:0:
256,192,49419,1,0,0:0:0:0:
256,192,49573,1,0,0:0:0:0:
256,192,49727,1,8,0:0:0:0:
256,192,49881,1,8,0:0:0:0:
256,192,50496,1,8,0:0:0:0:
256,192,50727,1,8,0:0:0:0:
256,192,50957,1,0,0:0:0:0:
256,192,51111,1,8,0:0:0:0:
256,192,51342,1,0,0:0:0:0:
256,192,51573,1,0,0:0:0:0:
256,192,51727,1,0,0:0:0:0:
256,192,52342,1,8,0:0:0:0:
256,192,52496,1,0,0:0:0:0:
256,192,52650,1,8,0:0:0:0:
256,192,52804,1,0,0:0:0:0:
256,192,52957,1,8,0:0:0:0:
256,192,53111,1,8,0:0:0:0:
256,192,53265,1,0,0:0:0:0:
256,192,53573,1,4,0:0:0:0:
256,192,53727,1,4,0:0:0:0:
256,192,54034,1,12,0:0:0:0:
256,192,54496,1,8,0:0:0:0:
256,192,54650,1,8,0:0:0:0:
256,192,54804,1,4,0:0:0:0:
256,192,55111,1,4,0:0:0:0:
256,192,55419,1,4,0:0:0:0:
256,192,55727,1,4,0:0:0:0:
256,192,56034,1,4,0:0:0:0:
256,192,56342,1,4,0:0:0:0:
256,192,56650,1,4,0:0:0:0:
256,192,56957,1,4,0:0:0:0:
256,192,57265,1,0,0:0:0:0:
256,192,57342,1,8,0:0:0:0:
256,192,57419,1,0,0:0:0:0:
256,192,57496,1,8,0:0:0:0:
256,192,57573,1,0,0:0:0:0:
256,192,57727,1,0,0:0:0:0:
256,192,57804,1,8,0:0:0:0:
256,192,57881,1,8,0:0:0:0:
256,192,57957,1,8,0:0:0:0:
256,192,58034,1,0,0:0:0:0:
256,192,58188,1,8,0:0:0:0:
256,192,58265,1,0,0:0:0:0:
256,192,58342,1,0,0:0:0:0:
256,192,58419,1,0,0:0:0:0:
256,192,58496,1,8,0:0:0:0:
256,192,58650,1,8,0:0:0:0:
256,192,58727,1,0,0:0:0:0:
256,192,58804,1,8,0:0:0:0:
256,192,58881,1,0,0:0:0:0:
256,192,58957,1,8,0:0:0:0:
256,192,59111,1,4,0:0:0:0:
256,192,59265,1,0,0:0:0:0:
256,192,59419,1,0,0:0:0:0:
256,192,59573,1,8,0:0:0:0:
256,192,59727,1,12,0:0:0:0:
256,192,59881,1,0,0:0:0:0:
256,192,60034,1,0,0:0:0:0:
256,192,60188,1,0,0:0:0:0:
256,192,60342,1,0,0:0:0:0:
256,192,60496,1,0,0:0:0:0:
256,192,60650,1,0,0:0:0:0:
256,192,60804,1,0,0:0:0:0:
256,192,60881,1,0,0:0:0:0:
256,192,60957,1,0,0:0:0:0:
256,192,61111,1,0,0:0:0:0:
256,192,61265,1,0,0:0:0:0:
256,192,61419,1,0,0:0:0:0:
256,192,61573,1,0,0:0:0:0:
256,192,61727,1,0,0:0:0:0:
256,192,61881,1,0,0:0:0:0:
256,192,62034,1,0,0:0:0:0:
256,192,62111,1,0,0:0:0:0:
256,192,62188,1,0,0:0:0:0:
256,192,62342,1,0,0:0:0:0:
256,192,62419,1,0,0:0:0:0:
256,192,62496,1,0,0:0:0:0:
256,192,62650,1,0,0:0:0:0:
256,192,62727,1,0,0:0:0:0:
256,192,62804,1,0,0:0:0:0:
256,192,62957,1,0,0:0:0:0:
256,192,63034,1,0,0:0:0:0:
256,192,63111,1,8,0:0:0:0:
256,192,63419,1,12,0:0:0:0:
256,192,63573,1,0,0:0:0:0:
256,192,63650,1,0,0:0:0:0:
256,192,63727,1,0,0:0:0:0:
256,192,63881,1,12,0:0:0:0:
256,192,64034,1,8,0:0:0:0:
256,192,64111,1,0,0:0:0:0:
256,192,64188,1,0,0:0:0:0:
256,192,64342,1,12,0:0:0:0:
256,192,64496,1,0,0:0:0:0:
256,192,64573,1,8,0:0:0:0:
256,192,64650,1,0,0:0:0:0:
256,192,64804,1,12,0:0:0:0:
256,192,64957,1,0,0:0:0:0:
256,192,65034,1,0,0:0:0:0:
256,192,65111,1,8,0:0:0:0:
256,192,65265,1,12,0:0:0:0:
256,192,65419,1,8,0:0:0:0:
256,192,65496,1,8,0:0:0:0:
256,192,65573,1,8,0:0:0:0:
256,192,65650,1,8,0:0:0:0:
256,192,65727,1,8,0:0:0:0:
256,192,65804,1,8,0:0:0:0:
256,192,65881,1,0,0:0:0:0:
256,192,66188,1,0,0:0:0:0:
256,192,66496,1,8,0:0:0:0:
256,192,67111,1,0,0:0:0:0:
256,192,67419,1,0,0:0:0:0:
256,192,67727,1,8,0:0:0:0:
256,192,68034,1,4,0:0:0:0:
256,192,68342,1,4,0:0:0:0:
256,192,68650,1,0,0:0:0:0:
256,192,68957,1,8,0:0:0:0:
256,192,69573,1,0,0:0:0:0:
256,192,69727,1,0,0:0:0:0:
256,192,69778,1,0,0:0:0:0:
256,192,69829,1,0,0:0:0:0:
256,192,69881,1,0,0:0:0:0:
256,192,70034,1,0,0:0:0:0:
256,192,70188,12,0,70650,0:0:0:0:
256,192,70804,5,0,0:0:0:0:
256,192,71111,1,8,0:0:0:0:
256,192,71419,1,8,0:0:0:0:
256,192,71727,1,8,0:0:0:0:
256,192,72034,1,8,0:0:0:0:
256,192,72342,1,8,0:0:0:0:
256,192,72650,1,8,0:0:0:0:
256,192,72957,1,8,0:0:0:0:
256,192,73265,1,8,0:0:0:0:
256,192,73419,1,8,0:0:0:0:
256,192,73573,1,8,0:0:0:0:
256,192,73727,1,8,0:0:0:0:
256,192,73881,1,8,0:0:0:0:
256,192,74034,1,8,0:0:0:0:
256,192,74188,1,8,0:0:0:0:
256,192,74342,1,8,0:0:0:0:
256,192,74496,1,8,0:0:0:0:
256,192,74573,1,8,0:0:0:0:
256,192,74650,1,8,0:0:0:0:
256,192,74727,1,8,0:0:0:0:
256,192,74804,1,0,0:0:0:0:
256,192,74881,1,0,0:0:0:0:
256,192,74957,1,0,0:0:0:0:
256,192,75034,1,0,0:0:0:0:
256,192,75111,1,8,0:0:0:0:
256,192,75188,1,8,0:0:0:0:
256,192,75265,1,0,0:0:0:0:
256,192,75419,1,12,0:0:0:0:
256,192,75727,1,8,0:0:0:0:
256,192,75881,1,8,0:0:0:0:
256,192,75957,1,8,0:0:0:0:
256,192,76034,1,0,0:0:0:0:
256,192,76188,1,8,0:0:0:0:
256,192,76265,1,8,0:0:0:0:
256,192,76342,1,0,0:0:0:0:
256,192,76496,1,0,0:0:0:0:
256,192,76573,1,0,0:0:0:0:
256,192,76650,1,8,0:0:0:0:
256,192,76804,1,0,0:0:0:0:
256,192,76881,1,0,0:0:0:0:
256,192,76957,1,8,0:0:0:0:
256,192,77111,1,8,0:0:0:0:
256,192,77188,1,8,0:0:0:0:
256,192,77265,1,0,0:0:0:0:
256,192,77419,1,8,0:0:0:0:
256,192,77496,1,8,0:0:0:0:
256,192,77573,1,0,0:0:0:0:
256,192,77727,1,0,0:0:0:0:
256,192,77804,1,0,0:0:0:0:
256,192,77881,1,8,0:0:0:0:
256,192,78034,1,0,0:0:0:0:
256,192,78111,1,0,0:0:0:0:
256,192,78188,1,8,0:0:0:0:
256,192,78342,1,8,0:0:0:0:
256,192,78419,1,8,0:0:0:0:
256,192,78496,1,8,0:0:0:0:
256,192,78650,1,0,0:0:0:0:
256,192,78727,1,0,0:0:0:0:
256,192,78804,1,0,0:0:0:0:
256,192,78957,1,8,0:0:0:0:
256,192,79034,1,8,0:0:0:0:
256,192,79111,1,0,0:0:0:0:
256,192,79265,1,0,0:0:0:0:
256,192,79342,1,0,0:0:0:0:
256,192,79419,1,8,0:0:0:0:
256,192,79573,1,8,0:0:0:0:
256,192,79650,1,8,0:0:0:0:
256,192,79727,1,8,0:0:0:0:
256,192,79881,1,0,0:0:0:0:
256,192,79957,1,0,0:0:0:0:
256,192,80034,1,0,0:0:0:0:
256,192,80188,1,8,0:0:0:0:
256,192,80265,1,8,0:0:0:0:
256,192,80342,1,0,0:0:0:0:
256,192,80496,1,0,0:0:0:0:
256,192,80573,1,0,0:0:0:0:
256,192,80650,1,8,0:0:0:0:
256,192,80727,1,8,0:0:0:0:
256,192,80804,1,8,0:0:0:0:
256,192,80881,1,8,0:0:0:0:
256,192,80957,1,0,0:0:0:0:
256,192,81034,1,8,0:0:0:0:
256,192,81111,1,0,0:0:0:0:
256,192,81188,1,8,0:0:0:0:
256,192,81265,1,0,0:0:0:0:
256,192,81342,1,0,0:0:0:0:
256,192,81419,1,8,0:0:0:0:
256,192,81496,1,0,0:0:0:0:
256,192,81573,1,8,0:0:0:0:
256,192,81650,1,8,0:0:0:0:
256,192,81727,1,0,0:0:0:0:
256,192,81804,1,0,0:0:0:0:
256,192,81881,1,8,0:0:0:0:
256,192,81957,1,8,0:0:0:0:
256,192,82034,1,8,0:0:0:0:
256,192,82111,1,8,0:0:0:0:
256,192,82188,1,0,0:0:0:0:
256,192,82265,1,8,0:0:0:0:
256,192,82342,1,0,0:0:0:0:
256,192,82419,1,8,0:0:0:0:
256,192,82496,1,0,0:0:0:0:
256,192,82573,1,0,0:0:0:0:
256,192,82650,1,8,0:0:0:0:
256,192,82727,1,0,0:0:0:0:
256,192,82804,1,8,0:0:0:0:
256,192,82881,1,8,0:0:0:0:
256,192,82957,1,0,0:0:0:0:
256,192,83034,1,0,0:0:0:0:
256,192,83111,1,8,0:0:0:0:
256,192,83188,1,8,0:0:0:0:
256,192,83265,1,0,0:0:0:0:
256,192,83342,1,8,0:0:0:0:
256,192,83419,1,0,0:0:0:0:
256,192,83496,1,0,0:0:0:0:
256,192,83573,1,8,0:0:0:0:
256,192,83650,1,8,0:0:0:0:
256,192,83727,1,0,0:0:0:0:
256,192,83804,1,0,0:0:0:0:
256,192,83881,1,8,0:0:0:0:
256,192,83957,1,0,0:0:0:0:
256,192,84034,1,8,0:0:0:0:
256,192,84111,1,8,0:0:0:0:
256,192,84188,1,0,0:0:0:0:
256,192,84265,1,0,0:0:0:0:
256,192,84342,1,8,0:0:0:0:
256,192,84419,1,8,0:0:0:0:
256,192,84496,1,0,0:0:0:0:
256,192,84573,1,8,0:0:0:0:
256,192,84650,1,0,0:0:0:0:
256,192,84727,1,0,0:0:0:0:
256,192,84804,1,8,0:0:0:0:
256,192,84881,1,8,0:0:0:0:
256,192,84957,1,0,0:0:0:0:
256,192,85034,1,0,0:0:0:0:
256,192,85111,1,8,0:0:0:0:
256,192,85188,1,0,0:0:0:0:
256,192,85265,1,8,0:0:0:0:
256,192,85342,1,8,0:0:0:0:
256,192,85419,1,0,0:0:0:0:
256,192,85496,1,0,0:0:0:0:
256,192,85573,1,8,0:0:0:0:
256,192,85881,1,8,0:0:0:0:
256,192,86034,1,0,0:0:0:0:
256,192,86111,1,8,0:0:0:0:
256,192,86188,1,0,0:0:0:0:
256,192,86265,1,8,0:0:0:0:
256,192,86342,1,8,0:0:0:0:
256,192,86496,1,8,0:0:0:0:
256,192,86650,1,0,0:0:0:0:
256,192,86727,1,8,0:0:0:0:
256,192,86804,1,0,0:0:0:0:
256,192,86881,1,0,0:0:0:0:
256,192,86957,1,0,0:0:0:0:
256,192,87111,1,8,0:0:0:0:
256,192,87265,1,8,0:0:0:0:
256,192,87342,1,8,0:0:0:0:
256,192,87419,1,0,0:0:0:0:
256,192,87573,1,8,0:0:0:0:
256,192,87650,1,0,0:0:0:0:
256,192,87804,1,8,0:0:0:0:
256,192,87881,1,0,0:0:0:0:
256,192,87957,1,8,0:0:0:0:
256,192,88034,1,0,0:0:0:0:
256,192,88188,1,0,0:0:0:0:
256,192,88265,1,8,0:0:0:0:
256,192,88342,1,0,0:0:0:0:
256,192,88496,1,8,0:0:0:0:
256,192,88573,1,8,0:0:0:0:
256,192,88650,1,0,0:0:0:0:
256,192,88727,1,0,0:0:0:0:
256,192,88804,1,8,0:0:0:0:
256,192,88881,1,8,0:0:0:0:
256,192,88957,1,0,0:0:0:0:
256,192,89111,1,0,0:0:0:0:
256,192,89188,1,8,0:0:0:0:
256,192,89265,1,8,0:0:0:0:
256,192,89419,1,8,0:0:0:0:
256,192,89496,1,0,0:0:0:0:
256,192,89573,1,8,0:0:0:0:
256,192,89650,1,8,0:0:0:0:
256,192,89727,1,0,0:0:0:0:
256,192,89804,1,0,0:0:0:0:
256,192,89881,1,8,0:0:0:0:
256,192,90034,1,0,0:0:0:0:
256,192,90111,1,0,0:0:0:0:
256,192,90188,1,8,0:0:0:0:
256,192,90342,1,0,0:0:0:0:
256,192,90419,1,0,0:0:0:0:
256,192,90496,1,0,0:0:0:0:
256,192,90650,1,0,0:0:0:0:
256,192,90727,1,8,0:0:0:0:
256,192,90804,1,0,0:0:0:0:
256,192,90881,1,8,0:0:0:0:
256,192,90957,1,0,0:0:0:0:
256,192,91034,1,8,0:0:0:0:
256,192,91111,1,8,0:0:0:0:
256,192,91265,1,0,0:0:0:0:
256,192,91342,1,8,0:0:0:0:
256,192,91419,1,0,0:0:0:0:
256,192,91496,1,0,0:0:0:0:
256,192,91573,1,8,0:0:0:0:
256,192,91650,1,8,0:0:0:0:
256,192,91727,1,8,0:0:0:0:
256,192,91881,1,0,0:0:0:0:
256,192,91957,1,0,0:0:0:0:
256,192,92034,1,8,0:0:0:0:
256,192,92111,1,0,0:0:0:0:
256,192,92188,1,8,0:0:0:0:
256,192,92342,1,8,0:0:0:0:
256,192,92496,1,0,0:0:0:0:
256,192,92573,1,0,0:0:0:0:
256,192,92650,1,8,0:0:0:0:
256,192,92727,1,8,0:0:0:0:
256,192,92804,1,0,0:0:0:0:
256,192,92881,1,8,0:0:0:0:
256,192,92957,1,0,0:0:0:0:
256,192,93111,1,0,0:0:0:0:
256,192,93188,1,8,0:0:0:0:
256,192,93265,1,0,0:0:0:0:
256,192,93419,1,8,0:0:0:0:
256,192,93496,1,8,0:0:0:0:
256,192,93573,1,0,0:0:0:0:
256,192,93650,1,0,0:0:0:0:
256,192,93727,1,8,0:0:0:0:
256,192,93804,1,8,0:0:0:0:
256,192,93881,1,0,0:0:0:0:
256,192,94034,1,0,0:0:0:0:
256,192,94111,1,8,0:0:0:0:
256,192,94188,1,8,0:0:0:0:
256,192,94342,1,8,0:0:0:0:
256,192,94419,1,0,0:0:0:0:
256,192,94496,1,8,0:0:0:0:
256,192,94573,1,8,0:0:0:0:
256,192,94650,1,0,0:0:0:0:
256,192,94727,1,0,0:0:0:0:
256,192,94804,1,8,0:0:0:0:
256,192,94957,1,0,0:0:0:0:
256,192,95034,1,0,0:0:0:0:
256,192,95111,1,8,0:0:0:0:
256,192,95265,1,8,0:0:0:0:
256,192,95342,1,8,0:0:0:0:
256,192,95419,1,0,0:0:0:0:
256,192,95573,1,8,0:0:0:0:
256,192,95650,1,8,0:0:0:0:
256,192,95727,1,0,0:0:0:0:
256,192,95804,1,8,0:0:0:0:
256,192,95881,1,0,0:0:0:0:
256,192,95957,1,8,0:0:0:0:
256,192,96034,1,8,0:0:0:0:
256,192,96188,1,0,0:0:0:0:
256,192,96265,1,8,0:0:0:0:
256,192,96342,1,0,0:0:0:0:
256,192,96419,1,0,0:0:0:0:
256,192,96496,1,8,0:0:0:0:
256,192,96573,1,8,0:0:0:0:
256,192,96650,1,8,0:0:0:0:
256,192,96804,1,8,0:0:0:0:
256,192,96881,1,0,0:0:0:0:
256,192,96957,1,0,0:0:0:0:
256,192,97111,1,8,0:0:0:0:
256,192,97419,1,12,0:0:0:0:
256,192,97573,1,4,0:0:0:0:
256,192,97727,1,12,0:0:0:0:
256,192,97881,1,0,0:0:0:0:
256,192,98034,1,0,0:0:0:0:
256,192,98111,1,8,0:0:0:0:
256,192,98188,1,0,0:0:0:0:
256,192,98265,1,8,0:0:0:0:
256,192,98342,1,8,0:0:0:0:
256,192,98419,1,8,0:0:0:0:
256,192,98496,1,0,0:0:0:0:
256,192,98573,1,0,0:0:0:0:
256,192,98650,1,8,0:0:0:0:
256,192,98727,1,8,0:0:0:0:
256,192,98804,1,0,0:0:0:0:
256,192,98881,1,8,0:0:0:0:
256,192,98957,1,0,0:0:0:0:
256,192,99034,1,8,0:0:0:0:
256,192,99111,1,8,0:0:0:0:
256,192,99265,1,8,0:0:0:0:
256,192,99342,1,0,0:0:0:0:
256,192,99419,1,8,0:0:0:0:
256,192,99496,1,8,0:0:0:0:
256,192,99573,1,0,0:0:0:0:
256,192,99650,1,0,0:0:0:0:
256,192,99727,1,8,0:0:0:0:
256,192,99804,1,0,0:0:0:0:
256,192,99881,1,0,0:0:0:0:
256,192,99957,1,0,0:0:0:0:
256,192,100034,1,8,0:0:0:0:
256,192,100188,1,0,0:0:0:0:
256,192,100265,1,0,0:0:0:0:
256,192,100342,1,0,0:0:0:0:
256,192,100496,1,0,0:0:0:0:
256,192,100573,1,8,0:0:0:0:
256,192,100650,1,0,0:0:0:0:
256,192,100727,1,8,0:0:0:0:
256,192,100804,1,0,0:0:0:0:
256,192,100881,1,8,0:0:0:0:
256,192,100957,1,8,0:0:0:0:
256,192,101034,1,8,0:0:0:0:
256,192,101111,1,0,0:0:0:0:
256,192,101188,1,8,0:0:0:0:
256,192,101265,1,0,0:0:0:0:
256,192,101342,1,0,0:0:0:0:
256,192,101419,1,8,0:0:0:0:
256,192,101496,1,8,0:0:0:0:
256,192,101573,1,8,0:0:0:0:
256,192,101727,1,0,0:0:0:0:
256,192,101804,1,0,0:0:0:0:
256,192,101881,1,8,0:0:0:0:
256,192,101957,1,0,0:0:0:0:
256,192,102034,1,8,0:0:0:0:
256,192,102188,1,8,0:0:0:0:
256,192,102342,1,0,0:0:0:0:
256,192,102419,1,0,0:0:0:0:
256,192,102496,1,8,0:0:0:0:
256,192,102573,1,8,0:0:0:0:
256,192,102650,1,0,0:0:0:0:
256,192,102727,1,8,0:0:0:0:
256,192,102804,1,0,0:0:0:0:
256,192,102957,1,0,0:0:0:0:
256,192,103034,1,8,0:0:0:0:
256,192,103111,1,0,0:0:0:0:
256,192,103188,1,8,0:0:0:0:
256,192,103265,1,8,0:0:0:0:
256,192,103342,1,8,0:0:0:0:
256,192,103419,1,0,0:0:0:0:
256,192,103496,1,0,0:0:0:0:
256,192,103573,1,8,0:0:0:0:
256,192,103650,1,8,0:0:0:0:
256,192,103727,1,0,0:0:0:0:
256,192,103804,1,8,0:0:0:0:
256,192,103881,1,0,0:0:0:0:
256,192,103957,1,8,0:0:0:0:
256,192,104034,1,8,0:0:0:0:
256,192,104188,1,8,0:0:0:0:
256,192,104265,1,0,0:0:0:0:
256,192,104342,1,8,0:0:0:0:
256,192,104419,1,8,0:0:0:0:
256,192,104496,1,0,0:0:0:0:
256,192,104573,1,0,0:0:0:0:
256,192,104650,1,8,0:0:0:0:
256,192,104727,1,0,0:0:0:0:
256,192,104804,1,0,0:0:0:0:
256,192,104881,1,0,0:0:0:0:
256,192,104957,1,8,0:0:0:0:
256,192,105111,1,8,0:0:0:0:
256,192,105188,1,8,0:0:0:0:
256,192,105265,1,0,0:0:0:0:
256,192,105419,1,8,0:0:0:0:
256,192,105496,1,8,0:0:0:0:
256,192,105573,1,0,0:0:0:0:
256,192,105650,1,8,0:0:0:0:
256,192,105727,1,0,0:0:0:0:
256,192,105804,1,8,0:0:0:0:
256,192,105881,1,8,0:0:0:0:
256,192,105957,1,8,0:0:0:0:
256,192,106034,1,0,0:0:0:0:
256,192,106111,1,8,0:0:0:0:
256,192,106188,1,0,0:0:0:0:
256,192,106265,1,0,0:0:0:0:
256,192,106342,1,8,0:0:0:0:
256,192,106419,1,8,0:0:0:0:
256,192,106496,1,8,0:0:0:0:
256,192,106650,1,8,0:0:0:0:
256,192,106727,1,0,0:0:0:0:
256,192,106804,1,0,0:0:0:0:
256,192,106957,1,8,0:0:0:0:
256,192,107265,1,12,0:0:0:0:
256,192,107419,1,4,0:0:0:0:
256,192,107573,1,12,0:0:0:0:
256,192,107727,1,4,0:0:0:0:
256,192,107881,1,0,0:0:0:0:
256,192,107957,1,8,0:0:0:0:
256,192,108034,1,0,0:0:0:0:
256,192,108111,1,8,0:0:0:0:
256,192,108188,1,8,0:0:0:0:
256,192,108265,1,8,0:0:0:0:
256,192,108342,1,0,0:0:0:0:
256,192,108419,1,0,0:0:0:0:
256,192,108496,1,8,0:0:0:0:
256,192,108573,1,8,0:0:0:0:
256,192,108650,1,0,0:0:0:0:
256,192,108727,1,8,0:0:0:0:
256,192,108804,1,0,0:0:0:0:
256,192,108881,1,8,0:0:0:0:
256,192,108957,1,8,0:0:0:0:
256,192,109034,1,0,0:0:0:0:
256,192,109111,1,8,0:0:0:0:
256,192,109188,1,0,0:0:0:0:
256,192,109265,1,8,0:0:0:0:
256,192,109342,1,8,0:0:0:0:
256,192,109419,1,0,0:0:0:0:
256,192,109496,1,0,0:0:0:0:
256,192,109573,1,8,0:0:0:0:
256,192,109650,1,0,0:0:0:0:
256,192,109727,1,0,0:0:0:0:
256,192,109804,1,0,0:0:0:0:
256,192,109881,1,8,0:0:0:0:
256,192,109957,1,8,0:0:0:0:
256,192,110034,1,0,0:0:0:0:
256,192,110111,1,8,0:0:0:0:
256,192,110188,1,0,0:0:0:0:
256,192,110342,1,0,0:0:0:0:
256,192,110419,1,8,0:0:0:0:
256,192,110496,1,0,0:0:0:0:
256,192,110573,1,8,0:0:0:0:
256,192,110650,1,0,0:0:0:0:
256,192,110727,1,8,0:0:0:0:
256,192,110804,1,8,0:0:0:0:
256,192,110881,1,8,0:0:0:0:
256,192,110957,1,0,0:0:0:0:
256,192,111034,1,8,0:0:0:0:
256,192,111111,1,0,0:0:0:0:
256,192,111188,1,0,0:0:0:0:
256,192,111265,1,8,0:0:0:0:
256,192,111342,1,8,0:0:0:0:
256,192,111419,1,8,0:0:0:0:
256,192,111496,1,8,0:0:0:0:
256,192,111573,1,0,0:0:0:0:
256,192,111650,1,0,0:0:0:0:
256,192,111727,1,8,0:0:0:0:
256,192,111804,1,0,0:0:0:0:
256,192,111881,1,8,0:0:0:0:
256,192,111957,1,0,0:0:0:0:
256,192,112034,1,8,0:0:0:0:
256,192,112111,1,0,0:0:0:0:
256,192,112188,1,0,0:0:0:0:
256,192,112265,1,0,0:0:0:0:
256,192,112342,1,8,0:0:0:0:
256,192,112419,1,8,0:0:0:0:
256,192,112496,1,0,0:0:0:0:
256,192,112573,1,8,0:0:0:0:
256,192,112650,1,0,0:0:0:0:
256,192,112804,1,0,0:0:0:0:
256,192,112881,1,8,0:0:0:0:
256,192,112957,1,0,0:0:0:0:
256,192,113034,1,8,0:0:0:0:
256,192,113111,1,8,0:0:0:0:
256,192,113188,1,8,0:0:0:0:
256,192,113265,1,0,0:0:0:0:
256,192,113342,1,0,0:0:0:0:
256,192,113419,1,8,0:0:0:0:
256,192,113496,1,8,0:0:0:0:
256,192,113573,1,0,0:0:0:0:
256,192,113650,1,8,0:0:0:0:
256,192,113727,1,0,0:0:0:0:
256,192,113804,1,8,0:0:0:0:
256,192,113881,1,8,0:0:0:0:
256,192,113957,1,0,0:0:0:0:
256,192,114034,1,8,0:0:0:0:
256,192,114111,1,0,0:0:0:0:
256,192,114188,1,8,0:0:0:0:
256,192,114265,1,8,0:0:0:0:
256,192,114342,1,0,0:0:0:0:
256,192,114419,1,0,0:0:0:0:
256,192,114496,1,8,0:0:0:0:
256,192,114573,1,0,0:0:0:0:
256,192,114650,1,0,0:0:0:0:
256,192,114727,1,0,0:0:0:0:
256,192,114804,1,8,0:0:0:0:
256,192,114881,1,0,0:0:0:0:
256,192,114957,1,8,0:0:0:0:
256,192,115034,1,8,0:0:0:0:
256,192,115111,1,0,0:0:0:0:
256,192,115265,1,8,0:0:0:0:
256,192,115342,1,8,0:0:0:0:
256,192,115419,1,0,0:0:0:0:
256,192,115496,1,8,0:0:0:0:
256,192,115573,1,0,0:0:0:0:
256,192,115650,1,8,0:0:0:0:
256,192,115727,1,8,0:0:0:0:
256,192,115804,1,8,0:0:0:0:
256,192,115881,1,0,0:0:0:0:
256,192,115957,1,8,0:0:0:0:
256,192,116034,1,0,0:0:0:0:
256,192,116111,1,0,0:0:0:0:
256,192,116188,1,8,0:0:0:0:
256,192,116265,1,8,0:0:0:0:
256,192,116342,1,8,0:0:0:0:
256,192,116496,1,8,0:0:0:0:
256,192,116573,1,0,0:0:0:0:
256,192,116650,1,8,0:0:0:0:
256,192,116727,1,0,0:0:0:0:
256,192,116804,1,8,0:0:0:0:
256,192,116881,1,8,0:0:0:0:
256,192,116957,1,0,0:0:0:0:
256,192,117111,1,8,0:0:0:0:
256,192,117188,1,8,0:0:0:0:
256,192,117265,1,0,0:0:0:0:
256,192,117342,1,0,0:0:0:0:
256,192,117419,1,8,0:0:0:0:
256,192,117496,1,8,0:0:0:0:
256,192,117573,1,0,0:0:0:0:
256,192,117727,1,0,0:0:0:0:
256,192,117804,1,8,0:0:0:0:
256,192,117881,1,0,0:0:0:0:
256,192,117957,1,8,0:0:0:0:
256,192,118034,1,8,0:0:0:0:
256,192,118111,1,8,0:0:0:0:
256,192,118188,1,0,0:0:0:0:
256,192,118265,1,0,0:0:0:0:
256,192,118342,1,8,0:0:0:0:
256,192,118419,1,8,0:0:0:0:
256,192,118496,1,0,0:0:0:0:
256,192,118573,1,8,0:0:0:0:
256,192,118650,1,0,0:0:0:0:
256,192,118727,1,8,0:0:0:0:
256,192,118804,1,0,0:0:0:0:
256,192,118881,1,0,0:0:0:0:
256,192,118957,1,8,0:0:0:0:
256,192,119034,1,8,0:0:0:0:
256,192,119111,1,0,0:0:0:0:
256,192,119188,1,8,0:0:0:0:
256,192,119265,1,8,0:0:0:0:
256,192,119342,1,8,0:0:0:0:
256,192,119419,1,0,0:0:0:0:
256,192,119496,1,0,0:0:0:0:
256,192,119573,1,8,0:0:0:0:
256,192,119650,1,8,0:0:0:0:
256,192,119727,1,0,0:0:0:0:
256,192,119804,1,8,0:0:0:0:
256,192,119881,1,0,0:0:0:0:
256,192,119957,1,8,0:0:0:0:
256,192,120034,1,0,0:0:0:0:
256,192,120111,1,0,0:0:0:0:
256,192,120188,1,0,0:0:0:0:
256,192,120265,1,8,0:0:0:0:
256,192,120342,1,0,0:0:0:0:
256,192,120419,1,8,0:0:0:0:
256,192,120496,1,8,0:0:0:0:
256,192,120573,1,8,0:0:0:0:
256,192,120650,1,0,0:0:0:0:
256,192,120727,1,0,0:0:0:0:
256,192,120804,1,8,0:0:0:0:
256,192,120881,1,8,0:0:0:0:
256,192,120957,1,0,0:0:0:0:
256,192,121034,1,0,0:0:0:0:
256,192,121111,1,8,0:0:0:0:
256,192,121188,1,0,0:0:0:0:
257,196,121265,1,8,0:0:0:0:
257,196,121342,1,8,0:0:0:0:
257,196,121419,1,0,0:0:0:0:
257,196,121496,1,0,0:0:0:0:
257,196,121573,1,8,0:0:0:0:
256,192,121650,1,0,0:0:0:0:
256,192,121726,1,8,0:0:0:0:
256,192,121804,1,8,0:0:0:0:
256,192,121880,1,8,0:0:0:0:
256,192,121957,1,8,0:0:0:0:
256,192,122034,1,0,0:0:0:0:
256,192,122111,1,0,0:0:0:0:
256,192,122188,1,8,0:0:0:0:
256,192,122265,1,0,0:0:0:0:
256,192,122342,1,8,0:0:0:0:
256,192,122419,1,8,0:0:0:0:
256,192,122496,1,0,0:0:0:0:
256,192,122573,1,8,0:0:0:0:
256,192,122650,1,0,0:0:0:0:
256,192,122727,1,8,0:0:0:0:
256,192,122804,1,0,0:0:0:0:
256,192,122881,1,8,0:0:0:0:
256,192,122957,1,8,0:0:0:0:
256,192,123034,1,8,0:0:0:0:
256,192,123111,1,0,0:0:0:0:
256,192,123188,1,0,0:0:0:0:
256,192,123265,1,8,0:0:0:0:
256,192,123342,1,8,0:0:0:0:
256,192,123419,1,0,0:0:0:0:
256,192,123496,1,8,0:0:0:0:
256,192,123573,1,0,0:0:0:0:
256,192,123650,1,8,0:0:0:0:
256,192,123727,1,0,0:0:0:0:
256,192,123804,1,0,0:0:0:0:
256,192,123881,1,8,0:0:0:0:
256,192,123957,1,8,0:0:0:0:
256,192,124034,1,0,0:0:0:0:
256,192,124111,1,8,0:0:0:0:
256,192,124188,1,8,0:0:0:0:
256,192,124265,1,8,0:0:0:0:
256,192,124342,1,0,0:0:0:0:
256,192,124419,1,0,0:0:0:0:
256,192,124496,1,8,0:0:0:0:
256,192,124573,1,8,0:0:0:0:
256,192,124650,1,0,0:0:0:0:
256,192,124727,1,8,0:0:0:0:
256,192,124804,1,0,0:0:0:0:
256,192,124881,1,8,0:0:0:0:
256,192,124957,1,0,0:0:0:0:
256,192,125034,1,0,0:0:0:0:
256,192,125111,1,8,0:0:0:0:
256,192,125188,1,8,0:0:0:0:
256,192,125265,1,0,0:0:0:0:
256,192,125342,1,8,0:0:0:0:
256,192,125419,1,0,0:0:0:0:
256,192,125496,1,8,0:0:0:0:
256,192,125573,1,0,0:0:0:0:
256,192,125650,1,0,0:0:0:0:
256,192,125727,1,0,0:0:0:0:
256,192,125804,1,8,0:0:0:0:
256,192,125881,1,0,0:0:0:0:
256,192,125957,1,0,0:0:0:0:
256,192,126034,1,8,0:0:0:0:
256,192,126111,1,8,0:0:0:0:
256,192,126188,1,0,0:0:0:0:
256,192,126342,1,8,0:0:0:0:
256,192,126419,1,0,0:0:0:0:
256,192,126496,1,8,0:0:0:0:
256,192,126573,1,8,0:0:0:0:
256,192,126650,1,0,0:0:0:0:
256,192,126727,1,0,0:0:0:0:
256,192,126804,1,0,0:0:0:0:
256,192,126957,1,12,0:0:0:0:
256,192,127111,1,4,0:0:0:0:
256,192,127419,1,4,0:0:0:0:
256,192,132342,5,8,0:0:0:0:
256,192,132419,1,0,0:0:0:0:
256,192,132496,1,8,0:0:0:0:
256,192,132573,1,8,0:0:0:0:
256,192,132650,1,0,0:0:0:0:
256,192,132727,1,8,0:0:0:0:
256,192,132804,1,0,0:0:0:0:
256,192,132881,1,8,0:0:0:0:
256,192,132957,1,0,0:0:0:0:
256,192,133034,1,0,0:0:0:0:
256,192,133111,1,8,0:0:0:0:
256,192,133188,1,0,0:0:0:0:
256,192,133265,1,8,0:0:0:0:
256,192,133342,1,8,0:0:0:0:
256,192,133419,1,0,0:0:0:0:
256,192,133496,1,0,0:0:0:0:
256,192,133573,1,8,0:0:0:0:
256,192,133650,1,0,0:0:0:0:
256,192,133727,1,8,0:0:0:0:
256,192,133804,1,8,0:0:0:0:
256,192,133881,1,0,0:0:0:0:
256,192,133957,1,8,0:0:0:0:
256,192,134034,1,0,0:0:0:0:
256,192,134111,1,8,0:0:0:0:
256,192,134188,1,0,0:0:0:0:
256,192,134265,1,0,0:0:0:0:
256,192,134342,1,8,0:0:0:0:
256,192,134419,1,0,0:0:0:0:
256,192,134496,1,8,0:0:0:0:
256,192,134573,1,8,0:0:0:0:
256,192,134650,1,0,0:0:0:0:
256,192,134727,1,0,0:0:0:0:
256,192,134804,1,8,0:0:0:0:
256,192,134881,1,8,0:0:0:0:
256,192,134957,1,0,0:0:0:0:
256,192,135034,1,8,0:0:0:0:
256,192,135111,1,0,0:0:0:0:
256,192,135188,1,0,0:0:0:0:
256,192,135265,1,8,0:0:0:0:
256,192,135342,1,0,0:0:0:0:
256,192,135419,1,8,0:0:0:0:
256,192,135496,1,8,0:0:0:0:
256,192,135573,1,0,0:0:0:0:
256,192,135650,1,0,0:0:0:0:
256,192,135727,1,8,0:0:0:0:
256,192,135804,1,8,0:0:0:0:
256,192,135881,1,8,0:0:0:0:
256,192,135957,1,0,0:0:0:0:
256,192,136034,1,8,0:0:0:0:
256,192,136111,1,8,0:0:0:0:
256,192,136188,1,0,0:0:0:0:
256,192,136265,1,8,0:0:0:0:
256,192,136342,1,0,0:0:0:0:
256,192,136419,1,0,0:0:0:0:
256,192,136496,1,8,0:0:0:0:
256,192,136573,1,0,0:0:0:0:
256,192,136650,1,8,0:0:0:0:
256,192,136726,1,8,0:0:0:0:
256,192,136803,1,0,0:0:0:0:
256,192,136880,1,0,0:0:0:0:
256,192,136957,1,8,0:0:0:0:
256,192,137034,1,8,0:0:0:0:
256,192,137111,1,8,0:0:0:0:
256,192,137188,1,0,0:0:0:0:
256,192,137265,12,0,139726,0:0:0:0:
