osu file format v14

[General]
AudioFilename: 2.mp3
AudioLeadIn: 0
PreviewTime: 47995
Countdown: 0
SampleSet: Normal
StackLeniency: 0.7
Mode: 1
LetterboxInBreaks: 0
WidescreenStoryboard: 0

[Editor]
DistanceSpacing: 1
BeatDivisor: 4
GridSize: 32
TimelineZoom: 2.399999

[Metadata]
Title:ZUNTATA Touhou Arrangement Pack
TitleUnicode:ZUNTATA東方アレンジパック
Artist:ZUNTATA
ArtistUnicode:ZUNTATA
Creator:Felt7z
Version:COSIO (ZUNTATA) - Touhou Sangakusai
Source:
Tags:
BeatmapID:1290558
BeatmapSetID:611314

[Difficulty]
HPDrainRate:5
CircleSize:5
OverallDifficulty:5.5
ApproachRate:5
SliderMultiplier:1.4
SliderTickRate:1

[Events]
//Background and Video events
0,0,"Youyoumu.jpg",0,0
//Break Periods
//Storyboard Layer 0 (Background)
//Storyboard Layer 1 (Fail)
//Storyboard Layer 2 (Pass)
//Storyboard Layer 3 (Foreground)
//Storyboard Sound Samples

[TimingPoints]
730,461.538461538462,4,1,0,100,1,8
730,-111.111111111111,4,1,0,100,0,0
17345,300,6,1,0,100,1,0
17345,-133.333333333333,6,1,0,100,0,0
35345,300,5,1,0,100,1,0
35345,-133.333333333333,5,1,0,100,0,0
47345,400,4,1,0,100,1,0
47345,-95.2380952380952,4,1,0,100,0,0
48145,400,4,1,0,100,1,1
48145,-95.2380952380952,4,1,0,100,0,1
73745,-95.2380952380952,4,1,0,100,0,0
73845,-100,4,1,0,100,0,0
86545,-100,4,1,0,100,0,1
86645,-95.2380952380952,4,1,0,100,0,1
112145,-95.2380952380952,4,1,0,100,0,0

[HitObjects]
256,192,2576,5,0,0:0:0:0:
256,192,2806,1,0,0:0:0:0:
256,192,3037,1,8,0:0:0:0:
256,192,3268,1,0,0:0:0:0:
256,192,3730,1,8,0:0:0:0:
256,192,3960,1,8,0:0:0:0:
256,192,4422,1,8,0:0:0:0:
256,192,4653,1,8,0:0:0:0:
256,192,4883,1,0,0:0:0:0:
256,192,5114,1,0,0:0:0:0:
256,192,5576,1,8,0:0:0:0:
256,192,5806,1,0,0:0:0:0:
256,192,6037,1,8,0:0:0:0:
256,192,6268,1,0,0:0:0:0:
256,192,6499,1,0,0:0:0:0:
256,192,6730,1,8,0:0:0:0:
256,192,6960,1,0,0:0:0:0:
256,192,7422,1,8,0:0:0:0:
256,192,7653,1,8,0:0:0:0:
256,192,8114,1,8,0:0:0:0:
256,192,8345,1,0,0:0:0:0:
256,192,8576,1,0,0:0:0:0:
256,192,8806,1,8,0:0:0:0:
256,192,9037,1,0,0:0:0:0:
256,192,9114,1,8,0:0:0:0:
256,192,9191,1,0,0:0:0:0:
256,192,9499,1,0,0:0:0:0:
256,192,9730,1,8,0:0:0:0:
256,192,9960,1,0,0:0:0:0:
256,192,10191,1,0,0:0:0:0:
256,192,10422,1,8,0:0:0:0:
256,192,10653,1,0,0:0:0:0:
256,192,11114,1,8,0:0:0:0:
256,192,11345,1,8,0:0:0:0:
256,192,11576,1,0,0:0:0:0:
256,192,12037,1,8,0:0:0:0:
256,192,12268,1,0,0:0:0:0:
256,192,12499,1,8,0:0:0:0:
256,192,12730,1,8,0:0:0:0:
256,192,12960,1,0,0:0:0:0:
256,192,13191,1,8,0:0:0:0:
256,192,13422,1,0,0:0:0:0:
256,192,13653,1,0,0:0:0:0:
256,192,13883,1,0,0:0:0:0:
256,192,14114,1,8,0:0:0:0:
256,192,14345,1,0,0:0:0:0:
256,192,14806,1,8,0:0:0:0:
256,192,15037,1,0,0:0:0:0:
256,192,15268,12,8,16422,0:0:0:0:
256,192,16883,5,0,0:0:0:0:
256,192,16999,1,0,0:0:0:0:
256,192,17114,1,8,0:0:0:0:
256,192,17345,1,0,0:0:0:0:
256,192,17645,1,8,0:0:0:0:
256,192,17795,1,0,0:0:0:0:
256,192,18095,1,0,0:0:0:0:
256,192,18245,1,0,0:0:0:0:
256,192,18545,1,8,0:0:0:0:
256,192,18695,1,8,0:0:0:0:
256,192,18845,1,12,0:0:0:0:
256,192,19145,1,0,0:0:0:0:
256,192,19445,1,8,0:0:0:0:
256,192,19595,1,0,0:0:0:0:
256,192,19895,1,0,0:0:0:0:
256,192,20045,1,0,0:0:0:0:
256,192,20345,1,4,0:0:0:0:
256,192,20645,1,4,0:0:0:0:
256,192,20795,1,4,0:0:0:0:
256,192,20945,1,0,0:0:0:0:
256,192,21245,1,8,0:0:0:0:
256,192,21395,1,0,0:0:0:0:
256,192,21695,1,8,0:0:0:0:
256,192,21770,1,8,0:0:0:0:
256,192,21845,1,0,0:0:0:0:
256,192,21995,1,0,0:0:0:0:
256,192,22145,1,8,0:0:0:0:
256,192,22295,1,0,0:0:0:0:
256,192,22445,1,8,0:0:0:0:
256,192,22745,1,0,0:0:0:0:
256,192,23045,1,8,0:0:0:0:
256,192,23195,1,0,0:0:0:0:
256,192,23495,1,8,0:0:0:0:
256,192,23570,1,8,0:0:0:0:
256,192,23645,1,0,0:0:0:0:
256,192,23795,1,8,0:0:0:0:
256,192,23945,1,0,0:0:0:0:
256,192,24095,1,8,0:0:0:0:
256,192,24170,1,8,0:0:0:0:
256,192,24245,1,8,0:0:0:0:
256,192,24395,1,0,0:0:0:0:
256,192,24545,1,0,0:0:0:0:
256,192,24845,1,8,0:0:0:0:
256,192,24995,1,0,0:0:0:0:
256,192,25295,1,8,0:0:0:0:
256,192,25370,1,8,0:0:0:0:
256,192,25445,1,0,0:0:0:0:
256,192,25595,1,0,0:0:0:0:
256,192,25745,1,8,0:0:0:0:
256,192,25895,1,0,0:0:0:0:
256,192,26045,1,8,0:0:0:0:
256,192,26345,1,8,0:0:0:0:
256,192,26645,1,0,0:0:0:0:
256,192,26795,1,8,0:0:0:0:
256,192,26945,1,8,0:0:0:0:
256,192,27095,1,0,0:0:0:0:
256,192,27245,1,0,0:0:0:0:
256,192,27395,1,0,0:0:0:0:
256,192,27470,1,0,0:0:0:0:
256,192,27545,1,8,0:0:0:0:
256,192,27695,1,0,0:0:0:0:
256,192,27845,1,8,0:0:0:0:
256,192,28145,1,4,0:0:0:0:
256,192,28445,1,8,0:0:0:0:
256,192,28595,1,8,0:0:0:0:
256,192,28745,1,0,0:0:0:0:
256,192,28895,1,8,0:0:0:0:
256,192,29045,1,4,0:0:0:0:
256,192,29345,1,0,0:0:0:0:
256,192,29495,1,8,0:0:0:0:
256,192,29645,1,8,0:0:0:0:
256,192,29945,1,4,0:0:0:0:
256,192,30095,1,0,0:0:0:0:
256,192,30395,1,8,0:0:0:0:
256,192,30545,1,0,0:0:0:0:
256,192,30695,1,8,0:0:0:0:
256,192,30845,1,4,0:0:0:0:
256,192,30995,1,0,0:0:0:0:
256,192,31145,1,8,0:0:0:0:
256,192,31295,1,0,0:0:0:0:
256,192,31445,1,8,0:0:0:0:
256,192,31745,1,4,0:0:0:0:
256,192,32045,1,8,0:0:0:0:
256,192,32345,1,8,0:0:0:0:
256,192,32645,1,0,0:0:0:0:
256,192,32945,1,8,0:0:0:0:
256,192,33095,1,8,0:0:0:0:
256,192,33245,1,0,0:0:0:0:
256,192,33545,1,0,0:0:0:0:
256,192,33845,1,8,0:0:0:0:
256,192,33995,1,0,0:0:0:0:
256,192,34145,1,0,0:0:0:0:
256,192,34295,1,8,0:0:0:0:
256,192,34370,1,8,0:0:0:0:
256,192,34445,1,0,0:0:0:0:
256,192,34595,1,0,0:0:0:0:
256,192,34745,1,12,0:0:0:0:
256,192,34895,1,0,0:0:0:0:
256,192,35045,1,12,0:0:0:0:
256,192,35345,1,0,0:0:0:0:
256,192,35495,1,8,0:0:0:0:
256,192,35645,1,8,0:0:0:0:
256,192,35795,1,0,0:0:0:0:
256,192,35945,1,8,0:0:0:0:
256,192,36095,1,8,0:0:0:0:
256,192,36245,1,0,0:0:0:0:
256,192,36395,1,0,0:0:0:0:
256,192,36545,1,8,0:0:0:0:
256,192,36695,1,0,0:0:0:0:
256,192,36845,1,8,0:0:0:0:
256,192,36995,1,0,0:0:0:0:
256,192,37070,1,0,0:0:0:0:
256,192,37145,1,8,0:0:0:0:
256,192,37295,1,8,0:0:0:0:
256,192,37445,1,0,0:0:0:0:
256,192,37595,1,8,0:0:0:0:
256,192,37745,1,0,0:0:0:0:
256,192,37895,1,0,0:0:0:0:
256,192,38045,1,0,0:0:0:0:
256,192,38345,1,4,0:0:0:0:
256,192,38645,1,8,0:0:0:0:
256,192,38795,1,0,0:0:0:0:
256,192,38870,1,0,0:0:0:0:
256,192,38945,1,0,0:0:0:0:
256,192,39095,1,8,0:0:0:0:
256,192,39245,1,0,0:0:0:0:
256,192,39395,1,8,0:0:0:0:
256,192,39545,1,0,0:0:0:0:
256,192,39620,1,8,0:0:0:0:
256,192,39695,1,8,0:0:0:0:
256,192,39770,1,8,0:0:0:0:
256,192,39845,1,8,0:0:0:0:
256,192,40145,1,0,0:0:0:0:
256,192,40295,1,0,0:0:0:0:
256,192,40445,1,8,0:0:0:0:
256,192,40595,1,0,0:0:0:0:
256,192,40745,1,0,0:0:0:0:
256,192,40895,1,8,0:0:0:0:
256,192,40970,1,8,0:0:0:0:
256,192,41045,1,8,0:0:0:0:
256,192,41195,1,8,0:0:0:0:
256,192,41345,1,0,0:0:0:0:
256,192,41495,1,8,0:0:0:0:
256,192,41570,1,8,0:0:0:0:
256,192,41645,1,0,0:0:0:0:
256,192,41795,1,0,0:0:0:0:
256,192,41945,1,8,0:0:0:0:
256,192,42095,1,0,0:0:0:0:
256,192,42245,1,0,0:0:0:0:
256,192,42395,1,8,0:0:0:0:
256,192,42545,1,0,0:0:0:0:
256,192,42695,1,8,0:0:0:0:
256,192,42845,1,0,0:0:0:0:
256,192,42995,1,8,0:0:0:0:
256,192,43070,1,8,0:0:0:0:
256,192,43145,1,0,0:0:0:0:
256,192,43295,1,0,0:0:0:0:
256,192,43445,1,8,0:0:0:0:
256,192,43595,1,8,0:0:0:0:
256,192,43745,1,0,0:0:0:0:
256,192,43895,1,0,0:0:0:0:
256,192,44045,1,8,0:0:0:0:
256,192,44345,1,8,0:0:0:0:
256,192,44495,1,0,0:0:0:0:
256,192,44570,1,0,0:0:0:0:
256,192,44645,1,8,0:0:0:0:
256,192,44795,1,8,0:0:0:0:
256,192,44945,1,0,0:0:0:0:
256,192,45095,1,8,0:0:0:0:
256,192,45245,1,0,0:0:0:0:
256,192,45320,1,0,0:0:0:0:
256,192,45395,1,8,0:0:0:0:
256,192,45545,1,0,0:0:0:0:
256,192,45695,1,8,0:0:0:0:
256,192,45845,1,12,0:0:0:0:
256,192,46145,1,8,0:0:0:0:
256,192,46295,1,8,0:0:0:0:
256,192,46595,1,8,0:0:0:0:
256,192,46745,1,12,0:0:0:0:
256,192,47045,1,12,0:0:0:0:
256,192,47345,1,0,0:0:0:0:
256,192,47545,1,0,0:0:0:0:
256,192,47645,1,0,0:0:0:0:
256,192,47745,1,8,0:0:0:0:
256,192,47845,1,8,0:0:0:0:
256,192,47945,1,8,0:0:0:0:
256,192,48045,1,8,0:0:0:0:
256,192,48145,1,0,0:0:0:0:
256,192,48345,1,8,0:0:0:0:
256,192,48545,1,0,0:0:0:0:
256,192,48645,1,8,0:0:0:0:
256,192,48845,1,0,0:0:0:0:
256,192,48945,1,8,0:0:0:0:
256,192,49145,1,0,0:0:0:0:
256,192,49245,1,0,0:0:0:0:
256,192,49345,1,0,0:0:0:0:
256,192,49545,1,8,0:0:0:0:
256,192,49645,1,8,0:0:0:0:
256,192,49745,1,0,0:0:0:0:
256,192,49945,1,8,0:0:0:0:
256,192,50045,1,0,0:0:0:0:
256,192,50245,1,8,0:0:0:0:
256,192,50345,1,0,0:0:0:0:
256,192,50445,1,0,0:0:0:0:
256,192,50545,1,8,0:0:0:0:
256,192,50745,1,8,0:0:0:0:
256,192,50845,1,0,0:0:0:0:
256,192,50945,1,8,0:0:0:0:
256,192,51045,1,8,0:0:0:0:
256,192,51145,1,0,0:0:0:0:
256,192,51245,1,0,0:0:0:0:
256,192,51345,1,0,0:0:0:0:
256,192,51545,1,8,0:0:0:0:
256,192,51745,1,0,0:0:0:0:
256,192,51845,1,8,0:0:0:0:
256,192,52045,1,0,0:0:0:0:
256,192,52145,1,8,0:0:0:0:
256,192,52345,1,8,0:0:0:0:
256,192,52445,1,8,0:0:0:0:
256,192,52545,1,0,0:0:0:0:
256,192,52745,1,8,0:0:0:0:
256,192,52845,1,8,0:0:0:0:
256,192,52945,1,8,0:0:0:0:
256,192,53045,1,8,0:0:0:0:
256,192,53145,1,0,0:0:0:0:
256,192,53345,1,0,0:0:0:0:
256,192,53545,1,8,0:0:0:0:
256,192,53645,1,8,0:0:0:0:
256,192,53745,1,0,0:0:0:0:
256,192,53845,1,0,0:0:0:0:
256,192,53945,1,8,0:0:0:0:
256,192,54045,1,8,0:0:0:0:
256,192,54145,1,0,0:0:0:0:
256,192,54345,1,12,0:0:0:0:
256,192,54745,1,0,0:0:0:0:
256,192,54845,1,0,0:0:0:0:
256,192,54945,1,8,0:0:0:0:
256,192,55145,1,0,0:0:0:0:
256,192,55245,1,0,0:0:0:0:
256,192,55345,1,8,0:0:0:0:
256,192,55445,1,0,0:0:0:0:
256,192,55545,1,8,0:0:0:0:
256,192,55645,1,8,0:0:0:0:
256,192,55745,1,0,0:0:0:0:
256,192,55945,1,12,0:0:0:0:
256,192,56345,1,0,0:0:0:0:
256,192,56445,1,0,0:0:0:0:
256,192,56545,1,8,0:0:0:0:
256,192,56745,1,8,0:0:0:0:
256,192,56845,1,8,0:0:0:0:
256,192,56945,1,0,0:0:0:0:
256,192,57045,1,0,0:0:0:0:
256,192,57145,1,8,0:0:0:0:
256,192,57245,1,0,0:0:0:0:
256,192,57345,1,8,0:0:0:0:
256,192,57545,1,0,0:0:0:0:
256,192,57645,1,0,0:0:0:0:
256,192,57745,1,8,0:0:0:0:
256,192,57945,1,0,0:0:0:0:
256,192,58145,1,8,0:0:0:0:
256,192,58345,1,8,0:0:0:0:
256,192,58445,1,8,0:0:0:0:
256,192,58545,1,0,0:0:0:0:
256,192,58745,1,8,0:0:0:0:
256,192,58845,1,8,0:0:0:0:
256,192,58945,1,0,0:0:0:0:
256,192,59045,1,8,0:0:0:0:
256,192,59245,1,8,0:0:0:0:
256,192,59345,1,0,0:0:0:0:
256,192,59545,1,8,0:0:0:0:
256,192,59611,1,8,0:0:0:0:
256,192,59678,1,8,0:0:0:0:
256,192,59745,1,0,0:0:0:0:
256,192,59945,1,8,0:0:0:0:
256,192,60011,1,8,0:0:0:0:
256,192,60078,1,8,0:0:0:0:
256,192,60145,1,0,0:0:0:0:
256,192,60245,1,0,0:0:0:0:
256,192,60345,1,8,0:0:0:0:
256,192,60445,1,0,0:0:0:0:
256,192,60545,1,8,0:0:0:0:
256,192,60678,1,8,0:0:0:0:
256,192,60811,1,8,0:0:0:0:
256,192,60945,1,0,0:0:0:0:
256,192,61145,1,0,0:0:0:0:
256,192,61245,1,0,0:0:0:0:
256,192,61445,1,0,0:0:0:0:
256,192,61545,1,0,0:0:0:0:
256,192,61645,1,0,0:0:0:0:
256,192,61745,1,8,0:0:0:0:
256,192,61945,1,0,0:0:0:0:
256,192,62045,1,0,0:0:0:0:
256,192,62145,1,8,0:0:0:0:
256,192,62245,1,8,0:0:0:0:
256,192,62345,1,0,0:0:0:0:
256,192,62545,1,0,0:0:0:0:
256,192,62745,1,8,0:0:0:0:
256,192,62845,1,0,0:0:0:0:
256,192,63045,1,8,0:0:0:0:
256,192,63145,1,0,0:0:0:0:
256,192,63245,1,0,0:0:0:0:
256,192,63345,1,8,0:0:0:0:
256,192,63545,1,0,0:0:0:0:
256,192,63645,1,0,0:0:0:0:
256,192,63745,1,8,0:0:0:0:
256,192,63845,1,0,0:0:0:0:
256,192,63945,1,0,0:0:0:0:
256,192,64145,1,0,0:0:0:0:
256,192,64345,1,8,0:0:0:0:
256,192,64445,1,8,0:0:0:0:
256,192,64645,1,8,0:0:0:0:
256,192,64745,1,0,0:0:0:0:
256,192,64845,1,8,0:0:0:0:
256,192,64945,1,8,0:0:0:0:
256,192,65145,1,0,0:0:0:0:
256,192,65245,1,0,0:0:0:0:
256,192,65345,1,8,0:0:0:0:
256,192,65445,1,8,0:0:0:0:
256,192,65545,1,0,0:0:0:0:
256,192,65645,1,0,0:0:0:0:
256,192,65945,1,8,0:0:0:0:
256,192,66045,1,0,0:0:0:0:
256,192,66145,1,8,0:0:0:0:
256,192,66345,1,8,0:0:0:0:
256,192,66445,1,8,0:0:0:0:
256,192,66545,1,0,0:0:0:0:
256,192,66645,1,8,0:0:0:0:
256,192,66745,1,0,0:0:0:0:
256,192,66845,1,8,0:0:0:0:
256,192,66945,1,8,0:0:0:0:
256,192,67045,1,0,0:0:0:0:
256,192,67145,1,8,0:0:0:0:
256,192,67245,1,8,0:0:0:0:
256,192,67345,1,0,0:0:0:0:
256,192,67545,1,0,0:0:0:0:
256,192,67645,1,0,0:0:0:0:
256,192,67845,1,0,0:0:0:0:
256,192,67945,1,0,0:0:0:0:
256,192,68045,1,0,0:0:0:0:
256,192,68145,1,8,0:0:0:0:
256,192,68345,1,0,0:0:0:0:
256,192,68445,1,0,0:0:0:0:
256,192,68545,1,8,0:0:0:0:
256,192,68645,1,8,0:0:0:0:
256,192,68745,1,0,0:0:0:0:
256,192,68845,1,8,0:0:0:0:
256,192,68945,1,0,0:0:0:0:
256,192,69145,1,8,0:0:0:0:
256,192,69245,1,0,0:0:0:0:
256,192,69445,1,8,0:0:0:0:
256,192,69545,1,0,0:0:0:0:
256,192,69645,1,0,0:0:0:0:
256,192,69745,1,8,0:0:0:0:
256,192,69945,1,0,0:0:0:0:
256,192,70045,1,0,0:0:0:0:
256,192,70145,1,8,0:0:0:0:
256,192,70245,1,0,0:0:0:0:
256,192,70345,1,0,0:0:0:0:
256,192,70445,1,8,0:0:0:0:
256,192,70545,1,0,0:0:0:0:
256,192,70745,1,8,0:0:0:0:
256,192,70845,1,8,0:0:0:0:
256,192,71045,1,8,0:0:0:0:
256,192,71145,1,0,0:0:0:0:
256,192,71245,1,8,0:0:0:0:
256,192,71345,1,8,0:0:0:0:
256,192,71545,1,0,0:0:0:0:
256,192,71645,1,0,0:0:0:0:
256,192,71745,1,8,0:0:0:0:
256,192,71845,1,8,0:0:0:0:
256,192,71945,1,8,0:0:0:0:
256,192,72045,1,0,0:0:0:0:
256,192,72345,1,8,0:0:0:0:
256,192,72411,1,8,0:0:0:0:
256,192,72478,1,8,0:0:0:0:
256,192,72545,1,0,0:0:0:0:
256,192,72745,1,8,0:0:0:0:
256,192,72811,1,8,0:0:0:0:
256,192,72878,1,8,0:0:0:0:
256,192,72945,1,0,0:0:0:0:
256,192,73045,1,8,0:0:0:0:
256,192,73145,1,0,0:0:0:0:
256,192,73245,1,8,0:0:0:0:
256,192,73345,1,8,0:0:0:0:
256,192,73445,1,0,0:0:0:0:
256,192,73545,1,8,0:0:0:0:
256,192,73645,1,8,0:0:0:0:
256,192,73745,1,0,0:0:0:0:
256,192,73945,1,8,0:0:0:0:
256,192,74145,1,0,0:0:0:0:
256,192,74345,1,8,0:0:0:0:
256,192,74445,1,0,0:0:0:0:
256,192,74545,1,8,0:0:0:0:
256,192,74745,1,8,0:0:0:0:
256,192,74845,1,8,0:0:0:0:
256,192,74945,1,0,0:0:0:0:
256,192,75145,1,4,0:0:0:0:
256,192,75345,1,4,0:0:0:0:
256,192,75545,1,8,0:0:0:0:
256,192,75745,1,0,0:0:0:0:
256,192,75945,1,8,0:0:0:0:
256,192,76045,1,0,0:0:0:0:
256,192,76145,1,0,0:0:0:0:
256,192,76345,1,8,0:0:0:0:
256,192,76445,1,0,0:0:0:0:
256,192,76645,1,8,0:0:0:0:
256,192,76745,1,0,0:0:0:0:
256,192,76945,1,4,0:0:0:0:
256,192,77145,1,8,0:0:0:0:
256,192,77345,1,0,0:0:0:0:
256,192,77545,1,8,0:0:0:0:
256,192,77645,1,0,0:0:0:0:
256,192,77745,1,8,0:0:0:0:
256,192,77945,1,8,0:0:0:0:
256,192,78045,1,8,0:0:0:0:
256,192,78145,1,0,0:0:0:0:
256,192,78345,1,4,0:0:0:0:
256,192,78545,1,4,0:0:0:0:
256,192,78745,1,8,0:0:0:0:
256,192,78945,1,0,0:0:0:0:
256,192,79145,1,4,0:0:0:0:
256,192,79345,1,4,0:0:0:0:
256,192,79545,1,0,0:0:0:0:
256,192,79645,1,8,0:0:0:0:
256,192,79745,1,0,0:0:0:0:
256,192,79878,1,8,0:0:0:0:
256,192,80011,1,8,0:0:0:0:
256,192,80145,1,4,0:0:0:0:
256,192,80411,1,8,0:0:0:0:
256,192,80545,1,0,0:0:0:0:
256,192,80678,1,0,0:0:0:0:
256,192,80811,1,8,0:0:0:0:
256,192,80945,1,4,0:0:0:0:
256,192,81211,1,8,0:0:0:0:
256,192,81345,1,0,0:0:0:0:
256,192,81478,1,0,0:0:0:0:
256,192,81611,1,8,0:0:0:0:
256,192,81745,1,4,0:0:0:0:
256,192,82011,1,8,0:0:0:0:
256,192,82145,1,0,0:0:0:0:
256,192,82278,1,8,0:0:0:0:
256,192,82411,1,8,0:0:0:0:
256,192,82545,1,4,0:0:0:0:
256,192,82811,1,8,0:0:0:0:
256,192,82945,1,0,0:0:0:0:
256,192,83078,1,8,0:0:0:0:
256,192,83211,1,8,0:0:0:0:
256,192,83345,1,0,0:0:0:0:
256,192,83478,1,8,0:0:0:0:
256,192,83611,1,8,0:0:0:0:
256,192,83745,1,0,0:0:0:0:
256,192,83878,1,8,0:0:0:0:
256,192,83945,1,8,0:0:0:0:
256,192,84011,1,8,0:0:0:0:
256,192,84145,1,0,0:0:0:0:
256,192,84278,1,8,0:0:0:0:
256,192,84411,1,8,0:0:0:0:
256,192,84545,1,0,0:0:0:0:
256,192,84678,1,8,0:0:0:0:
256,192,84745,1,8,0:0:0:0:
256,192,84811,1,8,0:0:0:0:
256,192,84945,1,0,0:0:0:0:
256,192,85078,1,8,0:0:0:0:
256,192,85211,1,0,0:0:0:0:
256,192,85345,1,8,0:0:0:0:
256,192,85478,1,0,0:0:0:0:
256,192,85611,1,8,0:0:0:0:
256,192,85745,1,0,0:0:0:0:
256,192,85878,1,8,0:0:0:0:
256,192,86011,1,8,0:0:0:0:
256,192,86145,1,0,0:0:0:0:
256,192,86245,1,8,0:0:0:0:
256,192,86345,1,8,0:0:0:0:
256,192,86445,1,8,0:0:0:0:
256,192,86545,1,0,0:0:0:0:
256,192,86745,1,8,0:0:0:0:
256,192,86945,1,0,0:0:0:0:
256,192,87045,1,8,0:0:0:0:
256,192,87245,1,0,0:0:0:0:
256,192,87345,1,8,0:0:0:0:
256,192,87545,1,0,0:0:0:0:
256,192,87645,1,8,0:0:0:0:
256,192,87745,1,0,0:0:0:0:
256,192,87845,1,0,0:0:0:0:
256,192,87945,1,8,0:0:0:0:
256,192,88045,1,8,0:0:0:0:
256,192,88145,1,0,0:0:0:0:
256,192,88345,1,8,0:0:0:0:
256,192,88445,1,0,0:0:0:0:
256,192,88645,1,8,0:0:0:0:
256,192,88745,1,0,0:0:0:0:
256,192,88845,1,0,0:0:0:0:
256,192,88945,1,8,0:0:0:0:
256,192,89145,1,8,0:0:0:0:
256,192,89245,1,0,0:0:0:0:
256,192,89345,1,8,0:0:0:0:
256,192,89445,1,8,0:0:0:0:
256,192,89545,1,0,0:0:0:0:
256,192,89645,1,0,0:0:0:0:
256,192,89745,1,0,0:0:0:0:
256,192,89945,1,8,0:0:0:0:
256,192,90145,1,0,0:0:0:0:
256,192,90245,1,8,0:0:0:0:
256,192,90445,1,0,0:0:0:0:
256,192,90545,1,8,0:0:0:0:
256,192,90745,1,8,0:0:0:0:
256,192,90845,1,8,0:0:0:0:
256,192,90945,1,0,0:0:0:0:
256,192,91145,1,8,0:0:0:0:
256,192,91245,1,8,0:0:0:0:
256,192,91345,1,8,0:0:0:0:
256,192,91445,1,8,0:0:0:0:
256,192,91545,1,0,0:0:0:0:
256,192,91645,1,8,0:0:0:0:
256,192,91745,1,0,0:0:0:0:
256,192,91945,1,8,0:0:0:0:
256,192,92045,1,8,0:0:0:0:
256,192,92145,1,0,0:0:0:0:
256,192,92245,1,0,0:0:0:0:
256,192,92345,1,8,0:0:0:0:
256,192,92445,1,8,0:0:0:0:
256,192,92545,1,0,0:0:0:0:
256,192,92745,1,8,0:0:0:0:
256,192,92845,1,8,0:0:0:0:
256,192,92945,1,8,0:0:0:0:
256,192,93045,1,8,0:0:0:0:
256,192,93145,1,0,0:0:0:0:
256,192,93345,1,8,0:0:0:0:
256,192,93545,1,0,0:0:0:0:
256,192,93645,1,0,0:0:0:0:
256,192,93745,1,8,0:0:0:0:
256,192,93845,1,0,0:0:0:0:
256,192,93945,1,8,0:0:0:0:
256,192,94045,1,8,0:0:0:0:
256,192,94145,1,0,0:0:0:0:
256,192,94345,1,8,0:0:0:0:
256,192,94445,1,8,0:0:0:0:
256,192,94545,1,8,0:0:0:0:
256,192,94645,1,8,0:0:0:0:
256,192,94745,1,0,0:0:0:0:
256,192,94945,1,8,0:0:0:0:
256,192,95145,1,8,0:0:0:0:
256,192,95245,1,8,0:0:0:0:
256,192,95345,1,0,0:0:0:0:
256,192,95445,1,0,0:0:0:0:
256,192,95545,1,8,0:0:0:0:
256,192,95645,1,0,0:0:0:0:
256,192,95745,1,8,0:0:0:0:
256,192,95945,1,0,0:0:0:0:
256,192,96045,1,0,0:0:0:0:
256,192,96145,1,8,0:0:0:0:
256,192,96245,1,8,0:0:0:0:
256,192,96345,1,0,0:0:0:0:
256,192,96545,1,8,0:0:0:0:
256,192,96645,1,0,0:0:0:0:
256,192,96745,1,8,0:0:0:0:
256,192,96845,1,8,0:0:0:0:
256,192,96945,1,0,0:0:0:0:
256,192,97145,1,8,0:0:0:0:
256,192,97245,1,8,0:0:0:0:
256,192,97345,1,0,0:0:0:0:
256,192,97445,1,8,0:0:0:0:
256,192,97645,1,8,0:0:0:0:
256,192,97745,1,0,0:0:0:0:
256,192,97945,1,8,0:0:0:0:
256,192,98011,1,8,0:0:0:0:
256,192,98078,1,8,0:0:0:0:
256,192,98145,1,0,0:0:0:0:
256,192,98345,1,8,0:0:0:0:
256,192,98411,1,8,0:0:0:0:
256,192,98478,1,8,0:0:0:0:
256,192,98545,1,0,0:0:0:0:
256,192,98645,1,0,0:0:0:0:
256,192,98745,1,8,0:0:0:0:
256,192,98845,1,0,0:0:0:0:
256,192,98945,1,8,0:0:0:0:
256,192,99078,1,8,0:0:0:0:
256,192,99211,1,8,0:0:0:0:
256,192,99345,1,0,0:0:0:0:
256,192,99545,1,0,0:0:0:0:
256,192,99645,1,8,0:0:0:0:
256,192,99745,1,0,0:0:0:0:
256,192,99845,1,0,0:0:0:0:
256,192,99945,1,8,0:0:0:0:
256,192,100045,1,8,0:0:0:0:
256,192,100145,1,8,0:0:0:0:
256,192,100245,1,8,0:0:0:0:
256,192,100345,1,0,0:0:0:0:
256,192,100445,1,0,0:0:0:0:
256,192,100545,1,8,0:0:0:0:
256,192,100645,1,8,0:0:0:0:
256,192,100745,1,0,0:0:0:0:
256,192,100845,1,8,0:0:0:0:
256,192,100945,1,0,0:0:0:0:
256,192,101145,1,8,0:0:0:0:
256,192,101245,1,0,0:0:0:0:
256,192,101345,1,0,0:0:0:0:
256,192,101445,1,8,0:0:0:0:
256,192,101545,1,0,0:0:0:0:
256,192,101645,1,8,0:0:0:0:
256,192,101745,1,8,0:0:0:0:
256,192,101845,1,8,0:0:0:0:
256,192,101945,1,0,0:0:0:0:
256,192,102045,1,0,0:0:0:0:
256,192,102145,1,8,0:0:0:0:
256,192,102245,1,0,0:0:0:0:
256,192,102345,1,0,0:0:0:0:
256,192,102445,1,8,0:0:0:0:
256,192,102545,1,0,0:0:0:0:
256,192,102745,1,0,0:0:0:0:
256,192,102845,1,8,0:0:0:0:
256,192,102945,1,8,0:0:0:0:
256,192,103045,1,0,0:0:0:0:
256,192,103145,1,8,0:0:0:0:
256,192,103245,1,0,0:0:0:0:
256,192,103345,1,8,0:0:0:0:
256,192,103445,1,8,0:0:0:0:
256,192,103545,1,0,0:0:0:0:
256,192,103645,1,0,0:0:0:0:
256,192,103745,1,8,0:0:0:0:
256,192,103845,1,8,0:0:0:0:
256,192,103945,1,0,0:0:0:0:
256,192,104045,1,0,0:0:0:0:
256,192,104145,1,8,0:0:0:0:
256,192,104345,1,8,0:0:0:0:
256,192,104445,1,0,0:0:0:0:
256,192,104545,1,8,0:0:0:0:
256,192,104745,1,8,0:0:0:0:
256,192,104845,1,8,0:0:0:0:
256,192,104945,1,0,0:0:0:0:
256,192,105045,1,8,0:0:0:0:
256,192,105145,1,0,0:0:0:0:
256,192,105245,1,8,0:0:0:0:
256,192,105345,1,8,0:0:0:0:
256,192,105445,1,0,0:0:0:0:
256,192,105545,1,8,0:0:0:0:
256,192,105645,1,8,0:0:0:0:
256,192,105745,1,0,0:0:0:0:
256,192,105945,1,0,0:0:0:0:
256,192,106045,1,8,0:0:0:0:
256,192,106145,1,0,0:0:0:0:
256,192,106245,1,0,0:0:0:0:
256,192,106345,1,8,0:0:0:0:
256,192,106445,1,8,0:0:0:0:
256,192,106545,1,8,0:0:0:0:
256,192,106645,1,8,0:0:0:0:
256,192,106745,1,0,0:0:0:0:
256,192,106845,1,0,0:0:0:0:
256,192,106945,1,8,0:0:0:0:
256,192,107045,1,8,0:0:0:0:
256,192,107145,1,0,0:0:0:0:
256,192,107245,1,8,0:0:0:0:
256,192,107345,1,0,0:0:0:0:
256,192,107545,1,8,0:0:0:0:
256,192,107645,1,0,0:0:0:0:
256,192,107745,1,0,0:0:0:0:
256,192,107845,1,8,0:0:0:0:
256,192,107945,1,0,0:0:0:0:
256,192,108045,1,8,0:0:0:0:
256,192,108145,1,8,0:0:0:0:
256,192,108245,1,8,0:0:0:0:
256,192,108345,1,0,0:0:0:0:
256,192,108445,1,0,0:0:0:0:
256,192,108545,1,8,0:0:0:0:
256,192,108645,1,0,0:0:0:0:
256,192,108745,1,0,0:0:0:0:
256,192,108845,1,8,0:0:0:0:
256,192,108945,1,0,0:0:0:0:
256,192,109145,1,8,0:0:0:0:
256,192,109245,1,8,0:0:0:0:
256,192,109345,1,0,0:0:0:0:
256,192,109445,1,8,0:0:0:0:
256,192,109545,1,0,0:0:0:0:
256,192,109645,1,8,0:0:0:0:
256,192,109745,1,8,0:0:0:0:
256,192,109845,1,8,0:0:0:0:
256,192,109945,1,0,0:0:0:0:
256,192,110045,1,0,0:0:0:0:
256,192,110145,1,8,0:0:0:0:
256,192,110245,1,8,0:0:0:0:
256,192,110345,1,8,0:0:0:0:
256,192,110445,1,0,0:0:0:0:
256,192,110545,1,8,0:0:0:0:
256,192,110745,1,8,0:0:0:0:
256,192,110811,1,8,0:0:0:0:
256,192,110878,1,8,0:0:0:0:
256,192,110945,1,0,0:0:0:0:
256,192,111145,1,8,0:0:0:0:
256,192,111211,1,8,0:0:0:0:
256,192,111278,1,8,0:0:0:0:
256,192,111345,1,0,0:0:0:0:
256,192,111445,1,8,0:0:0:0:
256,192,111645,1,8,0:0:0:0:
256,192,111745,1,0,0:0:0:0:
256,192,111878,1,0,0:0:0:0:
256,192,112011,1,0,0:0:0:0:
256,192,112145,1,12,0:0:0:0:
