osu file format v14

[General]
AudioFilename: 6.mp3
AudioLeadIn: 0
PreviewTime: 77165
Countdown: 0
SampleSet: None
StackLeniency: 0.7
Mode: 1
LetterboxInBreaks: 0
WidescreenStoryboard: 0

[Editor]
DistanceSpacing: 1
BeatDivisor: 4
GridSize: 32
TimelineZoom: 2.7

[Metadata]
Title:ZUNTATA Touhou Arrangement Pack
TitleUnicode:ZUNTATA東方アレンジパック
Artist:ZUNTATA
ArtistUnicode:ZUNTATA
Creator:Felt7z
Version:COSIO (ZUNTATA) - Touhou Soujimai
Source:
Tags:
BeatmapID:1414546
BeatmapSetID:611314

[Difficulty]
HPDrainRate:5
CircleSize:5
OverallDifficulty:5
ApproachRate:5
SliderMultiplier:1.4
SliderTickRate:1

[Events]
//Background and Video events
0,0,"chireiden.jpg",0,0
//Break Periods
//Storyboard Layer 0 (Background)
//Storyboard Layer 1 (Fail)
//Storyboard Layer 2 (Pass)
//Storyboard Layer 3 (Foreground)
//Storyboard Sound Samples

[TimingPoints]
315,355.029585798817,4,1,0,100,1,0
7060,-66.6666666666667,4,1,0,100,0,0
7415,-100,4,1,0,100,0,0
12741,-66.6666666666667,4,1,0,100,0,0
13096,-100,4,1,0,100,0,0
19841,-66.6666666666667,4,1,0,100,0,0
20196,-100,4,1,0,100,0,0
31202,-66.6666666666667,4,1,0,100,0,0
31557,-100,4,1,0,100,0,0
42563,-66.6666666666667,4,1,0,100,0,0
42918,-100,4,1,0,100,0,1
53924,-66.6666666666667,4,1,0,100,0,1
54279,-100,4,1,0,100,0,0
76646,-66.6666666666667,4,1,0,100,0,0
77001,-90.9090909090909,4,1,0,100,0,0
88007,-60.6060606060606,4,1,0,100,0,0
88362,-90.9090909090909,4,1,0,100,0,1
99368,-60.6060606060606,4,1,0,100,0,1
99723,-100,4,1,0,100,0,0
105048,-66.6666666666667,4,1,0,100,0,0
105403,-100,4,1,0,100,0,0
116409,-66.6666666666667,4,1,0,100,0,0
116764,-100,4,1,0,100,0,0

[HitObjects]
256,192,1735,5,8,0:0:0:0:
256,192,1823,1,0,0:0:0:0:
256,192,1912,1,8,0:0:0:0:
256,192,2090,1,8,0:0:0:0:
256,192,2178,1,8,0:0:0:0:
256,192,2267,1,0,0:0:0:0:
256,192,2356,1,0,0:0:0:0:
256,192,2445,1,8,0:0:0:0:
256,192,2711,1,0,0:0:0:0:
256,192,2977,1,8,0:0:0:0:
256,192,4752,1,8,0:0:0:0:
256,192,4930,1,8,0:0:0:0:
256,192,5019,1,8,0:0:0:0:
256,192,5107,1,0,0:0:0:0:
256,192,5196,1,0,0:0:0:0:
256,192,5285,1,8,0:0:0:0:
256,192,5551,1,0,0:0:0:0:
256,192,5817,1,8,0:0:0:0:
256,192,7060,1,12,0:0:0:0:
256,192,7415,1,0,0:0:0:0:
256,192,7593,1,8,0:0:0:0:
256,192,7681,1,0,0:0:0:0:
256,192,7770,1,8,0:0:0:0:
256,192,7859,1,8,0:0:0:0:
256,192,7948,1,0,0:0:0:0:
256,192,8036,1,0,0:0:0:0:
256,192,8125,1,12,0:0:0:0:
256,192,8391,1,4,0:0:0:0:
256,192,8658,1,12,0:0:0:0:
256,192,9190,1,8,0:0:0:0:
256,192,9900,1,8,0:0:0:0:
256,192,10433,1,8,0:0:0:0:
256,192,10610,1,8,0:0:0:0:
256,192,10699,1,8,0:0:0:0:
256,192,10788,1,0,0:0:0:0:
256,192,10877,1,0,0:0:0:0:
256,192,10965,1,12,0:0:0:0:
256,192,11232,1,4,0:0:0:0:
256,192,11498,1,12,0:0:0:0:
256,192,12030,1,8,0:0:0:0:
256,192,12386,1,0,0:0:0:0:
256,192,12741,1,12,0:0:0:0:
256,192,13096,1,0,0:0:0:0:
256,192,13273,1,8,0:0:0:0:
256,192,13451,1,8,0:0:0:0:
256,192,13539,1,8,0:0:0:0:
256,192,13628,1,0,0:0:0:0:
256,192,13717,1,8,0:0:0:0:
256,192,13806,1,0,0:0:0:0:
256,192,13983,1,8,0:0:0:0:
256,192,14161,1,8,0:0:0:0:
256,192,14249,1,8,0:0:0:0:
256,192,14427,1,8,0:0:0:0:
256,192,14516,1,0,0:0:0:0:
256,192,14693,1,8,0:0:0:0:
256,192,14871,1,8,0:0:0:0:
256,192,14959,1,8,0:0:0:0:
256,192,15048,1,0,0:0:0:0:
256,192,15137,1,8,0:0:0:0:
256,192,15226,1,0,0:0:0:0:
256,192,15403,1,8,0:0:0:0:
256,192,15581,1,8,0:0:0:0:
256,192,15670,1,8,0:0:0:0:
256,192,15758,1,0,0:0:0:0:
256,192,15847,1,8,0:0:0:0:
256,192,15936,1,8,0:0:0:0:
256,192,16025,1,8,0:0:0:0:
256,192,16113,1,0,0:0:0:0:
256,192,16291,1,8,0:0:0:0:
256,192,16380,1,8,0:0:0:0:
256,192,16468,1,0,0:0:0:0:
256,192,16646,1,8,0:0:0:0:
256,192,16735,1,8,0:0:0:0:
256,192,16823,1,0,0:0:0:0:
256,192,17001,1,8,0:0:0:0:
256,192,17090,1,8,0:0:0:0:
256,192,17178,1,0,0:0:0:0:
256,192,17356,1,8,0:0:0:0:
256,192,17445,1,0,0:0:0:0:
256,192,17533,1,8,0:0:0:0:
256,192,17622,1,8,0:0:0:0:
256,192,17711,1,8,0:0:0:0:
256,192,17800,1,0,0:0:0:0:
256,192,17888,1,8,0:0:0:0:
256,192,17977,1,0,0:0:0:0:
256,192,18066,1,8,0:0:0:0:
256,192,18155,1,8,0:0:0:0:
256,192,18243,1,8,0:0:0:0:
256,192,18332,1,8,0:0:0:0:
256,192,18421,1,8,0:0:0:0:
256,192,18510,1,8,0:0:0:0:
256,192,18599,1,8,0:0:0:0:
256,192,18687,1,8,0:0:0:0:
256,192,18776,12,0,19486,0:0:0:0:
256,192,19841,5,12,0:0:0:0:
256,192,20196,1,0,0:0:0:0:
256,192,20285,1,0,0:0:0:0:
256,192,20374,1,8,0:0:0:0:
256,192,20551,1,8,0:0:0:0:
256,192,20640,1,8,0:0:0:0:
256,192,20729,1,0,0:0:0:0:
256,192,20817,1,0,0:0:0:0:
256,192,20906,1,8,0:0:0:0:
256,192,21084,1,0,0:0:0:0:
256,192,21172,1,8,0:0:0:0:
256,192,21350,1,0,0:0:0:0:
256,192,21439,1,8,0:0:0:0:
256,192,21528,1,8,0:0:0:0:
256,192,21616,1,0,0:0:0:0:
256,192,21794,1,8,0:0:0:0:
256,192,21883,1,8,0:0:0:0:
256,192,21971,1,0,0:0:0:0:
256,192,22149,1,8,0:0:0:0:
256,192,22326,1,8,0:0:0:0:
256,192,22504,1,0,0:0:0:0:
256,192,22593,1,0,0:0:0:0:
256,192,22681,1,8,0:0:0:0:
256,192,22770,1,8,0:0:0:0:
256,192,22859,1,0,0:0:0:0:
256,192,22948,1,8,0:0:0:0:
256,192,23036,1,0,0:0:0:0:
256,192,23214,1,8,0:0:0:0:
256,192,23391,1,8,0:0:0:0:
256,192,23480,1,8,0:0:0:0:
256,192,23569,1,0,0:0:0:0:
256,192,23658,1,0,0:0:0:0:
256,192,23746,1,8,0:0:0:0:
256,192,23924,1,0,0:0:0:0:
256,192,24013,1,8,0:0:0:0:
256,192,24101,1,8,0:0:0:0:
256,192,24190,1,0,0:0:0:0:
256,192,24279,1,8,0:0:0:0:
256,192,24457,1,8,0:0:0:0:
256,192,24545,1,0,0:0:0:0:
256,192,24634,1,8,0:0:0:0:
256,192,24723,1,8,0:0:0:0:
256,192,24812,1,0,0:0:0:0:
256,192,24989,1,8,0:0:0:0:
256,192,25167,1,0,0:0:0:0:
256,192,25344,1,0,0:0:0:0:
256,192,25433,1,0,0:0:0:0:
256,192,25522,1,8,0:0:0:0:
256,192,25699,1,0,0:0:0:0:
256,192,25877,1,0,0:0:0:0:
256,192,26054,1,8,0:0:0:0:
256,192,26232,1,8,0:0:0:0:
256,192,26320,1,8,0:0:0:0:
256,192,26409,1,0,0:0:0:0:
256,192,26498,1,0,0:0:0:0:
256,192,26587,1,8,0:0:0:0:
256,192,26764,1,0,0:0:0:0:
256,192,26853,1,8,0:0:0:0:
256,192,27030,1,0,0:0:0:0:
256,192,27119,1,8,0:0:0:0:
256,192,27208,1,8,0:0:0:0:
256,192,27297,1,0,0:0:0:0:
256,192,27474,1,8,0:0:0:0:
256,192,27563,1,8,0:0:0:0:
256,192,27652,1,0,0:0:0:0:
256,192,27829,1,8,0:0:0:0:
256,192,27918,1,8,0:0:0:0:
256,192,28007,1,0,0:0:0:0:
256,192,28096,1,8,0:0:0:0:
256,192,28184,1,0,0:0:0:0:
256,192,28273,1,0,0:0:0:0:
256,192,28362,1,8,0:0:0:0:
256,192,28539,1,8,0:0:0:0:
256,192,28628,1,8,0:0:0:0:
256,192,28717,1,0,0:0:0:0:
256,192,28894,1,8,0:0:0:0:
256,192,29072,1,8,0:0:0:0:
256,192,29161,1,8,0:0:0:0:
256,192,29249,1,0,0:0:0:0:
256,192,29338,1,0,0:0:0:0:
256,192,29427,1,8,0:0:0:0:
256,192,29604,1,0,0:0:0:0:
256,192,29693,1,8,0:0:0:0:
256,192,29782,1,8,0:0:0:0:
256,192,29871,1,0,0:0:0:0:
256,192,29959,1,8,0:0:0:0:
256,192,30137,1,8,0:0:0:0:
256,192,30226,1,0,0:0:0:0:
256,192,30315,1,8,0:0:0:0:
256,192,30403,1,8,0:0:0:0:
256,192,30492,1,0,0:0:0:0:
256,192,30581,1,0,0:0:0:0:
256,192,30670,1,8,0:0:0:0:
256,192,30758,1,8,0:0:0:0:
256,192,30847,1,0,0:0:0:0:
256,192,30936,1,8,0:0:0:0:
256,192,31025,1,0,0:0:0:0:
256,192,31113,1,0,0:0:0:0:
256,192,31202,1,12,0:0:0:0:
256,192,31557,1,0,0:0:0:0:
256,192,31912,1,0,0:0:0:0:
256,192,32090,1,8,0:0:0:0:
256,192,32267,1,0,0:0:0:0:
256,192,32533,1,8,0:0:0:0:
256,192,32622,1,0,0:0:0:0:
256,192,32800,1,8,0:0:0:0:
256,192,32888,1,8,0:0:0:0:
256,192,32977,1,0,0:0:0:0:
256,192,33155,1,8,0:0:0:0:
256,192,33332,1,0,0:0:0:0:
256,192,33510,1,8,0:0:0:0:
256,192,33599,1,8,0:0:0:0:
256,192,33687,1,0,0:0:0:0:
256,192,33776,1,8,0:0:0:0:
256,192,33954,1,8,0:0:0:0:
256,192,34042,1,0,0:0:0:0:
256,192,34220,1,8,0:0:0:0:
256,192,34309,1,8,0:0:0:0:
256,192,34397,1,0,0:0:0:0:
256,192,34575,1,8,0:0:0:0:
256,192,34752,1,0,0:0:0:0:
256,192,34930,1,8,0:0:0:0:
256,192,35019,1,8,0:0:0:0:
256,192,35107,1,0,0:0:0:0:
256,192,35374,1,8,0:0:0:0:
256,192,35462,1,0,0:0:0:0:
256,192,35640,1,8,0:0:0:0:
256,192,35729,1,8,0:0:0:0:
256,192,35817,1,0,0:0:0:0:
256,192,35995,1,8,0:0:0:0:
256,192,36172,1,0,0:0:0:0:
256,192,36261,1,8,0:0:0:0:
256,192,36439,1,8,0:0:0:0:
256,192,36528,1,0,0:0:0:0:
256,192,36705,1,8,0:0:0:0:
256,192,36794,1,8,0:0:0:0:
256,192,36883,1,0,0:0:0:0:
256,192,37060,1,0,0:0:0:0:
256,192,37238,1,0,0:0:0:0:
256,192,37415,1,8,0:0:0:0:
256,192,37593,1,0,0:0:0:0:
256,192,37770,1,8,0:0:0:0:
256,192,37859,1,8,0:0:0:0:
256,192,37948,1,0,0:0:0:0:
256,192,38214,1,8,0:0:0:0:
256,192,38303,1,0,0:0:0:0:
256,192,38480,1,8,0:0:0:0:
256,192,38569,1,8,0:0:0:0:
256,192,38658,1,0,0:0:0:0:
256,192,38835,1,8,0:0:0:0:
256,192,39013,1,0,0:0:0:0:
256,192,39190,1,8,0:0:0:0:
256,192,39279,1,8,0:0:0:0:
256,192,39368,1,0,0:0:0:0:
256,192,39545,1,8,0:0:0:0:
256,192,39634,1,0,0:0:0:0:
256,192,39723,1,0,0:0:0:0:
256,192,39900,1,8,0:0:0:0:
256,192,40078,1,0,0:0:0:0:
256,192,40255,1,0,0:0:0:0:
256,192,40344,1,0,0:0:0:0:
256,192,40433,1,8,0:0:0:0:
256,192,40610,1,0,0:0:0:0:
256,192,40788,1,0,0:0:0:0:
256,192,40877,1,0,0:0:0:0:
256,192,40965,1,8,0:0:0:0:
256,192,41143,1,0,0:0:0:0:
256,192,41320,1,8,0:0:0:0:
256,192,41409,1,0,0:0:0:0:
256,192,41498,1,8,0:0:0:0:
256,192,41675,1,0,0:0:0:0:
256,192,41764,1,0,0:0:0:0:
256,192,41853,1,8,0:0:0:0:
256,192,42030,1,0,0:0:0:0:
256,192,42119,1,8,0:0:0:0:
256,192,42208,1,0,0:0:0:0:
256,192,42297,1,0,0:0:0:0:
256,192,42386,1,8,0:0:0:0:
256,192,42474,1,0,0:0:0:0:
256,192,42563,1,12,0:0:0:0:
256,192,42918,1,0,0:0:0:0:
256,192,43096,1,8,0:0:0:0:
256,192,43273,1,8,0:0:0:0:
256,192,43451,1,0,0:0:0:0:
256,192,43539,1,0,0:0:0:0:
256,192,43628,1,8,0:0:0:0:
256,192,43806,1,0,0:0:0:0:
256,192,43894,1,0,0:0:0:0:
256,192,43983,1,0,0:0:0:0:
256,192,44161,1,8,0:0:0:0:
256,192,44338,1,8,0:0:0:0:
256,192,44516,1,0,0:0:0:0:
256,192,44604,1,0,0:0:0:0:
256,192,44693,1,8,0:0:0:0:
256,192,44871,1,0,0:0:0:0:
256,192,44959,1,0,0:0:0:0:
256,192,45048,1,8,0:0:0:0:
256,192,45137,1,0,0:0:0:0:
256,192,45315,1,0,0:0:0:0:
256,192,45403,1,8,0:0:0:0:
256,192,45581,1,8,0:0:0:0:
256,192,45670,1,0,0:0:0:0:
256,192,45758,1,8,0:0:0:0:
256,192,45936,1,0,0:0:0:0:
256,192,46025,1,0,0:0:0:0:
256,192,46113,1,8,0:0:0:0:
256,192,46291,1,8,0:0:0:0:
256,192,46380,1,8,0:0:0:0:
256,192,46468,1,0,0:0:0:0:
256,192,46557,1,8,0:0:0:0:
256,192,46735,1,8,0:0:0:0:
256,192,46912,1,0,0:0:0:0:
256,192,47001,1,8,0:0:0:0:
256,192,47090,1,8,0:0:0:0:
256,192,47178,1,0,0:0:0:0:
256,192,47445,1,0,0:0:0:0:
256,192,47533,1,8,0:0:0:0:
256,192,47711,1,0,0:0:0:0:
256,192,47800,1,0,0:0:0:0:
256,192,47888,1,8,0:0:0:0:
256,192,47977,1,8,0:0:0:0:
256,192,48066,1,0,0:0:0:0:
256,192,48155,1,8,0:0:0:0:
256,192,48243,1,0,0:0:0:0:
256,192,48421,1,0,0:0:0:0:
256,192,48599,1,0,0:0:0:0:
256,192,48776,1,8,0:0:0:0:
256,192,48954,1,8,0:0:0:0:
256,192,49042,1,8,0:0:0:0:
256,192,49131,1,0,0:0:0:0:
256,192,49220,1,8,0:0:0:0:
256,192,49309,1,0,0:0:0:0:
256,192,49397,1,0,0:0:0:0:
256,192,49575,1,8,0:0:0:0:
256,192,49664,1,0,0:0:0:0:
256,192,49841,1,0,0:0:0:0:
256,192,49930,1,0,0:0:0:0:
256,192,50019,1,8,0:0:0:0:
256,192,50196,1,8,0:0:0:0:
256,192,50285,1,0,0:0:0:0:
256,192,50374,1,8,0:0:0:0:
256,192,50551,1,8,0:0:0:0:
256,192,50640,1,8,0:0:0:0:
256,192,50729,1,0,0:0:0:0:
256,192,50995,1,0,0:0:0:0:
256,192,51084,1,8,0:0:0:0:
256,192,51261,1,8,0:0:0:0:
256,192,51350,1,0,0:0:0:0:
256,192,51439,1,8,0:0:0:0:
256,192,51528,1,8,0:0:0:0:
256,192,51616,1,0,0:0:0:0:
256,192,51794,1,8,0:0:0:0:
256,192,51883,1,8,0:0:0:0:
256,192,51971,1,0,0:0:0:0:
256,192,52149,1,8,0:0:0:0:
256,192,52326,1,0,0:0:0:0:
256,192,52415,1,8,0:0:0:0:
256,192,52504,1,8,0:0:0:0:
256,192,52593,1,0,0:0:0:0:
256,192,52681,1,8,0:0:0:0:
256,192,52770,1,8,0:0:0:0:
256,192,52859,1,0,0:0:0:0:
256,192,53125,1,0,0:0:0:0:
256,192,53214,1,8,0:0:0:0:
256,192,53391,1,8,0:0:0:0:
256,192,53480,1,0,0:0:0:0:
256,192,53569,1,8,0:0:0:0:
256,192,53658,1,8,0:0:0:0:
256,192,53746,1,0,0:0:0:0:
256,192,53835,1,0,0:0:0:0:
256,192,53924,1,12,0:0:0:0:
256,192,54279,1,8,0:0:0:0:
256,192,55699,1,8,0:0:0:0:
256,192,56054,1,8,0:0:0:0:
256,192,56409,1,8,0:0:0:0:
256,192,56764,1,8,0:0:0:0:
256,192,57119,1,8,0:0:0:0:
256,192,58539,1,8,0:0:0:0:
256,192,58894,1,8,0:0:0:0:
256,192,59249,1,8,0:0:0:0:
256,192,59604,1,8,0:0:0:0:
256,192,59782,1,8,0:0:0:0:
256,192,59871,1,8,0:0:0:0:
256,192,59959,1,0,0:0:0:0:
256,192,60315,1,8,0:0:0:0:
256,192,60581,1,0,0:0:0:0:
256,192,60670,1,0,0:0:0:0:
256,192,60847,1,0,0:0:0:0:
256,192,61025,1,8,0:0:0:0:
256,192,61380,1,0,0:0:0:0:
256,192,61735,1,8,0:0:0:0:
256,192,61912,1,0,0:0:0:0:
256,192,62001,1,0,0:0:0:0:
256,192,62090,1,0,0:0:0:0:
256,192,62267,1,0,0:0:0:0:
256,192,62445,1,8,0:0:0:0:
256,192,62800,1,0,0:0:0:0:
256,192,63066,1,0,0:0:0:0:
256,192,63155,1,8,0:0:0:0:
256,192,63332,1,8,0:0:0:0:
256,192,63421,1,8,0:0:0:0:
256,192,63510,1,0,0:0:0:0:
256,192,63687,1,0,0:0:0:0:
256,192,63865,1,8,0:0:0:0:
256,192,64042,1,8,0:0:0:0:
256,192,64131,1,8,0:0:0:0:
256,192,64220,1,0,0:0:0:0:
256,192,64486,1,0,0:0:0:0:
256,192,64575,1,8,0:0:0:0:
256,192,64752,1,0,0:0:0:0:
256,192,64841,1,8,0:0:0:0:
256,192,64930,1,0,0:0:0:0:
256,192,65019,1,8,0:0:0:0:
256,192,65107,1,0,0:0:0:0:
256,192,65285,1,8,0:0:0:0:
256,192,65640,1,12,0:0:0:0:
256,192,65995,1,8,0:0:0:0:
256,192,66172,1,0,0:0:0:0:
256,192,66350,1,8,0:0:0:0:
256,192,66528,1,0,0:0:0:0:
256,192,66705,1,8,0:0:0:0:
256,192,66883,1,0,0:0:0:0:
256,192,66971,1,0,0:0:0:0:
256,192,67060,1,8,0:0:0:0:
256,192,67415,1,12,0:0:0:0:
256,192,67770,1,12,0:0:0:0:
256,192,68125,1,12,0:0:0:0:
256,192,68480,1,8,0:0:0:0:
256,192,68658,1,0,0:0:0:0:
256,192,68746,1,0,0:0:0:0:
256,192,68835,1,8,0:0:0:0:
256,192,68924,1,8,0:0:0:0:
256,192,69013,1,0,0:0:0:0:
256,192,69190,1,8,0:0:0:0:
256,192,69368,1,0,0:0:0:0:
256,192,69457,1,0,0:0:0:0:
256,192,69545,1,8,0:0:0:0:
256,192,69723,1,0,0:0:0:0:
256,192,69812,1,0,0:0:0:0:
256,192,69900,1,12,0:0:0:0:
256,192,70255,1,12,0:0:0:0:
256,192,70610,1,12,0:0:0:0:
256,192,70788,1,8,0:0:0:0:
256,192,70877,1,8,0:0:0:0:
256,192,70965,1,8,0:0:0:0:
256,192,71143,1,0,0:0:0:0:
256,192,71232,1,8,0:0:0:0:
256,192,71320,1,0,0:0:0:0:
256,192,71498,1,8,0:0:0:0:
256,192,71675,1,8,0:0:0:0:
256,192,71853,1,8,0:0:0:0:
256,192,72030,1,0,0:0:0:0:
256,192,72208,1,8,0:0:0:0:
256,192,72386,1,8,0:0:0:0:
256,192,72563,1,8,0:0:0:0:
256,192,72741,1,0,0:0:0:0:
256,192,72829,1,0,0:0:0:0:
256,192,72918,1,8,0:0:0:0:
256,192,73007,1,0,0:0:0:0:
256,192,73096,1,8,0:0:0:0:
256,192,73184,1,0,0:0:0:0:
256,192,73273,1,8,0:0:0:0:
256,192,73362,1,8,0:0:0:0:
256,192,73451,1,0,0:0:0:0:
256,192,73628,1,8,0:0:0:0:
256,192,73806,1,8,0:0:0:0:
256,192,73983,1,8,0:0:0:0:
256,192,74072,1,8,0:0:0:0:
256,192,74161,1,0,0:0:0:0:
256,192,74279,1,8,0:0:0:0:
256,192,74397,1,8,0:0:0:0:
256,192,74516,1,8,0:0:0:0:
256,192,74634,1,8,0:0:0:0:
256,192,74752,1,8,0:0:0:0:
256,192,74871,1,0,0:0:0:0:
256,192,74989,1,8,0:0:0:0:
256,192,75107,1,8,0:0:0:0:
256,192,75226,1,8,0:0:0:0:
256,192,75344,1,8,0:0:0:0:
256,192,75462,1,8,0:0:0:0:
256,192,75581,1,4,0:0:0:0:
256,192,75936,1,4,0:0:0:0:
256,192,76291,1,4,0:0:0:0:
256,192,76646,1,12,0:0:0:0:
256,192,77001,1,8,0:0:0:0:
256,192,77090,1,8,0:0:0:0:
256,192,77178,1,0,0:0:0:0:
256,192,77356,1,8,0:0:0:0:
256,192,77533,1,0,0:0:0:0:
256,192,77711,1,8,0:0:0:0:
256,192,77888,1,0,0:0:0:0:
256,192,77977,1,0,0:0:0:0:
256,192,78066,1,8,0:0:0:0:
256,192,78243,1,0,0:0:0:0:
256,192,78332,1,8,0:0:0:0:
256,192,78421,1,0,0:0:0:0:
256,192,78510,1,0,0:0:0:0:
256,192,78687,1,0,0:0:0:0:
256,192,78776,1,8,0:0:0:0:
256,192,78954,1,8,0:0:0:0:
256,192,79042,1,8,0:0:0:0:
256,192,79131,1,0,0:0:0:0:
256,192,79220,1,8,0:0:0:0:
256,192,79309,1,0,0:0:0:0:
256,192,79486,1,8,0:0:0:0:
256,192,79664,1,0,0:0:0:0:
256,192,79752,1,0,0:0:0:0:
256,192,79841,1,8,0:0:0:0:
256,192,79930,1,8,0:0:0:0:
256,192,80019,1,0,0:0:0:0:
256,192,80196,1,8,0:0:0:0:
256,192,80374,1,8,0:0:0:0:
256,192,80462,1,8,0:0:0:0:
256,192,80551,1,8,0:0:0:0:
256,192,80640,1,8,0:0:0:0:
256,192,80729,1,0,0:0:0:0:
256,192,80906,1,8,0:0:0:0:
256,192,81084,1,8,0:0:0:0:
256,192,81172,1,8,0:0:0:0:
256,192,81261,1,0,0:0:0:0:
256,192,81350,1,8,0:0:0:0:
256,192,81439,1,0,0:0:0:0:
256,192,81616,1,8,0:0:0:0:
256,192,81705,1,0,0:0:0:0:
256,192,81794,1,8,0:0:0:0:
256,192,81971,1,8,0:0:0:0:
256,192,82149,1,8,0:0:0:0:
256,192,82238,1,8,0:0:0:0:
256,192,82326,1,8,0:0:0:0:
256,192,82504,1,0,0:0:0:0:
256,192,82593,1,8,0:0:0:0:
256,192,82681,1,8,0:0:0:0:
256,192,82859,1,0,0:0:0:0:
256,192,82948,1,0,0:0:0:0:
256,192,83036,1,8,0:0:0:0:
256,192,83214,1,0,0:0:0:0:
256,192,83391,1,8,0:0:0:0:
256,192,83480,1,8,0:0:0:0:
256,192,83569,1,0,0:0:0:0:
256,192,83746,1,8,0:0:0:0:
256,192,83924,1,0,0:0:0:0:
256,192,84013,1,0,0:0:0:0:
256,192,84101,1,8,0:0:0:0:
256,192,84190,1,0,0:0:0:0:
256,192,84279,1,8,0:0:0:0:
256,192,84368,1,0,0:0:0:0:
256,192,84457,1,8,0:0:0:0:
256,192,84634,1,8,0:0:0:0:
256,192,84723,1,8,0:0:0:0:
256,192,84812,1,0,0:0:0:0:
256,192,84900,1,0,0:0:0:0:
256,192,84989,1,8,0:0:0:0:
256,192,85078,1,0,0:0:0:0:
256,192,85167,1,0,0:0:0:0:
256,192,85255,1,8,0:0:0:0:
256,192,85344,1,8,0:0:0:0:
256,192,85433,1,0,0:0:0:0:
256,192,85522,1,8,0:0:0:0:
256,192,85610,1,8,0:0:0:0:
256,192,85699,1,0,0:0:0:0:
256,192,85877,1,8,0:0:0:0:
256,192,86054,1,8,0:0:0:0:
256,192,86143,1,8,0:0:0:0:
256,192,86232,1,0,0:0:0:0:
256,192,86409,1,8,0:0:0:0:
256,192,86498,1,8,0:0:0:0:
256,192,86587,1,0,0:0:0:0:
256,192,86764,1,8,0:0:0:0:
256,192,86853,1,0,0:0:0:0:
256,192,86942,1,8,0:0:0:0:
256,192,87030,1,8,0:0:0:0:
256,192,87119,1,0,0:0:0:0:
256,192,87297,1,8,0:0:0:0:
256,192,87474,1,0,0:0:0:0:
256,192,87563,1,8,0:0:0:0:
256,192,87652,1,0,0:0:0:0:
256,192,87741,1,0,0:0:0:0:
256,192,87829,1,0,0:0:0:0:
256,192,87918,1,0,0:0:0:0:
256,192,88007,1,12,0:0:0:0:
256,192,88362,1,0,0:0:0:0:
256,192,88539,1,8,0:0:0:0:
256,192,88717,1,8,0:0:0:0:
256,192,88894,1,8,0:0:0:0:
256,192,89072,1,0,0:0:0:0:
256,192,89249,1,8,0:0:0:0:
256,192,89427,1,0,0:0:0:0:
256,192,89604,1,8,0:0:0:0:
256,192,89693,1,8,0:0:0:0:
256,192,89782,1,0,0:0:0:0:
256,192,90137,1,8,0:0:0:0:
256,192,90492,1,8,0:0:0:0:
256,192,90847,1,0,0:0:0:0:
256,192,91025,1,0,0:0:0:0:
256,192,91202,1,0,0:0:0:0:
256,192,91380,1,8,0:0:0:0:
256,192,91468,1,8,0:0:0:0:
256,192,91557,1,0,0:0:0:0:
256,192,91735,1,0,0:0:0:0:
256,192,91823,1,8,0:0:0:0:
256,192,91912,1,0,0:0:0:0:
256,192,92090,1,8,0:0:0:0:
256,192,92178,1,8,0:0:0:0:
256,192,92267,1,0,0:0:0:0:
256,192,92356,1,0,0:0:0:0:
256,192,92445,1,8,0:0:0:0:
256,192,92622,1,0,0:0:0:0:
256,192,92711,1,0,0:0:0:0:
256,192,92800,1,8,0:0:0:0:
256,192,92977,1,0,0:0:0:0:
256,192,93155,1,8,0:0:0:0:
256,192,93243,1,8,0:0:0:0:
256,192,93332,1,0,0:0:0:0:
256,192,93510,1,8,0:0:0:0:
256,192,93687,1,8,0:0:0:0:
256,192,93865,1,0,0:0:0:0:
256,192,93954,1,8,0:0:0:0:
256,192,94042,1,0,0:0:0:0:
256,192,94220,1,8,0:0:0:0:
256,192,94397,1,0,0:0:0:0:
256,192,94575,1,0,0:0:0:0:
256,192,94752,1,8,0:0:0:0:
256,192,94930,1,0,0:0:0:0:
256,192,95107,1,8,0:0:0:0:
256,192,95285,1,8,0:0:0:0:
256,192,95374,1,8,0:0:0:0:
256,192,95462,1,0,0:0:0:0:
256,192,95640,1,8,0:0:0:0:
256,192,95817,1,0,0:0:0:0:
256,192,95995,1,0,0:0:0:0:
256,192,96172,1,8,0:0:0:0:
256,192,96350,1,0,0:0:0:0:
256,192,96439,1,0,0:0:0:0:
256,192,96528,1,8,0:0:0:0:
256,192,96616,1,8,0:0:0:0:
256,192,96705,1,8,0:0:0:0:
256,192,96794,1,8,0:0:0:0:
256,192,96883,1,0,0:0:0:0:
256,192,97060,1,8,0:0:0:0:
256,192,97238,1,0,0:0:0:0:
256,192,97415,1,0,0:0:0:0:
256,192,97593,1,8,0:0:0:0:
256,192,97770,1,0,0:0:0:0:
256,192,97859,1,0,0:0:0:0:
256,192,97948,1,8,0:0:0:0:
256,192,98125,1,8,0:0:0:0:
256,192,98303,1,8,0:0:0:0:
256,192,98480,1,0,0:0:0:0:
256,192,98569,1,8,0:0:0:0:
256,192,98658,1,0,0:0:0:0:
256,192,98835,1,8,0:0:0:0:
256,192,98924,1,8,0:0:0:0:
256,192,99013,1,0,0:0:0:0:
256,192,99101,1,0,0:0:0:0:
256,192,99190,1,0,0:0:0:0:
256,192,99279,1,0,0:0:0:0:
256,192,99368,1,12,0:0:0:0:
256,192,99723,1,0,0:0:0:0:
256,192,99900,1,8,0:0:0:0:
256,192,100078,1,8,0:0:0:0:
256,192,100255,1,0,0:0:0:0:
256,192,100344,1,0,0:0:0:0:
256,192,100433,1,8,0:0:0:0:
256,192,100699,1,0,0:0:0:0:
256,192,100788,1,8,0:0:0:0:
256,192,100965,1,0,0:0:0:0:
256,192,101054,1,8,0:0:0:0:
256,192,101320,1,8,0:0:0:0:
256,192,101587,1,0,0:0:0:0:
256,192,101675,1,0,0:0:0:0:
256,192,102030,1,0,0:0:0:0:
256,192,102208,1,8,0:0:0:0:
256,192,102297,1,0,0:0:0:0:
256,192,102474,1,8,0:0:0:0:
256,192,102563,1,0,0:0:0:0:
256,192,102652,1,8,0:0:0:0:
256,192,102918,1,8,0:0:0:0:
256,192,103007,1,0,0:0:0:0:
256,192,103096,1,0,0:0:0:0:
256,192,103184,1,8,0:0:0:0:
256,192,103273,1,8,0:0:0:0:
256,192,103451,1,8,0:0:0:0:
256,192,103539,1,0,0:0:0:0:
256,192,103717,1,8,0:0:0:0:
256,192,103894,1,8,0:0:0:0:
256,192,103983,1,0,0:0:0:0:
256,192,104161,1,8,0:0:0:0:
256,192,104249,1,0,0:0:0:0:
256,192,104338,1,0,0:0:0:0:
256,192,104516,1,0,0:0:0:0:
256,192,104604,1,8,0:0:0:0:
256,192,104693,1,0,0:0:0:0:
256,192,104782,1,8,0:0:0:0:
256,192,104871,1,0,0:0:0:0:
256,192,105048,1,12,0:0:0:0:
256,192,105403,1,8,0:0:0:0:
256,192,105581,1,0,0:0:0:0:
256,192,105670,1,0,0:0:0:0:
256,192,105758,1,0,0:0:0:0:
256,192,105936,1,8,0:0:0:0:
256,192,106113,1,8,0:0:0:0:
256,192,106291,1,0,0:0:0:0:
256,192,106380,1,8,0:0:0:0:
256,192,106468,1,0,0:0:0:0:
256,192,106646,1,8,0:0:0:0:
256,192,106735,1,8,0:0:0:0:
256,192,106823,1,0,0:0:0:0:
256,192,107001,1,0,0:0:0:0:
256,192,107090,1,8,0:0:0:0:
256,192,107178,1,0,0:0:0:0:
256,192,107356,1,8,0:0:0:0:
256,192,107533,1,8,0:0:0:0:
256,192,107711,1,8,0:0:0:0:
256,192,107888,1,0,0:0:0:0:
256,192,108066,1,0,0:0:0:0:
256,192,108155,1,8,0:0:0:0:
256,192,108243,1,0,0:0:0:0:
256,192,108421,1,0,0:0:0:0:
256,192,108510,1,8,0:0:0:0:
256,192,108687,1,8,0:0:0:0:
256,192,108865,1,8,0:0:0:0:
256,192,108954,1,0,0:0:0:0:
256,192,109042,1,8,0:0:0:0:
256,192,109131,1,8,0:0:0:0:
256,192,109309,1,8,0:0:0:0:
256,192,109486,1,0,0:0:0:0:
256,192,109575,1,8,0:0:0:0:
256,192,109752,1,0,0:0:0:0:
256,192,109930,1,0,0:0:0:0:
256,192,110019,1,0,0:0:0:0:
256,192,110196,1,8,0:0:0:0:
256,192,110374,1,8,0:0:0:0:
256,192,110462,1,8,0:0:0:0:
256,192,110640,1,8,0:0:0:0:
256,192,110729,1,0,0:0:0:0:
256,192,110817,1,8,0:0:0:0:
256,192,110906,1,8,0:0:0:0:
256,192,111084,1,0,0:0:0:0:
256,192,111261,1,0,0:0:0:0:
256,192,111350,1,0,0:0:0:0:
256,192,111528,1,0,0:0:0:0:
256,192,111705,1,0,0:0:0:0:
256,192,111794,1,8,0:0:0:0:
256,192,111883,1,0,0:0:0:0:
256,192,112060,1,8,0:0:0:0:
256,192,112238,1,8,0:0:0:0:
256,192,112326,1,0,0:0:0:0:
256,192,112415,1,8,0:0:0:0:
256,192,112593,1,8,0:0:0:0:
256,192,112770,1,8,0:0:0:0:
256,192,112948,1,8,0:0:0:0:
256,192,113036,1,8,0:0:0:0:
256,192,113125,1,0,0:0:0:0:
256,192,113303,1,8,0:0:0:0:
256,192,113391,1,0,0:0:0:0:
256,192,113480,1,0,0:0:0:0:
256,192,113569,1,8,0:0:0:0:
256,192,113746,1,0,0:0:0:0:
256,192,113835,1,8,0:0:0:0:
256,192,114101,1,8,0:0:0:0:
256,192,114190,1,8,0:0:0:0:
256,192,114368,1,0,0:0:0:0:
256,192,114545,1,0,0:0:0:0:
256,192,114634,1,0,0:0:0:0:
256,192,114723,1,8,0:0:0:0:
256,192,114900,1,8,0:0:0:0:
256,192,114989,1,8,0:0:0:0:
256,192,115167,1,8,0:0:0:0:
256,192,115344,1,0,0:0:0:0:
256,192,115433,1,0,0:0:0:0:
256,192,115522,1,0,0:0:0:0:
256,192,115610,1,8,0:0:0:0:
256,192,115788,1,0,0:0:0:0:
256,192,115877,1,8,0:0:0:0:
256,192,115965,1,0,0:0:0:0:
256,192,116054,1,8,0:0:0:0:
256,192,116143,1,8,0:0:0:0:
256,192,116232,1,8,0:0:0:0:
256,192,116320,1,0,0:0:0:0:
256,192,116409,1,12,0:0:0:0:
256,192,116764,1,0,0:0:0:0:
256,192,116941,1,8,0:0:0:0:
256,192,117119,1,8,0:0:0:0:
256,192,117207,1,8,0:0:0:0:
256,192,117296,1,0,0:0:0:0:
256,192,117385,1,8,0:0:0:0:
256,192,117474,1,0,0:0:0:0:
256,192,117651,1,8,0:0:0:0:
256,192,117829,1,8,0:0:0:0:
256,192,117917,1,8,0:0:0:0:
256,192,118095,1,8,0:0:0:0:
256,192,118184,1,0,0:0:0:0:
256,192,118361,1,8,0:0:0:0:
256,192,118539,1,8,0:0:0:0:
256,192,118627,1,8,0:0:0:0:
256,192,118716,1,0,0:0:0:0:
256,192,118805,1,8,0:0:0:0:
256,192,118894,1,0,0:0:0:0:
256,192,119071,1,8,0:0:0:0:
256,192,119249,1,8,0:0:0:0:
256,192,119338,1,8,0:0:0:0:
256,192,119426,1,0,0:0:0:0:
256,192,119515,1,8,0:0:0:0:
256,192,119604,1,8,0:0:0:0:
256,192,119693,1,8,0:0:0:0:
256,192,119781,1,0,0:0:0:0:
256,192,119959,1,8,0:0:0:0:
256,192,120048,1,8,0:0:0:0:
256,192,120136,1,0,0:0:0:0:
256,192,120314,1,8,0:0:0:0:
256,192,120403,1,8,0:0:0:0:
256,192,120491,1,0,0:0:0:0:
256,192,120669,1,8,0:0:0:0:
256,192,120758,1,8,0:0:0:0:
256,192,120846,1,0,0:0:0:0:
256,192,121024,1,8,0:0:0:0:
256,192,121113,1,0,0:0:0:0:
256,192,121201,1,8,0:0:0:0:
256,192,121290,1,8,0:0:0:0:
256,192,121379,1,8,0:0:0:0:
256,192,121468,1,0,0:0:0:0:
256,192,121556,1,8,0:0:0:0:
256,192,121645,1,0,0:0:0:0:
256,192,121734,1,8,0:0:0:0:
256,192,121823,1,8,0:0:0:0:
256,192,121911,1,8,0:0:0:0:
256,192,122000,1,8,0:0:0:0:
256,192,122089,1,8,0:0:0:0:
256,192,122178,1,8,0:0:0:0:
256,192,122267,1,8,0:0:0:0:
256,192,122355,1,8,0:0:0:0:
256,192,122445,12,0,123865,0:0:0:0:
