osu file format v14

[General]
AudioFilename: 1.mp3
AudioLeadIn: 0
PreviewTime: 50890
Countdown: 0
SampleSet: Normal
StackLeniency: 0.7
Mode: 1
LetterboxInBreaks: 0
WidescreenStoryboard: 0

[Editor]
DistanceSpacing: 0.9
BeatDivisor: 4
GridSize: 32
TimelineZoom: 2.799999

[Metadata]
Title:ZUNTATA Touhou Arrangement Pack
TitleUnicode:ZUNTATA東方アレンジパック
Artist:ZUNTATA
ArtistUnicode:ZUNTATA
Creator:Felt7z
Version:COSIO (ZUNTATA) - Touhou Onganmu
Source:
Tags:
BeatmapID:1290556
BeatmapSetID:611314

[Difficulty]
HPDrainRate:5
CircleSize:5
OverallDifficulty:5.5
ApproachRate:5
SliderMultiplier:1.4
SliderTickRate:1

[Events]
//Background and Video events
0,0,"Koumakyou.jpg",0,-50
//Break Periods
//Storyboard Layer 0 (Background)
//Storyboard Layer 1 (Fail)
//Storyboard Layer 2 (Pass)
//Storyboard Layer 3 (Foreground)
//Storyboard Sound Samples

[TimingPoints]
411,408.163265306122,4,1,0,100,1,0
2043,408.163265306122,5,1,0,100,1,0
10206,408.163265306122,4,1,0,100,1,0
51022,-100,4,1,0,100,0,1
64083,-100,4,1,0,100,0,0
96736,250,6,1,0,100,1,0
96736,-163.265306122449,6,1,0,100,0,0
107236,250,4,1,0,100,1,0
107236,-163.934426229508,4,1,0,100,0,0
109236,408.163265306122,4,1,0,100,1,1
109236,-100,4,1,0,100,0,1
122297,-100,4,1,0,100,0,0

[HitObjects]
256,192,2043,5,12,0:0:0:0:
256,192,4083,1,8,0:0:0:0:
256,192,6124,1,12,0:0:0:0:
256,192,7349,1,4,0:0:0:0:
256,192,7655,1,4,0:0:0:0:
256,192,7961,1,4,0:0:0:0:
256,192,8165,1,8,0:0:0:0:
256,192,9389,1,4,0:0:0:0:
256,192,9696,1,4,0:0:0:0:
256,192,10002,1,4,0:0:0:0:
256,192,11022,1,0,0:0:0:0:
256,192,11090,1,0,0:0:0:0:
256,192,11158,1,0,0:0:0:0:
256,192,11226,1,8,0:0:0:0:
256,192,11328,1,0,0:0:0:0:
256,192,11430,1,8,0:0:0:0:
256,192,11532,1,0,0:0:0:0:
256,192,11634,1,8,0:0:0:0:
256,192,11702,1,0,0:0:0:0:
256,192,11770,1,0,0:0:0:0:
256,192,11838,1,8,0:0:0:0:
256,192,11940,1,0,0:0:0:0:
256,192,12042,1,0,0:0:0:0:
256,192,12144,1,8,0:0:0:0:
256,192,12246,1,0,0:0:0:0:
256,192,12348,1,0,0:0:0:0:
256,192,12450,1,8,0:0:0:0:
256,192,12552,1,0,0:0:0:0:
256,192,12654,1,8,0:0:0:0:
256,192,12757,1,0,0:0:0:0:
256,192,12859,1,0,0:0:0:0:
256,192,12961,1,8,0:0:0:0:
256,192,13063,1,0,0:0:0:0:
256,192,13165,1,0,0:0:0:0:
256,192,13267,1,8,0:0:0:0:
256,192,13369,1,0,0:0:0:0:
256,192,13471,1,8,0:0:0:0:
256,192,13573,1,0,0:0:0:0:
256,192,13675,1,0,0:0:0:0:
256,192,13777,1,8,0:0:0:0:
256,192,13879,1,0,0:0:0:0:
256,192,13981,1,0,0:0:0:0:
256,192,14083,1,8,0:0:0:0:
256,192,14185,1,0,0:0:0:0:
256,192,14287,1,0,0:0:0:0:
256,192,14593,1,4,0:0:0:0:
256,192,14899,1,4,0:0:0:0:
256,192,15103,1,8,0:0:0:0:
256,192,15205,1,8,0:0:0:0:
256,192,15308,1,0,0:0:0:0:
256,192,15410,1,8,0:0:0:0:
256,192,15512,1,8,0:0:0:0:
256,192,15614,1,0,0:0:0:0:
256,192,15716,1,8,0:0:0:0:
256,192,15818,1,0,0:0:0:0:
256,192,15920,1,8,0:0:0:0:
256,192,16022,1,8,0:0:0:0:
256,192,16124,1,0,0:0:0:0:
256,192,16226,1,8,0:0:0:0:
256,192,16328,1,8,0:0:0:0:
256,192,16430,1,0,0:0:0:0:
256,192,16532,1,8,0:0:0:0:
256,192,16634,1,0,0:0:0:0:
256,192,16736,1,8,0:0:0:0:
256,192,16838,1,8,0:0:0:0:
256,192,16940,1,0,0:0:0:0:
256,192,17042,1,8,0:0:0:0:
256,192,17144,1,8,0:0:0:0:
256,192,17246,1,0,0:0:0:0:
256,192,17348,1,8,0:0:0:0:
256,192,17450,1,0,0:0:0:0:
256,192,17552,1,8,0:0:0:0:
256,192,17859,1,12,0:0:0:0:
256,192,18165,1,12,0:0:0:0:
256,192,18369,1,8,0:0:0:0:
256,192,18471,1,0,0:0:0:0:
256,192,18573,1,0,0:0:0:0:
256,192,18675,1,8,0:0:0:0:
256,192,18777,1,0,0:0:0:0:
256,192,18879,1,0,0:0:0:0:
256,192,18981,1,8,0:0:0:0:
256,192,19083,1,0,0:0:0:0:
256,192,19185,1,8,0:0:0:0:
256,192,19288,1,0,0:0:0:0:
256,192,19390,1,0,0:0:0:0:
256,192,19492,1,8,0:0:0:0:
256,192,19594,1,0,0:0:0:0:
256,192,19696,1,0,0:0:0:0:
256,192,19798,1,8,0:0:0:0:
256,192,19900,1,0,0:0:0:0:
256,192,20002,1,8,0:0:0:0:
256,192,20104,1,0,0:0:0:0:
256,192,20206,1,0,0:0:0:0:
256,192,20308,1,8,0:0:0:0:
256,192,20410,1,0,0:0:0:0:
256,192,20512,1,0,0:0:0:0:
256,192,20614,1,8,0:0:0:0:
256,192,20716,1,0,0:0:0:0:
256,192,20818,1,0,0:0:0:0:
256,192,21124,1,4,0:0:0:0:
256,192,21430,1,4,0:0:0:0:
256,192,21634,1,8,0:0:0:0:
256,192,21736,1,8,0:0:0:0:
256,192,21839,1,0,0:0:0:0:
256,192,21941,1,8,0:0:0:0:
256,192,22043,1,8,0:0:0:0:
256,192,22145,1,0,0:0:0:0:
256,192,22247,1,8,0:0:0:0:
256,192,22349,1,0,0:0:0:0:
256,192,22451,1,8,0:0:0:0:
256,192,22553,1,8,0:0:0:0:
256,192,22655,1,0,0:0:0:0:
256,192,22757,1,8,0:0:0:0:
256,192,22859,1,8,0:0:0:0:
256,192,22961,1,0,0:0:0:0:
256,192,23063,1,8,0:0:0:0:
256,192,23165,1,0,0:0:0:0:
256,192,23267,1,8,0:0:0:0:
256,192,23369,1,8,0:0:0:0:
256,192,23471,1,0,0:0:0:0:
256,192,23573,1,8,0:0:0:0:
256,192,23675,1,8,0:0:0:0:
256,192,23777,1,0,0:0:0:0:
256,192,23879,1,8,0:0:0:0:
256,192,23981,1,0,0:0:0:0:
256,192,24083,1,8,0:0:0:0:
256,192,24390,1,12,0:0:0:0:
256,192,24696,1,12,0:0:0:0:
256,192,24899,1,0,0:0:0:0:
256,192,25103,1,8,0:0:0:0:
256,192,25308,1,8,0:0:0:0:
256,192,25410,1,0,0:0:0:0:
256,192,25512,1,0,0:0:0:0:
256,192,25614,1,8,0:0:0:0:
256,192,25818,1,0,0:0:0:0:
256,192,25920,1,8,0:0:0:0:
256,192,26124,1,8,0:0:0:0:
256,192,26328,1,8,0:0:0:0:
256,192,26430,1,8,0:0:0:0:
256,192,26532,1,0,0:0:0:0:
256,192,26736,1,0,0:0:0:0:
256,192,26940,1,8,0:0:0:0:
256,192,27042,1,8,0:0:0:0:
256,192,27144,1,8,0:0:0:0:
256,192,27246,1,0,0:0:0:0:
256,192,27450,1,8,0:0:0:0:
256,192,27552,1,0,0:0:0:0:
256,192,27757,1,0,0:0:0:0:
256,192,27961,1,0,0:0:0:0:
256,192,28063,1,0,0:0:0:0:
256,192,28165,1,0,0:0:0:0:
256,192,28369,1,8,0:0:0:0:
256,192,28574,1,8,0:0:0:0:
256,192,28676,1,0,0:0:0:0:
256,192,28778,1,0,0:0:0:0:
256,192,28880,1,8,0:0:0:0:
256,192,29084,1,0,0:0:0:0:
256,192,29186,1,8,0:0:0:0:
256,192,29390,1,8,0:0:0:0:
256,192,29594,1,8,0:0:0:0:
256,192,29696,1,8,0:0:0:0:
256,192,29798,1,0,0:0:0:0:
256,192,30001,1,8,0:0:0:0:
256,192,30103,1,0,0:0:0:0:
256,192,30206,1,8,0:0:0:0:
256,192,30308,1,8,0:0:0:0:
256,192,30410,1,0,0:0:0:0:
256,192,30512,1,0,0:0:0:0:
256,192,30614,1,8,0:0:0:0:
256,192,30920,1,12,0:0:0:0:
256,192,31226,1,12,0:0:0:0:
256,192,31430,1,0,0:0:0:0:
256,192,31634,1,8,0:0:0:0:
256,192,31839,1,8,0:0:0:0:
256,192,31941,1,0,0:0:0:0:
256,192,32043,1,0,0:0:0:0:
256,192,32145,1,8,0:0:0:0:
256,192,32349,1,0,0:0:0:0:
256,192,32451,1,8,0:0:0:0:
256,192,32655,1,8,0:0:0:0:
256,192,32859,1,8,0:0:0:0:
256,192,32961,1,8,0:0:0:0:
256,192,33063,1,0,0:0:0:0:
256,192,33267,1,0,0:0:0:0:
256,192,33471,1,8,0:0:0:0:
256,192,33573,1,8,0:0:0:0:
256,192,33675,1,8,0:0:0:0:
256,192,33777,1,0,0:0:0:0:
256,192,33981,1,8,0:0:0:0:
256,192,34083,1,0,0:0:0:0:
256,192,34288,1,0,0:0:0:0:
256,192,34492,1,0,0:0:0:0:
256,192,34594,1,0,0:0:0:0:
256,192,34696,1,0,0:0:0:0:
256,192,34900,1,8,0:0:0:0:
256,192,35103,1,8,0:0:0:0:
256,192,35205,1,0,0:0:0:0:
256,192,35309,1,0,0:0:0:0:
256,192,35411,1,8,0:0:0:0:
256,192,35615,1,0,0:0:0:0:
256,192,35717,1,8,0:0:0:0:
256,192,35921,1,8,0:0:0:0:
256,192,36125,1,8,0:0:0:0:
256,192,36227,1,8,0:0:0:0:
256,192,36329,1,0,0:0:0:0:
256,192,36532,1,8,0:0:0:0:
256,192,36634,1,0,0:0:0:0:
256,192,36737,1,8,0:0:0:0:
256,192,36839,1,8,0:0:0:0:
256,192,36941,1,0,0:0:0:0:
256,192,37043,1,0,0:0:0:0:
256,192,37145,1,8,0:0:0:0:
256,192,37451,1,12,0:0:0:0:
256,192,37757,1,12,0:0:0:0:
256,192,37961,1,0,0:0:0:0:
256,192,38165,1,8,0:0:0:0:
256,192,38369,1,0,0:0:0:0:
256,192,38573,1,8,0:0:0:0:
256,192,38675,1,8,0:0:0:0:
256,192,38777,1,0,0:0:0:0:
256,192,38981,1,8,0:0:0:0:
256,192,39083,1,8,0:0:0:0:
256,192,39185,1,0,0:0:0:0:
256,192,39389,1,8,0:0:0:0:
256,192,39491,1,0,0:0:0:0:
256,192,39593,1,8,0:0:0:0:
256,192,39797,1,0,0:0:0:0:
256,192,39899,1,0,0:0:0:0:
256,192,40001,1,8,0:0:0:0:
256,192,40103,1,0,0:0:0:0:
256,192,40205,1,0,0:0:0:0:
256,192,40410,1,0,0:0:0:0:
256,192,40614,1,8,0:0:0:0:
256,192,40818,1,8,0:0:0:0:
256,192,41022,1,0,0:0:0:0:
256,192,41124,1,8,0:0:0:0:
256,192,41226,1,0,0:0:0:0:
256,192,41430,1,8,0:0:0:0:
256,192,41634,1,0,0:0:0:0:
256,192,41838,1,8,0:0:0:0:
256,192,41940,1,8,0:0:0:0:
256,192,42042,1,0,0:0:0:0:
256,192,42246,1,8,0:0:0:0:
256,192,42348,1,8,0:0:0:0:
256,192,42450,1,0,0:0:0:0:
256,192,42654,1,8,0:0:0:0:
256,192,42757,1,0,0:0:0:0:
256,192,42859,1,8,0:0:0:0:
256,192,43063,1,0,0:0:0:0:
256,192,43165,1,0,0:0:0:0:
256,192,43267,1,8,0:0:0:0:
256,192,43369,1,0,0:0:0:0:
256,192,43471,1,0,0:0:0:0:
256,192,43675,1,0,0:0:0:0:
256,192,43879,1,8,0:0:0:0:
256,192,43981,1,8,0:0:0:0:
256,192,44083,1,0,0:0:0:0:
256,192,44287,1,0,0:0:0:0:
256,192,44389,1,0,0:0:0:0:
256,192,44491,1,8,0:0:0:0:
256,192,45308,1,0,0:0:0:0:
256,192,46124,1,8,0:0:0:0:
256,192,46532,1,0,0:0:0:0:
256,192,46940,1,0,0:0:0:0:
256,192,47757,1,8,0:0:0:0:
256,192,48573,1,0,0:0:0:0:
256,192,49389,1,8,0:0:0:0:
256,192,49797,1,0,0:0:0:0:
256,192,50205,1,0,0:0:0:0:
256,192,50410,1,0,0:0:0:0:
256,192,50614,1,8,0:0:0:0:
256,192,50682,1,8,0:0:0:0:
256,192,50750,1,8,0:0:0:0:
256,192,50818,1,8,0:0:0:0:
256,192,50886,1,8,0:0:0:0:
256,192,50954,1,8,0:0:0:0:
256,192,51022,1,0,0:0:0:0:
256,192,51226,1,0,0:0:0:0:
256,192,51328,1,0,0:0:0:0:
256,192,51430,1,8,0:0:0:0:
256,192,51634,1,0,0:0:0:0:
256,192,51736,1,8,0:0:0:0:
256,192,51838,1,0,0:0:0:0:
256,192,51940,1,0,0:0:0:0:
256,192,52042,1,0,0:0:0:0:
256,192,52246,1,8,0:0:0:0:
256,192,52450,1,8,0:0:0:0:
256,192,52552,1,8,0:0:0:0:
256,192,52654,1,0,0:0:0:0:
256,192,52961,1,0,0:0:0:0:
256,192,53063,1,8,0:0:0:0:
256,192,53267,1,8,0:0:0:0:
256,192,53369,1,8,0:0:0:0:
256,192,53471,1,0,0:0:0:0:
256,192,53573,1,8,0:0:0:0:
256,192,53675,1,0,0:0:0:0:
256,192,53879,1,8,0:0:0:0:
256,192,54083,1,8,0:0:0:0:
256,192,54185,1,0,0:0:0:0:
256,192,54287,1,8,0:0:0:0:
256,192,54491,1,0,0:0:0:0:
256,192,54593,1,0,0:0:0:0:
256,192,54695,1,8,0:0:0:0:
256,192,54899,1,8,0:0:0:0:
256,192,55103,1,0,0:0:0:0:
256,192,55205,1,0,0:0:0:0:
256,192,55308,1,8,0:0:0:0:
256,192,55410,1,8,0:0:0:0:
256,192,55512,1,0,0:0:0:0:
256,192,55716,1,8,0:0:0:0:
256,192,55920,1,0,0:0:0:0:
256,192,56124,1,8,0:0:0:0:
256,192,56328,1,0,0:0:0:0:
256,192,56532,1,8,0:0:0:0:
256,192,56736,1,0,0:0:0:0:
256,192,56838,1,8,0:0:0:0:
256,192,57042,1,0,0:0:0:0:
256,192,57144,1,8,0:0:0:0:
256,192,57348,1,8,0:0:0:0:
256,192,57450,1,8,0:0:0:0:
256,192,57552,1,0,0:0:0:0:
256,192,57757,1,0,0:0:0:0:
256,192,57859,1,0,0:0:0:0:
256,192,57961,1,8,0:0:0:0:
256,192,58165,1,0,0:0:0:0:
256,192,58267,1,8,0:0:0:0:
256,192,58369,1,0,0:0:0:0:
256,192,58471,1,0,0:0:0:0:
256,192,58573,1,8,0:0:0:0:
256,192,58675,1,0,0:0:0:0:
256,192,58777,1,8,0:0:0:0:
256,192,58981,1,8,0:0:0:0:
256,192,59083,1,8,0:0:0:0:
256,192,59185,1,0,0:0:0:0:
256,192,59491,1,0,0:0:0:0:
256,192,59593,1,8,0:0:0:0:
256,192,59797,1,8,0:0:0:0:
256,192,59899,1,8,0:0:0:0:
256,192,60001,1,0,0:0:0:0:
256,192,60103,1,8,0:0:0:0:
256,192,60205,1,0,0:0:0:0:
256,192,60410,1,8,0:0:0:0:
256,192,60614,1,8,0:0:0:0:
256,192,60716,1,0,0:0:0:0:
256,192,60818,1,8,0:0:0:0:
256,192,61022,1,0,0:0:0:0:
256,192,61124,1,0,0:0:0:0:
256,192,61226,1,8,0:0:0:0:
256,192,61430,1,8,0:0:0:0:
256,192,61532,1,8,0:0:0:0:
256,192,61634,1,0,0:0:0:0:
256,192,61736,1,0,0:0:0:0:
256,192,61838,1,8,0:0:0:0:
256,192,61940,1,8,0:0:0:0:
256,192,62042,1,0,0:0:0:0:
256,192,62246,1,8,0:0:0:0:
256,192,62450,12,0,63879,0:0:0:0:
256,192,64083,5,0,0:0:0:0:
256,192,64287,1,0,0:0:0:0:
256,192,64491,1,8,0:0:0:0:
256,192,64695,1,0,0:0:0:0:
256,192,64797,1,8,0:0:0:0:
256,192,65001,1,8,0:0:0:0:
256,192,65103,1,8,0:0:0:0:
256,192,65205,1,0,0:0:0:0:
256,192,65308,1,8,0:0:0:0:
256,192,65410,1,8,0:0:0:0:
256,192,65512,1,0,0:0:0:0:
256,192,65614,1,8,0:0:0:0:
256,192,65716,1,0,0:0:0:0:
256,192,65920,1,8,0:0:0:0:
256,192,66124,1,8,0:0:0:0:
256,192,66328,1,8,0:0:0:0:
256,192,66430,1,8,0:0:0:0:
256,192,66532,1,0,0:0:0:0:
256,192,66634,1,0,0:0:0:0:
256,192,66736,1,8,0:0:0:0:
256,192,66838,1,0,0:0:0:0:
256,192,66940,1,8,0:0:0:0:
256,192,67042,1,8,0:0:0:0:
256,192,67144,1,0,0:0:0:0:
256,192,67246,1,0,0:0:0:0:
256,192,67348,1,8,0:0:0:0:
256,192,67552,1,0,0:0:0:0:
256,192,67757,1,8,0:0:0:0:
256,192,67961,1,0,0:0:0:0:
256,192,68063,1,8,0:0:0:0:
256,192,68369,1,0,0:0:0:0:
256,192,68471,1,0,0:0:0:0:
256,192,68573,1,8,0:0:0:0:
256,192,68675,1,8,0:0:0:0:
256,192,68777,1,0,0:0:0:0:
256,192,68879,1,8,0:0:0:0:
256,192,68981,1,0,0:0:0:0:
256,192,69185,1,0,0:0:0:0:
256,192,69389,1,8,0:0:0:0:
256,192,69593,1,8,0:0:0:0:
256,192,69695,1,0,0:0:0:0:
256,192,69797,1,8,0:0:0:0:
256,192,69899,1,0,0:0:0:0:
256,192,70001,1,8,0:0:0:0:
256,192,70103,1,8,0:0:0:0:
256,192,70205,1,8,0:0:0:0:
256,192,70308,1,0,0:0:0:0:
256,192,70410,1,8,0:0:0:0:
256,192,70512,1,8,0:0:0:0:
256,192,70614,1,0,0:0:0:0:
256,192,70818,1,0,0:0:0:0:
256,192,71022,1,8,0:0:0:0:
256,192,71226,1,0,0:0:0:0:
256,192,71328,1,8,0:0:0:0:
256,192,71532,1,8,0:0:0:0:
256,192,71634,1,8,0:0:0:0:
256,192,71736,1,0,0:0:0:0:
256,192,71839,1,8,0:0:0:0:
256,192,71941,1,8,0:0:0:0:
256,192,72043,1,0,0:0:0:0:
256,192,72145,1,8,0:0:0:0:
256,192,72247,1,0,0:0:0:0:
256,192,72451,1,8,0:0:0:0:
256,192,72655,1,8,0:0:0:0:
256,192,72859,1,8,0:0:0:0:
256,192,72961,1,8,0:0:0:0:
256,192,73063,1,0,0:0:0:0:
256,192,73165,1,0,0:0:0:0:
256,192,73267,1,8,0:0:0:0:
256,192,73369,1,0,0:0:0:0:
256,192,73471,1,8,0:0:0:0:
256,192,73573,1,8,0:0:0:0:
256,192,73675,1,0,0:0:0:0:
256,192,73777,1,0,0:0:0:0:
256,192,73879,1,8,0:0:0:0:
256,192,74083,1,0,0:0:0:0:
256,192,74288,1,8,0:0:0:0:
256,192,74492,1,0,0:0:0:0:
256,192,74594,1,8,0:0:0:0:
256,192,74900,1,0,0:0:0:0:
256,192,75002,1,0,0:0:0:0:
256,192,75104,1,8,0:0:0:0:
256,192,75206,1,8,0:0:0:0:
256,192,75308,1,0,0:0:0:0:
256,192,75410,1,8,0:0:0:0:
256,192,75512,1,0,0:0:0:0:
256,192,75614,1,8,0:0:0:0:
256,192,75716,1,0,0:0:0:0:
256,192,75818,1,0,0:0:0:0:
256,192,75920,1,8,0:0:0:0:
256,192,76124,1,8,0:0:0:0:
256,192,76226,1,0,0:0:0:0:
256,192,76328,1,8,0:0:0:0:
256,192,76430,1,0,0:0:0:0:
256,192,76532,1,8,0:0:0:0:
256,192,76634,1,8,0:0:0:0:
256,192,76736,1,8,0:0:0:0:
256,192,76839,1,0,0:0:0:0:
256,192,76941,1,8,0:0:0:0:
256,192,77043,1,8,0:0:0:0:
256,192,77144,1,0,0:0:0:0:
256,192,77348,1,0,0:0:0:0:
256,192,77552,1,8,0:0:0:0:
256,192,77757,1,0,0:0:0:0:
256,192,77859,1,8,0:0:0:0:
256,192,77961,1,0,0:0:0:0:
256,192,78165,1,0,0:0:0:0:
256,192,78369,1,8,0:0:0:0:
256,192,78573,1,0,0:0:0:0:
256,192,78675,1,8,0:0:0:0:
256,192,78777,1,0,0:0:0:0:
256,192,78981,1,0,0:0:0:0:
256,192,79185,1,8,0:0:0:0:
256,192,79389,1,0,0:0:0:0:
256,192,79491,1,8,0:0:0:0:
256,192,79593,1,0,0:0:0:0:
256,192,79797,1,0,0:0:0:0:
256,192,80001,1,8,0:0:0:0:
256,192,80205,1,8,0:0:0:0:
256,192,80308,1,8,0:0:0:0:
256,192,80410,1,0,0:0:0:0:
256,192,80614,1,0,0:0:0:0:
256,192,80716,1,0,0:0:0:0:
256,192,80818,1,8,0:0:0:0:
256,192,81022,1,0,0:0:0:0:
256,192,81124,1,8,0:0:0:0:
256,192,81226,1,0,0:0:0:0:
256,192,81328,1,0,0:0:0:0:
256,192,81532,1,0,0:0:0:0:
256,192,81634,1,8,0:0:0:0:
256,192,81838,1,0,0:0:0:0:
256,192,81940,1,0,0:0:0:0:
256,192,82042,1,8,0:0:0:0:
256,192,82144,1,0,0:0:0:0:
256,192,82246,1,0,0:0:0:0:
256,192,82348,1,8,0:0:0:0:
256,192,82450,1,0,0:0:0:0:
256,192,82552,1,0,0:0:0:0:
256,192,82654,1,8,0:0:0:0:
256,192,82757,1,0,0:0:0:0:
256,192,82859,1,8,0:0:0:0:
256,192,82961,1,0,0:0:0:0:
256,192,83063,1,0,0:0:0:0:
256,192,83165,1,8,0:0:0:0:
256,192,83267,1,0,0:0:0:0:
256,192,83369,1,0,0:0:0:0:
256,192,83471,1,8,0:0:0:0:
256,192,83573,1,0,0:0:0:0:
256,192,83675,1,8,0:0:0:0:
256,192,83811,1,8,0:0:0:0:
256,192,83947,1,0,0:0:0:0:
256,192,84083,1,8,0:0:0:0:
256,192,84219,1,8,0:0:0:0:
256,192,84355,1,0,0:0:0:0:
256,192,84491,1,8,0:0:0:0:
256,192,84627,1,0,0:0:0:0:
256,192,84763,1,0,0:0:0:0:
256,192,84899,1,8,0:0:0:0:
256,192,85035,1,0,0:0:0:0:
256,192,85171,1,0,0:0:0:0:
256,192,85308,1,8,0:0:0:0:
256,192,85444,1,8,0:0:0:0:
256,192,85580,1,0,0:0:0:0:
256,192,85716,1,8,0:0:0:0:
256,192,85852,1,8,0:0:0:0:
256,192,85988,1,8,0:0:0:0:
256,192,86124,1,0,0:0:0:0:
256,192,86328,1,8,0:0:0:0:
256,192,86532,1,8,0:0:0:0:
256,192,86736,1,0,0:0:0:0:
256,192,86838,1,0,0:0:0:0:
256,192,86940,1,8,0:0:0:0:
256,192,87076,1,0,0:0:0:0:
256,192,87212,1,0,0:0:0:0:
256,192,87348,1,8,0:0:0:0:
256,192,87484,1,0,0:0:0:0:
256,192,87620,1,0,0:0:0:0:
256,192,87757,1,8,0:0:0:0:
256,192,87893,1,8,0:0:0:0:
256,192,88029,1,0,0:0:0:0:
256,192,88165,1,8,0:0:0:0:
256,192,88301,1,8,0:0:0:0:
256,192,88437,1,0,0:0:0:0:
256,192,88573,1,8,0:0:0:0:
256,192,88709,1,0,0:0:0:0:
256,192,88845,1,0,0:0:0:0:
256,192,88981,1,8,0:0:0:0:
256,192,89117,1,0,0:0:0:0:
256,192,89253,1,0,0:0:0:0:
256,192,89389,1,8,0:0:0:0:
256,192,89593,1,8,0:0:0:0:
256,192,89695,1,8,0:0:0:0:
256,192,89797,1,0,0:0:0:0:
256,192,89899,1,8,0:0:0:0:
256,192,90001,1,0,0:0:0:0:
256,192,90205,1,8,0:0:0:0:
256,192,90342,1,8,0:0:0:0:
256,192,90478,1,0,0:0:0:0:
256,192,90614,1,8,0:0:0:0:
256,192,90750,1,8,0:0:0:0:
256,192,90886,1,0,0:0:0:0:
256,192,91022,1,8,0:0:0:0:
256,192,91158,1,0,0:0:0:0:
256,192,91294,1,0,0:0:0:0:
256,192,91430,1,8,0:0:0:0:
256,192,91566,1,0,0:0:0:0:
256,192,91702,1,0,0:0:0:0:
256,192,91838,1,8,0:0:0:0:
256,192,91974,1,8,0:0:0:0:
256,192,92110,1,0,0:0:0:0:
256,192,92246,1,8,0:0:0:0:
256,192,92382,1,8,0:0:0:0:
256,192,92518,1,8,0:0:0:0:
256,192,92654,1,0,0:0:0:0:
256,192,92859,1,8,0:0:0:0:
256,192,93063,1,8,0:0:0:0:
256,192,93267,1,0,0:0:0:0:
256,192,93369,1,0,0:0:0:0:
256,192,93471,1,8,0:0:0:0:
256,192,93607,1,0,0:0:0:0:
256,192,93743,1,0,0:0:0:0:
256,192,93879,1,8,0:0:0:0:
256,192,94015,1,0,0:0:0:0:
256,192,94151,1,0,0:0:0:0:
256,192,94287,1,8,0:0:0:0:
256,192,94423,1,8,0:0:0:0:
256,192,94559,1,0,0:0:0:0:
256,192,94695,1,8,0:0:0:0:
256,192,94831,1,8,0:0:0:0:
256,192,94967,1,0,0:0:0:0:
256,192,95103,1,8,0:0:0:0:
256,192,95240,1,0,0:0:0:0:
256,192,95376,1,0,0:0:0:0:
256,192,95512,1,8,0:0:0:0:
256,192,95648,1,0,0:0:0:0:
256,192,95784,1,0,0:0:0:0:
256,192,95920,1,12,0:0:0:0:
256,192,96226,1,12,0:0:0:0:
256,192,96532,1,12,0:0:0:0:
256,192,96736,1,0,0:0:0:0:
256,192,97236,1,8,0:0:0:0:
256,192,97486,1,0,0:0:0:0:
256,192,97736,1,0,0:0:0:0:
256,192,97986,1,8,0:0:0:0:
256,192,98236,1,0,0:0:0:0:
256,192,98486,1,8,0:0:0:0:
256,192,98861,1,8,0:0:0:0:
256,192,98986,1,0,0:0:0:0:
256,192,99236,1,0,0:0:0:0:
256,192,99361,1,0,0:0:0:0:
256,192,99486,1,8,0:0:0:0:
256,192,99736,1,8,0:0:0:0:
256,192,99986,1,0,0:0:0:0:
256,192,100236,1,8,0:0:0:0:
256,192,100361,1,8,0:0:0:0:
256,192,100486,1,0,0:0:0:0:
256,192,100736,1,8,0:0:0:0:
256,192,100861,1,8,0:0:0:0:
256,192,100986,1,0,0:0:0:0:
256,192,101111,1,8,0:0:0:0:
256,192,101236,1,0,0:0:0:0:
256,192,101611,1,8,0:0:0:0:
256,192,101736,1,0,0:0:0:0:
256,192,101861,1,8,0:0:0:0:
256,192,101986,1,0,0:0:0:0:
256,192,102236,1,8,0:0:0:0:
256,192,102486,1,8,0:0:0:0:
256,192,102736,1,0,0:0:0:0:
256,192,102986,1,0,0:0:0:0:
256,192,103486,1,0,0:0:0:0:
256,192,103736,1,0,0:0:0:0:
256,192,104236,1,0,0:0:0:0:
256,192,104486,1,0,0:0:0:0:
256,192,104861,1,8,0:0:0:0:
256,192,104986,1,0,0:0:0:0:
256,192,105236,1,0,0:0:0:0:
256,192,105361,1,0,0:0:0:0:
256,192,105486,1,8,0:0:0:0:
256,192,105736,1,8,0:0:0:0:
256,192,105986,1,0,0:0:0:0:
256,192,106236,1,8,0:0:0:0:
256,192,106361,1,8,0:0:0:0:
256,192,106486,1,0,0:0:0:0:
256,192,106736,1,0,0:0:0:0:
256,192,106986,1,0,0:0:0:0:
256,192,107111,1,8,0:0:0:0:
256,192,107236,1,0,0:0:0:0:
256,192,107402,1,0,0:0:0:0:
256,192,107569,1,0,0:0:0:0:
256,192,107736,1,0,0:0:0:0:
256,192,107902,1,0,0:0:0:0:
256,192,108069,1,0,0:0:0:0:
256,192,108236,1,8,0:0:0:0:
256,192,108402,1,8,0:0:0:0:
256,192,108569,1,8,0:0:0:0:
256,192,108736,1,8,0:0:0:0:
256,192,108819,1,8,0:0:0:0:
256,192,108902,1,8,0:0:0:0:
256,192,108986,1,8,0:0:0:0:
256,192,109069,1,8,0:0:0:0:
256,192,109152,1,8,0:0:0:0:
256,192,109236,1,0,0:0:0:0:
256,192,109440,1,0,0:0:0:0:
256,192,109542,1,0,0:0:0:0:
256,192,109644,1,8,0:0:0:0:
256,192,109848,1,0,0:0:0:0:
256,192,109950,1,8,0:0:0:0:
256,192,110052,1,0,0:0:0:0:
256,192,110154,1,0,0:0:0:0:
256,192,110256,1,0,0:0:0:0:
256,192,110460,1,8,0:0:0:0:
256,192,110562,1,0,0:0:0:0:
256,192,110664,1,8,0:0:0:0:
256,192,110766,1,8,0:0:0:0:
256,192,110868,1,0,0:0:0:0:
256,192,111072,1,8,0:0:0:0:
256,192,111175,1,0,0:0:0:0:
256,192,111277,1,8,0:0:0:0:
256,192,111481,1,8,0:0:0:0:
256,192,111583,1,8,0:0:0:0:
256,192,111685,1,0,0:0:0:0:
256,192,111787,1,8,0:0:0:0:
256,192,111889,1,0,0:0:0:0:
256,192,111991,1,0,0:0:0:0:
256,192,112093,1,8,0:0:0:0:
256,192,112297,1,8,0:0:0:0:
256,192,112399,1,0,0:0:0:0:
256,192,112501,1,8,0:0:0:0:
256,192,112705,1,0,0:0:0:0:
256,192,112807,1,0,0:0:0:0:
256,192,112909,1,8,0:0:0:0:
256,192,113113,1,8,0:0:0:0:
256,192,113215,1,8,0:0:0:0:
256,192,113317,1,0,0:0:0:0:
256,192,113419,1,0,0:0:0:0:
256,192,113522,1,8,0:0:0:0:
256,192,113624,1,8,0:0:0:0:
256,192,113726,1,0,0:0:0:0:
256,192,113930,1,8,0:0:0:0:
256,192,114134,1,0,0:0:0:0:
256,192,114338,1,8,0:0:0:0:
256,192,114542,1,0,0:0:0:0:
256,192,114746,1,8,0:0:0:0:
256,192,114950,1,0,0:0:0:0:
256,192,115052,1,8,0:0:0:0:
256,192,115256,1,0,0:0:0:0:
256,192,115358,1,8,0:0:0:0:
256,192,115562,1,8,0:0:0:0:
256,192,115664,1,8,0:0:0:0:
256,192,115766,1,0,0:0:0:0:
256,192,115970,1,0,0:0:0:0:
256,192,116072,1,0,0:0:0:0:
256,192,116174,1,8,0:0:0:0:
256,192,116378,1,0,0:0:0:0:
256,192,116480,1,8,0:0:0:0:
256,192,116684,1,8,0:0:0:0:
256,192,116786,1,8,0:0:0:0:
256,192,116888,1,0,0:0:0:0:
256,192,116991,1,8,0:0:0:0:
256,192,117093,1,8,0:0:0:0:
256,192,117195,1,0,0:0:0:0:
256,192,117297,1,8,0:0:0:0:
256,192,117399,1,0,0:0:0:0:
256,192,117603,1,8,0:0:0:0:
256,192,117705,1,0,0:0:0:0:
256,192,117807,1,8,0:0:0:0:
256,192,118011,1,8,0:0:0:0:
256,192,118113,1,8,0:0:0:0:
256,192,118215,1,0,0:0:0:0:
256,192,118317,1,0,0:0:0:0:
256,192,118419,1,8,0:0:0:0:
256,192,118521,1,0,0:0:0:0:
256,192,118623,1,8,0:0:0:0:
256,192,118725,1,8,0:0:0:0:
256,192,118827,1,0,0:0:0:0:
256,192,118929,1,0,0:0:0:0:
256,192,119031,1,8,0:0:0:0:
256,192,119235,1,0,0:0:0:0:
256,192,119338,1,0,0:0:0:0:
256,192,119440,1,8,0:0:0:0:
256,192,119644,1,0,0:0:0:0:
256,192,119746,1,8,0:0:0:0:
256,192,119950,1,8,0:0:0:0:
256,192,120052,1,0,0:0:0:0:
256,192,120154,1,0,0:0:0:0:
256,192,120256,1,8,0:0:0:0:
256,192,120358,1,8,0:0:0:0:
256,192,120460,1,0,0:0:0:0:
256,192,120562,1,8,0:0:0:0:
256,192,120664,1,0,0:0:0:0:
256,192,120766,1,8,0:0:0:0:
256,192,120868,1,0,0:0:0:0:
256,192,120970,1,0,0:0:0:0:
256,192,121072,1,8,0:0:0:0:
256,192,121174,1,0,0:0:0:0:
256,192,121276,1,0,0:0:0:0:
256,192,121378,1,8,0:0:0:0:
256,192,121480,1,8,0:0:0:0:
256,192,121582,1,0,0:0:0:0:
256,192,121684,1,8,0:0:0:0:
256,192,121786,1,8,0:0:0:0:
256,192,121888,1,8,0:0:0:0:
256,192,121991,1,0,0:0:0:0:
256,192,122093,1,8,0:0:0:0:
256,192,122296,1,4,0:0:0:0:
