osu file format v14

[General]
AudioFilename: 3.mp3
AudioLeadIn: 0
PreviewTime: 22265
Countdown: 0
SampleSet: Normal
StackLeniency: 0.7
Mode: 1
LetterboxInBreaks: 0
WidescreenStoryboard: 0

[Editor]
DistanceSpacing: 1
BeatDivisor: 4
GridSize: 32
TimelineZoom: 2.7

[Metadata]
Title:ZUNTATA Touhou Arrangement Pack
TitleUnicode:ZUNTATA東方アレンジパック
Artist:ZUNTATA
ArtistUnicode:ZUNTATA
Creator:Felt7z
Version:COSIO (ZUNTATA) - Touhou Fushichou
Source:
Tags:
BeatmapID:1290557
BeatmapSetID:611314

[Difficulty]
HPDrainRate:5
CircleSize:5
OverallDifficulty:6.5
ApproachRate:5
SliderMultiplier:1.4
SliderTickRate:1

[Events]
//Background and Video events
0,0,"Eiyashou.jpg",0,0
//Break Periods
2,74510,78272
//Storyboard Layer 0 (Background)
//Storyboard Layer 1 (Fail)
//Storyboard Layer 2 (Pass)
//Storyboard Layer 3 (Foreground)
//Storyboard Sound Samples

[TimingPoints]
763,322.58064516129,4,1,0,100,1,8
2053,-133.333333333333,4,1,0,100,0,0
11892,-117.647058823529,4,1,0,100,0,0
12375,-100,4,1,0,100,0,0
43343,322.58064516129,4,1,0,100,1,0
43504,-133.333333333333,4,1,0,100,0,0
48504,-200,4,1,0,100,0,0
53665,-133.333333333333,4,1,0,100,0,0
63504,-117.647058823529,4,1,0,100,0,0
63988,-100,4,1,0,100,0,0
84149,-90.9090909090909,4,1,0,100,0,0
84633,-83.3333333333333,4,1,0,100,0,1
94955,-83.3333333333333,4,1,0,100,0,0
95278,-100,4,1,0,100,0,0
115601,-66.6666666666667,4,1,0,100,0,0

[HitObjects]
256,192,2053,5,8,0:0:0:0:
256,192,2214,1,8,0:0:0:0:
256,192,2295,1,0,0:0:0:0:
256,192,2375,1,8,0:0:0:0:
256,192,2537,1,0,0:0:0:0:
256,192,2698,1,0,0:0:0:0:
256,192,2779,1,0,0:0:0:0:
256,192,2859,1,0,0:0:0:0:
256,192,2940,1,8,0:0:0:0:
256,192,3021,1,8,0:0:0:0:
256,192,3182,1,8,0:0:0:0:
256,192,3262,1,8,0:0:0:0:
256,192,3343,1,0,0:0:0:0:
256,192,3424,1,0,0:0:0:0:
256,192,3504,1,8,0:0:0:0:
256,192,3585,1,8,0:0:0:0:
256,192,3666,1,0,0:0:0:0:
256,192,3827,1,8,0:0:0:0:
256,192,3908,1,8,0:0:0:0:
256,192,3988,1,0,0:0:0:0:
256,192,4150,1,0,0:0:0:0:
256,192,4230,1,0,0:0:0:0:
256,192,4311,1,0,0:0:0:0:
256,192,4472,1,8,0:0:0:0:
256,192,4633,1,8,0:0:0:0:
256,192,4795,1,8,0:0:0:0:
256,192,4875,1,0,0:0:0:0:
256,192,4956,1,8,0:0:0:0:
256,192,5117,1,0,0:0:0:0:
256,192,5279,1,0,0:0:0:0:
256,192,5359,1,0,0:0:0:0:
256,192,5440,1,0,0:0:0:0:
256,192,5521,1,8,0:0:0:0:
256,192,5601,1,8,0:0:0:0:
256,192,5762,1,8,0:0:0:0:
256,192,5843,1,8,0:0:0:0:
256,192,5924,1,0,0:0:0:0:
256,192,6004,1,0,0:0:0:0:
256,192,6085,1,8,0:0:0:0:
256,192,6166,1,8,0:0:0:0:
256,192,6246,1,0,0:0:0:0:
256,192,6408,1,8,0:0:0:0:
256,192,6488,1,8,0:0:0:0:
256,192,6569,1,0,0:0:0:0:
256,192,6730,1,0,0:0:0:0:
256,192,6811,1,0,0:0:0:0:
256,192,6892,1,0,0:0:0:0:
256,192,7053,1,8,0:0:0:0:
256,192,7214,1,0,0:0:0:0:
256,192,7375,1,0,0:0:0:0:
256,192,7537,1,0,0:0:0:0:
256,192,7698,1,0,0:0:0:0:
256,192,7859,1,8,0:0:0:0:
256,192,8182,1,0,0:0:0:0:
256,192,8504,1,8,0:0:0:0:
256,192,8666,1,8,0:0:0:0:
256,192,8827,1,0,0:0:0:0:
256,192,8988,1,0,0:0:0:0:
256,192,9150,1,8,0:0:0:0:
256,192,9311,1,0,0:0:0:0:
256,192,9472,1,0,0:0:0:0:
256,192,9795,1,0,0:0:0:0:
256,192,9956,1,0,0:0:0:0:
256,192,10117,1,0,0:0:0:0:
256,192,10279,1,0,0:0:0:0:
256,192,10440,1,8,0:0:0:0:
256,192,10762,1,0,0:0:0:0:
256,192,11085,1,8,0:0:0:0:
256,192,11246,1,8,0:0:0:0:
256,192,11408,1,0,0:0:0:0:
256,192,11569,1,0,0:0:0:0:
256,192,11650,1,0,0:0:0:0:
256,192,11730,1,0,0:0:0:0:
256,192,11892,1,12,0:0:0:0:
256,192,12053,1,12,0:0:0:0:
256,192,12214,1,12,0:0:0:0:
256,192,12375,1,0,0:0:0:0:
256,192,12537,1,0,0:0:0:0:
256,192,12617,1,0,0:0:0:0:
256,192,12698,1,8,0:0:0:0:
256,192,12859,1,0,0:0:0:0:
256,192,12940,1,0,0:0:0:0:
256,192,13101,1,8,0:0:0:0:
256,192,13181,1,0,0:0:0:0:
256,192,13343,1,8,0:0:0:0:
256,192,13504,1,0,0:0:0:0:
256,192,13585,1,8,0:0:0:0:
256,192,13666,1,0,0:0:0:0:
256,192,13746,1,0,0:0:0:0:
256,192,13827,1,8,0:0:0:0:
256,192,13908,1,0,0:0:0:0:
256,192,13988,1,8,0:0:0:0:
256,192,14150,1,8,0:0:0:0:
256,192,14230,1,0,0:0:0:0:
256,192,14311,1,8,0:0:0:0:
256,192,14472,1,0,0:0:0:0:
256,192,14553,1,0,0:0:0:0:
256,192,14633,1,8,0:0:0:0:
256,192,14714,1,0,0:0:0:0:
256,192,14795,1,8,0:0:0:0:
256,192,14875,1,8,0:0:0:0:
256,192,14956,1,0,0:0:0:0:
256,192,15117,1,0,0:0:0:0:
256,192,15198,1,0,0:0:0:0:
256,192,15279,1,8,0:0:0:0:
256,192,15440,1,0,0:0:0:0:
256,192,15521,1,0,0:0:0:0:
256,192,15601,1,8,0:0:0:0:
256,192,15682,1,0,0:0:0:0:
256,192,15762,1,0,0:0:0:0:
256,192,15924,1,8,0:0:0:0:
256,192,16085,1,0,0:0:0:0:
256,192,16166,1,0,0:0:0:0:
256,192,16246,1,0,0:0:0:0:
256,192,16408,1,8,0:0:0:0:
256,192,16488,1,0,0:0:0:0:
256,192,16569,1,8,0:0:0:0:
256,192,16730,1,0,0:0:0:0:
256,192,16811,1,0,0:0:0:0:
256,192,16892,1,0,0:0:0:0:
256,192,16972,1,8,0:0:0:0:
256,192,17053,1,0,0:0:0:0:
256,192,17214,1,8,0:0:0:0:
256,192,17375,1,0,0:0:0:0:
256,192,17456,1,0,0:0:0:0:
256,192,17537,1,0,0:0:0:0:
256,192,17698,1,0,0:0:0:0:
256,192,17779,1,0,0:0:0:0:
256,192,17859,1,8,0:0:0:0:
256,192,18021,1,0,0:0:0:0:
256,192,18101,1,0,0:0:0:0:
256,192,18262,1,8,0:0:0:0:
256,192,18343,1,0,0:0:0:0:
256,192,18424,1,8,0:0:0:0:
256,192,18504,1,8,0:0:0:0:
256,192,18585,1,0,0:0:0:0:
256,192,18666,1,8,0:0:0:0:
256,192,18746,1,8,0:0:0:0:
256,192,18827,1,0,0:0:0:0:
256,192,18908,1,0,0:0:0:0:
256,192,18988,1,8,0:0:0:0:
256,192,19069,1,0,0:0:0:0:
256,192,19150,1,8,0:0:0:0:
256,192,19311,1,8,0:0:0:0:
256,192,19392,1,0,0:0:0:0:
256,192,19472,1,8,0:0:0:0:
256,192,19633,1,8,0:0:0:0:
256,192,19714,1,0,0:0:0:0:
256,192,19795,1,8,0:0:0:0:
256,192,19875,1,8,0:0:0:0:
256,192,19956,1,0,0:0:0:0:
256,192,20037,1,8,0:0:0:0:
256,192,20117,1,0,0:0:0:0:
256,192,20198,1,0,0:0:0:0:
256,192,20279,1,0,0:0:0:0:
256,192,20359,1,8,0:0:0:0:
256,192,20440,1,0,0:0:0:0:
256,192,20521,1,0,0:0:0:0:
256,192,20601,1,8,0:0:0:0:
256,192,20762,1,8,0:0:0:0:
256,192,20843,1,0,0:0:0:0:
256,192,20924,1,0,0:0:0:0:
256,192,21004,1,8,0:0:0:0:
256,192,21085,1,0,0:0:0:0:
256,192,21166,1,0,0:0:0:0:
256,192,21246,1,8,0:0:0:0:
256,192,21327,1,8,0:0:0:0:
256,192,21408,1,8,0:0:0:0:
256,192,21569,1,8,0:0:0:0:
256,192,21650,1,8,0:0:0:0:
256,192,21730,1,0,0:0:0:0:
256,192,21811,1,8,0:0:0:0:
256,192,21892,1,0,0:0:0:0:
256,192,21972,1,0,0:0:0:0:
256,192,22053,1,0,0:0:0:0:
256,192,22214,1,12,0:0:0:0:
256,192,22375,1,12,0:0:0:0:
256,192,22537,1,12,0:0:0:0:
256,192,22698,1,0,0:0:0:0:
256,192,23021,1,8,0:0:0:0:
256,192,23182,1,0,0:0:0:0:
256,192,23262,1,0,0:0:0:0:
256,192,23343,1,0,0:0:0:0:
256,192,23504,1,8,0:0:0:0:
256,192,23666,1,8,0:0:0:0:
256,192,23827,1,0,0:0:0:0:
256,192,23908,1,8,0:0:0:0:
256,192,23988,1,0,0:0:0:0:
256,192,24230,1,0,0:0:0:0:
256,192,24311,1,8,0:0:0:0:
256,192,24472,1,0,0:0:0:0:
256,192,24795,1,0,0:0:0:0:
256,192,24956,1,8,0:0:0:0:
256,192,25117,1,0,0:0:0:0:
256,192,25279,1,8,0:0:0:0:
256,192,25359,1,8,0:0:0:0:
256,192,25440,1,8,0:0:0:0:
256,192,25521,1,8,0:0:0:0:
256,192,25601,1,0,0:0:0:0:
256,192,25924,1,8,0:0:0:0:
256,192,26004,1,8,0:0:0:0:
256,192,26085,1,0,0:0:0:0:
256,192,26166,1,8,0:0:0:0:
256,192,26246,1,0,0:0:0:0:
256,192,26569,1,0,0:0:0:0:
256,192,26892,1,8,0:0:0:0:
256,192,27053,1,0,0:0:0:0:
256,192,27133,1,0,0:0:0:0:
256,192,27214,1,0,0:0:0:0:
256,192,27295,1,8,0:0:0:0:
256,192,27375,1,0,0:0:0:0:
256,192,27537,1,8,0:0:0:0:
256,192,27698,1,0,0:0:0:0:
256,192,27779,1,0,0:0:0:0:
256,192,27859,1,0,0:0:0:0:
256,192,28182,1,8,0:0:0:0:
256,192,28343,1,0,0:0:0:0:
256,192,28424,1,0,0:0:0:0:
256,192,28504,1,0,0:0:0:0:
256,192,28666,1,8,0:0:0:0:
256,192,28827,1,8,0:0:0:0:
256,192,28988,1,0,0:0:0:0:
256,192,29069,1,0,0:0:0:0:
256,192,29150,1,8,0:0:0:0:
256,192,29311,1,0,0:0:0:0:
256,192,29392,1,0,0:0:0:0:
256,192,29472,1,8,0:0:0:0:
256,192,29553,1,0,0:0:0:0:
256,192,29633,1,0,0:0:0:0:
256,192,29795,1,8,0:0:0:0:
256,192,29875,1,8,0:0:0:0:
256,192,29956,1,0,0:0:0:0:
256,192,30037,1,0,0:0:0:0:
256,192,30117,1,8,0:0:0:0:
256,192,30198,1,0,0:0:0:0:
256,192,30279,1,0,0:0:0:0:
256,192,30440,1,8,0:0:0:0:
256,192,30601,1,0,0:0:0:0:
256,192,30682,1,0,0:0:0:0:
256,192,30762,1,8,0:0:0:0:
256,192,30924,1,8,0:0:0:0:
256,192,31085,1,8,0:0:0:0:
256,192,31166,1,8,0:0:0:0:
256,192,31246,1,0,0:0:0:0:
256,192,31408,1,8,0:0:0:0:
256,192,31569,1,0,0:0:0:0:
256,192,31650,1,8,0:0:0:0:
256,192,31730,1,0,0:0:0:0:
256,192,31892,1,0,0:0:0:0:
256,192,31972,1,0,0:0:0:0:
256,192,32053,1,8,0:0:0:0:
256,192,32133,1,0,0:0:0:0:
256,192,32214,1,8,0:0:0:0:
256,192,32295,1,8,0:0:0:0:
256,192,32375,1,0,0:0:0:0:
256,192,32456,1,8,0:0:0:0:
256,192,32537,1,0,0:0:0:0:
256,192,32698,1,8,0:0:0:0:
256,192,32859,1,8,0:0:0:0:
256,192,32940,1,8,0:0:0:0:
256,192,33021,1,0,0:0:0:0:
256,192,33344,1,8,0:0:0:0:
256,192,33505,1,0,0:0:0:0:
256,192,33585,1,0,0:0:0:0:
256,192,33666,1,0,0:0:0:0:
256,192,33827,1,8,0:0:0:0:
256,192,33989,1,8,0:0:0:0:
256,192,34150,1,0,0:0:0:0:
256,192,34231,1,8,0:0:0:0:
256,192,34311,1,0,0:0:0:0:
256,192,34553,1,0,0:0:0:0:
256,192,34634,1,8,0:0:0:0:
256,192,34795,1,0,0:0:0:0:
256,192,35118,1,0,0:0:0:0:
256,192,35279,1,8,0:0:0:0:
256,192,35440,1,0,0:0:0:0:
256,192,35602,1,8,0:0:0:0:
256,192,35682,1,8,0:0:0:0:
256,192,35763,1,8,0:0:0:0:
256,192,35844,1,8,0:0:0:0:
256,192,35924,1,0,0:0:0:0:
256,192,36085,1,0,0:0:0:0:
256,192,36166,1,0,0:0:0:0:
256,192,36247,1,8,0:0:0:0:
256,192,36327,1,8,0:0:0:0:
256,192,36408,1,0,0:0:0:0:
256,192,36488,1,8,0:0:0:0:
256,192,36569,1,0,0:0:0:0:
256,192,36730,1,8,0:0:0:0:
256,192,36892,1,0,0:0:0:0:
256,192,37133,1,0,0:0:0:0:
256,192,37215,1,8,0:0:0:0:
256,192,37376,1,0,0:0:0:0:
256,192,37456,1,0,0:0:0:0:
256,192,37537,1,0,0:0:0:0:
256,192,37618,1,8,0:0:0:0:
256,192,37698,1,0,0:0:0:0:
256,192,37860,1,8,0:0:0:0:
256,192,38021,1,0,0:0:0:0:
256,192,38102,1,0,0:0:0:0:
256,192,38182,1,0,0:0:0:0:
256,192,38505,1,8,0:0:0:0:
256,192,38666,1,0,0:0:0:0:
256,192,38747,1,0,0:0:0:0:
256,192,38827,1,0,0:0:0:0:
256,192,38989,1,8,0:0:0:0:
256,192,39150,1,8,0:0:0:0:
256,192,39311,1,0,0:0:0:0:
256,192,39392,1,0,0:0:0:0:
256,192,39473,1,8,0:0:0:0:
256,192,39634,1,0,0:0:0:0:
256,192,39715,1,0,0:0:0:0:
256,192,39795,1,8,0:0:0:0:
256,192,39876,1,0,0:0:0:0:
256,192,39956,1,0,0:0:0:0:
256,192,40118,1,8,0:0:0:0:
256,192,40198,1,8,0:0:0:0:
256,192,40279,1,0,0:0:0:0:
256,192,40360,1,0,0:0:0:0:
256,192,40440,1,8,0:0:0:0:
256,192,40521,1,0,0:0:0:0:
256,192,40602,1,0,0:0:0:0:
256,192,40763,1,8,0:0:0:0:
256,192,40844,1,8,0:0:0:0:
256,192,40924,1,0,0:0:0:0:
256,192,41005,1,0,0:0:0:0:
256,192,41085,1,8,0:0:0:0:
256,192,41247,1,8,0:0:0:0:
256,192,41327,1,0,0:0:0:0:
256,192,41408,1,8,0:0:0:0:
256,192,41489,1,8,0:0:0:0:
256,192,41569,1,0,0:0:0:0:
256,192,41731,1,8,0:0:0:0:
256,192,41811,1,8,0:0:0:0:
256,192,41892,1,0,0:0:0:0:
256,192,41973,1,8,0:0:0:0:
256,192,42053,1,0,0:0:0:0:
256,192,42215,1,0,0:0:0:0:
256,192,42295,1,0,0:0:0:0:
256,192,42376,1,8,0:0:0:0:
256,192,42456,1,0,0:0:0:0:
256,192,42537,1,8,0:0:0:0:
256,192,42618,1,8,0:0:0:0:
256,192,42698,1,0,0:0:0:0:
256,192,42779,1,8,0:0:0:0:
256,192,42859,1,8,0:0:0:0:
256,192,42940,1,0,0:0:0:0:
256,192,43021,1,8,0:0:0:0:
256,192,43101,1,8,0:0:0:0:
256,192,43182,1,0,0:0:0:0:
256,192,43262,1,8,0:0:0:0:
256,192,43343,1,0,0:0:0:0:
256,192,43666,1,0,0:0:0:0:
256,192,43827,1,0,0:0:0:0:
256,192,43988,1,8,0:0:0:0:
256,192,44149,1,0,0:0:0:0:
256,192,44230,1,0,0:0:0:0:
256,192,44311,1,0,0:0:0:0:
256,192,44472,1,0,0:0:0:0:
256,192,44795,1,8,0:0:0:0:
256,192,44956,1,0,0:0:0:0:
256,192,45117,1,0,0:0:0:0:
256,192,45279,1,8,0:0:0:0:
256,192,45439,1,0,0:0:0:0:
256,192,45520,1,0,0:0:0:0:
256,192,45601,1,8,0:0:0:0:
256,192,45762,1,8,0:0:0:0:
256,192,45924,1,0,0:0:0:0:
256,192,46246,1,8,0:0:0:0:
256,192,46408,1,0,0:0:0:0:
256,192,46569,1,8,0:0:0:0:
256,192,46730,1,0,0:0:0:0:
256,192,46810,1,0,0:0:0:0:
256,192,46892,1,8,0:0:0:0:
256,192,47053,1,8,0:0:0:0:
256,192,47375,1,0,0:0:0:0:
256,192,47537,1,0,0:0:0:0:
256,192,47698,1,0,0:0:0:0:
256,192,47859,1,8,0:0:0:0:
256,192,48020,1,0,0:0:0:0:
256,192,48101,1,0,0:0:0:0:
256,192,48182,1,8,0:0:0:0:
256,192,48504,1,12,0:0:0:0:
256,192,49150,1,0,0:0:0:0:
256,192,49472,1,0,0:0:0:0:
256,192,49795,1,0,0:0:0:0:
256,192,50117,1,0,0:0:0:0:
256,192,50440,1,0,0:0:0:0:
256,192,51084,1,12,0:0:0:0:
256,192,51407,1,0,0:0:0:0:
256,192,51730,1,0,0:0:0:0:
256,192,52052,1,0,0:0:0:0:
256,192,52375,1,0,0:0:0:0:
256,192,52697,1,0,0:0:0:0:
256,192,53020,2,4,L|192:160,1,70
256,192,53665,1,8,0:0:0:0:
256,192,53826,1,8,0:0:0:0:
256,192,53907,1,0,0:0:0:0:
256,192,53987,1,8,0:0:0:0:
256,192,54149,1,0,0:0:0:0:
256,192,54310,1,0,0:0:0:0:
256,192,54391,1,0,0:0:0:0:
256,192,54471,1,0,0:0:0:0:
256,192,54633,1,8,0:0:0:0:
256,192,54794,1,0,0:0:0:0:
256,192,54955,1,0,0:0:0:0:
256,192,55036,1,0,0:0:0:0:
256,192,55116,1,8,0:0:0:0:
256,192,55197,1,8,0:0:0:0:
256,192,55278,1,0,0:0:0:0:
256,192,55439,1,8,0:0:0:0:
256,192,55520,1,8,0:0:0:0:
256,192,55600,1,0,0:0:0:0:
256,192,55762,1,0,0:0:0:0:
256,192,55842,1,0,0:0:0:0:
256,192,55923,1,0,0:0:0:0:
256,192,56084,1,0,0:0:0:0:
256,192,56245,1,8,0:0:0:0:
256,192,56407,1,8,0:0:0:0:
256,192,56487,1,0,0:0:0:0:
256,192,56568,1,8,0:0:0:0:
256,192,56729,1,0,0:0:0:0:
256,192,56891,1,0,0:0:0:0:
256,192,56971,1,0,0:0:0:0:
256,192,57052,1,0,0:0:0:0:
256,192,57213,1,8,0:0:0:0:
256,192,57374,1,0,0:0:0:0:
256,192,57536,1,0,0:0:0:0:
256,192,57617,1,0,0:0:0:0:
256,192,57697,1,8,0:0:0:0:
256,192,57778,1,8,0:0:0:0:
256,192,57859,1,0,0:0:0:0:
256,192,58020,1,8,0:0:0:0:
256,192,58101,1,8,0:0:0:0:
256,192,58181,1,0,0:0:0:0:
256,192,58342,1,0,0:0:0:0:
256,192,58423,1,8,0:0:0:0:
256,192,58504,1,0,0:0:0:0:
256,192,58584,1,0,0:0:0:0:
256,192,58665,1,0,0:0:0:0:
256,192,58745,1,8,0:0:0:0:
256,192,58826,1,8,0:0:0:0:
256,192,58987,1,8,0:0:0:0:
256,192,59068,1,0,0:0:0:0:
256,192,59148,1,8,0:0:0:0:
256,192,59229,1,0,0:0:0:0:
256,192,59310,1,0,0:0:0:0:
256,192,59390,1,8,0:0:0:0:
256,192,59471,1,0,0:0:0:0:
256,192,59552,1,0,0:0:0:0:
256,192,59632,1,0,0:0:0:0:
256,192,59713,1,8,0:0:0:0:
256,192,59794,1,8,0:0:0:0:
256,192,59874,1,0,0:0:0:0:
256,192,59955,1,8,0:0:0:0:
256,192,60036,1,8,0:0:0:0:
256,192,60116,1,0,0:0:0:0:
256,192,60197,1,0,0:0:0:0:
256,192,60277,1,8,0:0:0:0:
256,192,60358,1,0,0:0:0:0:
256,192,60439,1,0,0:0:0:0:
256,192,60519,1,0,0:0:0:0:
256,192,60600,1,8,0:0:0:0:
256,192,60681,1,0,0:0:0:0:
256,192,60761,1,8,0:0:0:0:
256,192,60842,1,8,0:0:0:0:
256,192,60923,1,0,0:0:0:0:
256,192,61003,1,8,0:0:0:0:
256,192,61084,1,0,0:0:0:0:
256,192,61165,1,0,0:0:0:0:
256,192,61245,1,0,0:0:0:0:
256,192,61326,1,8,0:0:0:0:
256,192,61406,1,8,0:0:0:0:
256,192,61488,1,0,0:0:0:0:
256,192,61568,1,0,0:0:0:0:
256,192,61649,1,8,0:0:0:0:
256,192,61730,1,0,0:0:0:0:
256,192,61810,1,0,0:0:0:0:
256,192,61891,1,8,0:0:0:0:
256,192,61972,1,8,0:0:0:0:
256,192,62052,1,0,0:0:0:0:
256,192,62133,1,0,0:0:0:0:
256,192,62213,1,0,0:0:0:0:
256,192,62294,1,8,0:0:0:0:
256,192,62375,1,8,0:0:0:0:
256,192,62455,1,0,0:0:0:0:
256,192,62536,1,8,0:0:0:0:
256,192,62617,1,8,0:0:0:0:
256,192,62697,1,8,0:0:0:0:
256,192,62778,1,0,0:0:0:0:
256,192,62859,1,8,0:0:0:0:
256,192,62939,1,8,0:0:0:0:
256,192,63020,1,0,0:0:0:0:
256,192,63101,1,8,0:0:0:0:
256,192,63181,1,0,0:0:0:0:
256,192,63262,1,0,0:0:0:0:
256,192,63342,1,0,0:0:0:0:
256,192,63504,1,12,0:0:0:0:
256,192,63665,1,12,0:0:0:0:
256,192,63826,1,12,0:0:0:0:
256,192,63988,1,0,0:0:0:0:
256,192,64310,1,8,0:0:0:0:
256,192,64794,1,0,0:0:0:0:
256,192,64955,1,8,0:0:0:0:
256,192,65278,1,0,0:0:0:0:
256,192,65601,1,8,0:0:0:0:
256,192,65923,1,8,0:0:0:0:
256,192,66084,1,0,0:0:0:0:
256,192,66246,1,8,0:0:0:0:
256,192,66568,1,0,0:0:0:0:
256,192,66891,1,8,0:0:0:0:
256,192,67052,1,0,0:0:0:0:
256,192,67375,1,0,0:0:0:0:
256,192,67536,1,8,0:0:0:0:
256,192,67859,1,0,0:0:0:0:
256,192,68181,1,8,0:0:0:0:
256,192,68504,1,8,0:0:0:0:
256,192,68584,1,8,0:0:0:0:
256,192,68665,1,0,0:0:0:0:
256,192,68826,1,8,0:0:0:0:
256,192,69149,1,0,0:0:0:0:
256,192,69310,1,0,0:0:0:0:
256,192,69472,1,8,0:0:0:0:
256,192,69633,1,0,0:0:0:0:
256,192,69955,1,0,0:0:0:0:
256,192,70117,1,8,0:0:0:0:
256,192,70439,1,0,0:0:0:0:
256,192,70601,1,8,0:0:0:0:
256,192,70762,1,8,0:0:0:0:
256,192,70923,1,0,0:0:0:0:
256,192,71246,1,0,0:0:0:0:
256,192,71407,1,8,0:0:0:0:
256,192,71730,1,0,0:0:0:0:
256,192,71837,1,0,0:0:0:0:
256,192,71945,1,0,0:0:0:0:
256,192,72052,1,8,0:0:0:0:
256,192,72375,1,8,0:0:0:0:
256,192,72482,1,8,0:0:0:0:
256,192,72590,1,0,0:0:0:0:
256,192,72697,1,8,0:0:0:0:
256,192,73020,1,8,0:0:0:0:
256,192,73127,1,8,0:0:0:0:
256,192,73235,1,0,0:0:0:0:
256,192,73342,1,8,0:0:0:0:
256,192,73450,1,0,0:0:0:0:
256,192,73558,1,0,0:0:0:0:
256,192,73665,1,8,0:0:0:0:
256,192,73826,1,0,0:0:0:0:
256,192,74310,1,4,0:0:0:0:
256,192,79472,5,0,0:0:0:0:
256,192,80117,1,8,0:0:0:0:
256,192,80278,1,0,0:0:0:0:
256,192,80439,1,8,0:0:0:0:
256,192,80762,1,8,0:0:0:0:
256,192,81407,1,0,0:0:0:0:
256,192,82052,1,0,0:0:0:0:
256,192,82213,1,0,0:0:0:0:
256,192,82375,1,0,0:0:0:0:
256,192,82536,1,8,0:0:0:0:
256,192,82697,1,8,0:0:0:0:
256,192,82859,1,0,0:0:0:0:
256,192,83020,1,0,0:0:0:0:
256,192,83181,1,8,0:0:0:0:
256,192,83342,1,8,0:0:0:0:
256,192,83504,1,0,0:0:0:0:
256,192,83665,1,8,0:0:0:0:
256,192,83826,1,8,0:0:0:0:
256,192,83988,1,8,0:0:0:0:
256,192,84149,1,12,0:0:0:0:
256,192,84310,1,12,0:0:0:0:
256,192,84472,1,12,0:0:0:0:
256,192,84633,1,8,0:0:0:0:
256,192,84713,1,8,0:0:0:0:
256,192,84794,1,0,0:0:0:0:
256,192,84875,1,8,0:0:0:0:
256,192,84955,1,0,0:0:0:0:
256,192,85036,1,8,0:0:0:0:
256,192,85117,1,0,0:0:0:0:
256,192,85197,1,0,0:0:0:0:
256,192,85278,1,8,0:0:0:0:
256,192,85359,1,0,0:0:0:0:
256,192,85439,1,0,0:0:0:0:
256,192,85520,1,8,0:0:0:0:
256,192,85601,1,0,0:0:0:0:
256,192,85681,1,0,0:0:0:0:
256,192,85762,1,8,0:0:0:0:
256,192,85842,1,0,0:0:0:0:
256,192,85923,1,8,0:0:0:0:
256,192,86004,1,8,0:0:0:0:
256,192,86084,1,0,0:0:0:0:
256,192,86165,1,0,0:0:0:0:
256,192,86246,1,8,0:0:0:0:
256,192,86326,1,8,0:0:0:0:
256,192,86407,1,8,0:0:0:0:
256,192,86488,1,0,0:0:0:0:
256,192,86568,1,8,0:0:0:0:
256,192,86649,1,8,0:0:0:0:
256,192,86730,1,0,0:0:0:0:
256,192,86810,1,0,0:0:0:0:
256,192,86891,1,8,0:0:0:0:
256,192,86972,1,0,0:0:0:0:
256,192,87052,1,8,0:0:0:0:
256,192,87133,1,8,0:0:0:0:
256,192,87213,1,0,0:0:0:0:
256,192,87294,1,8,0:0:0:0:
256,192,87375,1,0,0:0:0:0:
256,192,87455,1,0,0:0:0:0:
256,192,87536,1,8,0:0:0:0:
256,192,87617,1,8,0:0:0:0:
256,192,87697,1,0,0:0:0:0:
256,192,87778,1,8,0:0:0:0:
256,192,87859,1,8,0:0:0:0:
256,192,87939,1,0,0:0:0:0:
256,192,88020,1,8,0:0:0:0:
256,192,88101,1,8,0:0:0:0:
256,192,88181,1,0,0:0:0:0:
256,192,88262,1,0,0:0:0:0:
256,192,88342,1,8,0:0:0:0:
256,192,88423,1,8,0:0:0:0:
256,192,88504,1,0,0:0:0:0:
256,192,88584,1,0,0:0:0:0:
256,192,88665,1,0,0:0:0:0:
256,192,88746,1,8,0:0:0:0:
256,192,88826,1,0,0:0:0:0:
256,192,88907,1,0,0:0:0:0:
256,192,88988,1,8,0:0:0:0:
256,192,89068,1,0,0:0:0:0:
256,192,89149,1,8,0:0:0:0:
256,192,89230,1,0,0:0:0:0:
256,192,89310,1,0,0:0:0:0:
256,192,89391,1,8,0:0:0:0:
256,192,89472,1,0,0:0:0:0:
256,192,89552,1,8,0:0:0:0:
256,192,89633,1,8,0:0:0:0:
256,192,89713,1,0,0:0:0:0:
256,192,89794,1,8,0:0:0:0:
256,192,89875,1,8,0:0:0:0:
256,192,89955,1,0,0:0:0:0:
256,192,90036,1,8,0:0:0:0:
256,192,90117,1,0,0:0:0:0:
256,192,90197,1,8,0:0:0:0:
256,192,90278,1,0,0:0:0:0:
256,192,90359,1,0,0:0:0:0:
256,192,90439,1,8,0:0:0:0:
256,192,90520,1,0,0:0:0:0:
256,192,90601,1,0,0:0:0:0:
256,192,90681,1,8,0:0:0:0:
256,192,90762,1,0,0:0:0:0:
256,192,90842,1,0,0:0:0:0:
256,192,90923,1,8,0:0:0:0:
256,192,91004,1,0,0:0:0:0:
256,192,91084,1,8,0:0:0:0:
256,192,91165,1,8,0:0:0:0:
256,192,91246,1,0,0:0:0:0:
256,192,91326,1,8,0:0:0:0:
256,192,91407,1,0,0:0:0:0:
256,192,91488,1,8,0:0:0:0:
256,192,91568,1,8,0:0:0:0:
256,192,91649,1,0,0:0:0:0:
256,192,91730,1,8,0:0:0:0:
256,192,91810,1,8,0:0:0:0:
256,192,91891,1,0,0:0:0:0:
256,192,91972,1,0,0:0:0:0:
256,192,92052,1,8,0:0:0:0:
256,192,92133,1,0,0:0:0:0:
256,192,92213,1,8,0:0:0:0:
256,192,92294,1,8,0:0:0:0:
256,192,92375,1,0,0:0:0:0:
256,192,92455,1,0,0:0:0:0:
256,192,92536,1,0,0:0:0:0:
256,192,92617,1,8,0:0:0:0:
256,192,92697,1,8,0:0:0:0:
256,192,92778,1,0,0:0:0:0:
256,192,92859,1,8,0:0:0:0:
256,192,92939,1,0,0:0:0:0:
256,192,93020,1,8,0:0:0:0:
256,192,93101,1,0,0:0:0:0:
256,192,93181,1,0,0:0:0:0:
256,192,93262,1,8,0:0:0:0:
256,192,93342,1,8,0:0:0:0:
256,192,93423,1,0,0:0:0:0:
256,192,93504,1,8,0:0:0:0:
256,192,93584,1,0,0:0:0:0:
256,192,93665,1,8,0:0:0:0:
256,192,93746,1,0,0:0:0:0:
256,192,93826,1,0,0:0:0:0:
256,192,93907,1,8,0:0:0:0:
256,192,93988,1,0,0:0:0:0:
256,192,94068,1,0,0:0:0:0:
256,192,94149,1,8,0:0:0:0:
256,192,94230,1,8,0:0:0:0:
256,192,94310,1,0,0:0:0:0:
256,192,94391,1,8,0:0:0:0:
256,192,94472,1,0,0:0:0:0:
256,192,94552,1,0,0:0:0:0:
256,192,94633,1,8,0:0:0:0:
256,192,94713,1,8,0:0:0:0:
256,192,94794,1,0,0:0:0:0:
256,192,94875,1,8,0:0:0:0:
256,192,94955,1,0,0:0:0:0:
256,192,95278,1,8,0:0:0:0:
256,192,95439,1,0,0:0:0:0:
256,192,95519,1,0,0:0:0:0:
256,192,95600,1,0,0:0:0:0:
256,192,95761,1,8,0:0:0:0:
256,192,95923,1,8,0:0:0:0:
256,192,96084,1,0,0:0:0:0:
256,192,96165,1,8,0:0:0:0:
256,192,96245,1,0,0:0:0:0:
256,192,96487,1,0,0:0:0:0:
256,192,96568,1,8,0:0:0:0:
256,192,96729,1,0,0:0:0:0:
256,192,97052,1,0,0:0:0:0:
256,192,97132,1,0,0:0:0:0:
256,192,97213,1,8,0:0:0:0:
256,192,97374,1,0,0:0:0:0:
256,192,97536,1,8,0:0:0:0:
256,192,97616,1,8,0:0:0:0:
256,192,97697,1,8,0:0:0:0:
256,192,97778,1,8,0:0:0:0:
256,192,97858,1,0,0:0:0:0:
256,192,98019,1,0,0:0:0:0:
256,192,98100,1,8,0:0:0:0:
256,192,98181,1,8,0:0:0:0:
256,192,98261,1,8,0:0:0:0:
256,192,98342,1,0,0:0:0:0:
256,192,98503,1,8,0:0:0:0:
256,192,98584,1,8,0:0:0:0:
256,192,98665,1,0,0:0:0:0:
256,192,98745,1,8,0:0:0:0:
256,192,98826,1,0,0:0:0:0:
256,192,98907,1,0,0:0:0:0:
256,192,98988,1,8,0:0:0:0:
256,192,99068,1,0,0:0:0:0:
256,192,99149,1,8,0:0:0:0:
256,192,99310,1,8,0:0:0:0:
256,192,99390,1,0,0:0:0:0:
256,192,99472,1,0,0:0:0:0:
256,192,99552,1,8,0:0:0:0:
256,192,99632,1,0,0:0:0:0:
256,192,99713,1,8,0:0:0:0:
256,192,99794,1,0,0:0:0:0:
256,192,99875,1,0,0:0:0:0:
256,192,99955,1,8,0:0:0:0:
256,192,100036,1,8,0:0:0:0:
256,192,100116,1,0,0:0:0:0:
256,192,100439,1,8,0:0:0:0:
256,192,100600,1,0,0:0:0:0:
256,192,100681,1,0,0:0:0:0:
256,192,100761,1,0,0:0:0:0:
256,192,100923,1,8,0:0:0:0:
256,192,101084,1,8,0:0:0:0:
256,192,101245,1,0,0:0:0:0:
256,192,101326,1,8,0:0:0:0:
256,192,101407,1,8,0:0:0:0:
256,192,101568,1,0,0:0:0:0:
256,192,101649,1,0,0:0:0:0:
256,192,101729,1,8,0:0:0:0:
256,192,101810,1,0,0:0:0:0:
256,192,101890,1,0,0:0:0:0:
256,192,102052,1,8,0:0:0:0:
256,192,102132,1,8,0:0:0:0:
256,192,102213,1,0,0:0:0:0:
256,192,102294,1,0,0:0:0:0:
256,192,102374,1,8,0:0:0:0:
256,192,102455,1,0,0:0:0:0:
256,192,102536,1,0,0:0:0:0:
256,192,102697,1,8,0:0:0:0:
256,192,102778,1,8,0:0:0:0:
256,192,102858,1,0,0:0:0:0:
256,192,102939,1,0,0:0:0:0:
256,192,103019,1,8,0:0:0:0:
256,192,103101,1,0,0:0:0:0:
256,192,103181,1,8,0:0:0:0:
256,192,103261,1,0,0:0:0:0:
256,192,103342,1,8,0:0:0:0:
256,192,103423,1,8,0:0:0:0:
256,192,103503,1,0,0:0:0:0:
256,192,103665,1,8,0:0:0:0:
256,192,103745,1,8,0:0:0:0:
256,192,103826,1,0,0:0:0:0:
256,192,103907,1,8,0:0:0:0:
256,192,103987,1,0,0:0:0:0:
256,192,104068,1,8,0:0:0:0:
256,192,104149,1,0,0:0:0:0:
256,192,104229,1,0,0:0:0:0:
256,192,104310,1,8,0:0:0:0:
256,192,104390,1,0,0:0:0:0:
256,192,104471,1,8,0:0:0:0:
256,192,104552,1,8,0:0:0:0:
256,192,104632,1,0,0:0:0:0:
256,192,104713,1,8,0:0:0:0:
256,192,104794,1,0,0:0:0:0:
256,192,104875,1,0,0:0:0:0:
256,192,104955,1,8,0:0:0:0:
256,192,105036,1,0,0:0:0:0:
256,192,105117,1,8,0:0:0:0:
256,192,105197,1,8,0:0:0:0:
256,192,105278,1,0,0:0:0:0:
256,192,105601,1,8,0:0:0:0:
256,192,105762,1,0,0:0:0:0:
256,192,105842,1,0,0:0:0:0:
256,192,105923,1,0,0:0:0:0:
256,192,106084,1,8,0:0:0:0:
256,192,106246,1,8,0:0:0:0:
256,192,106407,1,0,0:0:0:0:
256,192,106488,1,8,0:0:0:0:
256,192,106568,1,0,0:0:0:0:
256,192,106810,1,0,0:0:0:0:
256,192,106891,1,8,0:0:0:0:
256,192,107052,1,0,0:0:0:0:
256,192,107375,1,0,0:0:0:0:
256,192,107455,1,0,0:0:0:0:
256,192,107536,1,8,0:0:0:0:
256,192,107617,1,8,0:0:0:0:
256,192,107697,1,0,0:0:0:0:
256,192,107778,1,0,0:0:0:0:
256,192,107859,1,8,0:0:0:0:
256,192,107939,1,8,0:0:0:0:
256,192,108020,1,8,0:0:0:0:
256,192,108101,1,8,0:0:0:0:
256,192,108181,1,0,0:0:0:0:
256,192,108342,1,0,0:0:0:0:
256,192,108423,1,8,0:0:0:0:
256,192,108504,1,8,0:0:0:0:
256,192,108584,1,8,0:0:0:0:
256,192,108665,1,0,0:0:0:0:
256,192,108826,1,8,0:0:0:0:
256,192,108907,1,8,0:0:0:0:
256,192,108988,1,0,0:0:0:0:
256,192,109068,1,8,0:0:0:0:
256,192,109149,1,0,0:0:0:0:
256,192,109230,1,8,0:0:0:0:
256,192,109310,1,0,0:0:0:0:
256,192,109391,1,0,0:0:0:0:
256,192,109472,1,8,0:0:0:0:
256,192,109633,1,0,0:0:0:0:
256,192,109713,1,0,0:0:0:0:
256,192,109794,1,0,0:0:0:0:
256,192,109875,1,8,0:0:0:0:
256,192,109955,1,0,0:0:0:0:
256,192,110117,1,8,0:0:0:0:
256,192,110278,1,0,0:0:0:0:
256,192,110359,1,0,0:0:0:0:
256,192,110439,1,0,0:0:0:0:
256,192,110762,1,8,0:0:0:0:
256,192,110923,1,0,0:0:0:0:
256,192,111004,1,0,0:0:0:0:
256,192,111084,1,0,0:0:0:0:
256,192,111246,1,8,0:0:0:0:
256,192,111407,1,8,0:0:0:0:
256,192,111568,1,0,0:0:0:0:
256,192,111649,1,8,0:0:0:0:
256,192,111730,1,8,0:0:0:0:
256,192,111891,1,0,0:0:0:0:
256,192,111972,1,0,0:0:0:0:
256,192,112052,1,8,0:0:0:0:
256,192,112133,1,0,0:0:0:0:
256,192,112213,1,0,0:0:0:0:
256,192,112375,1,8,0:0:0:0:
256,192,112455,1,8,0:0:0:0:
256,192,112536,1,0,0:0:0:0:
256,192,112617,1,0,0:0:0:0:
256,192,112697,1,8,0:0:0:0:
256,192,112778,1,0,0:0:0:0:
256,192,112859,1,0,0:0:0:0:
256,192,113020,1,8,0:0:0:0:
256,192,113101,1,8,0:0:0:0:
256,192,113181,1,0,0:0:0:0:
256,192,113262,1,0,0:0:0:0:
256,192,113342,1,8,0:0:0:0:
256,192,113423,1,0,0:0:0:0:
256,192,113504,1,8,0:0:0:0:
256,192,113584,1,8,0:0:0:0:
256,192,113665,1,0,0:0:0:0:
256,192,113746,1,8,0:0:0:0:
256,192,113826,1,8,0:0:0:0:
256,192,113907,1,0,0:0:0:0:
256,192,113988,1,8,0:0:0:0:
256,192,114068,1,8,0:0:0:0:
256,192,114149,1,0,0:0:0:0:
256,192,114230,1,8,0:0:0:0:
256,192,114310,1,0,0:0:0:0:
256,192,114391,1,0,0:0:0:0:
256,192,114472,1,8,0:0:0:0:
256,192,114552,1,0,0:0:0:0:
256,192,114633,1,8,0:0:0:0:
256,192,114713,1,0,0:0:0:0:
256,192,114794,1,8,0:0:0:0:
256,192,114875,1,8,0:0:0:0:
256,192,114955,1,0,0:0:0:0:
256,192,115036,1,8,0:0:0:0:
256,192,115116,1,8,0:0:0:0:
256,192,115197,1,0,0:0:0:0:
256,192,115278,1,8,0:0:0:0:
256,192,115601,1,4,0:0:0:0:
