osu file format v14

[General]
AudioFilename: 4.mp3
AudioLeadIn: 0
PreviewTime: 32345
Countdown: 0
SampleSet: Soft
StackLeniency: 0.7
Mode: 1
LetterboxInBreaks: 0
WidescreenStoryboard: 0

[Editor]
DistanceSpacing: 1
BeatDivisor: 6
GridSize: 32
TimelineZoom: 2.5

[Metadata]
Title:ZUNTATA Touhou Arrangement Pack
TitleUnicode:ZUNTATA東方アレンジパック
Artist:ZUNTATA
ArtistUnicode:ZUNTATA
Creator:Felt7z
Version:COSIO (ZUNTATA) - Touhou Chijinritsu
Source:
Tags:
BeatmapID:1290555
BeatmapSetID:611314

[Difficulty]
HPDrainRate:5
CircleSize:5
OverallDifficulty:6
ApproachRate:5
SliderMultiplier:1.4
SliderTickRate:1

[Events]
//Background and Video events
0,0,"Fujinroku.jpg",0,0
//Break Periods
//Storyboard Layer 0 (Background)
//Storyboard Layer 1 (Fail)
//Storyboard Layer 2 (Pass)
//Storyboard Layer 3 (Foreground)
//Storyboard Sound Samples

[TimingPoints]
259,454.545454545455,4,2,0,100,1,8
12077,352.941176470588,4,2,0,100,1,0
12782,352.941176470588,4,2,0,100,1,0
32546,-100,4,2,0,100,0,1
55134,-100,4,2,0,100,0,0
77723,352.941176470588,7,2,0,100,1,0
95017,530.973451327434,3,2,0,100,1,0
95017,-66.6666666666667,3,2,0,100,0,0
106698,352.941176470588,3,2,0,100,1,0
107757,352.941176470588,4,2,0,100,1,1
120462,-100,4,2,0,100,0,0

[HitObjects]
256,192,2077,5,8,0:0:0:0:
256,192,2986,1,0,0:0:0:0:
256,192,3895,1,8,0:0:0:0:
256,192,4804,1,0,0:0:0:0:
256,192,5486,1,0,0:0:0:0:
256,192,5713,1,8,0:0:0:0:
256,192,5940,1,0,0:0:0:0:
256,192,6168,1,0,0:0:0:0:
256,192,6395,1,8,0:0:0:0:
256,192,6622,1,8,0:0:0:0:
256,192,6849,1,0,0:0:0:0:
256,192,7077,1,0,0:0:0:0:
256,192,7304,1,8,0:0:0:0:
256,192,7531,1,8,0:0:0:0:
256,192,7759,1,0,0:0:0:0:
256,192,7986,1,0,0:0:0:0:
256,192,8213,1,8,0:0:0:0:
256,192,8440,1,0,0:0:0:0:
256,192,9349,12,0,11168,0:0:0:0:
256,192,12077,5,0,0:0:0:0:
256,192,12165,1,0,0:0:0:0:
256,192,12253,1,0,0:0:0:0:
256,192,12341,1,8,0:0:0:0:
256,192,12429,1,8,0:0:0:0:
256,192,12518,1,0,0:0:0:0:
256,192,12606,1,8,0:0:0:0:
256,192,12694,1,8,0:0:0:0:
256,192,12782,1,8,0:0:0:0:
256,192,12959,1,0,0:0:0:0:
256,192,13135,1,8,0:0:0:0:
256,192,13311,1,0,0:0:0:0:
256,192,13399,1,8,0:0:0:0:
256,192,13487,1,0,0:0:0:0:
256,192,13664,1,0,0:0:0:0:
256,192,13752,1,0,0:0:0:0:
256,192,13840,1,8,0:0:0:0:
256,192,14017,1,0,0:0:0:0:
256,192,14105,1,8,0:0:0:0:
256,192,14193,1,0,0:0:0:0:
256,192,14282,1,0,0:0:0:0:
256,192,14458,1,0,0:0:0:0:
256,192,14546,1,8,0:0:0:0:
256,192,14723,1,0,0:0:0:0:
256,192,14811,1,8,0:0:0:0:
256,192,14899,1,0,0:0:0:0:
256,192,15076,1,0,0:0:0:0:
256,192,15164,1,0,0:0:0:0:
256,192,15252,1,8,0:0:0:0:
256,192,15429,1,0,0:0:0:0:
256,192,15782,1,0,0:0:0:0:
256,192,15958,1,8,0:0:0:0:
256,192,16134,1,0,0:0:0:0:
256,192,16223,1,8,0:0:0:0:
256,192,16311,1,0,0:0:0:0:
256,192,16487,1,0,0:0:0:0:
256,192,16576,1,0,0:0:0:0:
256,192,16664,1,8,0:0:0:0:
256,192,16840,1,0,0:0:0:0:
256,192,16929,1,8,0:0:0:0:
256,192,17017,1,0,0:0:0:0:
256,192,17105,1,0,0:0:0:0:
256,192,17282,1,0,0:0:0:0:
256,192,17370,1,8,0:0:0:0:
256,192,17546,1,8,0:0:0:0:
256,192,17634,1,8,0:0:0:0:
256,192,17723,1,0,0:0:0:0:
256,192,17811,1,0,0:0:0:0:
256,192,17899,1,0,0:0:0:0:
256,192,17987,1,0,0:0:0:0:
256,192,18076,1,8,0:0:0:0:
256,192,18164,1,8,0:0:0:0:
256,192,18252,1,8,0:0:0:0:
256,192,18340,1,8,0:0:0:0:
256,192,18429,1,0,0:0:0:0:
256,192,18605,1,0,0:0:0:0:
256,192,18693,1,0,0:0:0:0:
256,192,18782,1,8,0:0:0:0:
256,192,18958,1,0,0:0:0:0:
256,192,19046,1,0,0:0:0:0:
256,192,19134,1,0,0:0:0:0:
256,192,19311,1,0,0:0:0:0:
256,192,19399,1,0,0:0:0:0:
256,192,19487,1,8,0:0:0:0:
256,192,19664,1,0,0:0:0:0:
256,192,19752,1,8,0:0:0:0:
256,192,19840,1,0,0:0:0:0:
256,192,20017,1,0,0:0:0:0:
256,192,20105,1,0,0:0:0:0:
256,192,20193,1,8,0:0:0:0:
256,192,20370,1,0,0:0:0:0:
256,192,20458,1,0,0:0:0:0:
256,192,20546,1,0,0:0:0:0:
256,192,20723,1,8,0:0:0:0:
256,192,20811,1,0,0:0:0:0:
256,192,20899,1,8,0:0:0:0:
256,192,20987,1,8,0:0:0:0:
256,192,21076,1,0,0:0:0:0:
256,192,21164,1,0,0:0:0:0:
256,192,21252,1,0,0:0:0:0:
256,192,21429,1,0,0:0:0:0:
256,192,21517,1,0,0:0:0:0:
256,192,21605,1,8,0:0:0:0:
256,192,21782,1,0,0:0:0:0:
256,192,21870,1,0,0:0:0:0:
256,192,21958,1,0,0:0:0:0:
256,192,22134,1,0,0:0:0:0:
256,192,22223,1,0,0:0:0:0:
256,192,22311,1,8,0:0:0:0:
256,192,22487,1,0,0:0:0:0:
256,192,22576,1,8,0:0:0:0:
256,192,22664,1,0,0:0:0:0:
256,192,22840,1,0,0:0:0:0:
256,192,22929,1,0,0:0:0:0:
256,192,23017,1,8,0:0:0:0:
256,192,23193,1,0,0:0:0:0:
256,192,23282,1,0,0:0:0:0:
256,192,23370,1,0,0:0:0:0:
256,192,23546,1,8,0:0:0:0:
256,192,23634,1,0,0:0:0:0:
256,192,23723,1,8,0:0:0:0:
256,192,23811,1,0,0:0:0:0:
256,192,23899,1,0,0:0:0:0:
256,192,23987,1,8,0:0:0:0:
256,192,24076,1,8,0:0:0:0:
256,192,24164,1,0,0:0:0:0:
256,192,24340,1,8,0:0:0:0:
256,192,24429,1,0,0:0:0:0:
256,192,24605,1,8,0:0:0:0:
256,192,24693,1,0,0:0:0:0:
256,192,24782,1,8,0:0:0:0:
256,192,24870,1,0,0:0:0:0:
256,192,25046,1,8,0:0:0:0:
256,192,25134,1,0,0:0:0:0:
256,192,25311,1,0,0:0:0:0:
256,192,25399,1,0,0:0:0:0:
256,192,25487,1,8,0:0:0:0:
256,192,25576,1,0,0:0:0:0:
256,192,25752,1,8,0:0:0:0:
256,192,25840,1,0,0:0:0:0:
256,192,26017,1,8,0:0:0:0:
256,192,26105,1,8,0:0:0:0:
256,192,26193,1,0,0:0:0:0:
256,192,26282,1,0,0:0:0:0:
256,192,26458,1,8,0:0:0:0:
256,192,26546,1,0,0:0:0:0:
256,192,26634,1,0,0:0:0:0:
256,192,26723,1,8,0:0:0:0:
256,192,26899,1,8,0:0:0:0:
256,192,26987,1,0,0:0:0:0:
256,192,27164,1,8,0:0:0:0:
256,192,27252,1,0,0:0:0:0:
256,192,27429,1,8,0:0:0:0:
256,192,27517,1,0,0:0:0:0:
256,192,27605,1,8,0:0:0:0:
256,192,27693,1,0,0:0:0:0:
256,192,27870,1,8,0:0:0:0:
256,192,27958,1,0,0:0:0:0:
256,192,28134,1,0,0:0:0:0:
256,192,28223,1,0,0:0:0:0:
256,192,28311,1,8,0:0:0:0:
256,192,28399,1,0,0:0:0:0:
256,192,28576,1,8,0:0:0:0:
256,192,28664,1,0,0:0:0:0:
256,192,28840,1,8,0:0:0:0:
256,192,28929,1,8,0:0:0:0:
256,192,29017,1,8,0:0:0:0:
256,192,29105,1,0,0:0:0:0:
256,192,29193,1,0,0:0:0:0:
256,192,29282,1,8,0:0:0:0:
256,192,29370,1,0,0:0:0:0:
256,192,29458,1,0,0:0:0:0:
256,192,29546,1,8,0:0:0:0:
256,192,29634,1,0,0:0:0:0:
256,192,30076,12,8,31664,0:0:0:0:
256,192,32017,5,0,0:0:0:0:
256,192,32105,1,0,0:0:0:0:
256,192,32193,1,0,0:0:0:0:
256,192,32546,1,0,0:0:0:0:
256,192,32811,1,0,0:0:0:0:
256,192,32899,1,8,0:0:0:0:
256,192,33076,1,0,0:0:0:0:
256,192,33164,1,0,0:0:0:0:
256,192,33252,1,0,0:0:0:0:
256,192,33340,1,0,0:0:0:0:
256,192,33517,1,0,0:0:0:0:
256,192,33605,1,8,0:0:0:0:
256,192,33781,1,0,0:0:0:0:
256,192,33958,1,8,0:0:0:0:
256,192,34134,1,0,0:0:0:0:
256,192,34223,1,8,0:0:0:0:
256,192,34399,1,0,0:0:0:0:
256,192,34487,1,8,0:0:0:0:
256,192,34664,1,0,0:0:0:0:
256,192,34752,1,0,0:0:0:0:
256,192,34840,1,8,0:0:0:0:
256,192,34929,1,0,0:0:0:0:
256,192,35017,1,8,0:0:0:0:
256,192,35193,1,8,0:0:0:0:
256,192,35281,1,8,0:0:0:0:
256,192,35370,1,0,0:0:0:0:
256,192,35634,1,8,0:0:0:0:
256,192,35723,1,0,0:0:0:0:
256,192,35899,1,8,0:0:0:0:
256,192,35987,1,8,0:0:0:0:
256,192,36076,1,8,0:0:0:0:
256,192,36252,1,8,0:0:0:0:
256,192,36340,1,0,0:0:0:0:
256,192,36517,1,8,0:0:0:0:
256,192,36605,1,0,0:0:0:0:
256,192,36781,1,0,0:0:0:0:
256,192,37046,1,8,0:0:0:0:
256,192,37134,1,0,0:0:0:0:
256,192,37223,1,0,0:0:0:0:
256,192,37311,1,0,0:0:0:0:
256,192,37399,1,8,0:0:0:0:
256,192,37487,1,8,0:0:0:0:
256,192,37576,1,8,0:0:0:0:
256,192,37664,1,0,0:0:0:0:
256,192,37752,1,0,0:0:0:0:
256,192,37840,1,8,0:0:0:0:
256,192,37929,1,0,0:0:0:0:
256,192,38017,1,0,0:0:0:0:
256,192,38105,1,8,0:0:0:0:
256,192,38193,1,0,0:0:0:0:
256,192,38458,1,0,0:0:0:0:
256,192,38546,1,8,0:0:0:0:
256,192,38723,1,0,0:0:0:0:
256,192,38811,1,0,0:0:0:0:
256,192,38899,1,8,0:0:0:0:
256,192,39076,1,0,0:0:0:0:
256,192,39164,1,8,0:0:0:0:
256,192,39340,1,8,0:0:0:0:
256,192,39429,1,0,0:0:0:0:
256,192,39517,1,0,0:0:0:0:
256,192,39605,1,8,0:0:0:0:
256,192,39781,1,8,0:0:0:0:
256,192,39870,1,0,0:0:0:0:
256,192,40046,1,8,0:0:0:0:
256,192,40134,1,0,0:0:0:0:
256,192,40223,1,8,0:0:0:0:
256,192,40311,1,8,0:0:0:0:
256,192,40399,1,8,0:0:0:0:
256,192,40487,1,0,0:0:0:0:
256,192,40576,1,0,0:0:0:0:
256,192,40664,1,8,0:0:0:0:
256,192,40752,1,0,0:0:0:0:
256,192,40840,1,0,0:0:0:0:
256,192,40929,1,8,0:0:0:0:
256,192,41017,1,0,0:0:0:0:
256,192,41193,1,0,0:0:0:0:
256,192,41281,1,0,0:0:0:0:
256,192,41370,1,8,0:0:0:0:
256,192,41546,1,0,0:0:0:0:
256,192,41634,1,8,0:0:0:0:
256,192,41723,1,0,0:0:0:0:
256,192,41898,1,0,0:0:0:0:
256,192,41987,1,8,0:0:0:0:
256,192,42164,1,0,0:0:0:0:
256,192,42252,1,8,0:0:0:0:
256,192,42429,1,8,0:0:0:0:
256,192,42605,1,0,0:0:0:0:
256,192,42693,1,0,0:0:0:0:
256,192,42781,1,8,0:0:0:0:
256,192,42870,1,8,0:0:0:0:
256,192,42958,1,0,0:0:0:0:
256,192,43046,1,0,0:0:0:0:
256,192,43134,1,8,0:0:0:0:
256,192,43311,1,0,0:0:0:0:
256,192,43399,1,8,0:0:0:0:
256,192,43487,1,0,0:0:0:0:
256,192,43576,1,0,0:0:0:0:
256,192,43664,1,0,0:0:0:0:
256,192,43840,1,0,0:0:0:0:
256,192,44105,1,0,0:0:0:0:
256,192,44193,1,8,0:0:0:0:
256,192,44370,1,0,0:0:0:0:
256,192,44458,1,0,0:0:0:0:
256,192,44546,1,8,0:0:0:0:
256,192,44634,1,0,0:0:0:0:
256,192,44723,1,8,0:0:0:0:
256,192,44811,1,8,0:0:0:0:
256,192,44987,1,0,0:0:0:0:
256,192,45076,1,8,0:0:0:0:
256,192,45252,1,8,0:0:0:0:
256,192,45429,1,8,0:0:0:0:
256,192,45517,1,0,0:0:0:0:
256,192,45693,1,8,0:0:0:0:
256,192,45781,1,0,0:0:0:0:
256,192,45870,1,0,0:0:0:0:
256,192,45958,1,0,0:0:0:0:
256,192,46223,1,0,0:0:0:0:
256,192,46311,1,8,0:0:0:0:
256,192,46399,1,8,0:0:0:0:
256,192,46487,1,0,0:0:0:0:
256,192,46576,1,0,0:0:0:0:
256,192,46664,1,8,0:0:0:0:
256,192,46752,1,0,0:0:0:0:
256,192,46840,1,8,0:0:0:0:
256,192,46929,1,8,0:0:0:0:
256,192,47105,1,0,0:0:0:0:
256,192,47193,1,8,0:0:0:0:
256,192,47370,1,0,0:0:0:0:
256,192,47546,1,8,0:0:0:0:
256,192,47634,1,0,0:0:0:0:
256,192,47723,1,8,0:0:0:0:
256,192,47811,1,0,0:0:0:0:
256,192,47899,1,0,0:0:0:0:
256,192,47987,1,8,0:0:0:0:
256,192,48076,1,0,0:0:0:0:
256,192,48340,1,8,0:0:0:0:
256,192,48429,1,0,0:0:0:0:
256,192,48517,1,0,0:0:0:0:
256,192,48605,1,0,0:0:0:0:
256,192,48693,1,8,0:0:0:0:
256,192,48781,1,8,0:0:0:0:
256,192,48870,1,8,0:0:0:0:
256,192,48958,1,0,0:0:0:0:
256,192,49046,1,0,0:0:0:0:
256,192,49134,1,8,0:0:0:0:
256,192,49223,1,0,0:0:0:0:
256,192,49311,1,0,0:0:0:0:
256,192,49399,1,8,0:0:0:0:
256,192,49487,1,0,0:0:0:0:
256,192,49752,1,0,0:0:0:0:
256,192,49840,1,8,0:0:0:0:
256,192,50017,1,0,0:0:0:0:
256,192,50105,1,0,0:0:0:0:
256,192,50193,1,0,0:0:0:0:
256,192,50281,1,8,0:0:0:0:
256,192,50458,1,8,0:0:0:0:
256,192,50634,1,8,0:0:0:0:
256,192,50723,1,0,0:0:0:0:
256,192,50899,1,0,0:0:0:0:
256,192,50987,1,8,0:0:0:0:
256,192,51076,1,0,0:0:0:0:
256,192,51164,1,0,0:0:0:0:
256,192,51252,1,8,0:0:0:0:
256,192,51340,1,0,0:0:0:0:
256,192,51429,1,0,0:0:0:0:
256,192,51517,1,8,0:0:0:0:
256,192,51605,1,8,0:0:0:0:
256,192,51693,1,8,0:0:0:0:
256,192,51781,1,0,0:0:0:0:
256,192,51870,1,0,0:0:0:0:
256,192,51958,1,8,0:0:0:0:
256,192,52046,1,0,0:0:0:0:
256,192,52134,1,0,0:0:0:0:
256,192,52223,1,8,0:0:0:0:
256,192,52311,1,0,0:0:0:0:
256,192,52487,1,0,0:0:0:0:
256,192,52576,1,0,0:0:0:0:
256,192,52664,1,8,0:0:0:0:
256,192,52752,1,8,0:0:0:0:
256,192,52840,1,0,0:0:0:0:
256,192,52929,1,0,0:0:0:0:
256,192,53017,1,0,0:0:0:0:
256,192,53105,1,8,0:0:0:0:
256,192,53193,1,0,0:0:0:0:
256,192,53281,1,8,0:0:0:0:
256,192,53370,1,8,0:0:0:0:
256,192,53458,1,0,0:0:0:0:
256,192,53546,1,8,0:0:0:0:
256,192,53723,1,8,0:0:0:0:
256,192,53811,1,0,0:0:0:0:
256,192,53899,1,0,0:0:0:0:
256,192,53987,1,8,0:0:0:0:
256,192,54076,1,0,0:0:0:0:
256,192,54164,1,0,0:0:0:0:
256,192,54252,1,8,0:0:0:0:
256,192,54340,1,0,0:0:0:0:
256,192,54429,1,8,0:0:0:0:
256,192,54517,1,0,0:0:0:0:
256,192,54605,1,8,0:0:0:0:
256,192,54693,1,8,0:0:0:0:
256,192,54781,1,0,0:0:0:0:
256,192,54870,1,8,0:0:0:0:
256,192,54958,1,0,0:0:0:0:
256,192,55046,1,0,0:0:0:0:
256,192,55134,1,0,0:0:0:0:
256,192,55840,1,0,0:0:0:0:
256,192,56546,1,0,0:0:0:0:
256,192,57252,1,0,0:0:0:0:
256,192,57605,1,0,0:0:0:0:
256,192,57958,1,0,0:0:0:0:
256,192,58664,1,0,0:0:0:0:
256,192,58929,1,0,0:0:0:0:
256,192,59193,1,0,0:0:0:0:
256,192,59370,1,0,0:0:0:0:
256,192,59899,1,0,0:0:0:0:
256,192,60076,1,0,0:0:0:0:
256,192,60252,1,0,0:0:0:0:
256,192,60429,1,0,0:0:0:0:
256,192,60517,1,0,0:0:0:0:
256,192,60605,1,0,0:0:0:0:
256,192,60693,1,0,0:0:0:0:
256,192,60781,1,0,0:0:0:0:
256,192,61134,1,8,0:0:0:0:
256,192,61487,1,0,0:0:0:0:
256,192,61664,1,0,0:0:0:0:
256,192,61840,1,8,0:0:0:0:
256,192,62017,1,0,0:0:0:0:
256,192,62105,1,0,0:0:0:0:
256,192,62193,1,0,0:0:0:0:
256,192,62546,1,8,0:0:0:0:
256,192,62899,1,0,0:0:0:0:
256,192,63252,1,0,0:0:0:0:
256,192,63605,1,0,0:0:0:0:
256,192,63870,1,0,0:0:0:0:
256,192,63958,1,8,0:0:0:0:
256,192,64134,1,0,0:0:0:0:
256,192,64223,1,8,0:0:0:0:
256,192,64311,1,0,0:0:0:0:
256,192,64576,1,0,0:0:0:0:
256,192,64664,1,8,0:0:0:0:
256,192,64840,1,0,0:0:0:0:
256,192,64929,1,8,0:0:0:0:
256,192,65017,1,0,0:0:0:0:
256,192,65193,1,0,0:0:0:0:
256,192,65370,1,0,0:0:0:0:
256,192,65546,1,0,0:0:0:0:
256,192,65634,1,0,0:0:0:0:
256,192,65723,1,0,0:0:0:0:
256,192,65899,1,0,0:0:0:0:
256,192,66076,1,0,0:0:0:0:
256,192,66164,1,0,0:0:0:0:
256,192,66252,1,0,0:0:0:0:
256,192,66340,1,0,0:0:0:0:
256,192,66429,1,8,0:0:0:0:
256,192,66605,1,0,0:0:0:0:
256,192,66693,1,8,0:0:0:0:
256,192,66870,1,0,0:0:0:0:
256,192,66958,1,8,0:0:0:0:
256,192,67046,1,8,0:0:0:0:
256,192,67134,1,0,0:0:0:0:
256,192,67311,1,8,0:0:0:0:
256,192,67399,1,0,0:0:0:0:
256,192,67487,1,8,0:0:0:0:
256,192,67664,1,8,0:0:0:0:
256,192,67752,1,8,0:0:0:0:
256,192,67840,1,0,0:0:0:0:
256,192,68017,1,0,0:0:0:0:
256,192,68105,1,8,0:0:0:0:
256,192,68281,1,0,0:0:0:0:
256,192,68370,1,8,0:0:0:0:
256,192,68458,1,0,0:0:0:0:
256,192,68546,1,8,0:0:0:0:
256,192,68723,1,8,0:0:0:0:
256,192,68811,1,0,0:0:0:0:
256,192,68899,1,0,0:0:0:0:
256,192,68987,1,8,0:0:0:0:
256,192,69076,1,0,0:0:0:0:
256,192,69252,1,0,0:0:0:0:
256,192,69429,1,0,0:0:0:0:
256,192,69517,1,0,0:0:0:0:
256,192,69693,1,0,0:0:0:0:
256,192,69781,1,8,0:0:0:0:
256,192,69958,1,8,0:0:0:0:
256,192,70134,1,0,0:0:0:0:
256,192,70223,1,0,0:0:0:0:
256,192,70399,1,0,0:0:0:0:
256,192,70487,1,8,0:0:0:0:
256,192,70664,1,8,0:0:0:0:
256,192,70929,1,0,0:0:0:0:
256,192,71017,1,0,0:0:0:0:
256,192,71193,1,12,0:0:0:0:
256,192,71546,1,8,0:0:0:0:
256,192,71634,1,0,0:0:0:0:
256,192,71723,1,8,0:0:0:0:
256,192,71899,1,0,0:0:0:0:
256,192,71987,1,0,0:0:0:0:
256,192,72076,1,8,0:0:0:0:
256,192,72164,1,0,0:0:0:0:
256,192,72252,1,0,0:0:0:0:
256,192,72340,1,8,0:0:0:0:
256,192,72429,1,8,0:0:0:0:
256,192,72517,1,8,0:0:0:0:
256,192,72605,1,0,0:0:0:0:
256,192,72693,1,8,0:0:0:0:
256,192,72781,1,0,0:0:0:0:
256,192,72958,1,8,0:0:0:0:
256,192,73046,1,8,0:0:0:0:
256,192,73134,1,0,0:0:0:0:
256,192,73223,1,0,0:0:0:0:
256,192,73311,1,0,0:0:0:0:
256,192,73399,1,8,0:0:0:0:
256,192,73487,1,0,0:0:0:0:
256,192,73664,1,0,0:0:0:0:
256,192,73752,1,8,0:0:0:0:
256,192,73928,1,0,0:0:0:0:
256,192,74017,1,8,0:0:0:0:
256,192,74105,1,0,0:0:0:0:
256,192,74193,1,8,0:0:0:0:
256,192,74370,1,8,0:0:0:0:
256,192,74458,1,0,0:0:0:0:
256,192,74546,1,0,0:0:0:0:
256,192,74634,1,8,0:0:0:0:
256,192,74723,1,0,0:0:0:0:
256,192,74899,1,8,0:0:0:0:
256,192,74987,1,0,0:0:0:0:
256,192,75164,1,8,0:0:0:0:
256,192,75252,1,0,0:0:0:0:
256,192,75429,1,8,0:0:0:0:
256,192,75517,1,0,0:0:0:0:
256,192,75605,1,8,0:0:0:0:
256,192,75693,1,0,0:0:0:0:
256,192,75870,1,8,0:0:0:0:
256,192,75958,1,0,0:0:0:0:
256,192,76134,1,0,0:0:0:0:
256,192,76223,1,0,0:0:0:0:
256,192,76311,1,8,0:0:0:0:
256,192,76399,1,0,0:0:0:0:
256,192,76487,1,0,0:0:0:0:
256,192,76576,1,8,0:0:0:0:
256,192,76664,1,0,0:0:0:0:
256,192,76752,1,0,0:0:0:0:
256,192,76840,1,8,0:0:0:0:
256,192,76929,1,0,0:0:0:0:
256,192,77017,1,8,0:0:0:0:
256,192,77105,1,0,0:0:0:0:
256,192,77193,1,0,0:0:0:0:
256,192,77281,1,8,0:0:0:0:
256,192,77370,1,0,0:0:0:0:
256,192,77458,1,0,0:0:0:0:
256,192,77546,1,8,0:0:0:0:
256,192,77634,1,0,0:0:0:0:
256,192,77723,1,0,0:0:0:0:
256,192,77811,1,8,0:0:0:0:
256,192,77899,1,0,0:0:0:0:
256,192,78075,1,8,0:0:0:0:
256,192,78164,1,0,0:0:0:0:
256,192,78340,1,8,0:0:0:0:
256,192,78428,1,0,0:0:0:0:
256,192,78605,1,0,0:0:0:0:
256,192,78693,1,8,0:0:0:0:
256,192,78781,1,0,0:0:0:0:
256,192,78958,1,0,0:0:0:0:
256,192,79134,1,0,0:0:0:0:
256,192,79223,1,8,0:0:0:0:
256,192,79399,1,0,0:0:0:0:
256,192,79487,1,8,0:0:0:0:
256,192,79664,1,0,0:0:0:0:
256,192,79752,1,0,0:0:0:0:
256,192,79840,1,8,0:0:0:0:
256,192,79928,1,8,0:0:0:0:
256,192,80017,1,0,0:0:0:0:
256,192,80193,1,8,0:0:0:0:
256,192,80281,1,0,0:0:0:0:
256,192,80458,1,8,0:0:0:0:
256,192,80546,1,0,0:0:0:0:
256,192,80723,1,8,0:0:0:0:
256,192,80811,1,0,0:0:0:0:
256,192,80899,1,0,0:0:0:0:
256,192,80987,1,8,0:0:0:0:
256,192,81075,1,8,0:0:0:0:
256,192,81164,1,8,0:0:0:0:
256,192,81252,1,0,0:0:0:0:
256,192,81428,1,0,0:0:0:0:
256,192,81605,1,0,0:0:0:0:
256,192,81693,1,8,0:0:0:0:
256,192,81870,1,0,0:0:0:0:
256,192,81958,1,8,0:0:0:0:
256,192,82134,1,0,0:0:0:0:
256,192,82223,1,8,0:0:0:0:
256,192,82311,1,0,0:0:0:0:
256,192,82399,1,0,0:0:0:0:
256,192,82487,1,8,0:0:0:0:
256,192,82575,1,8,0:0:0:0:
256,192,82664,1,0,0:0:0:0:
256,192,82840,1,8,0:0:0:0:
256,192,82928,1,8,0:0:0:0:
256,192,83017,1,0,0:0:0:0:
256,192,83193,1,8,0:0:0:0:
256,192,83281,1,8,0:0:0:0:
256,192,83370,1,0,0:0:0:0:
256,192,83546,1,8,0:0:0:0:
256,192,83634,1,8,0:0:0:0:
256,192,83723,1,0,0:0:0:0:
256,192,83811,1,8,0:0:0:0:
256,192,83899,1,0,0:0:0:0:
256,192,84075,1,8,0:0:0:0:
256,192,84164,1,8,0:0:0:0:
256,192,84252,1,0,0:0:0:0:
256,192,84428,1,8,0:0:0:0:
256,192,84517,1,0,0:0:0:0:
256,192,84693,1,8,0:0:0:0:
256,192,84781,1,0,0:0:0:0:
256,192,84870,1,8,0:0:0:0:
256,192,84958,1,8,0:0:0:0:
256,192,85046,1,0,0:0:0:0:
256,192,85134,1,0,0:0:0:0:
256,192,85311,1,8,0:0:0:0:
256,192,85399,1,8,0:0:0:0:
256,192,85487,1,0,0:0:0:0:
256,192,85664,1,8,0:0:0:0:
256,192,85752,1,8,0:0:0:0:
256,192,85840,1,0,0:0:0:0:
256,192,86017,1,8,0:0:0:0:
256,192,86105,1,8,0:0:0:0:
256,192,86193,1,0,0:0:0:0:
256,192,86281,1,8,0:0:0:0:
256,192,86370,1,0,0:0:0:0:
256,192,86546,1,8,0:0:0:0:
256,192,86634,1,8,0:0:0:0:
256,192,86723,1,0,0:0:0:0:
256,192,86811,1,8,0:0:0:0:
256,192,86899,1,0,0:0:0:0:
256,192,87075,1,0,0:0:0:0:
256,192,87164,1,8,0:0:0:0:
256,192,87252,1,0,0:0:0:0:
256,192,87340,1,0,0:0:0:0:
256,192,87428,1,0,0:0:0:0:
256,192,87517,1,0,0:0:0:0:
256,192,87605,1,8,0:0:0:0:
256,192,87781,1,0,0:0:0:0:
256,192,87870,1,0,0:0:0:0:
256,192,87958,1,0,0:0:0:0:
256,192,88134,1,8,0:0:0:0:
256,192,88311,1,0,0:0:0:0:
256,192,88399,1,0,0:0:0:0:
256,192,88487,1,0,0:0:0:0:
256,192,88575,1,0,0:0:0:0:
256,192,88664,1,8,0:0:0:0:
256,192,88840,1,8,0:0:0:0:
256,192,88928,1,0,0:0:0:0:
256,192,89017,1,8,0:0:0:0:
256,192,89193,1,0,0:0:0:0:
256,192,89281,1,0,0:0:0:0:
256,192,89370,1,8,0:0:0:0:
256,192,89546,1,8,0:0:0:0:
256,192,89634,1,8,0:0:0:0:
256,192,89723,1,0,0:0:0:0:
256,192,89811,1,0,0:0:0:0:
256,192,89899,1,0,0:0:0:0:
256,192,89987,1,0,0:0:0:0:
256,192,90075,1,8,0:0:0:0:
256,192,90252,1,0,0:0:0:0:
256,192,90340,1,0,0:0:0:0:
256,192,90428,1,0,0:0:0:0:
256,192,90605,1,8,0:0:0:0:
256,192,90781,1,0,0:0:0:0:
256,192,90870,1,0,0:0:0:0:
256,192,90958,1,0,0:0:0:0:
256,192,91046,1,0,0:0:0:0:
256,192,91134,1,8,0:0:0:0:
256,192,91311,1,8,0:0:0:0:
256,192,91399,1,0,0:0:0:0:
256,192,91487,1,8,0:0:0:0:
256,192,91664,1,0,0:0:0:0:
256,192,91752,1,0,0:0:0:0:
256,192,91840,1,8,0:0:0:0:
256,192,92017,1,8,0:0:0:0:
256,192,92105,1,8,0:0:0:0:
256,192,92193,1,0,0:0:0:0:
256,192,92281,1,0,0:0:0:0:
256,192,92370,1,8,0:0:0:0:
256,192,92458,1,8,0:0:0:0:
256,192,92899,12,0,94134,0:0:0:0:
256,192,94487,5,0,0:0:0:0:
256,192,94575,1,0,0:0:0:0:
256,192,94664,1,0,0:0:0:0:
256,192,95017,1,0,0:0:0:0:
256,192,95415,1,0,0:0:0:0:
256,192,95547,1,8,0:0:0:0:
256,192,95813,1,0,0:0:0:0:
256,192,96078,1,0,0:0:0:0:
256,192,96211,1,8,0:0:0:0:
256,192,96344,1,8,0:0:0:0:
256,192,96609,1,0,0:0:0:0:
256,192,96875,1,8,0:0:0:0:
256,192,97008,1,0,0:0:0:0:
256,192,97140,1,8,0:0:0:0:
256,192,97406,1,0,0:0:0:0:
256,192,97671,1,0,0:0:0:0:
256,192,97804,1,8,0:0:0:0:
256,192,97937,1,8,0:0:0:0:
256,192,98070,1,0,0:0:0:0:
256,192,98202,1,0,0:0:0:0:
256,192,98468,1,8,0:0:0:0:
256,192,98601,1,0,0:0:0:0:
256,192,98733,1,8,0:0:0:0:
256,192,98866,1,8,0:0:0:0:
256,192,98999,1,0,0:0:0:0:
256,192,99087,1,8,0:0:0:0:
256,192,99176,1,0,0:0:0:0:
256,192,99264,1,0,0:0:0:0:
256,192,99530,1,0,0:0:0:0:
256,192,99795,1,0,0:0:0:0:
256,192,100061,1,8,0:0:0:0:
256,192,100193,1,0,0:0:0:0:
256,192,100326,1,8,0:0:0:0:
256,192,100592,1,0,0:0:0:0:
256,192,100857,1,0,0:0:0:0:
256,192,100990,1,8,0:0:0:0:
256,192,101123,1,0,0:0:0:0:
256,192,101255,1,8,0:0:0:0:
256,192,101388,1,0,0:0:0:0:
256,192,101521,1,0,0:0:0:0:
256,192,101786,1,0,0:0:0:0:
256,192,101919,1,0,0:0:0:0:
256,192,102052,1,8,0:0:0:0:
256,192,102185,1,8,0:0:0:0:
256,192,102273,1,0,0:0:0:0:
256,192,102362,1,0,0:0:0:0:
256,192,102450,1,8,0:0:0:0:
256,192,102583,1,8,0:0:0:0:
256,192,102716,1,8,0:0:0:0:
256,192,102848,1,0,0:0:0:0:
256,192,102981,1,8,0:0:0:0:
256,192,103070,1,8,0:0:0:0:
256,192,103158,1,0,0:0:0:0:
256,192,103247,1,8,0:0:0:0:
256,192,103335,1,8,0:0:0:0:
256,192,103424,1,0,0:0:0:0:
256,192,103512,1,8,0:0:0:0:
256,192,103601,1,8,0:0:0:0:
256,192,103689,1,0,0:0:0:0:
256,192,103778,1,8,0:0:0:0:
256,192,103866,1,8,0:0:0:0:
256,192,103955,1,0,0:0:0:0:
256,192,104043,1,8,0:0:0:0:
256,192,104132,1,8,0:0:0:0:
256,192,104220,1,0,0:0:0:0:
256,192,104309,1,8,0:0:0:0:
256,192,104397,1,8,0:0:0:0:
256,192,104486,1,0,0:0:0:0:
256,192,104574,1,8,0:0:0:0:
256,192,104663,1,0,0:0:0:0:
256,192,104751,1,0,0:0:0:0:
256,192,104840,1,8,0:0:0:0:
256,192,104928,1,0,0:0:0:0:
256,192,105017,1,8,0:0:0:0:
256,192,105105,1,0,0:0:0:0:
256,192,105370,1,0,0:0:0:0:
256,192,105636,1,0,0:0:0:0:
256,192,105901,1,8,0:0:0:0:
256,192,105990,1,0,0:0:0:0:
256,192,106078,1,0,0:0:0:0:
256,192,106167,1,8,0:0:0:0:
256,192,106432,1,8,0:0:0:0:
256,192,106565,1,8,0:0:0:0:
256,192,106698,1,0,0:0:0:0:
256,192,106962,1,12,0:0:0:0:
256,192,107139,1,12,0:0:0:0:
256,192,107315,1,12,0:0:0:0:
256,192,107492,1,12,0:0:0:0:
256,192,107668,1,8,0:0:0:0:
256,192,107757,1,0,0:0:0:0:
256,192,108022,1,0,0:0:0:0:
256,192,108110,1,8,0:0:0:0:
256,192,108287,1,0,0:0:0:0:
256,192,108375,1,0,0:0:0:0:
256,192,108463,1,8,0:0:0:0:
256,192,108551,1,0,0:0:0:0:
256,192,108640,1,8,0:0:0:0:
256,192,108728,1,8,0:0:0:0:
256,192,108904,1,0,0:0:0:0:
256,192,108993,1,8,0:0:0:0:
256,192,109169,1,8,0:0:0:0:
256,192,109346,1,8,0:0:0:0:
256,192,109434,1,0,0:0:0:0:
256,192,109610,1,8,0:0:0:0:
256,192,109698,1,0,0:0:0:0:
256,192,109787,1,0,0:0:0:0:
256,192,109875,1,0,0:0:0:0:
256,192,110140,1,0,0:0:0:0:
256,192,110228,1,8,0:0:0:0:
256,192,110316,1,8,0:0:0:0:
256,192,110404,1,0,0:0:0:0:
256,192,110493,1,0,0:0:0:0:
256,192,110581,1,8,0:0:0:0:
256,192,110669,1,0,0:0:0:0:
256,192,110757,1,8,0:0:0:0:
256,192,110846,1,8,0:0:0:0:
256,192,111022,1,0,0:0:0:0:
256,192,111110,1,8,0:0:0:0:
256,192,111287,1,0,0:0:0:0:
256,192,111463,1,8,0:0:0:0:
256,192,111551,1,0,0:0:0:0:
256,192,111640,1,8,0:0:0:0:
256,192,111728,1,0,0:0:0:0:
256,192,111816,1,0,0:0:0:0:
256,192,111904,1,8,0:0:0:0:
256,192,111993,1,0,0:0:0:0:
256,192,112257,1,8,0:0:0:0:
256,192,112346,1,0,0:0:0:0:
256,192,112434,1,0,0:0:0:0:
256,192,112522,1,0,0:0:0:0:
256,192,112610,1,8,0:0:0:0:
256,192,112698,1,8,0:0:0:0:
256,192,112787,1,8,0:0:0:0:
256,192,112875,1,0,0:0:0:0:
256,192,112963,1,0,0:0:0:0:
256,192,113051,1,8,0:0:0:0:
256,192,113140,1,0,0:0:0:0:
256,192,113228,1,0,0:0:0:0:
256,192,113316,1,8,0:0:0:0:
256,192,113404,1,0,0:0:0:0:
256,192,113669,1,0,0:0:0:0:
256,192,113757,1,8,0:0:0:0:
256,192,113934,1,0,0:0:0:0:
256,192,114022,1,0,0:0:0:0:
256,192,114110,1,0,0:0:0:0:
256,192,114198,1,8,0:0:0:0:
256,192,114375,1,8,0:0:0:0:
256,192,114551,1,8,0:0:0:0:
256,192,114640,1,0,0:0:0:0:
256,192,114816,1,0,0:0:0:0:
256,192,114904,1,8,0:0:0:0:
256,192,114993,1,0,0:0:0:0:
256,192,115081,1,0,0:0:0:0:
256,192,115169,1,8,0:0:0:0:
256,192,115257,1,0,0:0:0:0:
256,192,115346,1,0,0:0:0:0:
256,192,115434,1,8,0:0:0:0:
256,192,115522,1,8,0:0:0:0:
256,192,115610,1,8,0:0:0:0:
256,192,115698,1,0,0:0:0:0:
256,192,115787,1,0,0:0:0:0:
256,192,115875,1,8,0:0:0:0:
256,192,115963,1,0,0:0:0:0:
256,192,116051,1,0,0:0:0:0:
256,192,116140,1,8,0:0:0:0:
256,192,116228,1,0,0:0:0:0:
256,192,116404,1,0,0:0:0:0:
256,192,116493,1,0,0:0:0:0:
256,192,116581,1,8,0:0:0:0:
256,192,116669,1,8,0:0:0:0:
256,192,116757,1,0,0:0:0:0:
256,192,116846,1,0,0:0:0:0:
256,192,116934,1,0,0:0:0:0:
256,192,117022,1,8,0:0:0:0:
256,192,117110,1,0,0:0:0:0:
256,192,117198,1,8,0:0:0:0:
256,192,117287,1,8,0:0:0:0:
256,192,117375,1,0,0:0:0:0:
256,192,117463,1,8,0:0:0:0:
256,192,117640,1,8,0:0:0:0:
256,192,117728,1,0,0:0:0:0:
256,192,117816,1,0,0:0:0:0:
256,192,117904,1,8,0:0:0:0:
256,192,117993,1,0,0:0:0:0:
256,192,118081,1,0,0:0:0:0:
256,192,118169,1,8,0:0:0:0:
256,192,118257,1,0,0:0:0:0:
256,192,118346,1,8,0:0:0:0:
256,192,118433,1,0,0:0:0:0:
256,192,118522,1,8,0:0:0:0:
256,192,118610,1,8,0:0:0:0:
256,192,118698,1,0,0:0:0:0:
256,192,118787,1,8,0:0:0:0:
256,192,118875,1,0,0:0:0:0:
256,192,118963,1,0,0:0:0:0:
256,192,119051,1,8,0:0:0:0:
256,192,119139,1,0,0:0:0:0:
256,192,119227,1,0,0:0:0:0:
256,192,119315,1,8,0:0:0:0:
256,192,119404,1,0,0:0:0:0:
256,192,119492,1,0,0:0:0:0:
256,192,119580,1,8,0:0:0:0:
256,192,119668,1,0,0:0:0:0:
256,192,119757,1,8,0:0:0:0:
256,192,119933,1,0,0:0:0:0:
256,192,120109,1,0,0:0:0:0:
256,192,120198,1,0,0:0:0:0:
256,192,120286,1,0,0:0:0:0:
256,192,120374,1,0,0:0:0:0:
256,192,120462,1,8,0:0:0:0:
256,192,120550,1,0,0:0:0:0:
256,192,120726,1,8,0:0:0:0:
256,192,120815,1,0,0:0:0:0:
256,192,120991,1,8,0:0:0:0:
256,192,121079,1,0,0:0:0:0:
256,192,121168,1,8,0:0:0:0:
256,192,121256,1,0,0:0:0:0:
256,192,121432,1,8,0:0:0:0:
256,192,121520,1,0,0:0:0:0:
256,192,121697,1,0,0:0:0:0:
256,192,121785,1,0,0:0:0:0:
256,192,121873,1,8,0:0:0:0:
256,192,121962,1,0,0:0:0:0:
256,192,122138,1,8,0:0:0:0:
256,192,122226,1,0,0:0:0:0:
256,192,122403,1,8,0:0:0:0:
256,192,122491,1,8,0:0:0:0:
256,192,122579,1,0,0:0:0:0:
256,192,122668,1,0,0:0:0:0:
256,192,122844,1,8,0:0:0:0:
256,192,122932,1,0,0:0:0:0:
256,192,123020,1,0,0:0:0:0:
256,192,123109,1,8,0:0:0:0:
256,192,123285,1,8,0:0:0:0:
256,192,123373,1,0,0:0:0:0:
256,192,123550,1,8,0:0:0:0:
256,192,123638,1,0,0:0:0:0:
256,192,123815,1,8,0:0:0:0:
256,192,123903,1,0,0:0:0:0:
256,192,123991,1,8,0:0:0:0:
256,192,124079,1,0,0:0:0:0:
256,192,124256,1,8,0:0:0:0:
256,192,124344,1,0,0:0:0:0:
256,192,124520,1,0,0:0:0:0:
256,192,124609,1,0,0:0:0:0:
256,192,124697,1,8,0:0:0:0:
256,192,124785,1,0,0:0:0:0:
256,192,124962,1,8,0:0:0:0:
256,192,125050,1,0,0:0:0:0:
256,192,125226,1,8,0:0:0:0:
256,192,125315,1,8,0:0:0:0:
256,192,125403,1,0,0:0:0:0:
256,192,125491,1,8,0:0:0:0:
256,192,125579,1,0,0:0:0:0:
256,192,125668,1,8,0:0:0:0:
256,192,125756,1,0,0:0:0:0:
256,192,125844,1,0,0:0:0:0:
256,192,125933,1,0,0:0:0:0:
256,192,126020,1,0,0:0:0:0:
256,192,126109,1,8,0:0:0:0:
256,192,126198,1,0,0:0:0:0:
256,192,126286,1,0,0:0:0:0:
256,192,126374,1,8,0:0:0:0:
256,192,126462,1,0,0:0:0:0:
256,192,126551,1,0,0:0:0:0:
256,192,126639,1,8,0:0:0:0:
256,192,126727,1,0,0:0:0:0:
256,192,126815,1,8,0:0:0:0:
256,192,126904,1,0,0:0:0:0:
256,192,126992,1,0,0:0:0:0:
256,192,127080,1,8,0:0:0:0:
256,192,127168,1,0,0:0:0:0:
256,192,127256,1,0,0:0:0:0:
256,192,127345,1,8,0:0:0:0:
256,192,127433,1,0,0:0:0:0:
256,192,127521,1,8,0:0:0:0:
256,192,127609,1,0,0:0:0:0:
256,192,127698,1,0,0:0:0:0:
256,192,127786,1,8,0:0:0:0:
256,192,127874,1,0,0:0:0:0:
256,192,127962,1,0,0:0:0:0:
256,192,128051,1,8,0:0:0:0:
256,192,128139,1,0,0:0:0:0:
256,192,128227,1,8,0:0:0:0:
256,192,128315,1,0,0:0:0:0:
256,192,128404,1,0,0:0:0:0:
256,192,128492,1,8,0:0:0:0:
256,192,128580,1,0,0:0:0:0:
256,192,128668,1,0,0:0:0:0:
256,192,128756,1,8,0:0:0:0:
256,192,128845,1,8,0:0:0:0:
256,192,128933,1,8,0:0:0:0:
256,192,129021,1,0,0:0:0:0:
256,192,129109,1,0,0:0:0:0:
256,192,129198,1,8,0:0:0:0:
256,192,129286,1,0,0:0:0:0:
256,192,129374,1,0,0:0:0:0:
256,192,129462,1,8,0:0:0:0:
256,192,129551,1,0,0:0:0:0:
256,192,129639,1,8,0:0:0:0:
256,192,129727,1,0,0:0:0:0:
256,192,129815,1,0,0:0:0:0:
256,192,129904,1,8,0:0:0:0:
256,192,129992,1,0,0:0:0:0:
256,192,130080,1,0,0:0:0:0:
256,192,130168,1,8,0:0:0:0:
256,192,130256,1,0,0:0:0:0:
256,192,130345,1,8,0:0:0:0:
256,192,130433,1,0,0:0:0:0:
256,192,130521,1,0,0:0:0:0:
256,192,130609,1,8,0:0:0:0:
256,192,130698,1,0,0:0:0:0:
256,192,130786,1,0,0:0:0:0:
256,192,130874,1,8,0:0:0:0:
256,192,130962,1,0,0:0:0:0:
256,192,131051,1,8,0:0:0:0:
256,192,131139,1,0,0:0:0:0:
256,192,131227,1,8,0:0:0:0:
256,192,131315,1,8,0:0:0:0:
256,192,131404,1,0,0:0:0:0:
256,192,131492,1,0,0:0:0:0:
256,192,131580,1,0,0:0:0:0:
256,192,131668,1,0,0:0:0:0:
256,192,132109,12,0,134227,0:0:0:0:
