osu file format v14

[General]
AudioFilename: Resurrection Spell.mp3
AudioLeadIn: 0
PreviewTime: 47366
Countdown: 0
SampleSet: Normal
StackLeniency: 0.7
Mode: 1
LetterboxInBreaks: 0
WidescreenStoryboard: 0

[Editor]
DistanceSpacing: 1.6
BeatDivisor: 12
GridSize: 32
TimelineZoom: 1.8

[Metadata]
Title:Resurrection Spell
TitleUnicode:Resurrection Spell
Artist:ZUN remixed by LeaF
ArtistUnicode:ZUN remixed by LeaF
Creator:TKS
Version:Kantan
Source:東方音弾遊戯4
Tags:BMS 東方Project Touhou Project 東方永夜抄 ~ Imperishable Night. TRANCE SPEED ondanyugi4 ondanyuugi4 The 4th Toho Only BMS Festival!! 月まで届け、不死の煙 Tsuki Made Todoke, Fushi no Kemuri Reach for the Moon, Immortal Smoke 藤原妹紅 Fujiwara no Mokou Electronic Instrumental
BeatmapID:1463340
BeatmapSetID:643492

[Difficulty]
HPDrainRate:8
CircleSize:2
OverallDifficulty:4
ApproachRate:9.4
SliderMultiplier:1.4
SliderTickRate:1

[Events]
//Background and Video events
0,0,"bg.jpg",0,40
//Break Periods
2,112927,119571
//Storyboard Layer 0 (Background)
//Storyboard Layer 1 (Fail)
//Storyboard Layer 2 (Pass)
//Storyboard Layer 3 (Foreground)
//Storyboard Layer 4 (Overlay)
//Storyboard Sound Samples

[TimingPoints]
64,666.666666666667,4,1,0,40,1,8
2730,666.666666666667,4,1,0,40,1,0
13396,600,4,1,0,40,1,0
13396,-83.3333333333333,4,1,0,40,0,0
15796,576.923076923077,4,1,0,55,1,0
15796,-83.3333333333333,4,1,0,55,0,0
18103,555.555555555556,4,1,0,65,1,0
18103,-83.3333333333333,4,1,0,65,0,0
20325,535.714285714286,4,1,0,75,1,0
20325,-83.3333333333333,4,1,0,75,0,0
22062,333.333333333333,4,1,0,85,1,0
26061,333.333333333333,4,1,0,85,1,0
47394,-100,4,1,0,85,0,1
57394,-100,4,1,0,85,0,0
58060,-100,4,1,0,85,0,1
68727,-100,4,1,0,85,0,0
102060,-100,4,1,0,85,0,1
112727,461.538461538462,4,1,0,85,1,0
112727,-72.463768115942,4,1,0,85,0,0
112765,-100,4,1,0,5,0,0
118188,-100,4,1,0,60,0,0
120073,-100,4,1,0,85,0,0
121957,428.571428571429,4,1,0,85,1,0
123671,400,4,1,0,85,1,0
125271,375,4,1,0,85,1,0
126771,352.941176470588,4,1,0,85,1,0
128182,333.333333333333,4,1,0,85,1,0
129515,315.789473684211,4,1,0,85,1,0
130778,300,4,1,0,85,1,0

[HitObjects]
256,192,2730,5,0,0:0:0:0:
256,192,5396,1,8,0:0:0:0:
256,192,8063,1,0,0:0:0:0:
256,192,9396,1,0,0:0:0:0:
256,192,10730,1,8,0:0:0:0:
256,192,11396,8,4,12730,0:0:0:0:
256,192,13396,5,4,0:0:0:0:
256,192,14596,1,0,0:0:0:0:
256,192,15796,1,8,0:0:0:0:
256,192,16949,1,8,0:0:0:0:
256,192,18103,1,4,0:0:0:0:
256,192,19214,1,4,0:0:0:0:
256,192,20325,1,0,0:0:0:0:
256,192,20860,1,0,0:0:0:0:
256,192,21396,1,12,0:0:0:0:
256,192,23395,1,0,0:0:0:0:
256,192,24061,1,0,0:0:0:0:
256,192,24728,1,0,0:0:0:0:
256,192,25395,1,0,0:0:0:0:
256,192,25728,1,12,0:0:0:0:
256,192,26061,1,0,0:0:0:0:
256,192,26727,1,8,0:0:0:0:
256,192,27394,1,0,0:0:0:0:
256,192,28060,1,0,0:0:0:0:
245,184,28394,1,0,0:0:0:0:
256,192,28727,1,0,0:0:0:0:
256,192,29394,1,8,0:0:0:0:
256,192,30060,1,0,0:0:0:0:
256,192,31394,1,0,0:0:0:0:
256,192,32060,1,8,0:0:0:0:
256,192,32727,1,0,0:0:0:0:
256,192,33394,1,0,0:0:0:0:
232,177,33727,1,0,0:0:0:0:
256,192,34060,1,0,0:0:0:0:
256,192,34727,1,0,0:0:0:0:
256,192,35394,1,8,0:0:0:0:
256,192,36727,1,0,0:0:0:0:
256,192,37394,1,8,0:0:0:0:
256,192,38060,1,0,0:0:0:0:
256,192,38727,1,0,0:0:0:0:
245,183,39060,1,8,0:0:0:0:
256,192,39394,1,0,0:0:0:0:
256,192,40060,1,8,0:0:0:0:
256,192,40727,1,0,0:0:0:0:
256,192,42060,1,0,0:0:0:0:
256,192,42727,1,8,0:0:0:0:
256,192,43394,1,0,0:0:0:0:
256,192,44060,1,0,0:0:0:0:
244,183,44394,1,8,0:0:0:0:
256,192,44727,1,4,0:0:0:0:
256,192,45394,1,4,0:0:0:0:
256,192,46060,1,12,0:0:0:0:
256,192,47394,1,4,0:0:0:0:
256,192,48060,1,8,0:0:0:0:
256,192,48394,1,8,0:0:0:0:
256,192,48727,1,0,0:0:0:0:
256,192,49394,1,8,0:0:0:0:
256,192,50060,1,0,0:0:0:0:
256,192,50727,1,0,0:0:0:0:
256,192,51060,1,8,0:0:0:0:
256,192,51394,1,0,0:0:0:0:
256,192,52727,1,0,0:0:0:0:
256,192,53394,1,8,0:0:0:0:
256,192,53727,1,8,0:0:0:0:
256,192,54060,1,0,0:0:0:0:
256,192,54727,1,0,0:0:0:0:
256,192,55394,1,8,0:0:0:0:
256,192,56060,1,8,0:0:0:0:
256,192,56727,1,0,0:0:0:0:
256,192,57060,1,0,0:0:0:0:
256,192,57394,1,8,0:0:0:0:
256,192,58060,1,4,0:0:0:0:
256,192,58727,1,0,0:0:0:0:
256,192,59060,1,8,0:0:0:0:
256,192,59394,1,0,0:0:0:0:
256,192,60060,1,8,0:0:0:0:
256,192,60727,1,0,0:0:0:0:
256,192,61394,1,8,0:0:0:0:
256,192,61727,1,8,0:0:0:0:
256,192,62060,1,0,0:0:0:0:
256,192,63394,1,0,0:0:0:0:
256,192,64060,1,0,0:0:0:0:
256,192,64394,1,8,0:0:0:0:
256,192,64727,1,0,0:0:0:0:
256,192,65394,1,0,0:0:0:0:
256,192,66060,1,8,0:0:0:0:
256,192,66727,1,8,0:0:0:0:
256,192,67394,1,8,0:0:0:0:
256,192,67727,1,0,0:0:0:0:
256,192,68060,1,8,0:0:0:0:
256,192,68727,1,0,0:0:0:0:
256,192,70060,1,0,0:0:0:0:
256,192,71394,1,0,0:0:0:0:
256,192,72727,1,0,0:0:0:0:
256,192,74060,1,0,0:0:0:0:
256,192,74727,1,8,0:0:0:0:
256,192,75394,1,0,0:0:0:0:
256,192,76060,1,8,0:0:0:0:
256,192,76727,1,0,0:0:0:0:
256,192,77394,1,0,0:0:0:0:
256,192,78060,1,0,0:0:0:0:
256,192,79394,1,0,0:0:0:0:
256,192,80060,1,8,0:0:0:0:
256,192,80727,1,0,0:0:0:0:
256,192,81394,1,0,0:0:0:0:
256,192,81727,1,8,0:0:0:0:
256,192,82060,1,0,0:0:0:0:
256,192,82727,1,8,0:0:0:0:
256,192,83394,1,0,0:0:0:0:
256,192,84727,1,0,0:0:0:0:
256,192,85394,1,8,0:0:0:0:
256,192,86060,1,0,0:0:0:0:
256,192,86727,1,0,0:0:0:0:
256,192,87060,1,8,0:0:0:0:
256,192,87394,1,0,0:0:0:0:
256,192,88060,1,8,0:0:0:0:
256,192,88727,1,0,0:0:0:0:
256,192,89394,1,8,0:0:0:0:
256,192,89727,1,8,0:0:0:0:
256,192,91394,1,4,0:0:0:0:
256,192,92727,1,0,0:0:0:0:
256,192,93394,1,8,0:0:0:0:
256,192,94060,1,0,0:0:0:0:
256,192,94727,1,8,0:0:0:0:
256,192,95060,1,8,0:0:0:0:
256,160,95394,1,0,0:0:0:0:
256,160,96727,1,0,0:0:0:0:
256,160,97394,1,0,0:0:0:0:
256,160,98060,1,0,0:0:0:0:
256,160,99394,1,0,0:0:0:0:
256,160,100060,1,0,0:0:0:0:
256,160,100727,1,0,0:0:0:0:
256,160,101060,1,0,0:0:0:0:
256,160,101394,1,8,0:0:0:0:
256,192,102060,1,4,0:0:0:0:
256,192,102727,1,0,0:0:0:0:
256,192,103060,1,0,0:0:0:0:
256,192,103394,1,8,0:0:0:0:
256,192,104060,1,8,0:0:0:0:
256,192,104727,1,0,0:0:0:0:
256,192,105394,1,8,0:0:0:0:
256,192,105727,1,8,0:0:0:0:
256,192,106060,1,0,0:0:0:0:
256,192,107394,1,0,0:0:0:0:
256,192,108060,1,8,0:0:0:0:
256,192,108394,1,8,0:0:0:0:
256,192,108727,1,0,0:0:0:0:
256,192,109394,1,0,0:0:0:0:
256,192,109727,1,8,0:0:0:0:
256,192,110060,1,0,0:0:0:0:
256,192,110727,1,0,0:0:0:0:
256,192,111394,12,0,112727,0:0:0:0:
256,192,120111,5,0,0:0:0:0:
256,192,121034,1,8,0:0:0:0:
256,192,121957,1,0,0:0:0:0:
256,192,122814,1,8,0:0:0:0:
256,192,123671,1,0,0:0:0:0:
256,192,124471,1,8,0:0:0:0:
256,192,125271,1,0,0:0:0:0:
256,192,126021,1,8,0:0:0:0:
256,192,126771,1,0,0:0:0:0:
256,192,127476,1,8,0:0:0:0:
256,192,128182,1,0,0:0:0:0:
256,192,128848,1,8,0:0:0:0:
256,192,129515,1,0,0:0:0:0:
256,192,130146,1,0,0:0:0:0:
256,192,130778,1,8,0:0:0:0:
256,192,131378,1,8,0:0:0:0:
256,192,131978,1,0,0:0:0:0:
256,192,132578,1,8,0:0:0:0:
256,192,133178,1,0,0:0:0:0:
256,192,133478,1,0,0:0:0:0:
256,192,133778,12,0,136103,0:0:0:0:
256,192,136778,5,4,0:0:0:0:
