osu file format v14

[General]
AudioFilename: Resurrection Spell.mp3
AudioLeadIn: 0
PreviewTime: 47366
Countdown: 0
SampleSet: Normal
StackLeniency: 0.7
Mode: 1
LetterboxInBreaks: 0
WidescreenStoryboard: 1

[Editor]
DistanceSpacing: 1.6
BeatDivisor: 4
GridSize: 32
TimelineZoom: 3.799998

[Metadata]
Title:Resurrection Spell
TitleUnicode:Resurrection Spell
Artist:ZUN remixed by LeaF
ArtistUnicode:ZUN remixed by LeaF
Creator:TKS
Version:Inner Oni
Source:東方音弾遊戯4
Tags:BMS 東方Project Touhou Project 東方永夜抄 ~ Imperishable Night. TRANCE SPEED ondanyugi4 ondanyuugi4 The 4th Toho Only BMS Festival!! 月まで届け、不死の煙 Tsuki Made Todoke, Fushi no Kemuri Reach for the Moon, Immortal Smoke 藤原妹紅 Fujiwara no Mokou Electronic Instrumental
BeatmapID:1364458
BeatmapSetID:643492

[Difficulty]
HPDrainRate:6
CircleSize:2
OverallDifficulty:6
ApproachRate:9.4
SliderMultiplier:1.4
SliderTickRate:1

[Events]
//Background and Video events
0,0,"bg.jpg",0,40
//Break Periods
2,112927,117725
//Storyboard Layer 0 (Background)
//Storyboard Layer 1 (Fail)
//Storyboard Layer 2 (Pass)
//Storyboard Layer 3 (Foreground)
//Storyboard Layer 4 (Overlay)
//Storyboard Sound Samples

[TimingPoints]
64,666.666666666667,4,1,0,40,1,8
2730,666.666666666667,4,1,0,40,1,0
13396,600,4,1,0,40,1,0
13396,-83.3333333333333,4,1,0,40,0,0
15796,576.923076923077,4,1,0,55,1,0
15796,-83.3333333333333,4,1,0,55,0,0
18103,555.555555555556,4,1,0,65,1,0
18103,-83.3333333333333,4,1,0,65,0,0
20325,535.714285714286,4,1,0,75,1,0
20325,-83.3333333333333,4,1,0,75,0,0
22062,333.333333333333,4,1,0,85,1,0
26061,333.333333333333,4,1,0,85,1,0
47394,-100,4,1,0,85,0,1
57394,-100,4,1,0,85,0,0
58060,-100,4,1,0,85,0,1
68727,-100,4,1,0,85,0,0
102060,-100,4,1,0,85,0,1
112727,461.538461538462,4,1,0,85,1,0
112727,-72.463768115942,4,1,0,85,0,0
112765,-100,4,1,0,5,0,0
118188,-100,4,1,0,60,0,0
120073,-100,4,1,0,85,0,0
121957,428.571428571429,4,1,0,85,1,0
123671,400,4,1,0,85,1,0
125271,375,4,1,0,85,1,0
126771,352.941176470588,4,1,0,85,1,0
128182,333.333333333333,4,1,0,85,1,0
129515,315.789473684211,4,1,0,85,1,0
130778,300,4,1,0,85,1,0

[HitObjects]
256,192,2064,5,0,0:0:0:0:
256,192,2397,1,8,0:0:0:0:
256,192,2730,1,0,0:0:0:0:
256,192,4063,1,8,0:0:0:0:
256,192,4396,1,0,0:0:0:0:
256,192,4730,1,8,0:0:0:0:
256,192,5396,1,0,0:0:0:0:
256,192,7063,1,0,0:0:0:0:
256,192,7396,1,8,0:0:0:0:
256,192,7730,1,8,0:0:0:0:
256,192,8063,1,0,0:0:0:0:
256,192,8730,1,8,0:0:0:0:
256,192,9396,1,0,0:0:0:0:
256,192,10063,1,8,0:0:0:0:
256,192,10730,1,0,0:0:0:0:
256,192,11396,8,4,13230,0:0:0:0:
256,192,13396,5,4,0:0:0:0:
256,192,13996,1,0,0:0:0:0:
256,192,14596,1,0,0:0:0:0:
256,192,14896,1,0,0:0:0:0:
256,192,15196,1,8,0:0:0:0:
256,192,15796,1,0,0:0:0:0:
256,192,16372,1,0,0:0:0:0:
256,192,16949,1,0,0:0:0:0:
256,192,17526,1,8,0:0:0:0:
256,192,17815,1,8,0:0:0:0:
256,192,18103,1,4,0:0:0:0:
256,192,18658,1,12,0:0:0:0:
256,192,19214,1,4,0:0:0:0:
256,192,19769,1,12,0:0:0:0:
256,192,20325,1,12,0:0:0:0:
256,192,20592,1,12,0:0:0:0:
256,192,20860,1,4,0:0:0:0:
256,192,21128,1,4,0:0:0:0:
256,192,21396,1,12,0:0:0:0:
256,192,23228,1,0,0:0:0:0:
256,192,23312,1,0,0:0:0:0:
256,192,23395,1,0,0:0:0:0:
256,192,23728,1,12,0:0:0:0:
256,192,23895,1,0,0:0:0:0:
256,192,23978,1,0,0:0:0:0:
256,192,24061,1,0,0:0:0:0:
256,192,24395,1,12,0:0:0:0:
256,192,24561,1,0,0:0:0:0:
256,192,24645,1,0,0:0:0:0:
256,192,24728,1,8,0:0:0:0:
256,192,24978,1,8,0:0:0:0:
256,192,25228,1,8,0:0:0:0:
256,192,25395,1,8,0:0:0:0:
256,192,25478,1,0,0:0:0:0:
256,192,25561,1,0,0:0:0:0:
256,192,25728,1,12,0:0:0:0:
256,192,26061,1,0,0:0:0:0:
256,192,26144,1,0,0:0:0:0:
256,192,26227,1,0,0:0:0:0:
256,192,26394,1,8,0:0:0:0:
256,192,26561,1,8,0:0:0:0:
256,192,26644,1,8,0:0:0:0:
256,192,26727,1,0,0:0:0:0:
256,192,26894,1,8,0:0:0:0:
256,192,27061,1,0,0:0:0:0:
256,192,27227,1,8,0:0:0:0:
256,192,27394,1,0,0:0:0:0:
256,192,27477,1,0,0:0:0:0:
256,192,27561,1,8,0:0:0:0:
256,192,27727,1,0,0:0:0:0:
256,192,27894,1,8,0:0:0:0:
256,192,28060,1,0,0:0:0:0:
256,192,28144,1,0,0:0:0:0:
256,192,28227,1,8,0:0:0:0:
256,192,28310,1,0,0:0:0:0:
256,192,28394,1,8,0:0:0:0:
256,192,28727,1,0,0:0:0:0:
256,192,28894,1,0,0:0:0:0:
256,192,29060,1,8,0:0:0:0:
256,192,29227,1,8,0:0:0:0:
256,192,29310,1,8,0:0:0:0:
256,192,29394,1,0,0:0:0:0:
256,192,29560,1,8,0:0:0:0:
256,192,29727,1,0,0:0:0:0:
256,192,29894,1,8,0:0:0:0:
256,192,30060,1,0,0:0:0:0:
256,192,30144,1,0,0:0:0:0:
256,192,30227,1,8,0:0:0:0:
256,192,30394,1,0,0:0:0:0:
256,192,30560,1,8,0:0:0:0:
256,192,30727,1,8,0:0:0:0:
256,192,30894,1,0,0:0:0:0:
256,192,30977,1,0,0:0:0:0:
256,192,31060,1,8,0:0:0:0:
256,192,31144,1,8,0:0:0:0:
256,192,31227,1,8,0:0:0:0:
256,192,31394,1,0,0:0:0:0:
256,192,31477,1,0,0:0:0:0:
256,192,31560,1,0,0:0:0:0:
256,192,31727,1,8,0:0:0:0:
256,192,31894,1,8,0:0:0:0:
256,192,31977,1,8,0:0:0:0:
256,192,32060,1,0,0:0:0:0:
256,192,32227,1,8,0:0:0:0:
256,192,32394,1,0,0:0:0:0:
256,192,32560,1,8,0:0:0:0:
256,192,32727,1,0,0:0:0:0:
256,192,32810,1,0,0:0:0:0:
256,192,32894,1,8,0:0:0:0:
256,192,33060,1,0,0:0:0:0:
256,192,33227,1,8,0:0:0:0:
256,192,33394,1,0,0:0:0:0:
256,192,33477,1,0,0:0:0:0:
256,192,33560,1,8,0:0:0:0:
256,192,33644,1,0,0:0:0:0:
256,192,33727,1,8,0:0:0:0:
256,192,34060,1,0,0:0:0:0:
256,192,34227,1,0,0:0:0:0:
256,192,34394,1,0,0:0:0:0:
256,192,34477,1,0,0:0:0:0:
256,192,34560,1,8,0:0:0:0:
256,192,34644,1,8,0:0:0:0:
256,192,34727,1,0,0:0:0:0:
256,192,34894,1,0,0:0:0:0:
256,192,35060,1,8,0:0:0:0:
256,192,35144,1,8,0:0:0:0:
256,192,35227,1,8,0:0:0:0:
256,192,35310,1,8,0:0:0:0:
256,192,35394,1,0,0:0:0:0:
256,192,35560,1,8,0:0:0:0:
256,192,35644,1,8,0:0:0:0:
256,192,35727,1,8,0:0:0:0:
256,192,35894,1,8,0:0:0:0:
256,192,36060,1,0,0:0:0:0:
256,192,36172,1,0,0:0:0:0:
256,192,36283,1,0,0:0:0:0:
256,192,36394,1,8,0:0:0:0:
256,192,36727,1,0,0:0:0:0:
256,192,36810,1,8,0:0:0:0:
256,192,36894,1,0,0:0:0:0:
256,192,37060,1,8,0:0:0:0:
256,192,37227,1,0,0:0:0:0:
256,192,37310,1,0,0:0:0:0:
256,192,37394,1,0,0:0:0:0:
256,192,37560,1,8,0:0:0:0:
256,192,37727,1,0,0:0:0:0:
256,192,37894,1,8,0:0:0:0:
256,192,38060,1,0,0:0:0:0:
256,192,38144,1,8,0:0:0:0:
256,192,38227,1,8,0:0:0:0:
256,192,38394,1,0,0:0:0:0:
256,192,38560,1,8,0:0:0:0:
256,192,38727,1,0,0:0:0:0:
256,192,38810,1,0,0:0:0:0:
256,192,38894,1,8,0:0:0:0:
256,192,38977,1,8,0:0:0:0:
256,192,39060,1,8,0:0:0:0:
256,192,39394,1,0,0:0:0:0:
256,192,39560,1,0,0:0:0:0:
256,192,39727,1,8,0:0:0:0:
256,192,39894,1,0,0:0:0:0:
256,192,39977,1,8,0:0:0:0:
256,192,40060,1,0,0:0:0:0:
256,192,40227,1,8,0:0:0:0:
256,192,40394,1,0,0:0:0:0:
256,192,40560,1,8,0:0:0:0:
256,192,40727,1,0,0:0:0:0:
256,192,40810,1,8,0:0:0:0:
256,192,40894,1,8,0:0:0:0:
256,192,41060,1,0,0:0:0:0:
256,192,41227,1,8,0:0:0:0:
256,192,41394,1,8,0:0:0:0:
256,192,41560,1,0,0:0:0:0:
256,192,41644,1,0,0:0:0:0:
256,192,41727,1,8,0:0:0:0:
256,192,41810,1,0,0:0:0:0:
256,192,41894,1,8,0:0:0:0:
256,192,42060,1,0,0:0:0:0:
256,192,42144,1,8,0:0:0:0:
256,192,42227,1,0,0:0:0:0:
256,192,42394,1,8,0:0:0:0:
256,192,42560,1,8,0:0:0:0:
256,192,42644,1,8,0:0:0:0:
256,192,42727,1,0,0:0:0:0:
256,192,42894,1,8,0:0:0:0:
256,192,43060,1,0,0:0:0:0:
256,192,43227,1,8,0:0:0:0:
256,192,43394,1,0,0:0:0:0:
256,192,43477,1,8,0:0:0:0:
256,192,43560,1,8,0:0:0:0:
256,192,43727,1,0,0:0:0:0:
256,192,43894,1,8,0:0:0:0:
256,192,44060,1,0,0:0:0:0:
256,192,44144,1,0,0:0:0:0:
256,192,44227,1,8,0:0:0:0:
256,192,44310,1,8,0:0:0:0:
256,192,44394,1,8,0:0:0:0:
256,192,44727,1,0,0:0:0:0:
256,192,44894,1,0,0:0:0:0:
256,192,45060,1,0,0:0:0:0:
256,192,45144,1,0,0:0:0:0:
256,192,45227,1,8,0:0:0:0:
256,192,45310,1,8,0:0:0:0:
256,192,45394,1,0,0:0:0:0:
256,192,45560,1,0,0:0:0:0:
256,192,45644,1,0,0:0:0:0:
256,192,45727,1,8,0:0:0:0:
256,192,45810,1,8,0:0:0:0:
256,192,45894,1,8,0:0:0:0:
256,192,45977,1,8,0:0:0:0:
256,192,46060,1,0,0:0:0:0:
256,192,46227,1,0,0:0:0:0:
256,192,46310,1,0,0:0:0:0:
256,192,46394,1,8,0:0:0:0:
256,192,46560,1,0,0:0:0:0:
256,192,46727,1,8,0:0:0:0:
256,192,46838,1,8,0:0:0:0:
256,192,46949,1,8,0:0:0:0:
256,192,47060,1,8,0:0:0:0:
256,192,47227,1,8,0:0:0:0:
256,192,47394,1,4,0:0:0:0:
256,192,47727,1,8,0:0:0:0:
256,192,47894,1,0,0:0:0:0:
256,192,47977,1,0,0:0:0:0:
256,192,48060,1,0,0:0:0:0:
256,192,48227,1,0,0:0:0:0:
256,192,48394,1,8,0:0:0:0:
256,192,48560,1,8,0:0:0:0:
256,192,48727,1,0,0:0:0:0:
256,192,48894,1,0,0:0:0:0:
256,192,48977,1,0,0:0:0:0:
256,192,49060,1,8,0:0:0:0:
256,192,49310,1,0,0:0:0:0:
256,192,49477,1,0,0:0:0:0:
256,192,49560,1,0,0:0:0:0:
256,192,49727,1,8,0:0:0:0:
256,192,49894,1,8,0:0:0:0:
256,192,50060,1,0,0:0:0:0:
248,183,50227,1,0,0:0:0:0:
250,186,50310,1,0,0:0:0:0:
256,192,50394,1,8,0:0:0:0:
256,192,50560,1,0,0:0:0:0:
256,192,50727,1,0,0:0:0:0:
256,192,50810,1,0,0:0:0:0:
256,192,50894,1,0,0:0:0:0:
256,192,51060,1,8,0:0:0:0:
256,192,51227,1,8,0:0:0:0:
256,192,51394,1,0,0:0:0:0:
256,192,51727,1,8,0:0:0:0:
256,192,51894,1,8,0:0:0:0:
256,192,51977,1,8,0:0:0:0:
256,192,52060,1,0,0:0:0:0:
256,192,52310,1,0,0:0:0:0:
256,192,52394,1,8,0:0:0:0:
224,192,52560,1,8,0:0:0:0:
256,192,52727,1,0,0:0:0:0:
256,192,53060,1,8,0:0:0:0:
256,192,53227,1,0,0:0:0:0:
256,192,53310,1,0,0:0:0:0:
256,192,53394,1,0,0:0:0:0:
256,192,53560,1,0,0:0:0:0:
256,192,53727,1,8,0:0:0:0:
256,192,53894,1,8,0:0:0:0:
256,192,54060,1,4,0:0:0:0:
256,192,54283,1,4,0:0:0:0:
256,192,54505,1,4,0:0:0:0:
256,192,54727,1,4,0:0:0:0:
256,192,55394,1,0,0:0:0:0:
256,192,55477,1,0,0:0:0:0:
256,192,55560,1,0,0:0:0:0:
256,192,55644,1,0,0:0:0:0:
256,192,55727,1,8,0:0:0:0:
256,192,55894,1,8,0:0:0:0:
256,192,56060,1,0,0:0:0:0:
256,192,56227,1,8,0:0:0:0:
256,192,56310,1,8,0:0:0:0:
256,192,56394,1,0,0:0:0:0:
256,192,56560,1,8,0:0:0:0:
256,192,56727,1,0,0:0:0:0:
256,192,56810,1,0,0:0:0:0:
256,192,56894,1,8,0:0:0:0:
256,192,57060,1,8,0:0:0:0:
256,192,57227,1,0,0:0:0:0:
256,192,57394,1,8,0:0:0:0:
256,192,57560,1,8,0:0:0:0:
256,192,57727,1,8,0:0:0:0:
256,192,57894,1,8,0:0:0:0:
256,192,58060,1,4,0:0:0:0:
256,192,58394,1,8,0:0:0:0:
256,192,58560,1,0,0:0:0:0:
256,192,58644,1,0,0:0:0:0:
256,192,58727,1,0,0:0:0:0:
256,192,58894,1,0,0:0:0:0:
256,192,59060,1,8,0:0:0:0:
256,192,59227,1,8,0:0:0:0:
256,192,59394,1,0,0:0:0:0:
256,192,59560,1,0,0:0:0:0:
256,192,59644,1,0,0:0:0:0:
256,192,59727,1,8,0:0:0:0:
256,192,59977,1,0,0:0:0:0:
256,192,60144,1,0,0:0:0:0:
256,192,60227,1,0,0:0:0:0:
256,192,60394,1,8,0:0:0:0:
256,192,60560,1,8,0:0:0:0:
256,192,60727,1,0,0:0:0:0:
256,192,60894,1,0,0:0:0:0:
256,192,60977,1,0,0:0:0:0:
256,192,61060,1,8,0:0:0:0:
256,192,61227,1,0,0:0:0:0:
256,192,61394,1,0,0:0:0:0:
256,192,61477,1,0,0:0:0:0:
256,192,61560,1,0,0:0:0:0:
256,192,61727,1,8,0:0:0:0:
256,192,61894,1,8,0:0:0:0:
256,192,62060,1,0,0:0:0:0:
256,192,62394,1,8,0:0:0:0:
256,192,62560,1,8,0:0:0:0:
256,192,62644,1,8,0:0:0:0:
256,192,62727,1,0,0:0:0:0:
256,192,62977,1,0,0:0:0:0:
256,192,63060,1,8,0:0:0:0:
224,192,63227,1,8,0:0:0:0:
256,192,63394,1,0,0:0:0:0:
256,192,63727,1,8,0:0:0:0:
256,192,63894,1,0,0:0:0:0:
256,192,63977,1,0,0:0:0:0:
256,192,64060,1,0,0:0:0:0:
256,192,64227,1,0,0:0:0:0:
256,192,64394,1,8,0:0:0:0:
256,192,64560,1,8,0:0:0:0:
256,192,64727,1,4,0:0:0:0:
256,192,64949,1,4,0:0:0:0:
256,192,65172,1,4,0:0:0:0:
256,192,65394,1,4,0:0:0:0:
256,192,65727,1,8,0:0:0:0:
256,192,65894,1,8,0:0:0:0:
256,192,66060,1,0,0:0:0:0:
256,192,66144,1,0,0:0:0:0:
256,192,66227,1,0,0:0:0:0:
256,192,66310,1,0,0:0:0:0:
256,192,66394,1,8,0:0:0:0:
256,192,66560,1,8,0:0:0:0:
256,192,66727,1,0,0:0:0:0:
256,192,66894,1,8,0:0:0:0:
256,192,66977,1,8,0:0:0:0:
256,192,67060,1,0,0:0:0:0:
256,192,67227,1,8,0:0:0:0:
256,192,67394,1,0,0:0:0:0:
256,192,67477,1,0,0:0:0:0:
256,192,67560,1,8,0:0:0:0:
256,192,67727,1,8,0:0:0:0:
256,192,67894,1,0,0:0:0:0:
256,192,68060,1,8,0:0:0:0:
256,192,68394,1,8,0:0:0:0:
256,192,68477,1,8,0:0:0:0:
256,192,68560,1,8,0:0:0:0:
256,192,68644,1,8,0:0:0:0:
256,192,68727,1,0,0:0:0:0:
256,192,69060,1,8,0:0:0:0:
256,192,69394,1,0,0:0:0:0:
256,192,69616,1,0,0:0:0:0:
256,192,69727,1,8,0:0:0:0:
256,192,70060,1,0,0:0:0:0:
256,192,70394,1,8,0:0:0:0:
256,192,70727,1,0,0:0:0:0:
256,192,70949,1,0,0:0:0:0:
256,192,71060,1,8,0:0:0:0:
256,192,71394,1,0,0:0:0:0:
256,192,71727,1,8,0:0:0:0:
256,192,72060,1,0,0:0:0:0:
256,192,72283,1,0,0:0:0:0:
256,192,72394,1,8,0:0:0:0:
256,192,72727,1,0,0:0:0:0:
256,192,72949,1,0,0:0:0:0:
256,192,73060,1,8,0:0:0:0:
256,192,73283,1,8,0:0:0:0:
256,192,73394,1,0,0:0:0:0:
256,192,73727,1,8,0:0:0:0:
256,192,73838,1,8,0:0:0:0:
256,192,73949,1,8,0:0:0:0:
256,192,74060,1,0,0:0:0:0:
256,192,74283,1,8,0:0:0:0:
256,192,74394,1,0,0:0:0:0:
256,192,74616,1,8,0:0:0:0:
256,192,74727,1,0,0:0:0:0:
256,192,74949,1,0,0:0:0:0:
256,192,75060,1,8,0:0:0:0:
256,192,75394,1,0,0:0:0:0:
256,192,75616,1,0,0:0:0:0:
256,192,75727,1,8,0:0:0:0:
256,192,75949,1,8,0:0:0:0:
256,192,76060,1,0,0:0:0:0:
256,192,76283,1,0,0:0:0:0:
256,192,76394,1,8,0:0:0:0:
256,192,76727,1,0,0:0:0:0:
256,192,76949,1,0,0:0:0:0:
256,192,77060,1,8,0:0:0:0:
256,192,77172,1,8,0:0:0:0:
256,192,77283,1,8,0:0:0:0:
256,192,77394,1,0,0:0:0:0:
256,192,77616,1,0,0:0:0:0:
256,192,77727,1,8,0:0:0:0:
256,192,78060,1,0,0:0:0:0:
256,192,78283,1,0,0:0:0:0:
256,192,78394,1,0,0:0:0:0:
256,192,78616,1,0,0:0:0:0:
256,192,78727,1,8,0:0:0:0:
256,192,79060,1,8,0:0:0:0:
256,192,79172,1,8,0:0:0:0:
256,192,79283,1,8,0:0:0:0:
256,192,79394,1,0,0:0:0:0:
256,192,79560,1,0,0:0:0:0:
256,192,79644,1,0,0:0:0:0:
256,192,79727,1,8,0:0:0:0:
256,192,79894,1,8,0:0:0:0:
256,192,80060,1,0,0:0:0:0:
256,192,80227,1,8,0:0:0:0:
256,192,80310,1,8,0:0:0:0:
256,192,80394,1,0,0:0:0:0:
256,192,80560,1,8,0:0:0:0:
256,192,80727,1,0,0:0:0:0:
256,192,80894,1,8,0:0:0:0:
256,192,81060,1,0,0:0:0:0:
256,192,81144,1,0,0:0:0:0:
256,192,81227,1,8,0:0:0:0:
256,192,81394,1,0,0:0:0:0:
256,192,81477,1,0,0:0:0:0:
256,192,81560,1,8,0:0:0:0:
256,192,81644,1,0,0:0:0:0:
256,192,81727,1,8,0:0:0:0:
256,192,82060,1,0,0:0:0:0:
256,192,82144,1,0,0:0:0:0:
256,192,82227,1,0,0:0:0:0:
256,192,82394,1,8,0:0:0:0:
256,192,82560,1,8,0:0:0:0:
256,192,82644,1,8,0:0:0:0:
256,192,82727,1,0,0:0:0:0:
256,192,82894,1,8,0:0:0:0:
256,192,83060,1,0,0:0:0:0:
256,192,83227,1,8,0:0:0:0:
256,192,83394,1,0,0:0:0:0:
256,192,83560,1,8,0:0:0:0:
256,192,83727,1,0,0:0:0:0:
256,192,83810,1,0,0:0:0:0:
256,192,83894,1,8,0:0:0:0:
256,192,84060,1,8,0:0:0:0:
256,192,84227,1,0,0:0:0:0:
256,192,84310,1,0,0:0:0:0:
256,192,84394,1,8,0:0:0:0:
256,192,84477,1,8,0:0:0:0:
256,192,84560,1,8,0:0:0:0:
256,192,84727,1,0,0:0:0:0:
256,192,84894,1,0,0:0:0:0:
256,192,84977,1,0,0:0:0:0:
256,192,85060,1,8,0:0:0:0:
256,192,85227,1,8,0:0:0:0:
256,192,85394,1,0,0:0:0:0:
256,192,85560,1,8,0:0:0:0:
256,192,85644,1,8,0:0:0:0:
256,192,85727,1,0,0:0:0:0:
256,192,85894,1,8,0:0:0:0:
256,192,86060,1,0,0:0:0:0:
256,192,86227,1,8,0:0:0:0:
256,192,86394,1,0,0:0:0:0:
256,192,86477,1,0,0:0:0:0:
256,192,86560,1,8,0:0:0:0:
256,192,86727,1,0,0:0:0:0:
256,192,86810,1,0,0:0:0:0:
256,192,86894,1,8,0:0:0:0:
256,192,86977,1,0,0:0:0:0:
256,192,87060,1,8,0:0:0:0:
256,192,87394,1,0,0:0:0:0:
256,192,87477,1,0,0:0:0:0:
256,192,87560,1,0,0:0:0:0:
256,192,87727,1,8,0:0:0:0:
256,192,87894,1,8,0:0:0:0:
256,192,87977,1,8,0:0:0:0:
256,192,88060,1,0,0:0:0:0:
256,192,88227,1,8,0:0:0:0:
256,192,88394,1,0,0:0:0:0:
256,192,88560,1,8,0:0:0:0:
256,192,88727,1,0,0:0:0:0:
256,192,88894,1,8,0:0:0:0:
256,192,89060,1,0,0:0:0:0:
256,192,89144,1,0,0:0:0:0:
256,192,89227,1,8,0:0:0:0:
256,192,89394,1,8,0:0:0:0:
256,192,89560,1,0,0:0:0:0:
256,192,89644,1,0,0:0:0:0:
256,192,89727,1,8,0:0:0:0:
256,192,89810,1,8,0:0:0:0:
256,192,89894,1,8,0:0:0:0:
256,192,90727,1,0,0:0:0:0:
256,192,90810,1,0,0:0:0:0:
256,192,90894,1,0,0:0:0:0:
256,192,91060,1,12,0:0:0:0:
256,192,91394,1,4,0:0:0:0:
256,192,91894,1,0,0:0:0:0:
256,192,92060,1,8,0:0:0:0:
256,192,92560,1,0,0:0:0:0:
256,192,92727,1,0,0:0:0:0:
256,192,93060,1,0,0:0:0:0:
256,192,93310,1,0,0:0:0:0:
256,192,93394,1,8,0:0:0:0:
256,192,93560,1,0,0:0:0:0:
256,192,93727,1,8,0:0:0:0:
256,160,93894,1,8,0:0:0:0:
256,192,94060,1,0,0:0:0:0:
256,160,94560,1,0,0:0:0:0:
256,160,94727,1,8,0:0:0:0:
256,160,95060,1,0,0:0:0:0:
256,160,95227,1,0,0:0:0:0:
256,160,95394,1,0,0:0:0:0:
256,160,95727,1,0,0:0:0:0:
256,160,95894,1,0,0:0:0:0:
256,160,96060,1,8,0:0:0:0:
256,160,96227,1,0,0:0:0:0:
256,160,96394,1,8,0:0:0:0:
256,160,96477,1,8,0:0:0:0:
256,160,96560,1,8,0:0:0:0:
256,160,96727,1,0,0:0:0:0:
256,160,96894,1,8,0:0:0:0:
256,160,96977,1,8,0:0:0:0:
256,160,97394,1,8,0:0:0:0:
256,160,97477,1,8,0:0:0:0:
256,160,97560,1,8,0:0:0:0:
256,160,97644,1,8,0:0:0:0:
256,160,98060,1,8,0:0:0:0:
256,160,98144,1,8,0:0:0:0:
256,160,98227,1,8,0:0:0:0:
256,160,98394,1,8,0:0:0:0:
256,160,98560,1,8,0:0:0:0:
256,160,98644,1,8,0:0:0:0:
256,160,98810,1,8,0:0:0:0:
256,160,98894,1,8,0:0:0:0:
256,160,99060,1,8,0:0:0:0:
256,160,99394,1,8,0:0:0:0:
256,160,99560,1,0,0:0:0:0:
256,160,99727,1,8,0:0:0:0:
256,160,99894,1,8,0:0:0:0:
256,160,100060,1,0,0:0:0:0:
256,160,100227,1,0,0:0:0:0:
256,160,100394,1,8,0:0:0:0:
256,160,100560,1,0,0:0:0:0:
256,160,100727,1,8,0:0:0:0:
256,160,100838,1,8,0:0:0:0:
256,160,100949,1,8,0:0:0:0:
256,160,101060,1,0,0:0:0:0:
256,160,101227,1,0,0:0:0:0:
256,160,101394,1,8,0:0:0:0:
256,160,101477,1,8,0:0:0:0:
256,160,101560,1,0,0:0:0:0:
256,160,101644,1,0,0:0:0:0:
256,160,101727,1,8,0:0:0:0:
256,160,101894,1,8,0:0:0:0:
256,160,102060,1,4,0:0:0:0:
256,160,102310,1,0,0:0:0:0:
256,160,102394,1,8,0:0:0:0:
256,160,102560,1,0,0:0:0:0:
256,160,102644,1,0,0:0:0:0:
256,160,102727,1,0,0:0:0:0:
256,160,102894,1,8,0:0:0:0:
256,160,103060,1,8,0:0:0:0:
256,160,103144,1,8,0:0:0:0:
256,160,103227,1,0,0:0:0:0:
256,160,103310,1,0,0:0:0:0:
256,160,103394,1,0,0:0:0:0:
256,160,103560,1,0,0:0:0:0:
256,160,103727,1,8,0:0:0:0:
256,160,103810,1,8,0:0:0:0:
256,160,103894,1,0,0:0:0:0:
256,160,103977,1,0,0:0:0:0:
256,160,104060,1,8,0:0:0:0:
256,160,104227,1,0,0:0:0:0:
256,160,104310,1,0,0:0:0:0:
256,160,104394,1,8,0:0:0:0:
256,160,104477,1,0,0:0:0:0:
256,160,104560,1,8,0:0:0:0:
256,160,104644,1,8,0:0:0:0:
256,160,104727,1,0,0:0:0:0:
256,160,104894,1,8,0:0:0:0:
256,160,105060,1,0,0:0:0:0:
256,160,105144,1,0,0:0:0:0:
256,160,105227,1,8,0:0:0:0:
256,160,105394,1,0,0:0:0:0:
256,160,105560,1,8,0:0:0:0:
256,160,105644,1,8,0:0:0:0:
256,160,105727,1,0,0:0:0:0:
256,160,105810,1,0,0:0:0:0:
256,160,105894,1,8,0:0:0:0:
256,160,106060,1,0,0:0:0:0:
256,160,106144,1,0,0:0:0:0:
256,160,106227,1,0,0:0:0:0:
256,160,106310,1,0,0:0:0:0:
256,160,106394,1,8,0:0:0:0:
256,160,106477,1,8,0:0:0:0:
256,160,106560,1,8,0:0:0:0:
256,160,106644,1,8,0:0:0:0:
256,160,106727,1,0,0:0:0:0:
256,160,106894,1,8,0:0:0:0:
256,160,106977,1,0,0:0:0:0:
256,160,107060,1,8,0:0:0:0:
256,160,107144,1,8,0:0:0:0:
256,160,107227,1,0,0:0:0:0:
256,160,107310,1,0,0:0:0:0:
256,160,107394,1,8,0:0:0:0:
256,160,107560,1,0,0:0:0:0:
256,160,107727,1,0,0:0:0:0:
256,160,107810,1,0,0:0:0:0:
256,160,107894,1,0,0:0:0:0:
256,160,108060,1,8,0:0:0:0:
256,160,108227,1,0,0:0:0:0:
256,160,108310,1,0,0:0:0:0:
256,160,108394,1,0,0:0:0:0:
256,160,108477,1,0,0:0:0:0:
256,160,108560,1,0,0:0:0:0:
256,160,108727,1,8,0:0:0:0:
256,160,108894,1,0,0:0:0:0:
256,160,108977,1,0,0:0:0:0:
256,160,109060,1,8,0:0:0:0:
256,160,109227,1,0,0:0:0:0:
256,160,109310,1,0,0:0:0:0:
256,160,109394,1,8,0:0:0:0:
256,160,109505,1,8,0:0:0:0:
256,160,109616,1,8,0:0:0:0:
256,160,109727,1,8,0:0:0:0:
256,160,109894,1,8,0:0:0:0:
256,160,110060,1,0,0:0:0:0:
256,160,110144,1,0,0:0:0:0:
256,160,110227,1,8,0:0:0:0:
256,160,110310,1,8,0:0:0:0:
256,160,110394,1,0,0:0:0:0:
256,160,110560,1,8,0:0:0:0:
256,160,110644,1,8,0:0:0:0:
256,160,110727,1,0,0:0:0:0:
256,160,110810,1,0,0:0:0:0:
256,160,110894,1,0,0:0:0:0:
256,160,110977,1,0,0:0:0:0:
256,160,111060,1,8,0:0:0:0:
256,160,111227,1,8,0:0:0:0:
256,160,111310,1,8,0:0:0:0:
256,160,111394,1,0,0:0:0:0:
256,160,111560,1,0,0:0:0:0:
256,160,111644,1,0,0:0:0:0:
256,160,111727,1,8,0:0:0:0:
256,160,111810,1,8,0:0:0:0:
256,160,111894,1,0,0:0:0:0:
256,160,111977,1,0,0:0:0:0:
256,160,112060,1,8,0:0:0:0:
256,160,112144,1,8,0:0:0:0:
256,160,112227,1,8,0:0:0:0:
256,160,112310,1,8,0:0:0:0:
256,160,112394,1,8,0:0:0:0:
256,160,112477,1,8,0:0:0:0:
256,160,112560,1,8,0:0:0:0:
256,160,112644,1,8,0:0:0:0:
256,160,112727,1,0,0:0:0:0:
256,192,118265,5,0,0:0:0:0:
256,192,118611,1,0,0:0:0:0:
256,192,118727,1,8,0:0:0:0:
256,192,118957,1,0,0:0:0:0:
256,192,119073,1,0,0:0:0:0:
256,192,119188,1,0,0:0:0:0:
256,192,119419,1,0,0:0:0:0:
256,192,119650,1,8,0:0:0:0:
256,192,120111,1,4,0:0:0:0:
256,192,120573,1,8,0:0:0:0:
256,192,120803,1,0,0:0:0:0:
256,192,120919,1,0,0:0:0:0:
256,192,121034,1,0,0:0:0:0:
256,192,121265,1,0,0:0:0:0:
256,192,121496,1,8,0:0:0:0:
256,192,121957,1,0,0:0:0:0:
256,192,122278,1,0,0:0:0:0:
256,192,122385,1,8,0:0:0:0:
256,192,122599,1,0,0:0:0:0:
256,192,122707,1,0,0:0:0:0:
256,192,122814,1,0,0:0:0:0:
256,192,123028,1,0,0:0:0:0:
256,192,123242,1,8,0:0:0:0:
256,192,123671,1,4,0:0:0:0:
256,192,124071,1,8,0:0:0:0:
256,192,124271,1,0,0:0:0:0:
256,192,124371,1,0,0:0:0:0:
256,192,124471,1,0,0:0:0:0:
256,192,124671,1,0,0:0:0:0:
256,192,124871,1,8,0:0:0:0:
256,192,125271,1,4,0:0:0:0:
256,192,125552,1,0,0:0:0:0:
256,192,125646,1,8,0:0:0:0:
256,192,125833,1,0,0:0:0:0:
256,192,125927,1,0,0:0:0:0:
256,192,126021,1,0,0:0:0:0:
256,192,126208,1,0,0:0:0:0:
256,192,126396,1,8,0:0:0:0:
256,192,126771,1,4,0:0:0:0:
256,192,126947,1,8,0:0:0:0:
256,192,127123,1,0,0:0:0:0:
256,192,127300,1,8,0:0:0:0:
256,192,127476,1,0,0:0:0:0:
256,192,127653,1,8,0:0:0:0:
256,192,127741,1,8,0:0:0:0:
256,192,127829,1,0,0:0:0:0:
256,192,128006,1,8,0:0:0:0:
256,192,128182,1,4,0:0:0:0:
256,192,128348,1,8,0:0:0:0:
256,192,128515,1,0,0:0:0:0:
256,192,128682,1,8,0:0:0:0:
256,192,128848,1,0,0:0:0:0:
256,192,128932,1,0,0:0:0:0:
256,192,129015,1,8,0:0:0:0:
256,192,129182,1,0,0:0:0:0:
256,192,129348,1,8,0:0:0:0:
256,192,129515,1,4,0:0:0:0:
256,192,129672,1,4,0:0:0:0:
256,192,129988,1,4,0:0:0:0:
256,192,130146,1,12,0:0:0:0:
256,192,130462,1,12,0:0:0:0:
256,192,130620,1,12,0:0:0:0:
256,192,130778,1,4,0:0:0:0:
256,192,131078,1,4,0:0:0:0:
256,192,131378,1,12,0:0:0:0:
256,192,131678,1,12,0:0:0:0:
256,192,131978,1,4,0:0:0:0:
256,192,132278,1,4,0:0:0:0:
256,192,132578,1,12,0:0:0:0:
256,192,132878,1,12,0:0:0:0:
256,192,133028,1,12,0:0:0:0:
256,192,133178,1,4,0:0:0:0:
256,192,133478,1,12,0:0:0:0:
192,128,133778,2,4,L|160:160,31,35
256,192,136778,1,4,0:0:0:0:
