osu file format v14

[General]
AudioFilename: audio.mp3
AudioLeadIn: 0
PreviewTime: -1
Countdown: 1
SampleSet: Normal
StackLeniency: 0.5
Mode: 0
LetterboxInBreaks: 0
WidescreenStoryboard: 0

[Editor]
DistanceSpacing: 1
BeatDivisor: 8
GridSize: 32
TimelineZoom: 2.1

[Metadata]
Title:Resurrection Spell
TitleUnicode:Resurrection Spell
Artist:ZUN remixed by LeaF
ArtistUnicode:ZUN remixed by LeaF
Creator:MrMenda
Version:Revival
Source:BMS
Tags:東方Project Touhou Project 東方永夜抄 ~ Imperishable Night. TRANCE SPEED 東方音弾遊戯4 ondanyugi4 ondanyuugi4 The 4th Toho Only BMS Festival!! 月まで届け、不死の煙 Tsuki Made Todoke, Fushi no Kemuri Reach for the Moon, Immortal Smoke 藤原妹紅 Fujiwara no Mokou
BeatmapID:1838993
BeatmapSetID:879378

[Difficulty]
HPDrainRate:6.7
CircleSize:4.2
OverallDifficulty:9
ApproachRate:9.5
SliderMultiplier:1.8
SliderTickRate:1

[Events]
//Background and Video events
0,0,"2ade1512315da9fc4624e721bbcedbf9.jpg",0,0
//Break Periods
//Storyboard Layer 0 (Background)
//Storyboard Layer 1 (Fail)
//Storyboard Layer 2 (Pass)
//Storyboard Layer 3 (Foreground)
//Storyboard Sound Samples

[TimingPoints]
64,666.666666666667,4,2,0,60,1,0
10897,-100,4,2,0,5,0,0
11064,-100,4,2,0,10,0,0
11230,-100,4,2,0,15,0,0
11397,-100,4,2,0,20,0,0
11564,-100,4,2,0,25,0,0
11730,-100,4,2,0,30,0,0
11897,-100,4,2,0,35,0,0
12064,-100,4,2,0,40,0,0
12230,-100,4,2,0,45,0,0
12397,-100,4,2,0,50,0,0
12564,-100,4,2,0,55,0,0
12730,-100,4,2,0,60,0,0
12897,-100,4,2,0,65,0,0
13064,-100,4,2,0,70,0,0
13230,-100,4,2,0,5,0,0
13397,600,4,1,1,60,1,0
15197,-133.333333333333,4,1,1,60,0,0
15797,576.923076923077,4,1,0,60,1,0
18104,555.555555555556,4,1,2,60,1,0
20326,535.714285714286,4,1,2,60,1,0
20459,-100,4,2,2,60,0,0
20593,-100,4,1,2,60,0,0
20727,-100,4,2,2,60,0,0
20861,-100,4,1,2,60,0,0
20995,-100,4,2,2,60,0,0
21129,-100,4,1,2,60,0,0
21263,-100,4,2,2,60,0,0
21397,333.333333333333,4,1,1,60,1,0
23147,-100,4,2,0,5,0,0
23230,-100,4,1,2,60,0,0
23396,333.333333333333,4,1,1,60,1,0
23896,-100,4,1,2,60,0,0
24062,-100,4,1,1,60,0,0
24562,-100,4,1,2,60,0,0
25395,-100,4,1,1,60,0,0
25645,-100,4,1,0,60,0,0
26061,333.333333333333,4,1,1,80,1,0
35394,-100,4,1,2,80,0,0
36727,-100,4,1,1,80,0,0
46060,-100,4,1,2,80,0,0
47394,-100,4,1,1,80,0,0
54060,-66.6666666666667,4,1,2,100,0,0
54227,-66.6666666666667,4,2,0,80,0,0
54283,-66.6666666666667,4,1,2,100,0,0
54449,-66.6666666666667,4,2,0,80,0,0
54505,-66.6666666666667,4,1,2,100,0,0
54672,-66.6666666666667,4,2,0,80,0,0
54727,-100,4,1,1,100,0,0
54783,-100,4,1,1,80,0,0
57310,-100,4,1,2,80,0,0
57477,-100,4,2,2,80,0,0
57644,-100,4,1,2,80,0,0
57810,-100,4,2,2,80,0,0
57894,-100,4,1,2,80,0,0
57977,-100,4,2,2,80,0,0
58060,-100,4,1,1,80,0,0
62060,-149.253731343284,4,1,1,80,0,0
63394,-100,4,1,1,80,0,0
64727,-66.6666666666667,4,1,2,100,0,0
64894,-66.6666666666667,4,2,0,80,0,0
64949,-66.6666666666667,4,1,2,100,0,0
65116,-66.6666666666667,4,2,0,80,0,0
65172,-66.6666666666667,4,1,2,100,0,0
65338,-66.6666666666667,4,2,0,80,0,0
65394,-100,4,1,1,100,0,0
65449,-100,4,1,1,80,0,0
67977,-100,4,1,2,80,0,0
68060,-66.6666666666667,4,1,2,80,0,0
68727,-100,4,1,1,60,0,0
68838,-100,4,2,1,60,0,0
69394,-100,4,1,1,60,0,0
69505,-100,4,2,1,60,0,0
70060,-100,4,1,1,60,0,0
70172,-100,4,2,1,60,0,0
70727,-100,4,1,1,60,0,0
70838,-100,4,2,1,60,0,0
71394,-100,4,1,1,60,0,0
71505,-100,4,2,1,60,0,0
72060,-100,4,1,1,60,0,0
72172,-100,4,2,1,60,0,0
72727,-100,4,1,1,60,0,0
72838,-100,4,2,1,60,0,0
73060,-100,4,1,1,60,0,0
73172,-100,4,2,1,60,0,0
73394,-100,4,1,1,60,0,0
73505,-100,4,2,1,60,0,0
73616,-100,4,1,1,60,0,0
73838,-100,4,2,1,60,0,0
73949,-100,4,1,2,60,0,0
74172,-100,4,2,1,60,0,0
74394,-100,4,1,1,60,0,0
74505,-100,4,2,1,60,0,0
74727,-100,4,1,1,60,0,0
74838,-100,4,2,1,60,0,0
75060,-100,4,1,1,60,0,0
75172,-100,4,2,1,60,0,0
75394,-100,4,1,1,60,0,0
75505,-100,4,2,1,60,0,0
75727,-100,4,1,1,60,0,0
75838,-100,4,2,1,60,0,0
76060,-100,4,1,1,60,0,0
76172,-100,4,2,1,60,0,0
76394,-100,4,1,1,60,0,0
76505,-100,4,2,1,60,0,0
76727,-100,4,1,1,60,0,0
76838,-100,4,2,1,60,0,0
76949,-100,4,1,1,60,0,0
77172,-100,4,2,1,60,0,0
77283,-100,4,1,1,60,0,0
77505,-100,4,2,1,60,0,0
77616,-100,4,1,1,60,0,0
77838,-100,4,2,1,60,0,0
77949,-100,4,1,1,60,0,0
78394,-80,4,1,1,60,0,0
78727,-66.6666666666667,4,1,1,60,0,0
79394,-100,4,1,1,80,0,0
90060,-100,4,1,1,60,0,0
90644,-100,4,2,1,5,0,0
90727,-100,4,1,1,60,0,0
90838,-100,4,2,1,60,0,0
90894,-100,4,1,1,60,0,0
91005,-100,4,2,1,60,0,0
91060,-100,4,1,0,60,0,0
91394,-100,4,1,1,60,0,0
91644,-100,4,2,0,60,0,0
91810,-100,4,1,1,60,0,0
92227,-100,4,2,0,60,0,0
92477,-100,4,1,1,60,0,0
92894,-100,4,2,0,60,0,0
93060,-100,4,1,1,60,0,0
93144,-100,4,2,0,60,0,0
93310,-100,4,1,1,60,0,0
93810,-100,4,2,0,60,0,0
93894,-100,4,1,1,60,0,0
94310,-100,4,2,0,60,0,0
94477,-100,4,1,1,60,0,0
95644,-100,4,2,1,60,0,0
95727,-100,4,1,1,60,0,0
96477,-100,4,2,1,60,0,0
96560,-100,4,1,1,60,0,0
96810,-100,4,1,2,60,0,0
98977,-100,4,1,1,60,0,0
99394,-100,4,1,1,80,0,0
100727,-100,4,1,2,80,0,0
102060,-100,4,1,1,80,0,0
108727,-100,4,1,2,80,0,0
112727,461.538461538462,4,1,1,80,1,0
112842,-100,4,2,0,60,0,0
118265,-100,4,1,0,30,0,0
120111,-100,4,1,1,60,0,0
121959,428.571428571429,4,1,1,60,1,0
123673,400,4,1,2,60,1,0
125273,375,4,1,2,60,1,0
126773,352.941176470588,4,1,2,60,1,0
128184,333.333333333333,4,1,2,60,1,0
129517,315.789473684211,4,1,2,80,1,0
130780,300,4,1,2,80,1,0
136780,600,4,1,1,80,1,0

[Colours]
Combo1 : 255,253,170
Combo2 : 255,170,255
Combo3 : 170,255,255
Combo4 : 185,255,170

[HitObjects]
127,230,2064,5,0,0:0:0:0:
44,249,2397,1,0,0:0:0:0:
103,311,2730,2,0,B|138:335|183:352|238:318|235:290|204:267|188:276|173:294,1,180
30,335,4064,2,0,B|19:347|3:357|-26:333|-30:305|24:271|69:289|104:312,1,180
103,311,5397,2,0,B|125:277|142:232|108:177|80:180|57:210|66:227|79:237,1,180
78,236,7064,5,0,0:0:0:0:
148,285,7397,1,0,0:0:0:0:
227,249,7730,1,0,0:0:0:0:
236,164,8064,2,0,B|186:167|155:201|155:201|131:167|77:167,1,180
0,85,9397,2,0,B|53:86|77:52|77:52|108:86|159:89,1,180
256,0,10730,1,0,0:0:0:0:
256,192,10814,12,0,11981,0:0:0:0:
256,192,12064,12,0,13230,0:0:0:0:
31,109,13397,6,0,L|128:121,1,90
240,21,13997,2,0,L|143:33,1,90
31,109,14597,1,0,0:0:0:0:
120,120,14897,1,0,0:0:0:0:
209,131,15197,2,0,L|311:143,1,101.250003862381
434,125,15797,6,0,P|416:176|426:226,1,90
295,57,16373,2,0,P|311:98|309:143,1,90
306,272,16950,2,0,B|327:267|349:274|349:274|286:231|221:272,1,180
64,320,18104,6,0,P|110:332|156:320,1,90
448,320,18659,2,0,P|402:332|356:320,1,90
112,192,19215,6,0,P|145:225|191:238,1,90
400,192,19770,2,0,P|366:225|320:238,1,90
192,112,20326,6,0,P|198:134|214:151,1,45
320,112,20593,2,0,P|313:134|297:151,1,45
256,16,20861,6,0,L|256:64,1,45
256,272,21129,2,0,L|256:224,1,45
77,130,21397,6,0,B|45:153|13:161|13:161|53:161|84:179|84:179|139:156|139:156|163:212|139:268|139:268|115:212|139:156|139:156|189:148|211:100|187:52|187:52|163:100|189:148|189:148|232:140|277:148|269:156|324:168|360:156|360:156|328:152|296:128,1,900
399,21,23230,5,0,0:0:0:0:
375,45,23313,1,0,0:0:0:0:
351,69,23396,1,0,0:0:0:0:
366,223,23896,5,0,0:0:0:0:
390,199,23979,1,0,0:0:0:0:
414,175,24062,1,0,0:0:0:0:
252,174,24562,5,0,0:0:0:0:
228,198,24645,1,0,0:0:0:0:
204,222,24728,1,0,0:0:0:0:
390,199,24979,5,0,0:0:0:0:
375,45,25229,1,0,0:0:0:0:
204,222,25395,5,0,0:0:0:0:
222,223,25479,1,0,0:0:0:0:
258,265,25562,5,0,0:0:0:0:
276,266,25646,1,0,0:0:0:0:
313,299,25729,5,0,0:0:0:0:
102,34,26061,5,0,0:0:0:0:
119,51,26144,1,0,0:0:0:0:
137,69,26227,1,0,0:0:0:0:
155,87,26310,1,0,0:0:0:0:
173,105,26394,5,0,0:0:0:0:
155,122,26477,1,0,0:0:0:0:
137,140,26560,1,0,0:0:0:0:
119,158,26643,1,0,0:0:0:0:
101,176,26727,5,0,0:0:0:0:
118,193,26812,1,0,0:0:0:0:
136,211,26895,1,0,0:0:0:0:
154,230,26978,1,0,0:0:0:0:
172,248,27062,5,0,0:0:0:0:
154,265,27145,1,0,0:0:0:0:
136,283,27228,1,0,0:0:0:0:
118,301,27311,1,0,0:0:0:0:
100,319,27394,5,0,0:0:0:0:
64,282,27477,1,0,0:0:0:0:
29,247,27561,1,0,0:0:0:0:
243,320,27727,5,0,0:0:0:0:
207,283,27810,1,0,0:0:0:0:
172,248,27894,1,0,0:0:0:0:
172,248,28060,5,0,0:0:0:0:
170,375,28227,1,0,0:0:0:0:
146,168,28394,5,0,0:0:0:0:
140,140,28477,1,0,0:0:0:0:
197,166,28560,5,0,0:0:0:0:
206,139,28643,1,0,0:0:0:0:
246,173,28727,5,0,0:0:0:0:
274,191,28811,1,0,0:0:0:0:
307,195,28894,1,0,0:0:0:0:
339,186,28977,1,0,0:0:0:0:
364,163,29060,5,0,0:0:0:0:
371,196,29143,1,0,0:0:0:0:
363,228,29226,1,0,0:0:0:0:
343,254,29309,1,0,0:0:0:0:
315,271,29394,5,0,0:0:0:0:
343,289,29478,1,0,0:0:0:0:
376,293,29561,1,0,0:0:0:0:
408,284,29644,1,0,0:0:0:0:
433,261,29727,5,0,0:0:0:0:
440,294,29810,1,0,0:0:0:0:
432,326,29893,1,0,0:0:0:0:
412,352,29976,1,0,0:0:0:0:
384,369,30061,5,0,0:0:0:0:
334,365,30144,1,0,0:0:0:0:
284,361,30227,1,0,0:0:0:0:
287,193,30394,5,0,0:0:0:0:
237,189,30477,1,0,0:0:0:0:
187,185,30560,1,0,0:0:0:0:
187,185,30727,1,0,0:0:0:0:
284,361,30894,1,0,0:0:0:0:
164,318,31060,5,0,0:0:0:0:
135,324,31144,1,0,0:0:0:0:
98,352,31227,5,0,0:0:0:0:
69,358,31311,1,0,0:0:0:0:
23,377,31394,5,0,0:0:0:0:
33,355,31477,1,0,0:0:0:0:
37,331,31560,1,0,0:0:0:0:
36,306,31643,1,0,0:0:0:0:
29,282,31727,5,0,0:0:0:0:
25,270,31811,1,0,0:0:0:0:
25,257,31894,1,0,0:0:0:0:
27,245,31977,1,0,0:0:0:0:
32,234,32060,5,0,0:0:0:0:
54,243,32144,1,0,0:0:0:0:
78,247,32227,1,0,0:0:0:0:
102,246,32310,1,0,0:0:0:0:
126,239,32393,5,0,0:0:0:0:
107,221,32477,1,0,0:0:0:0:
95,201,32560,1,0,0:0:0:0:
86,178,32643,1,0,0:0:0:0:
83,155,32727,5,0,0:0:0:0:
90,106,32810,1,0,0:0:0:0:
129,75,32894,1,0,0:0:0:0:
126,239,33060,5,0,0:0:0:0:
156,200,33143,1,0,0:0:0:0:
205,192,33227,1,0,0:0:0:0:
205,192,33394,1,0,0:0:0:0:
365,252,33560,1,0,0:0:0:0:
385,87,33727,5,0,0:0:0:0:
382,55,33810,1,0,0:0:0:0:
439,44,33894,5,0,0:0:0:0:
441,12,33977,1,0,0:0:0:0:
489,40,34060,5,0,0:0:0:0:
472,54,34143,1,0,0:0:0:0:
464,75,34226,1,0,0:0:0:0:
467,97,34310,1,0,0:0:0:0:
480,115,34394,5,0,0:0:0:0:
446,143,34477,1,0,0:0:0:0:
430,185,34560,1,0,0:0:0:0:
436,229,34644,1,0,0:0:0:0:
463,265,34727,5,0,0:0:0:0:
440,268,34810,1,0,0:0:0:0:
416,270,34894,1,0,0:0:0:0:
392,272,34977,1,0,0:0:0:0:
357,306,35060,5,0,0:0:0:0:
299,298,35143,1,0,0:0:0:0:
241,294,35227,1,0,0:0:0:0:
184,289,35310,1,0,0:0:0:0:
126,284,35394,6,0,L|68:280,1,45
175,95,35560,5,0,0:0:0:0:
195,138,35643,1,0,0:0:0:0:
216,182,35727,2,0,L|237:225,1,45
0,167,35894,5,0,0:0:0:0:
29,169,35977,1,0,0:0:0:0:
97,197,36060,6,0,P|103:164|92:129,1,60
0,22,36283,1,0,0:0:0:0:
0,22,36394,2,0,P|25:43|97:52,1,90
269,66,36727,5,0,0:0:0:0:
291,66,36810,1,0,0:0:0:0:
312,59,36893,1,0,0:0:0:0:
331,47,36977,1,0,0:0:0:0:
344,29,37060,5,0,0:0:0:0:
326,57,37143,1,0,0:0:0:0:
318,90,37226,1,0,0:0:0:0:
321,123,37310,1,0,0:0:0:0:
335,154,37394,5,0,0:0:0:0:
343,174,37477,1,0,0:0:0:0:
346,196,37561,1,0,0:0:0:0:
340,218,37644,1,0,0:0:0:0:
328,237,37727,5,0,0:0:0:0:
358,225,37810,1,0,0:0:0:0:
391,221,37894,1,0,0:0:0:0:
424,230,37977,1,0,0:0:0:0:
452,248,38060,5,0,0:0:0:0:
478,206,38143,1,0,0:0:0:0:
504,164,38226,1,0,0:0:0:0:
276,321,38394,5,0,0:0:0:0:
302,279,38477,1,0,0:0:0:0:
328,237,38560,1,0,0:0:0:0:
328,237,38727,1,0,0:0:0:0:
400,332,38894,1,0,0:0:0:0:
355,87,39060,5,0,0:0:0:0:
332,88,39143,1,0,0:0:0:0:
287,107,39227,5,0,0:0:0:0:
264,105,39310,1,0,0:0:0:0:
220,83,39394,5,0,0:0:0:0:
229,103,39477,1,0,0:0:0:0:
233,125,39560,1,0,0:0:0:0:
232,148,39644,1,0,0:0:0:0:
225,169,39727,5,0,0:0:0:0:
259,171,39810,1,0,0:0:0:0:
290,184,39894,1,0,0:0:0:0:
314,207,39977,1,0,0:0:0:0:
328,237,40060,5,0,2:0:0:0:
304,241,40143,1,0,2:0:0:0:
284,251,40227,1,0,2:0:0:0:
267,267,40310,1,0,2:0:0:0:
254,283,40394,5,0,2:0:0:0:
234,259,40477,1,0,2:0:0:0:
209,235,40560,1,0,2:0:0:0:
179,220,40644,1,0,2:0:0:0:
143,214,40727,5,0,2:0:0:0:
95,228,40810,1,0,0:0:0:0:
58,262,40894,1,0,0:0:0:0:
0,98,41060,5,0,2:0:0:0:
47,112,41143,1,0,0:0:0:0:
84,146,41227,1,0,0:0:0:0:
37,340,41394,1,0,0:0:0:0:
84,146,41560,1,0,0:0:0:0:
201,320,41727,5,0,0:0:0:0:
231,323,41810,1,0,0:0:0:0:
275,351,41894,5,0,0:0:0:0:
305,348,41977,1,0,0:0:0:0:
352,323,42060,5,0,0:0:0:0:
367,324,42143,1,0,0:0:0:0:
382,326,42226,1,0,0:0:0:0:
397,327,42310,1,0,0:0:0:0:
412,329,42394,5,0,0:0:0:0:
431,301,42477,1,0,0:0:0:0:
439,269,42560,1,0,0:0:0:0:
434,235,42644,1,0,0:0:0:0:
417,206,42727,5,0,0:0:0:0:
405,186,42810,1,0,0:0:0:0:
403,164,42894,1,0,0:0:0:0:
407,142,42977,1,0,0:0:0:0:
420,124,43061,5,0,0:0:0:0:
386,125,43144,1,0,0:0:0:0:
354,112,43228,1,0,0:0:0:0:
330,89,43311,1,0,0:0:0:0:
316,59,43394,5,0,0:0:0:0:
299,105,43477,1,0,0:0:0:0:
286,152,43560,1,0,0:0:0:0:
450,31,43727,5,0,0:0:0:0:
433,77,43810,1,0,0:0:0:0:
420,124,43893,1,0,0:0:0:0:
286,152,44060,1,0,0:0:0:0:
450,31,44227,1,0,0:0:0:0:
165,130,44394,5,0,0:0:0:0:
174,156,44477,1,0,0:0:0:0:
118,168,44560,5,0,0:0:0:0:
142,180,44643,1,0,0:0:0:0:
109,222,44727,5,0,0:0:0:0:
86,224,44810,1,0,0:0:0:0:
64,221,44893,1,0,0:0:0:0:
44,212,44977,1,0,0:0:0:0:
26,198,45060,5,0,0:0:0:0:
24,242,45143,1,0,0:0:0:0:
22,287,45226,1,0,0:0:0:0:
21,332,45310,1,0,0:0:0:0:
19,377,45394,5,0,0:0:0:0:
27,356,45477,1,0,0:0:0:0:
44,342,45560,1,0,0:0:0:0:
66,337,45644,1,0,0:0:0:0:
88,342,45727,5,0,0:0:0:0:
108,291,45810,1,0,0:0:0:0:
149,257,45893,1,0,0:0:0:0:
200,245,45977,1,0,0:0:0:0:
253,257,46060,6,0,P|282:264|311:260,1,60
512,258,46283,5,0,0:0:0:0:
512,258,46394,2,0,P|482:265|453:261,1,60
325,117,46616,5,0,0:0:0:0:
325,117,46727,2,0,P|317:146|321:175,1,60
422,118,46949,5,0,0:0:0:0:
422,118,47060,2,0,P|431:140|431:170,5,30
443,15,47394,6,0,L|354:22,1,90
353,22,47727,1,0,0:0:0:0:
48,173,48060,1,0,0:0:0:0:
48,96,48227,1,0,0:0:0:0:
120,72,48394,2,0,P|163:122|145:184,1,135
133,203,48727,6,0,B|197:171|197:235|261:203,1,135
329,132,49060,1,0,0:0:0:0:
341,264,49227,1,0,0:0:0:0:
341,264,49310,1,0,0:0:0:0:
341,264,49394,5,0,0:0:0:0:
470,185,49560,1,0,0:0:0:0:
329,132,49727,1,0,0:0:0:0:
493,74,49894,1,0,0:0:0:0:
298,33,50060,6,0,P|258:53|232:93,1,90
298,231,50394,2,0,P|258:210|232:171,1,90
176,5,50727,2,0,P|145:37|131:82,1,90
176,259,51061,2,0,P|145:226|131:181,1,90
21,131,51394,6,0,B|26:112|19:93|19:93|48:135|21:207,1,135
14,239,51727,1,0,0:0:0:0:
5,264,52060,1,0,0:0:0:0:
171,287,52227,1,0,0:0:0:0:
164,316,52310,1,0,0:0:0:0:
153,346,52394,1,0,0:0:0:0:
132,183,52560,1,0,0:0:0:0:
261,315,52727,6,0,P|323:332|385:320,1,90
348,330,53060,1,0,0:0:0:0:
388,72,53394,1,0,0:0:0:0:
315,95,53560,1,0,0:0:0:0:
388,195,53727,2,0,P|425:218|470:222,1,90
210,247,54060,6,0,P|236:210|276:190,1,90
470,221,54283,2,0,P|426:218|388:195,1,90
318,10,54505,2,0,P|336:50|334:95,1,90
74,51,54727,6,0,B|126:33|178:51|143:68|195:85|247:68,1,180
246,68,55227,1,0,0:0:0:0:
488,106,55394,5,0,0:0:0:0:
356,187,55560,1,0,0:0:0:0:
414,43,55727,1,0,0:0:0:0:
452,194,55894,1,0,0:0:0:0:
202,177,56060,5,0,0:0:0:0:
395,337,56226,1,0,0:0:0:0:
333,95,56393,1,0,0:0:0:0:
239,328,56560,1,0,0:0:0:0:
151,310,56727,5,0,0:0:0:0:
72,250,56894,1,0,0:0:0:0:
41,155,57060,1,0,0:0:0:0:
71,60,57227,1,0,0:0:0:0:
151,0,57394,6,0,L|154:59,1,45
291,63,57560,2,0,L|288:122,1,45
156,123,57727,2,0,L|159:182,1,45
280,190,57894,2,0,L|277:249,1,45
199,359,58060,6,0,B|158:342|158:342|279:342,1,135
301,342,58394,1,0,0:0:0:0:
452,372,58727,1,0,0:0:0:0:
385,313,58894,1,0,0:0:0:0:
469,284,59060,2,0,P|494:215|457:151,1,135
280,232,59394,6,0,B|314:249|348:232|339:223|374:206|408:223,1,135
469,284,59727,1,0,0:0:0:0:
310,154,59894,1,0,0:0:0:0:
310,154,59977,1,0,0:0:0:0:
310,154,60060,1,0,0:0:0:0:
250,310,60227,5,0,0:0:0:0:
192,185,60394,1,0,0:0:0:0:
129,323,60560,1,0,0:0:0:0:
133,125,60727,6,0,B|113:108|90:113|90:113|96:135|118:143,1,90
274,197,61060,2,0,B|300:198|315:181|315:181|298:167|274:173,1,90
118,222,61394,2,0,B|95:235|93:259|93:259|116:260|131:241,1,90
230,110,61727,2,0,B|239:85|228:65|228:65|209:77|207:102,1,90
205,268,62060,6,0,B|211:293|233:303|233:303|241:281|227:262,1,90.4499957215121
192,185,62394,1,0,0:0:0:0:
83,337,62727,1,0,0:0:0:0:
62,206,62894,1,0,0:0:0:0:
62,206,62977,1,0,0:0:0:0:
62,206,63060,1,0,0:0:0:0:
138,261,63227,1,0,0:0:0:0:
108,79,63394,6,0,B|93:53|93:53|141:69|201:53,1,135
285,15,63727,1,0,0:0:0:0:
463,318,64061,1,0,0:0:0:0:
512,248,64227,1,0,0:0:0:0:
381,289,64394,2,0,P|336:282|301:255,1,90
196,54,64727,6,0,P|240:60|275:87,1,90
233,311,64949,2,0,P|216:269|221:225,1,90
437,151,65172,2,0,P|409:185|368:203,1,90.0000034332277
208,140,65394,6,0,B|161:116|114:140|138:163|90:187|42:163,1,180
42,163,65894,1,0,0:0:0:0:
295,299,66060,5,0,0:0:0:0:
221,225,66227,1,0,0:0:0:0:
295,152,66394,1,0,0:0:0:0:
368,225,66560,1,0,0:0:0:0:
195,125,66727,5,0,0:0:0:0:
194,327,66894,1,0,0:0:0:0:
395,126,67060,1,0,0:0:0:0:
394,326,67227,1,0,0:0:0:0:
333,259,67394,5,0,0:0:0:0:
318,172,67560,1,0,0:0:0:0:
351,90,67727,1,0,0:0:0:0:
423,37,67894,1,0,0:0:0:0:
512,32,68060,6,0,L|443:37,1,67.5000025749208
430,147,68227,2,0,L|361:141,1,67.5000025749208
343,45,68394,2,0,L|274:50,1,67.5000025749208
261,134,68561,2,0,L|192:128,1,67.5000025749208
127,14,68727,6,0,P|119:60|126:82,5,60
21,116,69394,2,0,P|29:162|22:184,5,60
118,210,70060,1,0,0:0:0:0:
137,204,70171,1,0,0:0:0:0:
156,206,70282,1,0,0:0:0:0:
173,217,70393,1,0,0:0:0:0:
189,228,70504,1,0,0:0:0:0:
209,231,70615,1,0,0:0:0:0:
228,226,70727,5,0,0:0:0:0:
211,245,70838,1,0,0:0:0:0:
203,268,70949,1,0,0:0:0:0:
202,293,71060,1,0,0:0:0:0:
210,316,71171,1,0,0:0:0:0:
225,336,71282,1,0,0:0:0:0:
245,348,71394,5,0,0:0:0:0:
245,329,71505,1,0,0:0:0:0:
251,309,71616,1,0,0:0:0:0:
261,292,71727,1,0,0:0:0:0:
276,279,71838,1,0,0:0:0:0:
294,270,71949,1,0,0:0:0:0:
314,267,72060,5,0,0:0:0:0:
335,287,72171,1,0,0:0:0:0:
362,299,72282,1,0,0:0:0:0:
392,299,72393,1,0,0:0:0:0:
420,288,72504,1,0,0:0:0:0:
441,268,72615,1,0,0:0:0:0:
453,240,72727,6,0,L|450:155,1,60
483,43,72949,1,0,0:0:0:0:
483,43,73060,2,0,P|424:60|361:47,1,120
227,10,73394,2,0,L|167:15,1,60
43,89,73616,1,0,0:0:0:0:
43,89,73727,2,0,L|102:94,1,60
197,168,73949,5,0,0:0:0:0:
249,239,74060,2,0,L|309:245,1,60
197,168,74283,5,0,0:0:0:0:
126,220,74394,2,0,L|120:280,1,60
197,168,74616,5,0,0:0:0:0:
145,97,74727,2,0,L|85:91,1,60
197,168,74949,5,0,0:0:0:0:
268,116,75060,2,0,L|274:56,1,60
308,244,75283,5,0,0:0:0:0:
379,192,75394,2,0,L|385:132,1,60
360,315,75616,5,0,0:0:0:0:
308,244,75727,2,0,L|248:238,1,60
431,263,75949,5,0,0:0:0:0:
360,315,76060,2,0,L|354:375,1,60
379,192,76283,5,0,0:0:0:0:
431,263,76394,2,0,L|491:269,1,60
344,64,76616,5,0,0:0:0:0:
267,176,76727,2,0,L|272:116,1,60
456,80,76949,5,0,0:0:0:0:
379,192,77060,2,0,L|384:132,1,60
431,262,77283,2,0,L|426:322,2,60
285,348,77616,2,0,L|290:288,2,60
139,355,77949,5,0,0:0:0:0:
139,355,78060,2,0,L|73:363,1,60
42,249,78283,5,0,0:0:0:0:
117,259,78394,2,0,L|192:268,1,75
228,152,78616,5,0,0:0:0:0:
139,163,78727,2,0,L|25:176,2,90.0000034332277
117,67,79060,6,0,L|201:77,5,45.0000017166138
208,16,79394,5,0,0:0:0:0:
241,0,79477,1,0,0:0:0:0:
276,0,79560,1,0,0:0:0:0:
312,0,79643,1,0,0:0:0:0:
346,12,79727,1,0,0:0:0:0:
378,29,79810,1,0,0:0:0:0:
413,38,79893,1,0,0:0:0:0:
449,35,79977,1,0,0:0:0:0:
484,22,80060,5,0,0:0:0:0:
439,28,80143,1,0,0:0:0:0:
401,52,80226,1,0,0:0:0:0:
375,88,80309,1,0,0:0:0:0:
366,132,80393,1,0,0:0:0:0:
374,176,80476,1,0,0:0:0:0:
399,213,80559,1,0,0:0:0:0:
436,238,80643,1,0,0:0:0:0:
480,246,80727,5,0,0:0:0:0:
421,253,80811,1,0,0:0:0:0:
362,260,80895,1,0,0:0:0:0:
248,118,81060,5,0,0:0:0:0:
307,125,81144,1,0,0:0:0:0:
366,132,81228,1,0,0:0:0:0:
366,132,81394,1,0,0:0:0:0:
482,246,81560,1,0,0:0:0:0:
278,348,81727,5,0,0:0:0:0:
279,334,81810,1,0,0:0:0:0:
240,293,81894,5,0,0:0:0:0:
241,279,81976,1,0,0:0:0:0:
197,245,82060,5,0,0:0:0:0:
165,257,82143,1,0,0:0:0:0:
132,259,82226,1,0,0:0:0:0:
100,250,82309,1,0,0:0:0:0:
72,230,82393,1,0,0:0:0:0:
53,203,82476,1,0,0:0:0:0:
43,171,82559,1,0,0:0:0:0:
45,137,82643,1,0,0:0:0:0:
58,106,82727,5,0,0:0:0:0:
78,132,82810,1,0,0:0:0:0:
106,150,82893,1,0,0:0:0:0:
139,158,82976,1,0,0:0:0:0:
172,155,83060,1,0,0:0:0:0:
203,141,83143,1,0,0:0:0:0:
227,118,83226,1,0,0:0:0:0:
242,88,83310,1,0,0:0:0:0:
247,55,83394,5,0,0:0:0:0:
303,50,83477,1,0,0:0:0:0:
359,45,83560,1,0,0:0:0:0:
512,179,83727,5,0,0:0:0:0:
455,174,83810,1,0,0:0:0:0:
399,169,83893,1,0,0:0:0:0:
280,285,84060,1,0,0:0:0:0:
359,45,84227,1,0,0:0:0:0:
17,119,84394,5,0,0:0:0:0:
2,150,84477,1,0,0:0:0:0:
73,128,84560,5,0,0:0:0:0:
45,148,84643,1,0,0:0:0:0:
78,165,84727,5,0,0:0:0:0:
101,185,84810,1,0,0:0:0:0:
116,211,84893,1,0,0:0:0:0:
123,241,84976,1,0,0:0:0:0:
119,272,85060,1,0,0:0:0:0:
105,299,85143,1,0,0:0:0:0:
83,321,85226,1,0,0:0:0:0:
56,334,85310,1,0,0:0:0:0:
25,338,85394,5,0,0:0:0:0:
40,296,85477,1,0,0:0:0:0:
71,264,85560,1,0,0:0:0:0:
113,247,85643,1,0,0:0:0:0:
157,248,85727,1,0,0:0:0:0:
201,249,85810,1,0,0:0:0:0:
243,232,85893,1,0,0:0:0:0:
273,200,85976,1,0,0:0:0:0:
289,158,86060,5,0,0:0:0:0:
308,208,86144,1,0,0:0:0:0:
345,248,86227,1,0,0:0:0:0:
241,53,86393,5,0,0:0:0:0:
222,103,86477,1,0,0:0:0:0:
185,143,86560,1,0,0:0:0:0:
397,162,86727,1,0,0:0:0:0:
128,62,86894,1,0,0:0:0:0:
216,281,87060,5,0,0:0:0:0:
209,304,87144,1,0,0:0:0:0:
243,334,87227,5,0,0:0:0:0:
250,357,87311,1,0,0:0:0:0:
299,378,87394,5,0,0:0:0:0:
309,346,87477,1,0,0:0:0:0:
330,319,87560,1,0,0:0:0:0:
358,301,87643,1,0,0:0:0:0:
391,293,87727,1,0,0:0:0:0:
424,297,87810,1,0,0:0:0:0:
455,311,87893,1,0,0:0:0:0:
479,334,87977,1,0,0:0:0:0:
494,364,88060,5,0,0:0:0:0:
496,330,88143,1,0,0:0:0:0:
497,297,88226,1,0,0:0:0:0:
499,263,88309,1,0,0:0:0:0:
463,226,88394,5,0,0:0:0:0:
461,192,88477,1,0,0:0:0:0:
459,158,88560,1,0,0:0:0:0:
457,124,88643,1,0,0:0:0:0:
488,80,88727,5,0,0:0:0:0:
434,86,88810,1,0,0:0:0:0:
385,91,88894,1,0,0:0:0:0:
225,200,89060,5,0,0:0:0:0:
279,206,89143,1,0,0:0:0:0:
328,211,89227,1,0,0:0:0:0:
453,7,89394,1,0,0:0:0:0:
328,211,89560,1,0,0:0:0:0:
139,77,89727,5,0,0:0:0:0:
169,72,89810,1,0,0:0:0:0:
219,94,89894,5,0,0:0:0:0:
249,89,89977,1,0,0:0:0:0:
256,192,90060,12,0,90644,0:0:0:0:
320,37,90727,6,0,L|395:49,1,45
483,118,90894,2,0,L|408:130,1,45
203,172,91060,2,0,B|179:129|203:73|203:73|198:91|202:104,1,135
305,240,91394,6,0,L|124:264,1,180
394,228,91894,1,0,0:0:0:0:
36,274,92060,1,0,0:0:0:0:
36,274,92560,1,0,0:0:0:0:
131,359,92726,1,0,0:0:0:0:
145,237,92977,5,0,0:0:0:0:
163,267,93060,1,0,0:0:0:0:
296,172,93310,5,0,0:0:0:0:
278,202,93393,1,0,0:0:0:0:
159,115,93560,5,0,0:0:0:0:
145,237,93727,1,0,0:0:0:0:
131,359,93893,1,0,0:0:0:0:
361,223,94060,5,0,0:0:0:0:
361,223,94560,5,0,0:0:0:0:
131,359,94727,1,0,0:0:0:0:
131,359,95060,5,0,0:0:0:0:
246,291,95227,1,0,0:0:0:0:
361,223,95394,1,0,0:0:0:0:
361,223,95727,5,0,0:0:0:0:
246,291,95894,1,0,0:0:0:0:
476,155,96060,5,0,0:0:0:0:
453,324,96227,1,0,0:0:0:0:
465,339,96394,1,0,0:0:0:0:
477,354,96560,1,0,0:0:0:0:
262,182,96727,5,0,0:0:0:0:
363,318,96893,1,0,0:0:0:0:
320,330,96977,1,0,0:0:0:0:
66,240,97394,5,0,0:0:0:0:
109,252,97478,1,0,0:0:0:0:
151,286,97560,5,0,0:0:0:0:
194,274,97644,1,0,0:0:0:0:
172,89,98060,5,0,0:0:0:0:
129,101,98144,1,0,0:0:0:0:
86,113,98227,1,0,0:0:0:0:
256,192,98394,1,0,0:0:0:0:
154,9,98560,5,0,0:0:0:0:
172,89,98644,1,0,0:0:0:0:
340,89,98810,5,0,0:0:0:0:
358,9,98894,1,0,0:0:0:0:
256,192,99060,5,0,0:0:0:0:
448,272,99394,5,0,0:0:0:0:
256,192,99560,1,0,0:0:0:0:
512,192,99727,1,0,0:0:0:0:
320,272,99894,1,0,0:0:0:0:
448,16,100060,5,0,0:0:0:0:
448,272,100227,1,0,0:0:0:0:
320,16,100394,1,0,0:0:0:0:
320,272,100561,1,0,0:0:0:0:
179,99,100727,6,0,B|153:84|153:84|123:81,2,60
0,129,101060,2,0,B|25:113|25:113|43:89,2,60
78,17,101394,5,0,0:0:0:0:
124,82,101505,1,0,0:0:0:0:
76,160,101616,1,0,0:0:0:0:
133,241,101727,2,0,P|156:253|186:258,5,30
287,356,102060,5,0,0:0:0:0:
255,324,102143,1,0,0:0:0:0:
240,282,102226,1,0,0:0:0:0:
245,238,102309,1,0,0:0:0:0:
269,200,102394,5,0,0:0:0:0:
296,192,102477,1,0,0:0:0:0:
323,185,102560,1,0,0:0:0:0:
350,178,102643,1,0,0:0:0:0:
378,171,102727,5,0,0:0:0:0:
362,154,102810,1,0,0:0:0:0:
353,134,102893,1,0,0:0:0:0:
349,112,102976,1,0,0:0:0:0:
353,90,103060,1,0,0:0:0:0:
363,70,103143,1,0,0:0:0:0:
379,54,103226,1,0,0:0:0:0:
399,43,103310,1,0,0:0:0:0:
421,40,103394,5,0,0:0:0:0:
406,70,103477,1,0,0:0:0:0:
381,92,103560,1,0,0:0:0:0:
349,101,103643,1,0,0:0:0:0:
315,97,103728,5,0,0:0:0:0:
292,53,103811,1,0,0:0:0:0:
248,30,103894,1,0,0:0:0:0:
198,36,103977,1,0,0:0:0:0:
161,69,104061,1,0,0:0:0:0:
150,118,104144,1,0,0:0:0:0:
168,164,104227,1,0,0:0:0:0:
209,192,104311,1,0,0:0:0:0:
259,191,104394,5,0,0:0:0:0:
306,237,104477,1,0,0:0:0:0:
355,284,104560,1,0,0:0:0:0:
404,332,104643,1,0,0:0:0:0:
447,384,104727,5,0,0:0:0:0:
399,354,104810,1,0,0:0:0:0:
344,343,104893,1,0,0:0:0:0:
288,353,104976,1,0,0:0:0:0:
239,381,105060,5,0,0:0:0:0:
266,332,105144,1,0,0:0:0:0:
308,297,105227,1,0,0:0:0:0:
361,277,105310,1,0,0:0:0:0:
417,280,105394,5,0,0:0:0:0:
370,251,105477,1,0,0:0:0:0:
314,240,105560,1,0,0:0:0:0:
260,250,105643,1,0,0:0:0:0:
211,278,105727,5,0,0:0:0:0:
238,229,105811,1,0,0:0:0:0:
280,194,105894,1,0,0:0:0:0:
333,174,105977,1,0,0:0:0:0:
389,177,106060,5,0,0:0:0:0:
443,182,106143,1,0,0:0:0:0:
464,132,106227,1,0,0:0:0:0:
426,95,106310,1,0,0:0:0:0:
377,122,106394,5,0,0:0:0:0:
330,151,106477,1,0,0:0:0:0:
290,116,106560,1,0,0:0:0:0:
308,65,106644,1,0,0:0:0:0:
360,67,106727,1,0,0:0:0:0:
75,148,106894,5,0,0:0:0:0:
37,147,106977,1,0,0:0:0:0:
73,107,107060,5,0,0:0:0:0:
37,98,107144,1,0,0:0:0:0:
79,76,107227,5,0,0:0:0:0:
49,57,107311,1,0,0:0:0:0:
101,30,107394,5,0,0:0:0:0:
144,0,107477,1,0,0:0:0:0:
197,0,107560,1,0,0:0:0:0:
242,28,107643,1,0,0:0:0:0:
264,75,107727,1,0,0:0:0:0:
257,128,107810,1,0,0:0:0:0:
222,167,107893,1,0,0:0:0:0:
172,182,107977,1,0,0:0:0:0:
121,167,108060,5,0,0:0:0:0:
162,184,108143,1,0,0:0:0:0:
203,202,108226,1,0,0:0:0:0:
244,220,108309,1,0,0:0:0:0:
286,238,108393,1,0,0:0:0:0:
327,255,108476,1,0,0:0:0:0:
368,273,108559,1,0,0:0:0:0:
410,291,108643,1,0,0:0:0:0:
451,309,108727,6,0,L|504:331,1,45
512,120,108894,5,0,0:0:0:0:
463,139,108978,1,0,0:0:0:0:
416,160,109060,2,0,L|355:184,1,45
197,116,109227,5,0,0:0:0:0:
203,88,109310,1,0,0:0:0:0:
260,56,109394,6,0,L|320:80,2,60
152,17,109727,6,0,P|80:15|61:97,1,120
5,181,110060,5,0,0:0:0:0:
75,201,110171,1,0,0:0:0:0:
145,177,110282,1,0,0:0:0:0:
190,118,110394,5,0,0:0:0:0:
235,177,110505,1,0,0:0:0:0:
280,236,110616,1,0,0:0:0:0:
325,295,110727,5,0,0:0:0:0:
370,236,110839,1,0,0:0:0:0:
440,212,110950,1,0,0:0:0:0:
510,232,111061,5,0,0:0:0:0:
432,320,111227,1,0,0:0:0:0:
189,238,111394,5,0,0:0:0:0:
325,295,111560,1,0,0:0:0:0:
461,121,111727,5,0,0:0:0:0:
325,178,111893,1,0,0:0:0:0:
107,60,112060,5,0,0:0:0:0:
134,25,112143,1,0,0:0:0:0:
176,11,112226,1,0,0:0:0:0:
219,25,112309,1,0,0:0:0:0:
246,59,112394,1,0,0:0:0:0:
273,93,112478,1,0,0:0:0:0:
316,106,112561,1,0,0:0:0:0:
358,93,112644,1,0,0:0:0:0:
385,58,112727,5,0,0:0:0:0:
396,79,112957,1,0,0:0:0:0:
484,139,113188,1,0,0:0:0:0:
473,160,113418,1,0,0:0:0:0:
394,194,113649,5,0,0:0:0:0:
364,277,113880,1,0,0:0:0:0:
405,354,114111,6,0,L|213:337,1,180
195,332,114803,1,0,0:0:0:0:
38,284,115034,1,0,0:0:0:0:
71,279,115265,1,0,0:0:0:0:
230,192,115496,1,0,0:0:0:0:
197,187,115727,5,0,0:0:0:0:
108,188,115957,1,0,0:0:0:0:
72,111,116188,1,0,0:0:0:0:
127,52,116419,2,0,B|87:91|47:52|113:-14|100:91|200:54,1,180
385,52,117342,2,0,B|424:91|464:52|398:-14|411:91|311:54,1,180
256,0,118034,1,0,0:0:0:0:
256,128,118265,5,0,0:0:0:0:
336,176,118496,1,0,0:0:0:0:
354,181,118611,1,0,0:0:0:0:
372,186,118727,1,0,0:0:0:0:
416,112,118957,1,0,0:0:0:0:
434,107,119072,1,0,0:0:0:0:
452,102,119188,1,0,0:0:0:0:
462,184,119419,5,0,0:0:0:0:
472,266,119650,1,0,0:0:0:0:
344,304,120111,5,0,0:0:0:0:
324,308,120227,1,0,0:0:0:0:
264,368,120457,1,0,0:0:0:0:
244,364,120573,1,0,0:0:0:0:
196,288,120803,1,0,0:0:0:0:
176,292,120919,1,0,0:0:0:0:
156,296,121034,1,0,0:0:0:0:
80,316,121265,1,0,0:0:0:0:
4,336,121496,1,0,0:0:0:0:
0,160,121959,5,0,0:0:0:0:
20,164,122066,1,0,0:0:0:0:
80,224,122280,1,0,0:0:0:0:
100,220,122387,1,0,0:0:0:0:
148,144,122601,1,0,0:0:0:0:
168,148,122709,1,0,0:0:0:0:
188,152,122816,1,0,0:0:0:0:
264,172,123030,1,0,0:0:0:0:
340,192,123244,1,0,0:0:0:0:
512,32,123673,5,0,0:0:0:0:
448,96,123873,1,0,0:0:0:0:
512,160,124073,1,0,0:0:0:0:
448,224,124273,1,0,0:0:0:0:
311,381,124473,5,0,0:0:0:0:
384,307,124673,1,0,0:0:0:0:
311,233,124873,1,0,0:0:0:0:
384,160,125073,1,0,0:0:0:0:
224,32,125273,5,0,0:0:0:0:
160,96,125460,1,0,0:0:0:0:
224,160,125648,1,0,0:0:0:0:
160,224,125835,1,0,0:0:0:0:
23,381,126023,5,0,0:0:0:0:
96,307,126210,1,0,0:0:0:0:
23,233,126398,1,0,0:0:0:0:
96,160,126585,1,0,0:0:0:0:
300,216,126773,5,0,0:0:0:0:
216,241,126949,1,0,0:0:0:0:
167,169,127125,1,0,0:0:0:0:
221,101,127301,1,0,0:0:0:0:
303,128,127479,5,0,0:0:0:0:
462,179,127655,1,0,0:0:0:0:
364,44,127831,1,0,0:0:0:0:
363,211,128008,1,0,0:0:0:0:
462,76,128184,5,0,0:0:0:0:
242,170,128350,1,0,0:0:0:0:
462,179,128517,1,0,0:0:0:0:
242,273,128684,1,0,0:0:0:0:
242,67,128850,5,0,0:0:0:0:
352,278,129017,1,0,0:0:0:0:
352,71,129184,1,0,0:0:0:0:
462,282,129350,1,0,0:0:0:0:
141,119,129517,5,0,0:0:0:0:
462,179,129674,1,0,0:0:0:0:
471,180,129990,5,0,0:0:0:0:
167,319,130147,1,0,0:0:0:0:
162,325,130464,5,0,0:0:0:0:
331,27,130621,1,0,0:0:0:0:
369,367,130780,6,0,P|342:305|352:249,1,90
471,180,131080,2,0,L|364:186,1,90
111,200,131380,2,0,L|218:194,1,90
213,13,131680,2,0,P|240:75|230:131,1,90
32,320,131980,5,0,0:0:0:0:
128,384,132130,1,0,0:0:0:0:
240,218,132280,5,0,0:0:0:0:
136,269,132430,1,0,0:0:0:0:
48,90,132580,5,0,0:0:0:0:
144,154,132730,1,0,0:0:0:0:
258,0,132880,5,0,0:0:0:0:
152,39,133030,1,0,0:0:0:0:
144,154,133180,5,0,0:0:0:0:
240,218,133330,1,0,0:0:0:0:
351,51,133480,1,0,0:0:0:0:
247,102,133630,1,0,0:0:0:0:
467,352,133780,5,0,0:0:0:0:
452,338,133855,1,0,0:0:0:0:
440,323,133930,1,0,0:0:0:0:
429,307,134005,1,0,0:0:0:0:
419,289,134080,1,0,0:0:0:0:
412,271,134155,1,0,0:0:0:0:
406,252,134230,1,0,0:0:0:0:
403,233,134305,1,0,0:0:0:0:
401,213,134380,1,0,0:0:0:0:
402,193,134455,1,0,0:0:0:0:
405,174,134530,1,0,0:0:0:0:
410,155,134605,1,0,0:0:0:0:
416,136,134680,1,0,0:0:0:0:
425,119,134755,1,0,0:0:0:0:
436,102,134830,1,0,0:0:0:0:
448,87,134905,1,0,0:0:0:0:
461,73,134980,5,0,0:0:0:0:
438,70,135055,1,0,0:0:0:0:
416,68,135130,1,0,0:0:0:0:
393,66,135205,1,0,0:0:0:0:
371,64,135280,1,0,0:0:0:0:
349,62,135355,1,0,0:0:0:0:
326,59,135430,1,0,0:0:0:0:
304,57,135505,1,0,0:0:0:0:
281,55,135580,1,0,0:0:0:0:
259,53,135655,1,0,0:0:0:0:
237,51,135730,1,0,0:0:0:0:
214,49,135805,1,0,0:0:0:0:
192,46,135880,1,0,0:0:0:0:
169,44,135955,1,0,0:0:0:0:
147,42,136030,1,0,0:0:0:0:
125,40,136105,1,0,0:0:0:0:
102,38,136180,5,0,0:0:0:0:
0,192,136780,5,0,0:1:0:0:
