osu file format v14

[General]
AudioFilename: audio.mp3
AudioLeadIn: 0
PreviewTime: 89290
Countdown: 0
SampleSet: Soft
StackLeniency: 0.7
Mode: 3
LetterboxInBreaks: 0
SpecialStyle: 0
WidescreenStoryboard: 0

[Editor]
Bookmarks: 2987,4487,16487,26237,27737,28487,31487,49487,71987,89987
DistanceSpacing: 0.6
BeatDivisor: 4
GridSize: 4
TimelineZoom: 1.4

[Metadata]
Title:Arianrhod
TitleUnicode:Arianrhod
Artist:ZUN remixed by LeaF
ArtistUnicode:ZUN remixed by LeaF
Creator:Gekido-kun
Version:NM
Source:東方Project
Tags:Touhou 6 Embodiment of the Scarlet Devil Sakuya Izayoi Boss Theme Remix Lunar Clock Luna Dial
BeatmapID:1048194
BeatmapSetID:491987

[Difficulty]
HPDrainRate:7.2
CircleSize:5
OverallDifficulty:7
ApproachRate:5
SliderMultiplier:1.4
SliderTickRate:1

[Events]
//Background and Video events
0,0,"diodiditfirstbutsakuyadiditright.jpg",0,0
//Break Periods
//Storyboard Layer 0 (Background)
//Storyboard Layer 1 (Fail)
//Storyboard Layer 2 (Pass)
//Storyboard Layer 3 (Foreground)
//Storyboard Sound Samples

[TimingPoints]
28,375,4,2,1,10,1,0
1528,-100,4,2,1,45,0,0
15028,-117.647058823529,4,2,1,45,0,0
16528,-100,4,2,1,45,0,1
27778,-100,4,2,1,45,0,0
33028,-117.647058823529,4,2,1,20,0,0
34153,-100,4,2,1,45,0,0
90028,-100,4,2,1,45,0,1
101278,-100,4,2,1,45,0,0
115903,-200,4,2,1,45,0,0

[HitObjects]
256,192,28,128,0,1528:0:0:0:0:
51,192,1528,1,0,0:0:0:0:
153,192,1528,1,4,0:0:0:0:
460,192,1715,1,4,0:0:0:0:
358,192,1715,1,0,0:0:0:0:
256,192,1996,1,0,0:0:0:0:
153,192,1996,1,0,0:0:0:0:
460,192,2278,1,0,0:0:0:0:
358,192,2278,1,0,0:0:0:0:
153,192,2559,1,0,0:0:0:0:
51,192,2559,1,0,0:0:0:0:
51,192,2840,1,0,0:0:0:0:
460,192,2840,1,0,0:0:0:0:
358,192,3028,1,0,0:0:0:0:
256,192,3028,1,0,0:0:0:0:
256,192,3403,1,0,0:0:0:0:
153,192,3403,1,0,0:0:0:0:
256,192,3778,1,0,0:0:0:0:
358,192,3778,1,0,0:0:0:0:
153,192,3965,1,0,0:0:0:0:
460,192,4153,1,0,0:0:0:0:
358,192,4246,1,0,0:0:0:0:
256,192,4340,128,0,4528:0:0:0:0:
51,192,4528,1,0,0:0:0:0:
460,192,4528,1,4,0:0:0:0:
153,192,4903,1,0,0:0:0:0:
358,192,4903,1,0,0:0:0:0:
51,192,5278,1,0,0:0:0:0:
460,192,5278,1,0,0:0:0:0:
358,192,5653,1,0,0:0:0:0:
256,192,5653,1,0,0:0:0:0:
153,192,6028,1,0,0:0:0:0:
460,192,6028,1,0,0:0:0:0:
51,192,6403,1,0,0:0:0:0:
358,192,6403,1,0,0:0:0:0:
460,192,6778,1,0,0:0:0:0:
358,192,6965,1,0,0:0:0:0:
51,192,7153,1,0,0:0:0:0:
153,192,7246,1,0,0:0:0:0:
256,192,7340,1,0,0:0:0:0:
51,192,7528,1,0,0:0:0:0:
460,192,7528,1,4,0:0:0:0:
256,192,7903,1,0,0:0:0:0:
358,192,7903,1,0,0:0:0:0:
153,192,8278,1,0,0:0:0:0:
51,192,8278,1,0,0:0:0:0:
358,192,8653,1,0,0:0:0:0:
460,192,8653,1,0,0:0:0:0:
256,192,9028,1,0,0:0:0:0:
153,192,9028,1,0,0:0:0:0:
460,192,9403,1,0,0:0:0:0:
51,192,9403,1,0,0:0:0:0:
153,192,9778,128,0,9965:0:0:0:0:
256,192,9965,128,0,10153:0:0:0:0:
358,192,10153,128,0,10528:0:0:0:0:
256,192,10528,1,0,0:0:0:0:
51,192,10528,128,0,10903:0:0:0:0:
358,192,10903,128,0,11278:0:0:0:0:
460,192,10903,1,0,0:0:0:0:
153,192,11278,128,0,11653:0:0:0:0:
256,192,11278,1,0,0:0:0:0:
460,192,11653,128,0,12028:0:0:0:0:
51,192,11653,1,0,0:0:0:0:
256,192,12028,128,0,12403:0:0:0:0:
153,192,12028,1,0,0:0:0:0:
358,192,12403,1,0,0:0:0:0:
51,192,12403,128,0,12778:0:0:0:0:
460,192,12778,128,0,13528:0:0:0:0:
256,192,12778,1,0,0:0:0:0:
358,192,12965,1,0,0:0:0:0:
256,192,13153,1,0,0:0:0:0:
153,192,13246,1,0,0:0:0:0:
51,192,13340,1,0,0:0:0:0:
358,192,13528,1,4,0:0:0:0:
256,192,13528,1,0,0:0:0:0:
153,192,13903,1,0,0:0:0:0:
256,192,13903,1,0,0:0:0:0:
51,192,14278,1,0,0:0:0:0:
358,192,14278,1,0,0:0:0:0:
460,192,14653,1,0,0:0:0:0:
358,192,14746,1,0,0:0:0:0:
256,192,14840,1,0,0:0:0:0:
153,192,14934,1,0,0:0:0:0:
51,192,15028,1,8,0:0:0:0:
460,192,15215,1,2,0:0:0:0:
153,192,15403,1,8,0:0:0:0:
358,192,15590,1,2,0:0:0:0:
51,192,15778,1,8,0:0:0:0:
153,192,16153,1,8,0:0:0:0:
256,192,16340,1,0,0:0:0:0:
256,192,16528,1,0,0:0:0:0:
460,192,16715,1,0,0:0:0:0:
51,192,16903,1,0,0:0:0:0:
358,192,17090,1,0,0:0:0:0:
153,192,17278,1,0,0:0:0:0:
256,192,17465,1,0,0:0:0:0:
51,192,17653,128,0,18028:0:0:0:0:
460,192,18028,1,0,0:0:0:0:
358,192,18215,1,0,0:0:0:0:
256,192,18403,1,0,0:0:0:0:
51,192,18590,1,0,0:0:0:0:
460,192,18778,1,0,0:0:0:0:
358,192,18965,1,0,0:0:0:0:
256,192,19153,128,0,19528:0:0:0:0:
153,192,19528,1,0,0:0:0:0:
358,192,19715,1,0,0:0:0:0:
51,192,19903,1,0,0:0:0:0:
256,192,20090,1,0,0:0:0:0:
460,192,20278,1,0,0:0:0:0:
358,192,20465,1,0,0:0:0:0:
153,192,20653,128,0,21028:0:0:0:0:
460,192,21028,1,0,0:0:0:0:
256,192,21215,1,0,0:0:0:0:
51,192,21403,1,0,0:0:0:0:
153,192,21590,1,0,0:0:0:0:
358,192,21778,1,0,0:0:0:0:
460,192,21965,1,0,0:0:0:0:
256,192,22153,128,0,22528:0:0:0:0:
153,192,22528,1,0,0:0:0:0:
358,192,22528,1,4,0:0:0:0:
460,192,22715,1,0,0:0:0:0:
51,192,22903,1,0,0:0:0:0:
358,192,23090,1,0,0:0:0:0:
153,192,23278,1,0,0:0:0:0:
460,192,23465,1,0,0:0:0:0:
358,192,23653,128,0,24028:0:0:0:0:
51,192,24028,1,0,0:0:0:0:
153,192,24215,1,0,0:0:0:0:
460,192,24403,1,0,0:0:0:0:
358,192,24590,1,0,0:0:0:0:
51,192,24778,1,0,0:0:0:0:
256,192,24965,1,0,0:0:0:0:
460,192,25153,128,0,25528:0:0:0:0:
358,192,25528,1,4,0:0:0:0:
153,192,25528,1,0,0:0:0:0:
51,192,25715,1,0,0:0:0:0:
256,192,25903,1,0,0:0:0:0:
460,192,26090,1,0,0:0:0:0:
153,192,26278,1,0,0:0:0:0:
51,192,26465,1,0,0:0:0:0:
358,192,26653,1,4,0:0:0:0:
153,192,26778,1,4,0:0:0:0:
460,192,26903,1,4,0:0:0:0:
51,192,27028,1,4,0:0:0:0:
256,192,27153,1,4,0:0:0:0:
358,192,27278,1,4,0:0:0:0:
153,192,27403,1,4,0:0:0:0:
460,192,27528,1,4,0:0:0:0:
256,192,27653,1,4,0:0:0:0:
51,192,27778,1,0,0:0:0:0:
153,192,27840,1,0,0:0:0:0:
460,192,28153,1,0,0:0:0:0:
358,192,28215,1,0,0:0:0:0:
256,192,28340,128,0,28528:0:0:0:0:
358,192,28528,1,4,0:0:0:0:
153,192,28528,1,0,0:0:0:0:
51,192,28903,1,0,0:0:0:0:
460,192,28903,1,0,0:0:0:0:
153,192,29278,1,0,0:0:0:0:
358,192,29278,1,0,0:0:0:0:
51,192,29653,1,0,0:0:0:0:
460,192,29653,1,0,0:0:0:0:
51,192,30028,128,0,30778:0:0:0:0:
256,192,30403,128,0,30778:0:0:0:0:
460,192,30778,128,0,31528:0:0:0:0:
256,192,31340,128,0,31528:0:0:0:0:
51,192,31528,128,0,31903:0:0:0:0:
358,192,31903,1,0,0:0:0:0:
153,192,31903,1,0,0:0:0:0:
51,192,32278,1,0,0:0:0:0:
460,192,32278,1,0,0:0:0:0:
358,192,32653,1,0,0:0:0:0:
153,192,32653,1,0,0:0:0:0:
51,192,33028,128,0,34153:0:0:0:0:
460,192,33403,128,0,34153:0:0:0:0:
153,192,33778,128,0,34153:0:0:0:0:
256,192,34153,128,0,34528:0:0:0:0:
358,192,34528,1,0,0:0:0:0:
460,192,34528,1,4,0:0:0:0:
51,192,34903,1,0,0:0:0:0:
153,192,34903,1,0,0:0:0:0:
358,192,35278,1,0,0:0:0:0:
460,192,35278,1,0,0:0:0:0:
51,192,35653,1,0,0:0:0:0:
460,192,35653,1,0,0:0:0:0:
153,192,35840,1,0,0:0:0:0:
358,192,35840,1,0,0:0:0:0:
51,192,36215,1,0,0:0:0:0:
460,192,36215,1,4,0:0:0:0:
256,192,36215,1,0,0:0:0:0:
153,192,36403,1,0,0:0:0:0:
358,192,36590,1,0,0:0:0:0:
51,192,36778,1,4,0:0:0:0:
153,192,36871,1,4,0:0:0:0:
256,192,36965,1,4,0:0:0:0:
460,192,37153,1,0,0:0:0:0:
153,192,37340,1,0,0:0:0:0:
256,192,37434,1,0,0:0:0:0:
358,192,37528,1,4,0:0:0:0:
460,192,37715,1,0,0:0:0:0:
51,192,37903,1,0,0:0:0:0:
358,192,38090,1,0,0:0:0:0:
153,192,38278,1,0,0:0:0:0:
460,192,38465,1,0,0:0:0:0:
51,192,38653,1,0,0:0:0:0:
256,192,38840,1,0,0:0:0:0:
460,192,39028,1,0,0:0:0:0:
153,192,39215,1,0,0:0:0:0:
358,192,39403,1,0,0:0:0:0:
256,192,39590,1,0,0:0:0:0:
51,192,39778,1,0,0:0:0:0:
153,192,39965,1,0,0:0:0:0:
460,192,40153,1,0,0:0:0:0:
358,192,40340,1,0,0:0:0:0:
256,192,40528,1,0,0:0:0:0:
51,192,40715,1,0,0:0:0:0:
460,192,40903,1,0,0:0:0:0:
153,192,41090,1,0,0:0:0:0:
358,192,41278,1,0,0:0:0:0:
51,192,41465,1,0,0:0:0:0:
460,192,41653,1,0,0:0:0:0:
256,192,41840,1,0,0:0:0:0:
51,192,42028,1,0,0:0:0:0:
153,192,42215,1,0,0:0:0:0:
460,192,42403,1,0,0:0:0:0:
358,192,42590,1,0,0:0:0:0:
51,192,42778,1,0,0:0:0:0:
256,192,42965,1,0,0:0:0:0:
460,192,43153,128,4,43528:0:0:0:0:
51,192,43340,128,4,43528:0:0:0:0:
256,192,43528,1,0,0:0:0:0:
358,192,43528,1,4,0:0:0:0:
153,192,43715,1,0,0:0:0:0:
460,192,43903,1,0,0:0:0:0:
51,192,44090,1,0,0:0:0:0:
358,192,44278,1,0,0:0:0:0:
153,192,44465,1,0,0:0:0:0:
460,192,44653,1,0,0:0:0:0:
51,192,44840,1,0,0:0:0:0:
358,192,45028,1,0,0:0:0:0:
153,192,45215,128,0,45403:0:0:0:0:
256,192,45590,128,0,45778:0:0:0:0:
358,192,45965,128,0,46153:0:0:0:0:
460,192,46340,1,0,0:0:0:0:
51,192,46528,1,4,0:0:0:0:
460,192,46653,1,0,0:0:0:0:
153,192,46778,1,4,0:0:0:0:
358,192,46903,1,0,0:0:0:0:
256,192,47028,1,4,0:0:0:0:
51,192,47153,1,0,0:0:0:0:
358,192,47278,1,4,0:0:0:0:
153,192,47403,1,0,0:0:0:0:
460,192,47528,1,4,0:0:0:0:
256,192,47653,1,0,0:0:0:0:
51,192,47778,1,4,0:0:0:0:
358,192,47903,1,0,0:0:0:0:
460,192,48215,1,0,0:0:0:0:
358,192,48403,1,0,0:0:0:0:
256,192,48590,1,0,0:0:0:0:
153,192,48778,1,0,0:0:0:0:
51,192,48965,1,0,0:0:0:0:
358,192,49153,1,0,0:0:0:0:
256,192,49340,1,0,0:0:0:0:
51,192,49528,1,4,0:0:0:0:
153,192,49528,1,0,0:0:0:0:
460,192,50090,1,2,0:0:0:0:
51,192,50278,1,2,0:0:0:0:
153,192,50559,1,2,0:0:0:0:
358,192,50840,1,2,0:0:0:0:
256,192,51215,1,2,0:0:0:0:
256,192,51496,1,2,0:0:0:0:
51,192,51778,1,2,0:0:0:0:
153,192,51871,1,2,0:0:0:0:
358,192,52059,1,0,0:0:0:0:
460,192,52153,1,2,0:0:0:0:
256,192,52340,1,2,0:0:0:0:
153,192,52528,1,2,0:0:0:0:
460,192,52528,1,2,0:0:0:0:
256,192,53278,1,2,0:0:0:0:
153,192,53559,1,2,0:0:0:0:
358,192,53840,1,2,0:0:0:0:
51,192,54496,1,2,0:0:0:0:
460,192,54778,1,2,0:0:0:0:
358,192,54871,1,2,0:0:0:0:
153,192,55153,1,4,0:0:0:0:
51,192,55153,1,0,0:0:0:0:
460,192,55528,1,0,0:0:0:0:
256,192,55528,1,0,0:0:0:0:
358,192,55903,1,0,0:0:0:0:
153,192,55903,1,0,0:0:0:0:
256,192,56278,1,0,0:0:0:0:
51,192,56278,1,0,0:0:0:0:
358,192,56653,1,0,0:0:0:0:
460,192,56653,1,0,0:0:0:0:
51,192,57028,1,0,0:0:0:0:
153,192,57028,1,0,0:0:0:0:
256,192,57403,1,0,0:0:0:0:
460,192,57403,1,0,0:0:0:0:
358,192,57778,1,0,0:0:0:0:
51,192,57778,1,0,0:0:0:0:
153,192,58153,1,0,0:0:0:0:
460,192,58153,1,0,0:0:0:0:
256,192,58340,1,0,0:0:0:0:
51,192,58528,128,4,60590:0:0:0:0:
256,192,59090,128,0,59278:0:0:0:0:
460,192,59278,1,4,0:0:0:0:
153,192,59653,1,0,0:0:0:0:
256,192,59840,1,0,0:0:0:0:
358,192,60215,1,4,0:0:0:0:
256,192,60590,128,0,60778:0:0:0:0:
153,192,60778,128,0,60965:0:0:0:0:
358,192,60965,128,0,61153:0:0:0:0:
256,192,61153,128,0,61340:0:0:0:0:
460,192,61340,128,0,61528:0:0:0:0:
51,192,61528,1,0,0:0:0:0:
153,192,61528,1,4,0:0:0:0:
358,192,61809,1,4,0:0:0:0:
460,192,61809,1,0,0:0:0:0:
51,192,62090,1,0,0:0:0:0:
153,192,62090,1,4,0:0:0:0:
256,192,62278,128,0,63028:0:0:0:0:
358,192,63028,1,4,0:0:0:0:
460,192,63028,1,0,0:0:0:0:
51,192,63309,1,0,0:0:0:0:
153,192,63309,1,4,0:0:0:0:
358,192,63590,1,4,0:0:0:0:
460,192,63590,1,0,0:0:0:0:
256,192,63778,128,0,64528:0:0:0:0:
153,192,64528,1,0,0:0:0:0:
358,192,64528,1,4,0:0:0:0:
51,192,64809,1,0,0:0:0:0:
460,192,64809,1,4,0:0:0:0:
153,192,65090,1,0,0:0:0:0:
358,192,65090,1,4,0:0:0:0:
153,192,65278,1,0,0:0:0:0:
358,192,65278,1,4,0:0:0:0:
460,192,65559,1,4,0:0:0:0:
51,192,65559,1,0,0:0:0:0:
153,192,65840,1,0,0:0:0:0:
358,192,65840,1,4,0:0:0:0:
256,192,66028,128,0,66403:0:0:0:0:
358,192,66403,128,0,66778:0:0:0:0:
460,192,66778,128,0,67153:0:0:0:0:
256,192,67153,128,0,67528:0:0:0:0:
51,192,67528,128,0,67903:0:0:0:0:
153,192,67903,128,0,68278:0:0:0:0:
256,192,68278,128,0,68653:0:0:0:0:
460,192,68653,128,0,69028:0:0:0:0:
153,192,69028,128,0,69403:0:0:0:0:
358,192,69403,128,0,69778:0:0:0:0:
51,192,69778,128,0,70153:0:0:0:0:
460,192,70153,128,0,70528:0:0:0:0:
51,192,70715,1,0,0:0:0:0:
153,192,70715,1,4,0:0:0:0:
358,192,70996,1,4,0:0:0:0:
256,192,70996,1,0,0:0:0:0:
460,192,71278,1,0,0:0:0:0:
153,192,71278,1,4,0:0:0:0:
51,192,71559,1,4,0:0:0:0:
358,192,71559,128,0,72028:0:0:0:0:
153,192,72028,1,4,0:0:0:0:
460,192,72028,1,0,0:0:0:0:
358,192,72403,1,0,0:0:0:0:
51,192,72403,1,0,0:0:0:0:
153,192,72778,1,0,0:0:0:0:
460,192,72778,1,0,0:0:0:0:
358,192,73153,1,0,0:0:0:0:
51,192,73153,1,0,0:0:0:0:
256,192,73528,128,0,73715:0:0:0:0:
358,192,73715,1,4,0:0:0:0:
153,192,73715,1,0,0:0:0:0:
51,192,73996,1,0,0:0:0:0:
460,192,73996,1,4,0:0:0:0:
153,192,74278,1,0,0:0:0:0:
358,192,74278,1,4,0:0:0:0:
460,192,74559,1,0,0:0:0:0:
358,192,74653,1,0,0:0:0:0:
256,192,74840,1,0,0:0:0:0:
153,192,75028,1,0,0:0:0:0:
358,192,75028,1,4,0:0:0:0:
51,192,75778,1,0,0:0:0:0:
256,192,75778,1,0,0:0:0:0:
460,192,75778,1,4,0:0:0:0:
153,192,76153,1,0,0:0:0:0:
358,192,76153,1,4,0:0:0:0:
51,192,76528,1,0,0:0:0:0:
460,192,76528,1,4,0:0:0:0:
256,192,76528,128,2,78028:0:0:0:0:
51,192,78028,128,2,78778:0:0:0:0:
153,192,78778,128,2,79153:0:0:0:0:
358,192,79153,128,2,79528:0:0:0:0:
460,192,79528,128,2,80278:0:0:0:0:
51,192,80278,128,2,81028:0:0:0:0:
256,192,81028,128,2,81778:0:0:0:0:
153,192,81778,128,2,82153:0:0:0:0:
358,192,82153,128,2,82528:0:0:0:0:
153,192,82528,1,2,0:0:0:0:
256,192,82715,1,2,0:0:0:0:
358,192,82903,1,2,0:0:0:0:
51,192,83278,1,2,0:0:0:0:
153,192,83465,1,2,0:0:0:0:
256,192,83653,1,2,0:0:0:0:
460,192,84028,1,2,0:0:0:0:
358,192,84215,1,2,0:0:0:0:
256,192,84403,1,2,0:0:0:0:
51,192,84778,1,2,0:0:0:0:
256,192,84965,1,2,0:0:0:0:
460,192,85153,1,2,0:0:0:0:
51,192,85528,128,2,87028:0:0:0:0:
358,192,85715,1,2,0:0:0:0:
256,192,85996,1,2,0:0:0:0:
153,192,86278,1,2,0:0:0:0:
256,192,86559,1,2,0:0:0:0:
460,192,86840,1,2,0:0:0:0:
358,192,87028,1,2,0:0:0:0:
256,192,87590,1,2,0:0:0:0:
358,192,87684,1,2,0:0:0:0:
51,192,87778,1,2,0:0:0:0:
153,192,87965,1,0,0:0:0:0:
256,192,88153,1,0,0:0:0:0:
358,192,88340,1,0,0:0:0:0:
51,192,88528,1,0,0:0:0:0:
460,192,88528,1,4,0:0:0:0:
256,192,88528,1,0,0:0:0:0:
51,192,89278,1,0,0:0:0:0:
256,192,89278,1,0,0:0:0:0:
460,192,89278,1,4,0:0:0:0:
153,192,89528,1,4,0:0:0:0:
358,192,89653,1,4,0:0:0:0:
153,192,89778,1,4,0:0:0:0:
358,192,89903,1,4,0:0:0:0:
460,192,90028,1,4,0:0:0:0:
51,192,90028,1,0,0:0:0:0:
256,192,90215,128,0,90403:0:0:0:0:
153,192,90403,1,0,0:0:0:0:
460,192,90590,128,0,90778:0:0:0:0:
358,192,90778,1,0,0:0:0:0:
153,192,90965,128,0,91153:0:0:0:0:
51,192,91153,1,0,0:0:0:0:
358,192,91340,128,0,91528:0:0:0:0:
256,192,91528,1,0,0:0:0:0:
153,192,91715,128,0,91903:0:0:0:0:
51,192,91903,1,0,0:0:0:0:
460,192,92090,128,0,92278:0:0:0:0:
358,192,92278,1,0,0:0:0:0:
256,192,92465,128,0,92653:0:0:0:0:
153,192,92653,1,0,0:0:0:0:
460,192,92840,128,0,93028:0:0:0:0:
358,192,93028,1,0,0:0:0:0:
51,192,93215,128,0,93403:0:0:0:0:
153,192,93403,1,0,0:0:0:0:
358,192,93590,128,0,93778:0:0:0:0:
460,192,93778,1,0,0:0:0:0:
153,192,93965,128,0,94153:0:0:0:0:
256,192,94153,1,0,0:0:0:0:
358,192,94340,128,0,94528:0:0:0:0:
460,192,94528,1,0,0:0:0:0:
51,192,94715,128,0,94903:0:0:0:0:
153,192,94903,1,0,0:0:0:0:
358,192,95090,128,0,95278:0:0:0:0:
460,192,95278,1,0,0:0:0:0:
51,192,95465,128,0,95653:0:0:0:0:
153,192,95653,1,0,0:0:0:0:
256,192,95840,128,0,96028:0:0:0:0:
51,192,96028,1,0,0:0:0:0:
460,192,96028,1,4,0:0:0:0:
153,192,96403,1,0,0:0:0:0:
358,192,96403,1,0,0:0:0:0:
51,192,96778,1,0,0:0:0:0:
460,192,96778,1,0,0:0:0:0:
153,192,97153,1,0,0:0:0:0:
358,192,97153,1,0,0:0:0:0:
256,192,97528,1,0,0:0:0:0:
51,192,97528,1,0,0:0:0:0:
153,192,97903,1,0,0:0:0:0:
358,192,97903,1,0,0:0:0:0:
256,192,98278,1,0,0:0:0:0:
460,192,98278,1,0,0:0:0:0:
358,192,98653,1,0,0:0:0:0:
153,192,98653,1,0,0:0:0:0:
153,192,98840,1,0,0:0:0:0:
358,192,98840,1,0,0:0:0:0:
51,192,99028,1,0,0:0:0:0:
460,192,99028,1,4,0:0:0:0:
256,192,99403,128,0,99778:0:0:0:0:
51,192,99403,1,0,0:0:0:0:
460,192,99403,1,0,0:0:0:0:
460,192,99778,1,0,0:0:0:0:
358,192,99778,1,4,0:0:0:0:
153,192,99965,1,4,0:0:0:0:
51,192,99965,1,0,0:0:0:0:
460,192,100153,1,0,0:0:0:0:
358,192,100153,1,4,0:0:0:0:
256,192,100278,1,0,0:0:0:0:
153,192,100403,1,0,0:0:0:0:
51,192,100528,1,0,0:0:0:0:
460,192,100653,1,0,0:0:0:0:
358,192,100778,1,0,0:0:0:0:
256,192,100903,1,0,0:0:0:0:
153,192,101028,1,0,0:0:0:0:
51,192,101153,1,0,0:0:0:0:
358,192,101278,128,0,101465:0:0:0:0:
153,192,101653,128,0,101840:0:0:0:0:
460,192,102028,128,0,102778:0:0:0:0:
51,192,102778,1,0,0:0:0:0:
358,192,102965,1,4,0:0:0:0:
256,192,103153,1,4,0:0:0:0:
153,192,103340,1,4,0:0:0:0:
460,192,103528,1,4,0:0:0:0:
51,192,103528,1,0,0:0:0:0:
256,192,103903,1,0,0:0:0:0:
358,192,103903,1,0,0:0:0:0:
51,192,104278,1,0,0:0:0:0:
460,192,104278,1,0,0:0:0:0:
153,192,104653,1,0,0:0:0:0:
358,192,104653,1,0,0:0:0:0:
51,192,105028,1,0,0:0:0:0:
460,192,105028,1,0,0:0:0:0:
256,192,105403,1,0,0:0:0:0:
153,192,105403,1,0,0:0:0:0:
153,192,105778,1,0,0:0:0:0:
51,192,105778,1,0,0:0:0:0:
358,192,106153,1,0,0:0:0:0:
460,192,106153,1,0,0:0:0:0:
153,192,106340,1,0,0:0:0:0:
51,192,106340,1,0,0:0:0:0:
256,192,106528,1,0,0:0:0:0:
460,192,106528,1,0,0:0:0:0:
358,192,106903,1,0,0:0:0:0:
153,192,106903,1,0,0:0:0:0:
256,192,107278,1,0,0:0:0:0:
51,192,107278,1,0,0:0:0:0:
153,192,107653,1,0,0:0:0:0:
358,192,107653,1,0,0:0:0:0:
256,192,108028,1,0,0:0:0:0:
460,192,108028,1,0,0:0:0:0:
358,192,108403,1,0,0:0:0:0:
153,192,108403,1,0,0:0:0:0:
51,192,108778,1,0,0:0:0:0:
460,192,108778,1,0,0:0:0:0:
358,192,109153,1,4,0:0:0:0:
153,192,109278,1,4,0:0:0:0:
256,192,109403,1,4,0:0:0:0:
51,192,109528,1,0,0:0:0:0:
460,192,109528,1,4,0:0:0:0:
256,192,109903,1,0,0:0:0:0:
51,192,109903,1,0,0:0:0:0:
256,192,110278,1,0,0:0:0:0:
460,192,110278,1,0,0:0:0:0:
256,192,110653,1,0,0:0:0:0:
51,192,110653,1,0,0:0:0:0:
358,192,111028,1,0,0:0:0:0:
460,192,111028,1,0,0:0:0:0:
153,192,111215,1,0,0:0:0:0:
51,192,111215,1,0,0:0:0:0:
358,192,111403,1,0,0:0:0:0:
460,192,111403,1,0,0:0:0:0:
153,192,111590,1,0,0:0:0:0:
51,192,111590,1,0,0:0:0:0:
358,192,111778,1,0,0:0:0:0:
460,192,111778,1,0,0:0:0:0:
153,192,111965,1,0,0:0:0:0:
51,192,111965,1,0,0:0:0:0:
358,192,112153,1,0,0:0:0:0:
460,192,112153,1,0,0:0:0:0:
51,192,112340,1,0,0:0:0:0:
256,192,112340,1,0,0:0:0:0:
153,192,112528,1,4,0:0:0:0:
358,192,112528,128,0,112903:0:0:0:0:
153,192,112903,128,0,113278:0:0:0:0:
460,192,112903,1,4,0:0:0:0:
358,192,113278,128,0,113653:0:0:0:0:
51,192,113278,1,4,0:0:0:0:
51,192,113653,128,0,114028:0:0:0:0:
460,192,113653,1,4,0:0:0:0:
460,192,114215,1,0,0:0:0:0:
358,192,114403,1,0,0:0:0:0:
256,192,114590,1,0,0:0:0:0:
153,192,114778,1,0,0:0:0:0:
460,192,114965,1,0,0:0:0:0:
256,192,115153,1,0,0:0:0:0:
51,192,115340,1,0,0:0:0:0:
460,192,115903,128,4,119653:0:0:0:0:
51,192,115903,128,0,119653:0:0:0:0:
