osu file format v14

[General]
AudioFilename: Glantz+119.mp3
AudioLeadIn: 0
PreviewTime: 27615
Countdown: 0
SampleSet: Soft
StackLeniency: 0.7
Mode: 3
LetterboxInBreaks: 0
SpecialStyle: 0
WidescreenStoryboard: 1

[Editor]
Bookmarks: 830,1421,12745,15010,26827,27615,39826,40022,64838,66217,76361,76459,77248,78035,79020,79414,90640,93003
DistanceSpacing: 2
BeatDivisor: 6
GridSize: 32
TimelineZoom: 4.099998

[Metadata]
Title:Glantz
TitleUnicode:Glantz
Artist:ZUN Remixed by rider
ArtistUnicode:ZUN Remixed by rider
Creator:Konpaku Sariel
Version:Heaven+ [FREQ +3] (1.19x)
Source:
Tags:
BeatmapID:3635222
BeatmapSetID:856643

[Difficulty]
HPDrainRate:8
CircleSize:4
OverallDifficulty:9
ApproachRate:5
SliderMultiplier:1.4
SliderTickRate:1

[Events]
//Background and Video events
0,0,"3457e333bbcb4e668c61a556f1006a1f.jpg",0,50
//Break Periods
//Storyboard Layer 0 (Background)
//Storyboard Layer 1 (Fail)
//Storyboard Layer 2 (Pass)
//Storyboard Layer 3 (Foreground)
//Storyboard Layer 4 (Overlay)
//Storyboard Sound Samples

[TimingPoints]
830,196.953781512605,4,2,1,60,1,0
1617,196.953781512605,4,2,1,60,1,0
15010,196.953781512605,4,2,1,60,1,0
66218,196.953781512605,4,2,1,60,1,0
79611,196.953781512605,4,2,1,60,1,0

[HitObjects]
64,192,830,5,0,0:0:0:0:
192,192,830,1,0,0:0:0:0:
320,192,879,1,0,0:0:0:0:
192,192,928,1,0,0:0:0:0:
448,192,928,1,0,0:0:0:0:
64,192,977,1,0,0:0:0:0:
320,192,1026,1,0,0:0:0:0:
448,192,1026,1,0,0:0:0:0:
64,192,1059,1,0,0:0:0:0:
192,192,1092,1,0,0:0:0:0:
320,192,1125,1,0,0:0:0:0:
448,192,1158,1,0,0:0:0:0:
192,192,1191,1,0,0:0:0:0:
448,192,1223,1,0,0:0:0:0:
64,192,1223,1,0,0:0:0:0:
320,192,1248,1,0,0:0:0:0:
192,192,1273,1,0,0:0:0:0:
64,192,1297,1,0,0:0:0:0:
320,192,1322,1,0,0:0:0:0:
448,192,1347,1,0,0:0:0:0:
64,192,1371,1,0,0:0:0:0:
192,192,1396,1,0,0:0:0:0:
320,192,1420,1,0,0:0:0:0:
448,192,1420,1,0,0:0:0:0:
64,192,1617,1,0,0:0:0:0:
320,192,1617,1,0,0:0:0:0:
448,192,1617,1,0,0:0:0:0:
192,192,1715,1,0,0:0:0:0:
448,192,1715,1,0,0:0:0:0:
64,192,1813,1,0,0:0:0:0:
320,192,1813,1,0,0:0:0:0:
192,192,1912,1,0,0:0:0:0:
448,192,1912,1,0,0:0:0:0:
64,192,2010,1,0,0:0:0:0:
192,192,2010,1,0,0:0:0:0:
320,192,2109,1,0,0:0:0:0:
64,192,2207,1,0,0:0:0:0:
448,192,2207,1,0,0:0:0:0:
320,192,2306,1,0,0:0:0:0:
64,192,2404,1,0,0:0:0:0:
192,192,2404,1,0,0:0:0:0:
448,192,2503,1,0,0:0:0:0:
64,192,2601,1,0,0:0:0:0:
320,192,2601,1,0,0:0:0:0:
448,192,2700,1,0,0:0:0:0:
64,192,2798,1,0,0:0:0:0:
192,192,2798,1,0,0:0:0:0:
320,192,2897,1,0,0:0:0:0:
192,192,2946,1,0,0:0:0:0:
448,192,2995,1,0,0:0:0:0:
64,192,2995,1,0,0:0:0:0:
192,192,3094,1,0,0:0:0:0:
320,192,3192,1,0,0:0:0:0:
448,192,3192,1,0,0:0:0:0:
64,192,3291,1,0,0:0:0:0:
192,192,3389,1,0,0:0:0:0:
320,192,3389,1,0,0:0:0:0:
64,192,3488,1,0,0:0:0:0:
320,192,3586,1,0,0:0:0:0:
448,192,3586,1,0,0:0:0:0:
192,192,3685,1,0,0:0:0:0:
64,192,3783,1,0,0:0:0:0:
320,192,3783,1,0,0:0:0:0:
192,192,3881,1,0,0:0:0:0:
320,192,3980,1,0,0:0:0:0:
448,192,3980,1,0,0:0:0:0:
64,192,4078,1,0,0:0:0:0:
192,192,4177,1,0,0:0:0:0:
448,192,4177,1,0,0:0:0:0:
64,192,4275,1,0,0:0:0:0:
320,192,4374,1,0,0:0:0:0:
448,192,4374,1,0,0:0:0:0:
192,192,4423,1,0,0:0:0:0:
64,192,4522,1,0,0:0:0:0:
192,192,4571,1,0,0:0:0:0:
320,192,4571,1,0,0:0:0:0:
448,192,4669,1,0,0:0:0:0:
64,192,4768,1,0,0:0:0:0:
192,192,4768,1,0,0:0:0:0:
192,192,4866,1,0,0:0:0:0:
320,192,4866,1,0,0:0:0:0:
64,192,4965,1,0,0:0:0:0:
448,192,4965,1,0,0:0:0:0:
192,192,5063,1,0,0:0:0:0:
320,192,5063,1,0,0:0:0:0:
64,192,5162,1,0,0:0:0:0:
192,192,5162,1,0,0:0:0:0:
448,192,5260,1,0,0:0:0:0:
320,192,5359,1,0,0:0:0:0:
64,192,5359,1,0,0:0:0:0:
448,192,5457,1,0,0:0:0:0:
64,192,5556,1,0,0:0:0:0:
192,192,5556,1,0,0:0:0:0:
320,192,5654,1,0,0:0:0:0:
64,192,5753,1,0,0:0:0:0:
448,192,5753,1,0,0:0:0:0:
320,192,5851,1,0,0:0:0:0:
64,192,5949,1,0,0:0:0:0:
192,192,5949,1,0,0:0:0:0:
448,192,6048,1,0,0:0:0:0:
64,192,6097,1,0,0:0:0:0:
192,192,6146,1,0,0:0:0:0:
320,192,6146,1,0,0:0:0:0:
64,192,6245,1,0,0:0:0:0:
320,192,6343,1,0,0:0:0:0:
448,192,6343,1,0,0:0:0:0:
192,192,6442,1,0,0:0:0:0:
64,192,6540,1,0,0:0:0:0:
320,192,6540,1,0,0:0:0:0:
192,192,6639,1,0,0:0:0:0:
320,192,6737,1,0,0:0:0:0:
448,192,6737,1,0,0:0:0:0:
64,192,6836,1,0,0:0:0:0:
192,192,6934,1,0,0:0:0:0:
448,192,6934,1,0,0:0:0:0:
64,192,7033,1,0,0:0:0:0:
320,192,7131,1,0,0:0:0:0:
448,192,7131,1,0,0:0:0:0:
192,192,7230,1,0,0:0:0:0:
64,192,7328,1,0,0:0:0:0:
448,192,7328,1,0,0:0:0:0:
192,192,7427,1,0,0:0:0:0:
320,192,7525,1,0,0:0:0:0:
448,192,7525,1,0,0:0:0:0:
64,192,7574,1,0,0:0:0:0:
192,192,7574,1,0,0:0:0:0:
448,192,7624,1,0,0:0:0:0:
192,192,7673,1,0,0:0:0:0:
320,192,7673,1,0,0:0:0:0:
64,192,7722,1,0,0:0:0:0:
448,192,7722,1,0,0:0:0:0:
192,192,7771,1,0,0:0:0:0:
320,192,7821,1,0,0:0:0:0:
448,192,7821,1,0,0:0:0:0:
64,192,7870,1,0,0:0:0:0:
192,192,7919,1,0,0:0:0:0:
320,192,7919,1,0,0:0:0:0:
448,192,7919,1,0,0:0:0:0:
64,192,8017,1,0,0:0:0:0:
448,192,8017,1,0,0:0:0:0:
192,192,8116,1,0,0:0:0:0:
320,192,8116,1,0,0:0:0:0:
64,192,8116,1,0,0:0:0:0:
448,192,8214,1,0,0:0:0:0:
192,192,8214,1,0,0:0:0:0:
320,192,8313,1,0,0:0:0:0:
64,192,8313,1,0,0:0:0:0:
448,192,8313,1,0,0:0:0:0:
192,192,8411,1,0,0:0:0:0:
64,192,8510,1,0,0:0:0:0:
192,192,8510,1,0,0:0:0:0:
320,192,8510,1,0,0:0:0:0:
448,192,8608,1,0,0:0:0:0:
192,192,8707,1,0,0:0:0:0:
320,192,8707,1,0,0:0:0:0:
64,192,8805,1,0,0:0:0:0:
192,192,8904,1,0,0:0:0:0:
448,192,8904,1,0,0:0:0:0:
64,192,8904,1,0,0:0:0:0:
320,192,9002,1,0,0:0:0:0:
192,192,9101,1,0,0:0:0:0:
448,192,9101,1,0,0:0:0:0:
320,192,9199,1,0,0:0:0:0:
192,192,9248,1,0,0:0:0:0:
64,192,9298,1,0,0:0:0:0:
448,192,9298,1,0,0:0:0:0:
320,192,9298,1,0,0:0:0:0:
192,192,9396,1,0,0:0:0:0:
64,192,9495,1,0,0:0:0:0:
448,192,9495,1,0,0:0:0:0:
320,192,9593,1,0,0:0:0:0:
64,192,9692,1,0,0:0:0:0:
192,192,9692,1,0,0:0:0:0:
448,192,9692,1,0,0:0:0:0:
192,192,9790,1,0,0:0:0:0:
64,192,9889,1,0,0:0:0:0:
320,192,9889,1,0,0:0:0:0:
448,192,9987,1,0,0:0:0:0:
320,192,10086,1,0,0:0:0:0:
448,192,10086,1,0,0:0:0:0:
192,192,10086,1,0,0:0:0:0:
64,192,10184,1,0,0:0:0:0:
192,192,10282,1,0,0:0:0:0:
320,192,10282,1,0,0:0:0:0:
448,192,10381,1,0,0:0:0:0:
64,192,10479,1,0,0:0:0:0:
448,192,10479,1,0,0:0:0:0:
320,192,10479,1,0,0:0:0:0:
192,192,10578,1,0,0:0:0:0:
64,192,10676,1,0,0:0:0:0:
192,192,10676,1,0,0:0:0:0:
448,192,10726,1,0,0:0:0:0:
320,192,10824,1,0,0:0:0:0:
64,192,10873,1,0,0:0:0:0:
448,192,10873,1,0,0:0:0:0:
192,192,10873,1,0,0:0:0:0:
320,192,10972,1,0,0:0:0:0:
448,192,10972,1,0,0:0:0:0:
192,192,11021,1,0,0:0:0:0:
320,192,11070,1,0,0:0:0:0:
448,192,11070,1,0,0:0:0:0:
64,192,11070,1,0,0:0:0:0:
192,192,11169,1,0,0:0:0:0:
448,192,11169,1,0,0:0:0:0:
64,192,11267,1,0,0:0:0:0:
192,192,11267,1,0,0:0:0:0:
320,192,11267,1,0,0:0:0:0:
320,192,11366,1,0,0:0:0:0:
448,192,11366,1,0,0:0:0:0:
64,192,11464,1,0,0:0:0:0:
192,192,11464,1,0,0:0:0:0:
448,192,11464,1,0,0:0:0:0:
192,192,11563,1,0,0:0:0:0:
64,192,11563,1,0,0:0:0:0:
448,192,11563,1,0,0:0:0:0:
192,192,11661,1,0,0:0:0:0:
64,192,11760,1,0,0:0:0:0:
320,192,11760,1,0,0:0:0:0:
448,192,11760,1,0,0:0:0:0:
64,192,11858,1,0,0:0:0:0:
448,192,11858,1,0,0:0:0:0:
320,192,11858,1,0,0:0:0:0:
320,192,11957,1,0,0:0:0:0:
64,192,12055,1,0,0:0:0:0:
192,192,12055,1,0,0:0:0:0:
320,192,12055,1,0,0:0:0:0:
320,192,12154,1,0,0:0:0:0:
192,192,12154,1,0,0:0:0:0:
64,192,12154,1,0,0:0:0:0:
64,192,12252,1,0,0:0:0:0:
192,192,12350,1,0,0:0:0:0:
320,192,12350,1,0,0:0:0:0:
448,192,12350,1,0,0:0:0:0:
448,192,12449,1,0,0:0:0:0:
320,192,12449,1,0,0:0:0:0:
192,192,12449,1,0,0:0:0:0:
448,192,12547,1,0,0:0:0:0:
64,192,12646,1,0,0:0:0:0:
320,192,12646,1,0,0:0:0:0:
448,192,12646,1,0,0:0:0:0:
448,192,12744,1,0,0:0:0:0:
320,192,12769,1,0,0:0:0:0:
192,192,12794,1,0,0:0:0:0:
64,192,12818,1,0,0:0:0:0:
320,192,12843,1,0,0:0:0:0:
448,192,12843,1,0,0:0:0:0:
64,192,12941,1,0,0:0:0:0:
192,192,12941,1,0,0:0:0:0:
448,192,12966,1,0,0:0:0:0:
320,192,12991,1,0,0:0:0:0:
192,192,13015,1,0,0:0:0:0:
64,192,13040,1,0,0:0:0:0:
448,192,13138,1,0,0:0:0:0:
320,192,13138,1,0,0:0:0:0:
64,192,13163,1,0,0:0:0:0:
192,192,13188,1,0,0:0:0:0:
320,192,13212,1,0,0:0:0:0:
448,192,13237,1,0,0:0:0:0:
64,192,13335,1,0,0:0:0:0:
192,192,13360,1,0,0:0:0:0:
320,192,13384,1,0,0:0:0:0:
448,192,13409,1,0,0:0:0:0:
64,192,13434,1,0,0:0:0:0:
192,192,13434,1,0,0:0:0:0:
320,192,13483,1,0,0:0:0:0:
448,192,13532,1,0,0:0:0:0:
192,192,13532,1,0,0:0:0:0:
64,192,13581,1,0,0:0:0:0:
320,192,13631,1,0,0:0:0:0:
448,192,13631,1,0,0:0:0:0:
64,192,13655,1,0,0:0:0:0:
192,192,13680,1,0,0:0:0:0:
320,192,13705,1,0,0:0:0:0:
64,192,13729,1,0,0:0:0:0:
448,192,13729,1,0,0:0:0:0:
192,192,13778,1,0,0:0:0:0:
320,192,13828,1,0,0:0:0:0:
448,192,13828,1,0,0:0:0:0:
192,192,13877,1,0,0:0:0:0:
64,192,13877,1,0,0:0:0:0:
448,192,13926,1,0,0:0:0:0:
320,192,13951,1,0,0:0:0:0:
192,192,13975,1,0,0:0:0:0:
64,192,14000,1,0,0:0:0:0:
320,192,14025,1,0,0:0:0:0:
448,192,14025,1,0,0:0:0:0:
64,192,14222,1,0,0:0:0:0:
192,192,14222,1,0,0:0:0:0:
320,192,14271,1,0,0:0:0:0:
448,192,14320,1,0,0:0:0:0:
192,192,14320,1,0,0:0:0:0:
64,192,14369,1,0,0:0:0:0:
448,192,14418,1,0,0:0:0:0:
320,192,14418,1,0,0:0:0:0:
64,192,14451,1,0,0:0:0:0:
192,192,14484,1,0,0:0:0:0:
320,192,14517,1,0,0:0:0:0:
448,192,14550,1,0,0:0:0:0:
192,192,14583,1,0,0:0:0:0:
448,192,14615,1,0,0:0:0:0:
64,192,14615,1,0,0:0:0:0:
320,192,14640,1,0,0:0:0:0:
192,192,14665,1,0,0:0:0:0:
64,192,14689,1,0,0:0:0:0:
320,192,14714,1,0,0:0:0:0:
448,192,14739,1,0,0:0:0:0:
192,192,14763,1,0,0:0:0:0:
64,192,14788,1,0,0:0:0:0:
448,192,14812,1,0,0:0:0:0:
320,192,14837,1,0,0:0:0:0:
64,192,14862,1,0,0:0:0:0:
192,192,14886,1,0,0:0:0:0:
320,192,14911,1,0,0:0:0:0:
448,192,14935,1,0,0:0:0:0:
192,192,14960,1,0,0:0:0:0:
64,192,14985,1,0,0:0:0:0:
320,192,15009,1,0,0:0:0:0:
448,192,15009,1,0,0:0:0:0:
192,192,15108,1,0,0:0:0:0:
320,192,15206,1,0,0:0:0:0:
192,192,15305,1,0,0:0:0:0:
320,192,15403,1,0,0:0:0:0:
448,192,15502,1,0,0:0:0:0:
192,192,15600,1,0,0:0:0:0:
320,192,15699,1,0,0:0:0:0:
64,192,15797,1,0,0:0:0:0:
320,192,15896,1,0,0:0:0:0:
192,192,15994,1,0,0:0:0:0:
64,192,16093,1,0,0:0:0:0:
192,192,16290,1,0,0:0:0:0:
320,192,16339,1,0,0:0:0:0:
448,192,16388,1,0,0:0:0:0:
64,192,16585,1,0,0:0:0:0:
192,192,16585,1,0,0:0:0:0:
448,192,16684,1,0,0:0:0:0:
192,192,16782,1,0,0:0:0:0:
320,192,16881,1,0,0:0:0:0:
64,192,16979,1,0,0:0:0:0:
320,192,17078,1,0,0:0:0:0:
192,192,17176,1,0,0:0:0:0:
320,192,17274,1,0,0:0:0:0:
448,192,17373,1,0,0:0:0:0:
64,192,17373,1,0,0:0:0:0:
192,192,17471,1,0,0:0:0:0:
448,192,17521,1,0,0:0:0:0:
192,192,17619,1,0,0:0:0:0:
320,192,17668,1,0,0:0:0:0:
448,192,17767,1,0,0:0:0:0:
320,192,17865,1,0,0:0:0:0:
64,192,17964,1,0,0:0:0:0:
192,192,18062,1,0,0:0:0:0:
320,192,18161,1,0,0:0:0:0:
448,192,18161,1,0,0:0:0:0:
64,192,18259,1,0,0:0:0:0:
320,192,18358,1,0,0:0:0:0:
192,192,18456,1,0,0:0:0:0:
320,192,18555,1,0,0:0:0:0:
448,192,18653,1,0,0:0:0:0:
192,192,18752,1,0,0:0:0:0:
320,192,18850,1,0,0:0:0:0:
64,192,18949,1,0,0:0:0:0:
320,192,19047,1,0,0:0:0:0:
192,192,19146,1,0,0:0:0:0:
64,192,19244,1,0,0:0:0:0:
192,192,19441,1,0,0:0:0:0:
320,192,19490,1,0,0:0:0:0:
448,192,19539,1,0,0:0:0:0:
64,192,19736,1,0,0:0:0:0:
192,192,19736,1,0,0:0:0:0:
320,192,19835,1,0,0:0:0:0:
64,192,19933,1,0,0:0:0:0:
448,192,20032,1,0,0:0:0:0:
64,192,20130,1,0,0:0:0:0:
320,192,20229,1,0,0:0:0:0:
192,192,20327,1,0,0:0:0:0:
448,192,20426,1,0,0:0:0:0:
64,192,20524,1,0,0:0:0:0:
320,192,20524,1,0,0:0:0:0:
448,192,20524,1,0,0:0:0:0:
192,192,20623,1,0,0:0:0:0:
448,192,20672,1,0,0:0:0:0:
192,192,20820,1,0,0:0:0:0:
320,192,20820,1,0,0:0:0:0:
64,192,20918,1,0,0:0:0:0:
192,192,21017,1,0,0:0:0:0:
448,192,21017,1,0,0:0:0:0:
320,192,21066,1,0,0:0:0:0:
64,192,21115,1,0,0:0:0:0:
192,192,21214,1,0,0:0:0:0:
320,192,21214,1,0,0:0:0:0:
64,192,21312,1,0,0:0:0:0:
448,192,21312,1,0,0:0:0:0:
192,192,21312,1,0,0:0:0:0:
320,192,21361,1,0,0:0:0:0:
192,192,21410,1,0,0:0:0:0:
64,192,21460,1,0,0:0:0:0:
320,192,21509,1,0,0:0:0:0:
448,192,21509,1,0,0:0:0:0:
64,192,21558,1,0,0:0:0:0:
192,192,21607,1,0,0:0:0:0:
448,192,21657,1,0,0:0:0:0:
192,192,21706,1,0,0:0:0:0:
320,192,21706,1,0,0:0:0:0:
64,192,21755,1,0,0:0:0:0:
320,192,21804,1,0,0:0:0:0:
448,192,21854,1,0,0:0:0:0:
64,192,21903,1,0,0:0:0:0:
192,192,21903,1,0,0:0:0:0:
448,192,21952,1,0,0:0:0:0:
320,192,22001,1,0,0:0:0:0:
192,192,22051,1,0,0:0:0:0:
64,192,22100,1,0,0:0:0:0:
448,192,22100,1,0,0:0:0:0:
320,192,22149,1,0,0:0:0:0:
192,192,22198,1,0,0:0:0:0:
448,192,22248,1,0,0:0:0:0:
192,192,22297,1,0,0:0:0:0:
320,192,22297,1,0,0:0:0:0:
64,192,22346,1,0,0:0:0:0:
320,192,22395,1,0,0:0:0:0:
448,192,22445,1,0,0:0:0:0:
64,192,22494,1,0,0:0:0:0:
192,192,22494,1,0,0:0:0:0:
448,192,22543,1,0,0:0:0:0:
320,192,22592,1,0,0:0:0:0:
192,192,22641,1,0,0:0:0:0:
64,192,22691,1,0,0:0:0:0:
448,192,22691,1,0,0:0:0:0:
320,192,22740,1,0,0:0:0:0:
64,192,22789,1,0,0:0:0:0:
192,192,22789,1,0,0:0:0:0:
320,192,22838,1,0,0:0:0:0:
448,192,22838,1,0,0:0:0:0:
192,192,22888,1,0,0:0:0:0:
64,192,22888,1,0,0:0:0:0:
320,192,22937,1,0,0:0:0:0:
448,192,22986,1,0,0:0:0:0:
192,192,23035,1,0,0:0:0:0:
64,192,23085,1,0,0:0:0:0:
320,192,23085,1,0,0:0:0:0:
448,192,23134,1,0,0:0:0:0:
192,192,23183,1,0,0:0:0:0:
320,192,23232,1,0,0:0:0:0:
64,192,23282,1,0,0:0:0:0:
448,192,23282,1,0,0:0:0:0:
192,192,23331,1,0,0:0:0:0:
320,192,23380,1,0,0:0:0:0:
64,192,23429,1,0,0:0:0:0:
320,192,23479,1,0,0:0:0:0:
448,192,23479,1,0,0:0:0:0:
192,192,23528,1,0,0:0:0:0:
64,192,23577,1,0,0:0:0:0:
320,192,23626,1,0,0:0:0:0:
192,192,23675,1,0,0:0:0:0:
448,192,23675,1,0,0:0:0:0:
64,192,23725,1,0,0:0:0:0:
320,192,23774,1,0,0:0:0:0:
192,192,23823,1,0,0:0:0:0:
448,192,23872,1,0,0:0:0:0:
320,192,23872,1,0,0:0:0:0:
64,192,23922,1,0,0:0:0:0:
192,192,23971,1,0,0:0:0:0:
320,192,24020,1,0,0:0:0:0:
448,192,24069,1,0,0:0:0:0:
192,192,24069,1,0,0:0:0:0:
64,192,24119,1,0,0:0:0:0:
320,192,24168,1,0,0:0:0:0:
192,192,24217,1,0,0:0:0:0:
64,192,24266,1,0,0:0:0:0:
448,192,24266,1,0,0:0:0:0:
320,192,24316,1,0,0:0:0:0:
192,192,24365,1,0,0:0:0:0:
64,192,24365,1,0,0:0:0:0:
320,192,24414,1,0,0:0:0:0:
448,192,24414,1,0,0:0:0:0:
64,192,24463,1,0,0:0:0:0:
192,192,24463,1,0,0:0:0:0:
320,192,24513,1,0,0:0:0:0:
192,192,24562,1,0,0:0:0:0:
448,192,24562,1,0,0:0:0:0:
64,192,24611,1,0,0:0:0:0:
320,192,24660,1,0,0:0:0:0:
448,192,24660,1,0,0:0:0:0:
64,192,24709,1,0,0:0:0:0:
192,192,24759,1,0,0:0:0:0:
320,192,24759,1,0,0:0:0:0:
448,192,24808,1,0,0:0:0:0:
64,192,24857,1,0,0:0:0:0:
192,192,24857,1,0,0:0:0:0:
320,192,24906,1,0,0:0:0:0:
192,192,24956,1,0,0:0:0:0:
448,192,24956,1,0,0:0:0:0:
320,192,25005,1,0,0:0:0:0:
64,192,25054,1,0,0:0:0:0:
192,192,25054,1,0,0:0:0:0:
320,192,25103,1,0,0:0:0:0:
64,192,25153,1,0,0:0:0:0:
448,192,25153,1,0,0:0:0:0:
192,192,25202,1,0,0:0:0:0:
320,192,25251,1,0,0:0:0:0:
448,192,25251,1,0,0:0:0:0:
64,192,25300,1,0,0:0:0:0:
192,192,25350,1,0,0:0:0:0:
320,192,25350,1,0,0:0:0:0:
64,192,25399,1,0,0:0:0:0:
320,192,25448,1,0,0:0:0:0:
448,192,25448,1,0,0:0:0:0:
64,192,25497,1,0,0:0:0:0:
192,192,25547,1,0,0:0:0:0:
320,192,25547,1,0,0:0:0:0:
448,192,25596,1,0,0:0:0:0:
64,192,25645,1,0,0:0:0:0:
320,192,25645,1,0,0:0:0:0:
192,192,25694,1,0,0:0:0:0:
320,192,25743,1,0,0:0:0:0:
448,192,25743,1,0,0:0:0:0:
192,192,25793,1,0,0:0:0:0:
64,192,25793,1,0,0:0:0:0:
320,192,25842,1,0,0:0:0:0:
448,192,25842,1,0,0:0:0:0:
64,192,25891,1,0,0:0:0:0:
192,192,25940,1,0,0:0:0:0:
320,192,25940,1,0,0:0:0:0:
448,192,25990,1,0,0:0:0:0:
192,192,26039,1,0,0:0:0:0:
64,192,26039,1,0,0:0:0:0:
448,192,26088,1,0,0:0:0:0:
320,192,26088,1,0,0:0:0:0:
64,192,26137,1,0,0:0:0:0:
192,192,26137,1,0,0:0:0:0:
320,192,26187,1,0,0:0:0:0:
448,192,26187,1,0,0:0:0:0:
64,192,26236,1,0,0:0:0:0:
192,192,26236,1,0,0:0:0:0:
320,192,26285,1,0,0:0:0:0:
448,192,26285,1,0,0:0:0:0:
192,192,26334,1,0,0:0:0:0:
64,192,26334,1,0,0:0:0:0:
320,192,26384,1,0,0:0:0:0:
448,192,26384,1,0,0:0:0:0:
192,192,26433,1,0,0:0:0:0:
64,192,26433,1,0,0:0:0:0:
448,192,26482,1,0,0:0:0:0:
320,192,26482,1,0,0:0:0:0:
192,192,26531,1,0,0:0:0:0:
64,192,26531,1,0,0:0:0:0:
448,192,26581,1,0,0:0:0:0:
320,192,26581,1,0,0:0:0:0:
192,192,26630,1,0,0:0:0:0:
64,192,26630,1,0,0:0:0:0:
448,192,26679,1,0,0:0:0:0:
320,192,26679,1,0,0:0:0:0:
64,192,26728,1,0,0:0:0:0:
192,192,26728,1,0,0:0:0:0:
320,192,26777,1,0,0:0:0:0:
64,192,26827,1,0,0:0:0:0:
448,192,26827,1,0,0:0:0:0:
64,192,26925,1,0,0:0:0:0:
192,192,26925,1,0,0:0:0:0:
448,192,26950,1,0,0:0:0:0:
320,192,26974,1,0,0:0:0:0:
192,192,26999,1,0,0:0:0:0:
64,192,27024,1,0,0:0:0:0:
320,192,27122,1,0,0:0:0:0:
448,192,27122,1,0,0:0:0:0:
64,192,27147,1,0,0:0:0:0:
192,192,27171,1,0,0:0:0:0:
320,192,27196,1,0,0:0:0:0:
448,192,27221,1,0,0:0:0:0:
64,192,27221,1,0,0:0:0:0:
192,192,27245,1,0,0:0:0:0:
448,192,27270,1,0,0:0:0:0:
320,192,27294,1,0,0:0:0:0:
192,192,27319,1,0,0:0:0:0:
64,192,27344,1,0,0:0:0:0:
320,192,27368,1,0,0:0:0:0:
448,192,27393,1,0,0:0:0:0:
64,192,27418,1,0,0:0:0:0:
192,192,27442,1,0,0:0:0:0:
320,192,27467,1,0,0:0:0:0:
448,192,27491,1,0,0:0:0:0:
192,192,27516,1,0,0:0:0:0:
64,192,27541,1,0,0:0:0:0:
448,192,27565,1,0,0:0:0:0:
320,192,27590,1,0,0:0:0:0:
192,192,27615,1,0,0:0:0:0:
64,192,27615,1,0,0:0:0:0:
192,192,27713,1,0,0:0:0:0:
448,192,27713,1,0,0:0:0:0:
64,192,27762,1,0,0:0:0:0:
320,192,27811,1,0,0:0:0:0:
448,192,27811,1,0,0:0:0:0:
64,192,27861,1,0,0:0:0:0:
192,192,27910,1,0,0:0:0:0:
320,192,27910,1,0,0:0:0:0:
448,192,27959,1,0,0:0:0:0:
64,192,28008,1,0,0:0:0:0:
192,192,28008,1,0,0:0:0:0:
320,192,28058,1,0,0:0:0:0:
192,192,28107,1,0,0:0:0:0:
448,192,28107,1,0,0:0:0:0:
64,192,28156,1,0,0:0:0:0:
320,192,28205,1,0,0:0:0:0:
448,192,28205,1,0,0:0:0:0:
64,192,28255,1,0,0:0:0:0:
192,192,28304,1,0,0:0:0:0:
320,192,28304,1,0,0:0:0:0:
448,192,28353,1,0,0:0:0:0:
64,192,28402,1,0,0:0:0:0:
192,192,28402,1,0,0:0:0:0:
320,192,28452,1,0,0:0:0:0:
192,192,28501,1,0,0:0:0:0:
448,192,28501,1,0,0:0:0:0:
320,192,28550,1,0,0:0:0:0:
64,192,28599,1,0,0:0:0:0:
192,192,28599,1,0,0:0:0:0:
448,192,28649,1,0,0:0:0:0:
64,192,28698,1,0,0:0:0:0:
320,192,28698,1,0,0:0:0:0:
448,192,28747,1,0,0:0:0:0:
64,192,28796,1,0,0:0:0:0:
192,192,28796,1,0,0:0:0:0:
320,192,28846,1,0,0:0:0:0:
192,192,28895,1,0,0:0:0:0:
448,192,28895,1,0,0:0:0:0:
64,192,28944,1,0,0:0:0:0:
320,192,28993,1,0,0:0:0:0:
448,192,28993,1,0,0:0:0:0:
64,192,29042,1,0,0:0:0:0:
192,192,29092,1,0,0:0:0:0:
320,192,29092,1,0,0:0:0:0:
448,192,29141,1,0,0:0:0:0:
64,192,29190,1,0,0:0:0:0:
192,192,29190,1,0,0:0:0:0:
320,192,29239,1,0,0:0:0:0:
192,192,29289,1,0,0:0:0:0:
64,192,29338,1,0,0:0:0:0:
448,192,29338,1,0,0:0:0:0:
192,192,29387,1,0,0:0:0:0:
320,192,29387,1,0,0:0:0:0:
448,192,29436,1,0,0:0:0:0:
64,192,29486,1,0,0:0:0:0:
192,192,29486,1,0,0:0:0:0:
320,192,29535,1,0,0:0:0:0:
448,192,29584,1,0,0:0:0:0:
64,192,29584,1,0,0:0:0:0:
320,192,29633,1,0,0:0:0:0:
192,192,29633,1,0,0:0:0:0:
64,192,29683,1,0,0:0:0:0:
320,192,29732,1,0,0:0:0:0:
192,192,29781,1,0,0:0:0:0:
448,192,29781,1,0,0:0:0:0:
64,192,29830,1,0,0:0:0:0:
192,192,29880,1,0,0:0:0:0:
320,192,29880,1,0,0:0:0:0:
448,192,29929,1,0,0:0:0:0:
64,192,29978,1,0,0:0:0:0:
320,192,29978,1,0,0:0:0:0:
192,192,30027,1,0,0:0:0:0:
448,192,30076,1,0,0:0:0:0:
320,192,30076,1,0,0:0:0:0:
192,192,30126,1,0,0:0:0:0:
64,192,30126,1,0,0:0:0:0:
320,192,30175,1,0,0:0:0:0:
448,192,30175,1,0,0:0:0:0:
64,192,30224,1,0,0:0:0:0:
192,192,30273,1,0,0:0:0:0:
320,192,30273,1,0,0:0:0:0:
448,192,30323,1,0,0:0:0:0:
64,192,30372,1,0,0:0:0:0:
192,192,30372,1,0,0:0:0:0:
320,192,30421,1,0,0:0:0:0:
192,192,30470,1,0,0:0:0:0:
64,192,30520,1,0,0:0:0:0:
320,192,30520,1,0,0:0:0:0:
192,192,30569,1,0,0:0:0:0:
448,192,30569,1,0,0:0:0:0:
320,192,30618,1,0,0:0:0:0:
64,192,30667,1,0,0:0:0:0:
448,192,30667,1,0,0:0:0:0:
192,192,30717,1,0,0:0:0:0:
64,192,30766,1,0,0:0:0:0:
320,192,30766,1,0,0:0:0:0:
448,192,30815,1,0,0:0:0:0:
64,192,30864,1,0,0:0:0:0:
192,192,30864,1,0,0:0:0:0:
448,192,30914,1,0,0:0:0:0:
192,192,30963,1,0,0:0:0:0:
320,192,30963,1,0,0:0:0:0:
64,192,31012,1,0,0:0:0:0:
320,192,31061,1,0,0:0:0:0:
448,192,31061,1,0,0:0:0:0:
64,192,31110,1,0,0:0:0:0:
192,192,31160,1,0,0:0:0:0:
448,192,31160,1,0,0:0:0:0:
320,192,31209,1,0,0:0:0:0:
64,192,31258,1,0,0:0:0:0:
192,192,31258,1,0,0:0:0:0:
320,192,31307,1,0,0:0:0:0:
64,192,31357,1,0,0:0:0:0:
448,192,31357,1,0,0:0:0:0:
192,192,31406,1,0,0:0:0:0:
320,192,31455,1,0,0:0:0:0:
448,192,31455,1,0,0:0:0:0:
192,192,31504,1,0,0:0:0:0:
64,192,31554,1,0,0:0:0:0:
448,192,31554,1,0,0:0:0:0:
192,192,31603,1,0,0:0:0:0:
320,192,31652,1,0,0:0:0:0:
448,192,31652,1,0,0:0:0:0:
64,192,31701,1,0,0:0:0:0:
192,192,31751,1,0,0:0:0:0:
320,192,31751,1,0,0:0:0:0:
64,192,31800,1,0,0:0:0:0:
320,192,31849,1,0,0:0:0:0:
448,192,31849,1,0,0:0:0:0:
192,192,31898,1,0,0:0:0:0:
64,192,31948,1,0,0:0:0:0:
448,192,31948,1,0,0:0:0:0:
320,192,31997,1,0,0:0:0:0:
192,192,32046,1,0,0:0:0:0:
448,192,32046,1,0,0:0:0:0:
64,192,32095,1,0,0:0:0:0:
320,192,32144,1,0,0:0:0:0:
448,192,32144,1,0,0:0:0:0:
192,192,32194,1,0,0:0:0:0:
64,192,32243,1,0,0:0:0:0:
320,192,32243,1,0,0:0:0:0:
448,192,32292,1,0,0:0:0:0:
64,192,32341,1,0,0:0:0:0:
192,192,32341,1,0,0:0:0:0:
320,192,32391,1,0,0:0:0:0:
448,192,32440,1,0,0:0:0:0:
192,192,32489,1,0,0:0:0:0:
320,192,32489,1,0,0:0:0:0:
64,192,32538,1,0,0:0:0:0:
448,192,32538,1,0,0:0:0:0:
192,192,32588,1,0,0:0:0:0:
320,192,32637,1,0,0:0:0:0:
448,192,32637,1,0,0:0:0:0:
64,192,32686,1,0,0:0:0:0:
192,192,32735,1,0,0:0:0:0:
320,192,32735,1,0,0:0:0:0:
448,192,32785,1,0,0:0:0:0:
64,192,32785,1,0,0:0:0:0:
320,192,32834,1,0,0:0:0:0:
192,192,32883,1,0,0:0:0:0:
64,192,32932,1,0,0:0:0:0:
320,192,32932,1,0,0:0:0:0:
448,192,32982,1,0,0:0:0:0:
192,192,33031,1,0,0:0:0:0:
320,192,33031,1,0,0:0:0:0:
64,192,33080,1,0,0:0:0:0:
192,192,33129,1,0,0:0:0:0:
448,192,33129,1,0,0:0:0:0:
320,192,33178,1,0,0:0:0:0:
64,192,33228,1,0,0:0:0:0:
192,192,33228,1,0,0:0:0:0:
320,192,33277,1,0,0:0:0:0:
192,192,33326,1,0,0:0:0:0:
448,192,33326,1,0,0:0:0:0:
64,192,33375,1,0,0:0:0:0:
320,192,33425,1,0,0:0:0:0:
192,192,33474,1,0,0:0:0:0:
64,192,33523,1,0,0:0:0:0:
448,192,33523,1,0,0:0:0:0:
320,192,33572,1,0,0:0:0:0:
192,192,33622,1,0,0:0:0:0:
320,192,33671,1,0,0:0:0:0:
448,192,33671,1,0,0:0:0:0:
64,192,33720,1,0,0:0:0:0:
192,192,33720,1,0,0:0:0:0:
320,192,33769,1,0,0:0:0:0:
64,192,33819,1,0,0:0:0:0:
448,192,33819,1,0,0:0:0:0:
192,192,33868,1,0,0:0:0:0:
320,192,33917,1,0,0:0:0:0:
448,192,33917,1,0,0:0:0:0:
64,192,33917,1,0,0:0:0:0:
192,192,33966,1,0,0:0:0:0:
64,192,34016,1,0,0:0:0:0:
320,192,34016,1,0,0:0:0:0:
448,192,34065,1,0,0:0:0:0:
64,192,34114,1,0,0:0:0:0:
192,192,34114,1,0,0:0:0:0:
320,192,34163,1,0,0:0:0:0:
64,192,34212,1,0,0:0:0:0:
448,192,34212,1,0,0:0:0:0:
192,192,34262,1,0,0:0:0:0:
320,192,34311,1,0,0:0:0:0:
448,192,34311,1,0,0:0:0:0:
192,192,34360,1,0,0:0:0:0:
64,192,34409,1,0,0:0:0:0:
320,192,34409,1,0,0:0:0:0:
448,192,34459,1,0,0:0:0:0:
64,192,34508,1,0,0:0:0:0:
192,192,34508,1,0,0:0:0:0:
320,192,34557,1,0,0:0:0:0:
64,192,34606,1,0,0:0:0:0:
448,192,34606,1,0,0:0:0:0:
192,192,34656,1,0,0:0:0:0:
320,192,34705,1,0,0:0:0:0:
448,192,34705,1,0,0:0:0:0:
64,192,34754,1,0,0:0:0:0:
192,192,34803,1,0,0:0:0:0:
320,192,34803,1,0,0:0:0:0:
64,192,34853,1,0,0:0:0:0:
320,192,34902,1,0,0:0:0:0:
448,192,34902,1,0,0:0:0:0:
192,192,34951,1,0,0:0:0:0:
64,192,35000,1,0,0:0:0:0:
448,192,35000,1,0,0:0:0:0:
192,192,35050,1,0,0:0:0:0:
320,192,35099,1,0,0:0:0:0:
448,192,35099,1,0,0:0:0:0:
64,192,35148,1,0,0:0:0:0:
192,192,35197,1,0,0:0:0:0:
320,192,35197,1,0,0:0:0:0:
448,192,35247,1,0,0:0:0:0:
64,192,35296,1,0,0:0:0:0:
192,192,35296,1,0,0:0:0:0:
320,192,35345,1,0,0:0:0:0:
192,192,35394,1,0,0:0:0:0:
448,192,35394,1,0,0:0:0:0:
64,192,35443,1,0,0:0:0:0:
320,192,35493,1,0,0:0:0:0:
448,192,35493,1,0,0:0:0:0:
192,192,35542,1,0,0:0:0:0:
320,192,35591,1,0,0:0:0:0:
64,192,35640,1,0,0:0:0:0:
448,192,35640,1,0,0:0:0:0:
192,192,35690,1,0,0:0:0:0:
320,192,35690,1,0,0:0:0:0:
64,192,35739,1,0,0:0:0:0:
448,192,35788,1,0,0:0:0:0:
320,192,35788,1,0,0:0:0:0:
192,192,35837,1,0,0:0:0:0:
64,192,35887,1,0,0:0:0:0:
448,192,35887,1,0,0:0:0:0:
192,192,35936,1,0,0:0:0:0:
320,192,35936,1,0,0:0:0:0:
448,192,35985,1,0,0:0:0:0:
64,192,36034,1,0,0:0:0:0:
448,192,36084,1,0,0:0:0:0:
192,192,36084,1,0,0:0:0:0:
320,192,36133,1,0,0:0:0:0:
64,192,36182,1,0,0:0:0:0:
448,192,36182,1,0,0:0:0:0:
192,192,36231,1,0,0:0:0:0:
64,192,36281,1,0,0:0:0:0:
320,192,36281,1,0,0:0:0:0:
448,192,36330,1,0,0:0:0:0:
64,192,36379,1,0,0:0:0:0:
192,192,36379,1,0,0:0:0:0:
448,192,36428,1,0,0:0:0:0:
320,192,36428,1,0,0:0:0:0:
192,192,36477,1,0,0:0:0:0:
64,192,36477,1,0,0:0:0:0:
320,192,36527,1,0,0:0:0:0:
448,192,36576,1,0,0:0:0:0:
192,192,36576,1,0,0:0:0:0:
64,192,36625,1,0,0:0:0:0:
448,192,36674,1,0,0:0:0:0:
320,192,36674,1,0,0:0:0:0:
192,192,36724,1,0,0:0:0:0:
320,192,36773,1,0,0:0:0:0:
64,192,36822,1,0,0:0:0:0:
192,192,36822,1,0,0:0:0:0:
320,192,36871,1,0,0:0:0:0:
448,192,36871,1,0,0:0:0:0:
64,192,36921,1,0,0:0:0:0:
192,192,36970,1,0,0:0:0:0:
320,192,36970,1,0,0:0:0:0:
448,192,37019,1,0,0:0:0:0:
64,192,37068,1,0,0:0:0:0:
192,192,37068,1,0,0:0:0:0:
320,192,37118,1,0,0:0:0:0:
192,192,37167,1,0,0:0:0:0:
448,192,37167,1,0,0:0:0:0:
320,192,37216,1,0,0:0:0:0:
64,192,37265,1,0,0:0:0:0:
448,192,37265,1,0,0:0:0:0:
192,192,37315,1,0,0:0:0:0:
64,192,37364,1,0,0:0:0:0:
320,192,37364,1,0,0:0:0:0:
448,192,37413,1,0,0:0:0:0:
64,192,37462,1,0,0:0:0:0:
192,192,37462,1,0,0:0:0:0:
448,192,37511,1,0,0:0:0:0:
192,192,37561,1,0,0:0:0:0:
320,192,37561,1,0,0:0:0:0:
448,192,37610,1,0,0:0:0:0:
64,192,37659,1,0,0:0:0:0:
192,192,37659,1,0,0:0:0:0:
320,192,37708,1,0,0:0:0:0:
64,192,37758,1,0,0:0:0:0:
448,192,37758,1,0,0:0:0:0:
192,192,37807,1,0,0:0:0:0:
320,192,37856,1,0,0:0:0:0:
448,192,37856,1,0,0:0:0:0:
192,192,37905,1,0,0:0:0:0:
64,192,37955,1,0,0:0:0:0:
320,192,37955,1,0,0:0:0:0:
192,192,38004,1,0,0:0:0:0:
64,192,38053,1,0,0:0:0:0:
448,192,38053,1,0,0:0:0:0:
320,192,38102,1,0,0:0:0:0:
192,192,38152,1,0,0:0:0:0:
448,192,38152,1,0,0:0:0:0:
320,192,38201,1,0,0:0:0:0:
64,192,38250,1,0,0:0:0:0:
192,192,38250,1,0,0:0:0:0:
448,192,38299,1,0,0:0:0:0:
64,192,38349,1,0,0:0:0:0:
320,192,38349,1,0,0:0:0:0:
448,192,38398,1,0,0:0:0:0:
64,192,38447,1,0,0:0:0:0:
192,192,38447,1,0,0:0:0:0:
320,192,38496,1,0,0:0:0:0:
192,192,38545,1,0,0:0:0:0:
448,192,38545,1,0,0:0:0:0:
64,192,38595,1,0,0:0:0:0:
320,192,38644,1,0,0:0:0:0:
448,192,38644,1,0,0:0:0:0:
64,192,38693,1,0,0:0:0:0:
192,192,38693,1,0,0:0:0:0:
448,192,38742,1,0,0:0:0:0:
320,192,38742,1,0,0:0:0:0:
64,192,38792,1,0,0:0:0:0:
192,192,38792,1,0,0:0:0:0:
448,192,38841,1,0,0:0:0:0:
320,192,38841,1,0,0:0:0:0:
192,192,38890,1,0,0:0:0:0:
64,192,38890,1,0,0:0:0:0:
320,192,38939,1,0,0:0:0:0:
448,192,38939,1,0,0:0:0:0:
192,192,38989,1,0,0:0:0:0:
64,192,38989,1,0,0:0:0:0:
320,192,39038,1,0,0:0:0:0:
448,192,39038,1,0,0:0:0:0:
192,192,39087,1,0,0:0:0:0:
64,192,39087,1,0,0:0:0:0:
320,192,39136,1,0,0:0:0:0:
448,192,39136,1,0,0:0:0:0:
192,192,39186,1,0,0:0:0:0:
64,192,39186,1,0,0:0:0:0:
320,192,39235,1,0,0:0:0:0:
448,192,39235,1,0,0:0:0:0:
192,192,39284,1,0,0:0:0:0:
64,192,39284,1,0,0:0:0:0:
320,192,39333,1,0,0:0:0:0:
448,192,39333,1,0,0:0:0:0:
192,192,39383,1,0,0:0:0:0:
64,192,39432,1,0,0:0:0:0:
320,192,39432,1,0,0:0:0:0:
448,192,39432,1,0,0:0:0:0:
192,192,39481,1,0,0:0:0:0:
320,192,39530,1,0,0:0:0:0:
64,192,39579,1,0,0:0:0:0:
192,192,39579,1,0,0:0:0:0:
448,192,39579,1,0,0:0:0:0:
320,192,39629,1,0,0:0:0:0:
192,192,39678,1,0,0:0:0:0:
64,192,39727,1,0,0:0:0:0:
320,192,39727,1,0,0:0:0:0:
448,192,39727,1,0,0:0:0:0:
192,192,39776,1,0,0:0:0:0:
448,192,39826,1,0,0:0:0:0:
320,192,39826,1,0,0:0:0:0:
64,192,39850,1,0,0:0:0:0:
192,192,39875,1,0,0:0:0:0:
448,192,39900,1,0,0:0:0:0:
320,192,39924,1,0,0:0:0:0:
192,192,39924,1,0,0:0:0:0:
64,192,39949,1,0,0:0:0:0:
320,192,39973,1,0,0:0:0:0:
448,192,39998,1,0,0:0:0:0:
192,192,40023,1,0,0:0:0:0:
64,192,40023,1,0,0:0:0:0:
64,192,40220,1,0,0:0:0:0:
320,192,40220,1,0,0:0:0:0:
448,192,40220,1,0,0:0:0:0:
64,192,40318,1,0,0:0:0:0:
192,192,40318,1,0,0:0:0:0:
320,192,40417,1,0,0:0:0:0:
448,192,40417,1,0,0:0:0:0:
192,192,40417,1,0,0:0:0:0:
64,192,40515,1,0,0:0:0:0:
192,192,40515,1,0,0:0:0:0:
320,192,40613,1,0,0:0:0:0:
448,192,40613,1,0,0:0:0:0:
64,192,40613,1,0,0:0:0:0:
192,192,40712,1,0,0:0:0:0:
64,192,40712,1,0,0:0:0:0:
320,192,40761,1,0,0:0:0:0:
448,192,40810,1,0,0:0:0:0:
64,192,40810,1,0,0:0:0:0:
192,192,40860,1,0,0:0:0:0:
320,192,40909,1,0,0:0:0:0:
448,192,40909,1,0,0:0:0:0:
64,192,41007,1,0,0:0:0:0:
192,192,41007,1,0,0:0:0:0:
448,192,41007,1,0,0:0:0:0:
448,192,41106,1,0,0:0:0:0:
320,192,41106,1,0,0:0:0:0:
192,192,41204,1,0,0:0:0:0:
320,192,41204,1,0,0:0:0:0:
448,192,41204,1,0,0:0:0:0:
64,192,41303,1,0,0:0:0:0:
320,192,41303,1,0,0:0:0:0:
64,192,41401,1,0,0:0:0:0:
448,192,41401,1,0,0:0:0:0:
192,192,41401,1,0,0:0:0:0:
320,192,41500,1,0,0:0:0:0:
64,192,41500,1,0,0:0:0:0:
192,192,41549,1,0,0:0:0:0:
448,192,41598,1,0,0:0:0:0:
64,192,41598,1,0,0:0:0:0:
320,192,41647,1,0,0:0:0:0:
192,192,41697,1,0,0:0:0:0:
448,192,41697,1,0,0:0:0:0:
64,192,41795,1,0,0:0:0:0:
320,192,41795,1,0,0:0:0:0:
192,192,41795,1,0,0:0:0:0:
320,192,41894,1,0,0:0:0:0:
448,192,41894,1,0,0:0:0:0:
64,192,41992,1,0,0:0:0:0:
192,192,41992,1,0,0:0:0:0:
448,192,41992,1,0,0:0:0:0:
192,192,42091,1,0,0:0:0:0:
320,192,42091,1,0,0:0:0:0:
64,192,42189,1,0,0:0:0:0:
320,192,42189,1,0,0:0:0:0:
448,192,42189,1,0,0:0:0:0:
192,192,42288,1,0,0:0:0:0:
448,192,42288,1,0,0:0:0:0:
64,192,42337,1,0,0:0:0:0:
192,192,42386,1,0,0:0:0:0:
320,192,42386,1,0,0:0:0:0:
448,192,42435,1,0,0:0:0:0:
64,192,42485,1,0,0:0:0:0:
320,192,42485,1,0,0:0:0:0:
64,192,42583,1,0,0:0:0:0:
192,192,42583,1,0,0:0:0:0:
448,192,42583,1,0,0:0:0:0:
320,192,42682,1,0,0:0:0:0:
448,192,42682,1,0,0:0:0:0:
192,192,42731,1,0,0:0:0:0:
64,192,42780,1,0,0:0:0:0:
320,192,42780,1,0,0:0:0:0:
448,192,42780,1,0,0:0:0:0:
64,192,42878,1,0,0:0:0:0:
192,192,42878,1,0,0:0:0:0:
64,192,42977,1,0,0:0:0:0:
192,192,42977,1,0,0:0:0:0:
320,192,42977,1,0,0:0:0:0:
448,192,43026,1,0,0:0:0:0:
64,192,43075,1,0,0:0:0:0:
448,192,43125,1,0,0:0:0:0:
320,192,43125,1,0,0:0:0:0:
192,192,43174,1,0,0:0:0:0:
64,192,43174,1,0,0:0:0:0:
320,192,43223,1,0,0:0:0:0:
64,192,43272,1,0,0:0:0:0:
448,192,43272,1,0,0:0:0:0:
192,192,43322,1,0,0:0:0:0:
64,192,43371,1,0,0:0:0:0:
320,192,43371,1,0,0:0:0:0:
448,192,43371,1,0,0:0:0:0:
64,192,43469,1,0,0:0:0:0:
192,192,43469,1,0,0:0:0:0:
192,192,43568,1,0,0:0:0:0:
320,192,43568,1,0,0:0:0:0:
448,192,43568,1,0,0:0:0:0:
64,192,43666,1,0,0:0:0:0:
192,192,43666,1,0,0:0:0:0:
64,192,43765,1,0,0:0:0:0:
320,192,43765,1,0,0:0:0:0:
448,192,43765,1,0,0:0:0:0:
192,192,43863,1,0,0:0:0:0:
64,192,43863,1,0,0:0:0:0:
448,192,43912,1,0,0:0:0:0:
320,192,43962,1,0,0:0:0:0:
192,192,43962,1,0,0:0:0:0:
64,192,44011,1,0,0:0:0:0:
320,192,44060,1,0,0:0:0:0:
448,192,44060,1,0,0:0:0:0:
64,192,44159,1,0,0:0:0:0:
320,192,44159,1,0,0:0:0:0:
192,192,44159,1,0,0:0:0:0:
320,192,44257,1,0,0:0:0:0:
448,192,44257,1,0,0:0:0:0:
192,192,44356,1,0,0:0:0:0:
64,192,44356,1,0,0:0:0:0:
448,192,44356,1,0,0:0:0:0:
320,192,44454,1,0,0:0:0:0:
64,192,44454,1,0,0:0:0:0:
192,192,44553,1,0,0:0:0:0:
320,192,44553,1,0,0:0:0:0:
448,192,44553,1,0,0:0:0:0:
64,192,44651,1,0,0:0:0:0:
320,192,44651,1,0,0:0:0:0:
192,192,44700,1,0,0:0:0:0:
64,192,44750,1,0,0:0:0:0:
448,192,44750,1,0,0:0:0:0:
320,192,44799,1,0,0:0:0:0:
192,192,44848,1,0,0:0:0:0:
448,192,44848,1,0,0:0:0:0:
64,192,44946,1,0,0:0:0:0:
192,192,44946,1,0,0:0:0:0:
320,192,44946,1,0,0:0:0:0:
320,192,45045,1,0,0:0:0:0:
448,192,45045,1,0,0:0:0:0:
64,192,45143,1,0,0:0:0:0:
192,192,45143,1,0,0:0:0:0:
448,192,45143,1,0,0:0:0:0:
192,192,45242,1,0,0:0:0:0:
320,192,45242,1,0,0:0:0:0:
64,192,45340,1,0,0:0:0:0:
320,192,45340,1,0,0:0:0:0:
448,192,45340,1,0,0:0:0:0:
192,192,45439,1,0,0:0:0:0:
448,192,45439,1,0,0:0:0:0:
64,192,45488,1,0,0:0:0:0:
320,192,45537,1,0,0:0:0:0:
192,192,45537,1,0,0:0:0:0:
448,192,45587,1,0,0:0:0:0:
64,192,45636,1,0,0:0:0:0:
320,192,45636,1,0,0:0:0:0:
64,192,45734,1,0,0:0:0:0:
192,192,45734,1,0,0:0:0:0:
448,192,45734,1,0,0:0:0:0:
448,192,45833,1,0,0:0:0:0:
320,192,45833,1,0,0:0:0:0:
64,192,45882,1,0,0:0:0:0:
192,192,45931,1,0,0:0:0:0:
448,192,45931,1,0,0:0:0:0:
320,192,45931,1,0,0:0:0:0:
64,192,46030,1,0,0:0:0:0:
192,192,46030,1,0,0:0:0:0:
64,192,46128,1,0,0:0:0:0:
320,192,46128,1,0,0:0:0:0:
448,192,46128,1,0,0:0:0:0:
192,192,46227,1,0,0:0:0:0:
448,192,46227,1,0,0:0:0:0:
64,192,46276,1,0,0:0:0:0:
192,192,46325,1,0,0:0:0:0:
320,192,46325,1,0,0:0:0:0:
448,192,46374,1,0,0:0:0:0:
320,192,46424,1,0,0:0:0:0:
64,192,46424,1,0,0:0:0:0:
192,192,46522,1,0,0:0:0:0:
320,192,46522,1,0,0:0:0:0:
448,192,46522,1,0,0:0:0:0:
64,192,46571,1,0,0:0:0:0:
192,192,46621,1,0,0:0:0:0:
320,192,46670,1,0,0:0:0:0:
64,192,46719,1,0,0:0:0:0:
192,192,46719,1,0,0:0:0:0:
448,192,46719,1,0,0:0:0:0:
320,192,46768,1,0,0:0:0:0:
448,192,46818,1,0,0:0:0:0:
64,192,46867,1,0,0:0:0:0:
192,192,46916,1,0,0:0:0:0:
320,192,46916,1,0,0:0:0:0:
448,192,46916,1,0,0:0:0:0:
64,192,46965,1,0,0:0:0:0:
320,192,47014,1,0,0:0:0:0:
448,192,47014,1,0,0:0:0:0:
192,192,47064,1,0,0:0:0:0:
64,192,47113,1,0,0:0:0:0:
320,192,47113,1,0,0:0:0:0:
192,192,47162,1,0,0:0:0:0:
320,192,47211,1,0,0:0:0:0:
448,192,47211,1,0,0:0:0:0:
64,192,47261,1,0,0:0:0:0:
448,192,47310,1,0,0:0:0:0:
192,192,47310,1,0,0:0:0:0:
320,192,47359,1,0,0:0:0:0:
64,192,47408,1,0,0:0:0:0:
192,192,47408,1,0,0:0:0:0:
448,192,47458,1,0,0:0:0:0:
64,192,47507,1,0,0:0:0:0:
320,192,47507,1,0,0:0:0:0:
448,192,47556,1,0,0:0:0:0:
64,192,47605,1,0,0:0:0:0:
192,192,47605,1,0,0:0:0:0:
320,192,47655,1,0,0:0:0:0:
192,192,47704,1,0,0:0:0:0:
448,192,47704,1,0,0:0:0:0:
64,192,47753,1,0,0:0:0:0:
320,192,47802,1,0,0:0:0:0:
448,192,47802,1,0,0:0:0:0:
64,192,47852,1,0,0:0:0:0:
192,192,47852,1,0,0:0:0:0:
320,192,47901,1,0,0:0:0:0:
448,192,47901,1,0,0:0:0:0:
192,192,47950,1,0,0:0:0:0:
64,192,47999,1,0,0:0:0:0:
448,192,47999,1,0,0:0:0:0:
320,192,48048,1,0,0:0:0:0:
64,192,48098,1,0,0:0:0:0:
448,192,48098,1,0,0:0:0:0:
192,192,48098,1,0,0:0:0:0:
320,192,48147,1,0,0:0:0:0:
192,192,48196,1,0,0:0:0:0:
64,192,48245,1,0,0:0:0:0:
320,192,48295,1,0,0:0:0:0:
448,192,48295,1,0,0:0:0:0:
192,192,48295,1,0,0:0:0:0:
64,192,48344,1,0,0:0:0:0:
448,192,48393,1,0,0:0:0:0:
320,192,48442,1,0,0:0:0:0:
64,192,48492,1,0,0:0:0:0:
448,192,48492,1,0,0:0:0:0:
192,192,48492,1,0,0:0:0:0:
320,192,48541,1,0,0:0:0:0:
64,192,48590,1,0,0:0:0:0:
192,192,48590,1,0,0:0:0:0:
320,192,48639,1,0,0:0:0:0:
448,192,48689,1,0,0:0:0:0:
64,192,48689,1,0,0:0:0:0:
192,192,48738,1,0,0:0:0:0:
320,192,48787,1,0,0:0:0:0:
448,192,48787,1,0,0:0:0:0:
192,192,48836,1,0,0:0:0:0:
320,192,48886,1,0,0:0:0:0:
64,192,48886,1,0,0:0:0:0:
192,192,48935,1,0,0:0:0:0:
320,192,48984,1,0,0:0:0:0:
448,192,48984,1,0,0:0:0:0:
64,192,49033,1,0,0:0:0:0:
192,192,49083,1,0,0:0:0:0:
448,192,49083,1,0,0:0:0:0:
64,192,49132,1,0,0:0:0:0:
448,192,49181,1,0,0:0:0:0:
320,192,49181,1,0,0:0:0:0:
64,192,49230,1,0,0:0:0:0:
192,192,49230,1,0,0:0:0:0:
448,192,49279,1,0,0:0:0:0:
320,192,49279,1,0,0:0:0:0:
192,192,49378,1,0,0:0:0:0:
64,192,49378,1,0,0:0:0:0:
448,192,49427,1,0,0:0:0:0:
320,192,49427,1,0,0:0:0:0:
192,192,49476,1,0,0:0:0:0:
64,192,49476,1,0,0:0:0:0:
192,192,49575,1,0,0:0:0:0:
320,192,49575,1,0,0:0:0:0:
448,192,49673,1,0,0:0:0:0:
64,192,49673,1,0,0:0:0:0:
320,192,49673,1,0,0:0:0:0:
192,192,49723,1,0,0:0:0:0:
320,192,49772,1,0,0:0:0:0:
448,192,49821,1,0,0:0:0:0:
64,192,49870,1,0,0:0:0:0:
192,192,49870,1,0,0:0:0:0:
320,192,49870,1,0,0:0:0:0:
448,192,49920,1,0,0:0:0:0:
64,192,49969,1,0,0:0:0:0:
192,192,50018,1,0,0:0:0:0:
320,192,50067,1,0,0:0:0:0:
448,192,50067,1,0,0:0:0:0:
64,192,50067,1,0,0:0:0:0:
192,192,50117,1,0,0:0:0:0:
320,192,50166,1,0,0:0:0:0:
448,192,50166,1,0,0:0:0:0:
64,192,50215,1,0,0:0:0:0:
192,192,50264,1,0,0:0:0:0:
320,192,50264,1,0,0:0:0:0:
64,192,50313,1,0,0:0:0:0:
448,192,50363,1,0,0:0:0:0:
320,192,50363,1,0,0:0:0:0:
192,192,50412,1,0,0:0:0:0:
64,192,50461,1,0,0:0:0:0:
448,192,50461,1,0,0:0:0:0:
320,192,50510,1,0,0:0:0:0:
64,192,50560,1,0,0:0:0:0:
192,192,50560,1,0,0:0:0:0:
448,192,50609,1,0,0:0:0:0:
192,192,50658,1,0,0:0:0:0:
320,192,50658,1,0,0:0:0:0:
448,192,50707,1,0,0:0:0:0:
64,192,50757,1,0,0:0:0:0:
192,192,50757,1,0,0:0:0:0:
320,192,50806,1,0,0:0:0:0:
64,192,50855,1,0,0:0:0:0:
448,192,50855,1,0,0:0:0:0:
192,192,50904,1,0,0:0:0:0:
320,192,50954,1,0,0:0:0:0:
448,192,50954,1,0,0:0:0:0:
192,192,51003,1,0,0:0:0:0:
64,192,51003,1,0,0:0:0:0:
320,192,51052,1,0,0:0:0:0:
448,192,51052,1,0,0:0:0:0:
64,192,51101,1,0,0:0:0:0:
448,192,51151,1,0,0:0:0:0:
192,192,51151,1,0,0:0:0:0:
320,192,51200,1,0,0:0:0:0:
448,192,51249,1,0,0:0:0:0:
64,192,51249,1,0,0:0:0:0:
192,192,51249,1,0,0:0:0:0:
320,192,51298,1,0,0:0:0:0:
192,192,51347,1,0,0:0:0:0:
64,192,51397,1,0,0:0:0:0:
320,192,51446,1,0,0:0:0:0:
192,192,51446,1,0,0:0:0:0:
448,192,51446,1,0,0:0:0:0:
64,192,51495,1,0,0:0:0:0:
448,192,51544,1,0,0:0:0:0:
320,192,51594,1,0,0:0:0:0:
64,192,51643,1,0,0:0:0:0:
448,192,51643,1,0,0:0:0:0:
192,192,51643,1,0,0:0:0:0:
320,192,51692,1,0,0:0:0:0:
64,192,51741,1,0,0:0:0:0:
192,192,51741,1,0,0:0:0:0:
448,192,51791,1,0,0:0:0:0:
320,192,51840,1,0,0:0:0:0:
192,192,51840,1,0,0:0:0:0:
64,192,51889,1,0,0:0:0:0:
320,192,51938,1,0,0:0:0:0:
448,192,51938,1,0,0:0:0:0:
192,192,51988,1,0,0:0:0:0:
64,192,52037,1,0,0:0:0:0:
320,192,52037,1,0,0:0:0:0:
192,192,52135,1,0,0:0:0:0:
320,192,52135,1,0,0:0:0:0:
64,192,52135,1,0,0:0:0:0:
192,192,52234,1,0,0:0:0:0:
448,192,52234,1,0,0:0:0:0:
320,192,52234,1,0,0:0:0:0:
64,192,52332,1,0,0:0:0:0:
192,192,52332,1,0,0:0:0:0:
320,192,52381,1,0,0:0:0:0:
448,192,52381,1,0,0:0:0:0:
64,192,52431,1,0,0:0:0:0:
192,192,52431,1,0,0:0:0:0:
448,192,52529,1,0,0:0:0:0:
320,192,52554,1,0,0:0:0:0:
192,192,52578,1,0,0:0:0:0:
64,192,52603,1,0,0:0:0:0:
448,192,52628,1,0,0:0:0:0:
320,192,52628,1,0,0:0:0:0:
192,192,52726,1,0,0:0:0:0:
320,192,52726,1,0,0:0:0:0:
64,192,52825,1,0,0:0:0:0:
192,192,52825,1,0,0:0:0:0:
448,192,52825,1,0,0:0:0:0:
320,192,52874,1,0,0:0:0:0:
448,192,52923,1,0,0:0:0:0:
64,192,52972,1,0,0:0:0:0:
192,192,53022,1,0,0:0:0:0:
320,192,53022,1,0,0:0:0:0:
448,192,53022,1,0,0:0:0:0:
64,192,53071,1,0,0:0:0:0:
192,192,53120,1,0,0:0:0:0:
320,192,53169,1,0,0:0:0:0:
64,192,53219,1,0,0:0:0:0:
192,192,53219,1,0,0:0:0:0:
448,192,53219,1,0,0:0:0:0:
320,192,53268,1,0,0:0:0:0:
64,192,53317,1,0,0:0:0:0:
192,192,53317,1,0,0:0:0:0:
320,192,53366,1,0,0:0:0:0:
192,192,53415,1,0,0:0:0:0:
448,192,53415,1,0,0:0:0:0:
64,192,53465,1,0,0:0:0:0:
320,192,53514,1,0,0:0:0:0:
448,192,53514,1,0,0:0:0:0:
64,192,53563,1,0,0:0:0:0:
192,192,53612,1,0,0:0:0:0:
320,192,53612,1,0,0:0:0:0:
64,192,53662,1,0,0:0:0:0:
320,192,53711,1,0,0:0:0:0:
448,192,53711,1,0,0:0:0:0:
192,192,53760,1,0,0:0:0:0:
64,192,53809,1,0,0:0:0:0:
448,192,53809,1,0,0:0:0:0:
192,192,53859,1,0,0:0:0:0:
320,192,53908,1,0,0:0:0:0:
448,192,53908,1,0,0:0:0:0:
64,192,53957,1,0,0:0:0:0:
192,192,54006,1,0,0:0:0:0:
320,192,54006,1,0,0:0:0:0:
448,192,54056,1,0,0:0:0:0:
64,192,54105,1,0,0:0:0:0:
192,192,54105,1,0,0:0:0:0:
320,192,54154,1,0,0:0:0:0:
448,192,54154,1,0,0:0:0:0:
64,192,54203,1,0,0:0:0:0:
192,192,54203,1,0,0:0:0:0:
320,192,54253,1,0,0:0:0:0:
448,192,54302,1,0,0:0:0:0:
192,192,54302,1,0,0:0:0:0:
64,192,54351,1,0,0:0:0:0:
320,192,54400,1,0,0:0:0:0:
192,192,54400,1,0,0:0:0:0:
448,192,54400,1,0,0:0:0:0:
64,192,54449,1,0,0:0:0:0:
448,192,54499,1,0,0:0:0:0:
320,192,54548,1,0,0:0:0:0:
192,192,54597,1,0,0:0:0:0:
64,192,54597,1,0,0:0:0:0:
448,192,54597,1,0,0:0:0:0:
320,192,54646,1,0,0:0:0:0:
192,192,54696,1,0,0:0:0:0:
64,192,54745,1,0,0:0:0:0:
320,192,54794,1,0,0:0:0:0:
192,192,54794,1,0,0:0:0:0:
448,192,54794,1,0,0:0:0:0:
64,192,54843,1,0,0:0:0:0:
320,192,54893,1,0,0:0:0:0:
448,192,54893,1,0,0:0:0:0:
192,192,54942,1,0,0:0:0:0:
64,192,54991,1,0,0:0:0:0:
320,192,54991,1,0,0:0:0:0:
448,192,55040,1,0,0:0:0:0:
192,192,55090,1,0,0:0:0:0:
64,192,55090,1,0,0:0:0:0:
320,192,55139,1,0,0:0:0:0:
192,192,55188,1,0,0:0:0:0:
448,192,55188,1,0,0:0:0:0:
320,192,55237,1,0,0:0:0:0:
64,192,55287,1,0,0:0:0:0:
192,192,55287,1,0,0:0:0:0:
448,192,55336,1,0,0:0:0:0:
64,192,55385,1,0,0:0:0:0:
320,192,55385,1,0,0:0:0:0:
192,192,55434,1,0,0:0:0:0:
448,192,55484,1,0,0:0:0:0:
320,192,55484,1,0,0:0:0:0:
64,192,55533,1,0,0:0:0:0:
192,192,55533,1,0,0:0:0:0:
448,192,55582,1,0,0:0:0:0:
320,192,55582,1,0,0:0:0:0:
192,192,55680,1,0,0:0:0:0:
64,192,55680,1,0,0:0:0:0:
320,192,55730,1,0,0:0:0:0:
448,192,55730,1,0,0:0:0:0:
192,192,55779,1,0,0:0:0:0:
64,192,55779,1,0,0:0:0:0:
192,192,55877,1,0,0:0:0:0:
320,192,55877,1,0,0:0:0:0:
64,192,55976,1,0,0:0:0:0:
448,192,55976,1,0,0:0:0:0:
320,192,55976,1,0,0:0:0:0:
192,192,56025,1,0,0:0:0:0:
320,192,56074,1,0,0:0:0:0:
448,192,56124,1,0,0:0:0:0:
64,192,56173,1,0,0:0:0:0:
320,192,56173,1,0,0:0:0:0:
192,192,56173,1,0,0:0:0:0:
448,192,56222,1,0,0:0:0:0:
64,192,56271,1,0,0:0:0:0:
192,192,56321,1,0,0:0:0:0:
64,192,56370,1,0,0:0:0:0:
320,192,56370,1,0,0:0:0:0:
448,192,56370,1,0,0:0:0:0:
192,192,56419,1,0,0:0:0:0:
320,192,56468,1,0,0:0:0:0:
448,192,56468,1,0,0:0:0:0:
64,192,56518,1,0,0:0:0:0:
192,192,56567,1,0,0:0:0:0:
320,192,56567,1,0,0:0:0:0:
448,192,56616,1,0,0:0:0:0:
192,192,56665,1,0,0:0:0:0:
64,192,56665,1,0,0:0:0:0:
448,192,56714,1,0,0:0:0:0:
192,192,56764,1,0,0:0:0:0:
320,192,56764,1,0,0:0:0:0:
64,192,56813,1,0,0:0:0:0:
320,192,56862,1,0,0:0:0:0:
448,192,56862,1,0,0:0:0:0:
192,192,56911,1,0,0:0:0:0:
64,192,56961,1,0,0:0:0:0:
448,192,56961,1,0,0:0:0:0:
192,192,57010,1,0,0:0:0:0:
320,192,57059,1,0,0:0:0:0:
448,192,57059,1,0,0:0:0:0:
64,192,57108,1,0,0:0:0:0:
320,192,57158,1,0,0:0:0:0:
192,192,57158,1,0,0:0:0:0:
64,192,57207,1,0,0:0:0:0:
448,192,57256,1,0,0:0:0:0:
320,192,57256,1,0,0:0:0:0:
64,192,57305,1,0,0:0:0:0:
192,192,57305,1,0,0:0:0:0:
320,192,57355,1,0,0:0:0:0:
448,192,57355,1,0,0:0:0:0:
192,192,57404,1,0,0:0:0:0:
64,192,57453,1,0,0:0:0:0:
448,192,57453,1,0,0:0:0:0:
320,192,57502,1,0,0:0:0:0:
192,192,57552,1,0,0:0:0:0:
64,192,57552,1,0,0:0:0:0:
448,192,57552,1,0,0:0:0:0:
320,192,57601,1,0,0:0:0:0:
192,192,57650,1,0,0:0:0:0:
64,192,57699,1,0,0:0:0:0:
320,192,57748,1,0,0:0:0:0:
448,192,57748,1,0,0:0:0:0:
192,192,57748,1,0,0:0:0:0:
64,192,57798,1,0,0:0:0:0:
448,192,57847,1,0,0:0:0:0:
320,192,57896,1,0,0:0:0:0:
64,192,57945,1,0,0:0:0:0:
192,192,57945,1,0,0:0:0:0:
448,192,57945,1,0,0:0:0:0:
320,192,57995,1,0,0:0:0:0:
192,192,58044,1,0,0:0:0:0:
64,192,58044,1,0,0:0:0:0:
448,192,58093,1,0,0:0:0:0:
320,192,58142,1,0,0:0:0:0:
64,192,58142,1,0,0:0:0:0:
192,192,58192,1,0,0:0:0:0:
320,192,58241,1,0,0:0:0:0:
448,192,58241,1,0,0:0:0:0:
64,192,58290,1,0,0:0:0:0:
448,192,58339,1,0,0:0:0:0:
192,192,58339,1,0,0:0:0:0:
64,192,58389,1,0,0:0:0:0:
320,192,58438,1,0,0:0:0:0:
448,192,58438,1,0,0:0:0:0:
192,192,58487,1,0,0:0:0:0:
64,192,58536,1,0,0:0:0:0:
320,192,58536,1,0,0:0:0:0:
192,192,58586,1,0,0:0:0:0:
448,192,58635,1,0,0:0:0:0:
320,192,58635,1,0,0:0:0:0:
64,192,58684,1,0,0:0:0:0:
192,192,58684,1,0,0:0:0:0:
448,192,58733,1,0,0:0:0:0:
320,192,58733,1,0,0:0:0:0:
192,192,58832,1,0,0:0:0:0:
64,192,58832,1,0,0:0:0:0:
320,192,58881,1,0,0:0:0:0:
448,192,58881,1,0,0:0:0:0:
192,192,58930,1,0,0:0:0:0:
64,192,58930,1,0,0:0:0:0:
192,192,59029,1,0,0:0:0:0:
320,192,59029,1,0,0:0:0:0:
64,192,59127,1,0,0:0:0:0:
448,192,59127,1,0,0:0:0:0:
320,192,59127,1,0,0:0:0:0:
192,192,59176,1,0,0:0:0:0:
320,192,59226,1,0,0:0:0:0:
448,192,59275,1,0,0:0:0:0:
64,192,59324,1,0,0:0:0:0:
320,192,59324,1,0,0:0:0:0:
192,192,59324,1,0,0:0:0:0:
448,192,59373,1,0,0:0:0:0:
64,192,59423,1,0,0:0:0:0:
192,192,59472,1,0,0:0:0:0:
64,192,59521,1,0,0:0:0:0:
448,192,59521,1,0,0:0:0:0:
320,192,59521,1,0,0:0:0:0:
192,192,59570,1,0,0:0:0:0:
448,192,59620,1,0,0:0:0:0:
320,192,59620,1,0,0:0:0:0:
192,192,59669,1,0,0:0:0:0:
64,192,59718,1,0,0:0:0:0:
320,192,59718,1,0,0:0:0:0:
448,192,59767,1,0,0:0:0:0:
192,192,59816,1,0,0:0:0:0:
64,192,59816,1,0,0:0:0:0:
320,192,59866,1,0,0:0:0:0:
192,192,59915,1,0,0:0:0:0:
448,192,59915,1,0,0:0:0:0:
320,192,59964,1,0,0:0:0:0:
64,192,60013,1,0,0:0:0:0:
192,192,60013,1,0,0:0:0:0:
448,192,60063,1,0,0:0:0:0:
64,192,60112,1,0,0:0:0:0:
320,192,60112,1,0,0:0:0:0:
448,192,60161,1,0,0:0:0:0:
64,192,60210,1,0,0:0:0:0:
192,192,60210,1,0,0:0:0:0:
320,192,60260,1,0,0:0:0:0:
192,192,60309,1,0,0:0:0:0:
448,192,60309,1,0,0:0:0:0:
64,192,60358,1,0,0:0:0:0:
320,192,60407,1,0,0:0:0:0:
448,192,60407,1,0,0:0:0:0:
192,192,60457,1,0,0:0:0:0:
64,192,60457,1,0,0:0:0:0:
320,192,60506,1,0,0:0:0:0:
448,192,60506,1,0,0:0:0:0:
192,192,60555,1,0,0:0:0:0:
64,192,60604,1,0,0:0:0:0:
448,192,60604,1,0,0:0:0:0:
320,192,60654,1,0,0:0:0:0:
64,192,60703,1,0,0:0:0:0:
448,192,60703,1,0,0:0:0:0:
192,192,60703,1,0,0:0:0:0:
320,192,60752,1,0,0:0:0:0:
192,192,60801,1,0,0:0:0:0:
64,192,60850,1,0,0:0:0:0:
320,192,60900,1,0,0:0:0:0:
448,192,60900,1,0,0:0:0:0:
192,192,60900,1,0,0:0:0:0:
64,192,60949,1,0,0:0:0:0:
448,192,60998,1,0,0:0:0:0:
320,192,61047,1,0,0:0:0:0:
64,192,61097,1,0,0:0:0:0:
192,192,61097,1,0,0:0:0:0:
448,192,61097,1,0,0:0:0:0:
320,192,61146,1,0,0:0:0:0:
192,192,61195,1,0,0:0:0:0:
64,192,61195,1,0,0:0:0:0:
448,192,61244,1,0,0:0:0:0:
320,192,61294,1,0,0:0:0:0:
192,192,61294,1,0,0:0:0:0:
64,192,61343,1,0,0:0:0:0:
448,192,61392,1,0,0:0:0:0:
320,192,61392,1,0,0:0:0:0:
192,192,61441,1,0,0:0:0:0:
64,192,61491,1,0,0:0:0:0:
448,192,61491,1,0,0:0:0:0:
192,192,61540,1,0,0:0:0:0:
320,192,61589,1,0,0:0:0:0:
448,192,61589,1,0,0:0:0:0:
64,192,61638,1,0,0:0:0:0:
320,192,61688,1,0,0:0:0:0:
192,192,61688,1,0,0:0:0:0:
64,192,61737,1,0,0:0:0:0:
320,192,61786,1,0,0:0:0:0:
448,192,61786,1,0,0:0:0:0:
192,192,61835,1,0,0:0:0:0:
64,192,61835,1,0,0:0:0:0:
320,192,61884,1,0,0:0:0:0:
448,192,61884,1,0,0:0:0:0:
64,192,61983,1,0,0:0:0:0:
192,192,61983,1,0,0:0:0:0:
320,192,62032,1,0,0:0:0:0:
448,192,62032,1,0,0:0:0:0:
64,192,62081,1,0,0:0:0:0:
192,192,62081,1,0,0:0:0:0:
192,192,62180,1,0,0:0:0:0:
320,192,62180,1,0,0:0:0:0:
320,192,62278,1,0,0:0:0:0:
448,192,62278,1,0,0:0:0:0:
64,192,62278,1,0,0:0:0:0:
192,192,62328,1,0,0:0:0:0:
320,192,62377,1,0,0:0:0:0:
448,192,62377,1,0,0:0:0:0:
64,192,62426,1,0,0:0:0:0:
448,192,62475,1,0,0:0:0:0:
192,192,62475,1,0,0:0:0:0:
64,192,62525,1,0,0:0:0:0:
320,192,62574,1,0,0:0:0:0:
448,192,62574,1,0,0:0:0:0:
192,192,62623,1,0,0:0:0:0:
64,192,62672,1,0,0:0:0:0:
320,192,62672,1,0,0:0:0:0:
448,192,62722,1,0,0:0:0:0:
64,192,62771,1,0,0:0:0:0:
192,192,62771,1,0,0:0:0:0:
448,192,62820,1,0,0:0:0:0:
192,192,62869,1,0,0:0:0:0:
320,192,62869,1,0,0:0:0:0:
448,192,62919,1,0,0:0:0:0:
64,192,62968,1,0,0:0:0:0:
192,192,62968,1,0,0:0:0:0:
320,192,63017,1,0,0:0:0:0:
192,192,63066,1,0,0:0:0:0:
448,192,63066,1,0,0:0:0:0:
64,192,63115,1,0,0:0:0:0:
320,192,63165,1,0,0:0:0:0:
448,192,63165,1,0,0:0:0:0:
64,192,63214,1,0,0:0:0:0:
192,192,63263,1,0,0:0:0:0:
320,192,63263,1,0,0:0:0:0:
448,192,63312,1,0,0:0:0:0:
64,192,63362,1,0,0:0:0:0:
192,192,63362,1,0,0:0:0:0:
320,192,63411,1,0,0:0:0:0:
448,192,63460,1,0,0:0:0:0:
192,192,63460,1,0,0:0:0:0:
64,192,63509,1,0,0:0:0:0:
320,192,63559,1,0,0:0:0:0:
448,192,63559,1,0,0:0:0:0:
64,192,63608,1,0,0:0:0:0:
192,192,63608,1,0,0:0:0:0:
320,192,63657,1,0,0:0:0:0:
448,192,63657,1,0,0:0:0:0:
192,192,63706,1,0,0:0:0:0:
64,192,63756,1,0,0:0:0:0:
320,192,63756,1,0,0:0:0:0:
448,192,63805,1,0,0:0:0:0:
64,192,63854,1,0,0:0:0:0:
192,192,63854,1,0,0:0:0:0:
320,192,63903,1,0,0:0:0:0:
448,192,63903,1,0,0:0:0:0:
64,192,63953,1,0,0:0:0:0:
192,192,63953,1,0,0:0:0:0:
320,192,64002,1,0,0:0:0:0:
448,192,64002,1,0,0:0:0:0:
192,192,64051,1,0,0:0:0:0:
64,192,64051,1,0,0:0:0:0:
320,192,64100,1,0,0:0:0:0:
448,192,64100,1,0,0:0:0:0:
192,192,64149,1,0,0:0:0:0:
64,192,64149,1,0,0:0:0:0:
320,192,64199,1,0,0:0:0:0:
448,192,64199,1,0,0:0:0:0:
192,192,64248,1,0,0:0:0:0:
64,192,64248,1,0,0:0:0:0:
320,192,64297,1,0,0:0:0:0:
448,192,64297,1,0,0:0:0:0:
192,192,64346,1,0,0:0:0:0:
64,192,64346,1,0,0:0:0:0:
320,192,64396,1,0,0:0:0:0:
448,192,64396,1,0,0:0:0:0:
192,192,64445,1,0,0:0:0:0:
64,192,64445,1,0,0:0:0:0:
320,192,64494,1,0,0:0:0:0:
448,192,64494,1,0,0:0:0:0:
192,192,64543,1,0,0:0:0:0:
64,192,64543,1,0,0:0:0:0:
320,192,64593,1,0,0:0:0:0:
448,192,64593,1,0,0:0:0:0:
64,192,64642,1,0,0:0:0:0:
192,192,64642,1,0,0:0:0:0:
448,192,64691,1,0,0:0:0:0:
192,192,64740,1,0,0:0:0:0:
320,192,64740,1,0,0:0:0:0:
64,192,64790,1,0,0:0:0:0:
320,192,64839,1,0,0:0:0:0:
448,192,64839,1,0,0:0:0:0:
64,192,64863,1,0,0:0:0:0:
192,192,64888,1,0,0:0:0:0:
448,192,64913,1,0,0:0:0:0:
320,192,64937,1,0,0:0:0:0:
192,192,64937,1,0,0:0:0:0:
64,192,64962,1,0,0:0:0:0:
320,192,64987,1,0,0:0:0:0:
448,192,65011,1,0,0:0:0:0:
64,192,65036,1,0,0:0:0:0:
192,192,65036,1,0,0:0:0:0:
448,192,65134,1,0,0:0:0:0:
320,192,65159,1,0,0:0:0:0:
192,192,65183,1,0,0:0:0:0:
64,192,65208,1,0,0:0:0:0:
320,192,65233,1,0,0:0:0:0:
448,192,65233,1,0,0:0:0:0:
64,192,65331,1,0,0:0:0:0:
192,192,65331,1,0,0:0:0:0:
320,192,65430,1,0,0:0:0:0:
448,192,65430,1,0,0:0:0:0:
64,192,65528,1,0,0:0:0:0:
192,192,65553,1,0,0:0:0:0:
320,192,65577,1,0,0:0:0:0:
448,192,65602,1,0,0:0:0:0:
64,192,65627,1,0,0:0:0:0:
192,192,65627,1,0,0:0:0:0:
448,192,65725,1,0,0:0:0:0:
320,192,65750,1,0,0:0:0:0:
192,192,65774,1,0,0:0:0:0:
64,192,65799,1,0,0:0:0:0:
320,192,65824,1,0,0:0:0:0:
448,192,65824,1,0,0:0:0:0:
64,192,65848,1,0,0:0:0:0:
192,192,65873,1,0,0:0:0:0:
448,192,65897,1,0,0:0:0:0:
320,192,65922,1,0,0:0:0:0:
192,192,65947,1,0,0:0:0:0:
64,192,65971,1,0,0:0:0:0:
320,192,65996,1,0,0:0:0:0:
64,192,66021,1,0,0:0:0:0:
448,192,66021,1,0,0:0:0:0:
192,192,66045,1,0,0:0:0:0:
320,192,66070,1,0,0:0:0:0:
448,192,66094,1,0,0:0:0:0:
192,192,66119,1,0,0:0:0:0:
64,192,66144,1,0,0:0:0:0:
448,192,66168,1,0,0:0:0:0:
320,192,66193,1,0,0:0:0:0:
64,192,66217,1,0,0:0:0:0:
192,192,66217,1,0,0:0:0:0:
64,192,66611,1,0,0:0:0:0:
320,192,66611,1,0,0:0:0:0:
192,192,67005,1,0,0:0:0:0:
320,192,67005,1,0,0:0:0:0:
320,192,67399,1,0,0:0:0:0:
448,192,67399,1,0,0:0:0:0:
192,192,67793,1,0,0:0:0:0:
448,192,67793,1,0,0:0:0:0:
64,192,68187,1,0,0:0:0:0:
192,192,68187,1,0,0:0:0:0:
192,192,68581,1,0,0:0:0:0:
320,192,68581,1,0,0:0:0:0:
192,192,69270,1,0,0:0:0:0:
320,192,69270,1,0,0:0:0:0:
192,192,69763,1,0,0:0:0:0:
64,192,69763,1,0,0:0:0:0:
320,192,70157,1,0,0:0:0:0:
64,192,70157,1,0,0:0:0:0:
192,192,70354,1,0,0:0:0:0:
64,192,70550,1,0,0:0:0:0:
448,192,70550,1,0,0:0:0:0:
320,192,70747,1,0,0:0:0:0:
192,192,70944,1,0,0:0:0:0:
448,192,70944,1,0,0:0:0:0:
320,192,71043,1,0,0:0:0:0:
64,192,71141,1,0,0:0:0:0:
320,192,71338,1,0,0:0:0:0:
448,192,71338,1,0,0:0:0:0:
192,192,71437,1,0,0:0:0:0:
64,192,71634,1,0,0:0:0:0:
192,192,71732,1,0,0:0:0:0:
320,192,71732,1,0,0:0:0:0:
448,192,71732,1,0,0:0:0:0:
64,192,72520,1,0,0:0:0:0:
320,192,72520,1,0,0:0:0:0:
448,192,72520,1,0,0:0:0:0:
192,192,72569,1,0,0:0:0:0:
320,192,72618,1,0,0:0:0:0:
448,192,72668,1,0,0:0:0:0:
64,192,72717,1,0,0:0:0:0:
320,192,72766,1,0,0:0:0:0:
192,192,72815,1,0,0:0:0:0:
64,192,72865,1,0,0:0:0:0:
448,192,72914,1,0,0:0:0:0:
192,192,72963,1,0,0:0:0:0:
320,192,73012,1,0,0:0:0:0:
64,192,73062,1,0,0:0:0:0:
448,192,73111,1,0,0:0:0:0:
192,192,73160,1,0,0:0:0:0:
320,192,73209,1,0,0:0:0:0:
448,192,73259,1,0,0:0:0:0:
64,192,73308,1,0,0:0:0:0:
320,192,73357,1,0,0:0:0:0:
192,192,73406,1,0,0:0:0:0:
448,192,73456,1,0,0:0:0:0:
64,192,73505,1,0,0:0:0:0:
192,192,73554,1,0,0:0:0:0:
320,192,73603,1,0,0:0:0:0:
64,192,73653,1,0,0:0:0:0:
448,192,73702,1,0,0:0:0:0:
320,192,73751,1,0,0:0:0:0:
192,192,73800,1,0,0:0:0:0:
64,192,73849,1,0,0:0:0:0:
448,192,73899,1,0,0:0:0:0:
192,192,73948,1,0,0:0:0:0:
320,192,73997,1,0,0:0:0:0:
64,192,74046,1,0,0:0:0:0:
320,192,74096,1,0,0:0:0:0:
448,192,74096,1,0,0:0:0:0:
192,192,74145,1,0,0:0:0:0:
320,192,74194,1,0,0:0:0:0:
64,192,74243,1,0,0:0:0:0:
448,192,74293,1,0,0:0:0:0:
192,192,74342,1,0,0:0:0:0:
320,192,74391,1,0,0:0:0:0:
448,192,74440,1,0,0:0:0:0:
64,192,74490,1,0,0:0:0:0:
320,192,74539,1,0,0:0:0:0:
192,192,74588,1,0,0:0:0:0:
448,192,74637,1,0,0:0:0:0:
64,192,74687,1,0,0:0:0:0:
320,192,74736,1,0,0:0:0:0:
192,192,74785,1,0,0:0:0:0:
64,192,74834,1,0,0:0:0:0:
192,192,74883,1,0,0:0:0:0:
320,192,74883,1,0,0:0:0:0:
448,192,74883,1,0,0:0:0:0:
64,192,74933,1,0,0:0:0:0:
320,192,74982,1,0,0:0:0:0:
192,192,75031,1,0,0:0:0:0:
64,192,75080,1,0,0:0:0:0:
320,192,75080,1,0,0:0:0:0:
448,192,75080,1,0,0:0:0:0:
192,192,75130,1,0,0:0:0:0:
448,192,75179,1,0,0:0:0:0:
320,192,75228,1,0,0:0:0:0:
64,192,75277,1,0,0:0:0:0:
448,192,75277,1,0,0:0:0:0:
192,192,75277,1,0,0:0:0:0:
320,192,75327,1,0,0:0:0:0:
192,192,75376,1,0,0:0:0:0:
64,192,75425,1,0,0:0:0:0:
320,192,75425,1,0,0:0:0:0:
448,192,75425,1,0,0:0:0:0:
192,192,75474,1,0,0:0:0:0:
320,192,75524,1,0,0:0:0:0:
64,192,75573,1,0,0:0:0:0:
448,192,75573,1,0,0:0:0:0:
192,192,75573,1,0,0:0:0:0:
320,192,75622,1,0,0:0:0:0:
64,192,75671,1,0,0:0:0:0:
448,192,75671,1,0,0:0:0:0:
192,192,75721,1,0,0:0:0:0:
320,192,75770,1,0,0:0:0:0:
64,192,75819,1,0,0:0:0:0:
448,192,75868,1,0,0:0:0:0:
192,192,75917,1,0,0:0:0:0:
320,192,75967,1,0,0:0:0:0:
64,192,76016,1,0,0:0:0:0:
448,192,76065,1,0,0:0:0:0:
320,192,76114,1,0,0:0:0:0:
192,192,76164,1,0,0:0:0:0:
64,192,76213,1,0,0:0:0:0:
448,192,76262,1,0,0:0:0:0:
320,192,76262,1,0,0:0:0:0:
192,192,76311,1,0,0:0:0:0:
64,192,76361,1,0,0:0:0:0:
448,192,76361,1,0,0:0:0:0:
320,192,76385,1,0,0:0:0:0:
192,192,76410,1,0,0:0:0:0:
64,192,76434,1,0,0:0:0:0:
448,192,76459,1,0,0:0:0:0:
320,192,76459,1,0,0:0:0:0:
192,192,76508,1,0,0:0:0:0:
320,192,76558,1,0,0:0:0:0:
448,192,76607,1,0,0:0:0:0:
64,192,76656,1,0,0:0:0:0:
192,192,76656,1,0,0:0:0:0:
320,192,76656,1,0,0:0:0:0:
448,192,76705,1,0,0:0:0:0:
192,192,76755,1,0,0:0:0:0:
64,192,76804,1,0,0:0:0:0:
192,192,76853,1,0,0:0:0:0:
320,192,76853,1,0,0:0:0:0:
448,192,76853,1,0,0:0:0:0:
64,192,76902,1,0,0:0:0:0:
448,192,76951,1,0,0:0:0:0:
320,192,77001,1,0,0:0:0:0:
64,192,77050,1,0,0:0:0:0:
192,192,77050,1,0,0:0:0:0:
448,192,77050,1,0,0:0:0:0:
320,192,77099,1,0,0:0:0:0:
64,192,77148,1,0,0:0:0:0:
192,192,77198,1,0,0:0:0:0:
64,192,77247,1,0,0:0:0:0:
448,192,77247,1,0,0:0:0:0:
320,192,77345,1,0,0:0:0:0:
448,192,77345,1,0,0:0:0:0:
64,192,77370,1,0,0:0:0:0:
192,192,77395,1,0,0:0:0:0:
320,192,77419,1,0,0:0:0:0:
448,192,77444,1,0,0:0:0:0:
64,192,77542,1,0,0:0:0:0:
192,192,77567,1,0,0:0:0:0:
320,192,77592,1,0,0:0:0:0:
448,192,77616,1,0,0:0:0:0:
192,192,77641,1,0,0:0:0:0:
64,192,77641,1,0,0:0:0:0:
448,192,77739,1,0,0:0:0:0:
320,192,77764,1,0,0:0:0:0:
192,192,77789,1,0,0:0:0:0:
64,192,77813,1,0,0:0:0:0:
320,192,77838,1,0,0:0:0:0:
448,192,77838,1,0,0:0:0:0:
64,192,77936,1,0,0:0:0:0:
192,192,77936,1,0,0:0:0:0:
448,192,77961,1,0,0:0:0:0:
320,192,77985,1,0,0:0:0:0:
192,192,78010,1,0,0:0:0:0:
64,192,78035,1,0,0:0:0:0:
320,192,78084,1,0,0:0:0:0:
192,192,78133,1,0,0:0:0:0:
320,192,78182,1,0,0:0:0:0:
192,192,78232,1,0,0:0:0:0:
320,192,78281,1,0,0:0:0:0:
192,192,78330,1,0,0:0:0:0:
320,192,78379,1,0,0:0:0:0:
192,192,78429,1,0,0:0:0:0:
320,192,78478,1,0,0:0:0:0:
192,192,78527,1,0,0:0:0:0:
320,192,78576,1,0,0:0:0:0:
192,192,78626,5,0,0:0:0:0:
64,192,78626,1,0,0:0:0:0:
320,192,78675,1,0,0:0:0:0:
448,192,78675,1,0,0:0:0:0:
192,192,78724,1,0,0:0:0:0:
64,192,78724,1,0,0:0:0:0:
320,192,78773,1,0,0:0:0:0:
448,192,78773,1,0,0:0:0:0:
192,192,78823,1,0,0:0:0:0:
64,192,78823,1,0,0:0:0:0:
448,192,78872,1,0,0:0:0:0:
192,192,78921,1,0,0:0:0:0:
320,192,78921,1,0,0:0:0:0:
64,192,78970,1,0,0:0:0:0:
320,192,79019,1,0,0:0:0:0:
448,192,79019,1,0,0:0:0:0:
64,192,79052,1,0,0:0:0:0:
192,192,79085,1,0,0:0:0:0:
320,192,79118,1,0,0:0:0:0:
448,192,79151,1,0,0:0:0:0:
192,192,79184,1,0,0:0:0:0:
448,192,79216,1,0,0:0:0:0:
64,192,79216,1,0,0:0:0:0:
320,192,79241,1,0,0:0:0:0:
192,192,79266,1,0,0:0:0:0:
64,192,79290,1,0,0:0:0:0:
320,192,79315,1,0,0:0:0:0:
448,192,79340,1,0,0:0:0:0:
64,192,79364,1,0,0:0:0:0:
192,192,79389,1,0,0:0:0:0:
320,192,79413,1,0,0:0:0:0:
448,192,79413,1,0,0:0:0:0:
64,192,79610,5,0,0:0:0:0:
192,192,79610,1,0,0:0:0:0:
448,192,79610,1,0,0:0:0:0:
320,192,79660,1,0,0:0:0:0:
192,192,79709,1,0,0:0:0:0:
64,192,79758,1,0,0:0:0:0:
320,192,79758,1,0,0:0:0:0:
448,192,79758,1,0,0:0:0:0:
192,192,79807,1,0,0:0:0:0:
320,192,79857,1,0,0:0:0:0:
64,192,79906,1,0,0:0:0:0:
192,192,79906,1,0,0:0:0:0:
448,192,79906,1,0,0:0:0:0:
320,192,79955,1,0,0:0:0:0:
192,192,80004,1,0,0:0:0:0:
64,192,80054,1,0,0:0:0:0:
320,192,80054,1,0,0:0:0:0:
448,192,80054,1,0,0:0:0:0:
192,192,80103,1,0,0:0:0:0:
320,192,80152,1,0,0:0:0:0:
64,192,80201,1,0,0:0:0:0:
448,192,80201,1,0,0:0:0:0:
320,192,80251,1,0,0:0:0:0:
192,192,80300,1,0,0:0:0:0:
64,192,80300,1,0,0:0:0:0:
448,192,80349,1,0,0:0:0:0:
192,192,80398,1,0,0:0:0:0:
320,192,80398,1,0,0:0:0:0:
64,192,80398,1,0,0:0:0:0:
448,192,80448,1,0,0:0:0:0:
64,192,80497,1,0,0:0:0:0:
192,192,80546,1,0,0:0:0:0:
320,192,80546,1,0,0:0:0:0:
448,192,80546,1,0,0:0:0:0:
64,192,80595,1,0,0:0:0:0:
448,192,80645,1,0,0:0:0:0:
64,192,80694,1,0,0:0:0:0:
320,192,80694,1,0,0:0:0:0:
192,192,80694,1,0,0:0:0:0:
448,192,80743,1,0,0:0:0:0:
64,192,80792,1,0,0:0:0:0:
192,192,80841,1,0,0:0:0:0:
320,192,80841,1,0,0:0:0:0:
448,192,80841,1,0,0:0:0:0:
64,192,80891,1,0,0:0:0:0:
448,192,80940,1,0,0:0:0:0:
192,192,80989,1,0,0:0:0:0:
320,192,80989,1,0,0:0:0:0:
448,192,81038,1,0,0:0:0:0:
64,192,81088,1,0,0:0:0:0:
192,192,81088,1,0,0:0:0:0:
320,192,81137,1,0,0:0:0:0:
64,192,81186,1,0,0:0:0:0:
192,192,81186,1,0,0:0:0:0:
448,192,81186,1,0,0:0:0:0:
320,192,81235,1,0,0:0:0:0:
192,192,81285,1,0,0:0:0:0:
64,192,81334,1,0,0:0:0:0:
320,192,81334,1,0,0:0:0:0:
448,192,81334,1,0,0:0:0:0:
192,192,81383,1,0,0:0:0:0:
320,192,81432,1,0,0:0:0:0:
64,192,81482,1,0,0:0:0:0:
192,192,81482,1,0,0:0:0:0:
448,192,81531,1,0,0:0:0:0:
192,192,81580,1,0,0:0:0:0:
320,192,81580,1,0,0:0:0:0:
64,192,81580,1,0,0:0:0:0:
448,192,81629,1,0,0:0:0:0:
64,192,81679,1,0,0:0:0:0:
448,192,81728,1,0,0:0:0:0:
192,192,81728,1,0,0:0:0:0:
320,192,81728,1,0,0:0:0:0:
64,192,81777,1,0,0:0:0:0:
448,192,81826,1,0,0:0:0:0:
192,192,81875,1,0,0:0:0:0:
64,192,81875,1,0,0:0:0:0:
320,192,81925,1,0,0:0:0:0:
64,192,81974,1,0,0:0:0:0:
192,192,81974,1,0,0:0:0:0:
448,192,81974,1,0,0:0:0:0:
320,192,82023,1,0,0:0:0:0:
192,192,82072,1,0,0:0:0:0:
64,192,82122,1,0,0:0:0:0:
320,192,82122,1,0,0:0:0:0:
448,192,82122,1,0,0:0:0:0:
192,192,82171,1,0,0:0:0:0:
448,192,82220,1,0,0:0:0:0:
64,192,82269,1,0,0:0:0:0:
192,192,82269,1,0,0:0:0:0:
320,192,82269,1,0,0:0:0:0:
448,192,82319,1,0,0:0:0:0:
64,192,82368,1,0,0:0:0:0:
192,192,82417,1,0,0:0:0:0:
320,192,82417,1,0,0:0:0:0:
448,192,82417,1,0,0:0:0:0:
64,192,82466,1,0,0:0:0:0:
320,192,82516,1,0,0:0:0:0:
448,192,82516,1,0,0:0:0:0:
64,192,82565,1,0,0:0:0:0:
192,192,82565,1,0,0:0:0:0:
320,192,82614,1,0,0:0:0:0:
448,192,82663,1,0,0:0:0:0:
192,192,82663,1,0,0:0:0:0:
64,192,82713,1,0,0:0:0:0:
320,192,82762,1,0,0:0:0:0:
448,192,82762,1,0,0:0:0:0:
192,192,82762,1,0,0:0:0:0:
64,192,82811,1,0,0:0:0:0:
448,192,82860,1,0,0:0:0:0:
64,192,82909,1,0,0:0:0:0:
192,192,82909,1,0,0:0:0:0:
320,192,82909,1,0,0:0:0:0:
448,192,82959,1,0,0:0:0:0:
64,192,83008,1,0,0:0:0:0:
192,192,83057,1,0,0:0:0:0:
320,192,83057,1,0,0:0:0:0:
448,192,83057,1,0,0:0:0:0:
64,192,83106,1,0,0:0:0:0:
448,192,83156,1,0,0:0:0:0:
64,192,83205,1,0,0:0:0:0:
192,192,83205,1,0,0:0:0:0:
320,192,83205,1,0,0:0:0:0:
448,192,83254,1,0,0:0:0:0:
64,192,83303,1,0,0:0:0:0:
192,192,83353,1,0,0:0:0:0:
320,192,83353,1,0,0:0:0:0:
64,192,83402,1,0,0:0:0:0:
320,192,83451,1,0,0:0:0:0:
448,192,83451,1,0,0:0:0:0:
192,192,83500,1,0,0:0:0:0:
64,192,83550,1,0,0:0:0:0:
320,192,83550,1,0,0:0:0:0:
448,192,83550,1,0,0:0:0:0:
192,192,83599,1,0,0:0:0:0:
320,192,83648,1,0,0:0:0:0:
64,192,83697,1,0,0:0:0:0:
192,192,83697,1,0,0:0:0:0:
448,192,83697,1,0,0:0:0:0:
320,192,83747,1,0,0:0:0:0:
192,192,83796,1,0,0:0:0:0:
64,192,83845,1,0,0:0:0:0:
320,192,83845,1,0,0:0:0:0:
448,192,83845,1,0,0:0:0:0:
192,192,83894,1,0,0:0:0:0:
320,192,83943,1,0,0:0:0:0:
64,192,83993,1,0,0:0:0:0:
192,192,83993,1,0,0:0:0:0:
448,192,83993,1,0,0:0:0:0:
320,192,84042,1,0,0:0:0:0:
192,192,84091,1,0,0:0:0:0:
64,192,84140,1,0,0:0:0:0:
448,192,84140,1,0,0:0:0:0:
192,192,84190,1,0,0:0:0:0:
448,192,84239,1,0,0:0:0:0:
320,192,84239,1,0,0:0:0:0:
64,192,84288,1,0,0:0:0:0:
192,192,84337,1,0,0:0:0:0:
320,192,84337,1,0,0:0:0:0:
448,192,84337,1,0,0:0:0:0:
64,192,84387,1,0,0:0:0:0:
448,192,84436,1,0,0:0:0:0:
64,192,84485,1,0,0:0:0:0:
192,192,84485,1,0,0:0:0:0:
320,192,84485,1,0,0:0:0:0:
448,192,84534,1,0,0:0:0:0:
64,192,84584,1,0,0:0:0:0:
320,192,84633,1,0,0:0:0:0:
448,192,84633,1,0,0:0:0:0:
192,192,84682,1,0,0:0:0:0:
64,192,84731,1,0,0:0:0:0:
448,192,84731,1,0,0:0:0:0:
320,192,84731,1,0,0:0:0:0:
192,192,84781,1,0,0:0:0:0:
320,192,84830,1,0,0:0:0:0:
192,192,84879,1,0,0:0:0:0:
64,192,84879,1,0,0:0:0:0:
448,192,84879,1,0,0:0:0:0:
320,192,84928,1,0,0:0:0:0:
192,192,84977,1,0,0:0:0:0:
320,192,85027,1,0,0:0:0:0:
448,192,85027,1,0,0:0:0:0:
64,192,85076,1,0,0:0:0:0:
192,192,85125,1,0,0:0:0:0:
448,192,85125,1,0,0:0:0:0:
320,192,85125,1,0,0:0:0:0:
64,192,85174,1,0,0:0:0:0:
448,192,85224,1,0,0:0:0:0:
192,192,85224,1,0,0:0:0:0:
320,192,85273,1,0,0:0:0:0:
192,192,85322,1,0,0:0:0:0:
64,192,85322,1,0,0:0:0:0:
320,192,85371,1,0,0:0:0:0:
64,192,85421,1,0,0:0:0:0:
448,192,85421,1,0,0:0:0:0:
192,192,85470,1,0,0:0:0:0:
64,192,85519,1,0,0:0:0:0:
448,192,85519,1,0,0:0:0:0:
320,192,85519,1,0,0:0:0:0:
192,192,85568,1,0,0:0:0:0:
448,192,85618,1,0,0:0:0:0:
320,192,85667,1,0,0:0:0:0:
448,192,85716,1,0,0:0:0:0:
64,192,85716,1,0,0:0:0:0:
192,192,85765,1,0,0:0:0:0:
64,192,85815,1,0,0:0:0:0:
320,192,85864,1,0,0:0:0:0:
192,192,85913,1,0,0:0:0:0:
64,192,85913,1,0,0:0:0:0:
448,192,85913,1,0,0:0:0:0:
320,192,85962,1,0,0:0:0:0:
192,192,86011,1,0,0:0:0:0:
448,192,86061,1,0,0:0:0:0:
192,192,86110,1,0,0:0:0:0:
64,192,86110,1,0,0:0:0:0:
320,192,86110,1,0,0:0:0:0:
448,192,86159,1,0,0:0:0:0:
64,192,86208,1,0,0:0:0:0:
320,192,86258,1,0,0:0:0:0:
64,192,86307,1,0,0:0:0:0:
192,192,86307,1,0,0:0:0:0:
448,192,86307,1,0,0:0:0:0:
320,192,86356,1,0,0:0:0:0:
192,192,86405,1,0,0:0:0:0:
64,192,86455,1,0,0:0:0:0:
192,192,86504,1,0,0:0:0:0:
320,192,86504,1,0,0:0:0:0:
448,192,86504,1,0,0:0:0:0:
64,192,86553,1,0,0:0:0:0:
320,192,86602,1,0,0:0:0:0:
448,192,86602,1,0,0:0:0:0:
192,192,86652,1,0,0:0:0:0:
64,192,86701,1,0,0:0:0:0:
448,192,86701,1,0,0:0:0:0:
192,192,86750,1,0,0:0:0:0:
320,192,86799,1,0,0:0:0:0:
448,192,86799,1,0,0:0:0:0:
64,192,86849,1,0,0:0:0:0:
320,192,86898,1,0,0:0:0:0:
192,192,86898,1,0,0:0:0:0:
64,192,86947,1,0,0:0:0:0:
320,192,86996,1,0,0:0:0:0:
448,192,86996,1,0,0:0:0:0:
192,192,87046,1,0,0:0:0:0:
448,192,87095,1,0,0:0:0:0:
320,192,87095,1,0,0:0:0:0:
64,192,87095,1,0,0:0:0:0:
192,192,87144,1,0,0:0:0:0:
320,192,87193,1,0,0:0:0:0:
448,192,87242,1,0,0:0:0:0:
64,192,87292,1,0,0:0:0:0:
192,192,87292,1,0,0:0:0:0:
320,192,87292,1,0,0:0:0:0:
448,192,87341,1,0,0:0:0:0:
64,192,87390,1,0,0:0:0:0:
192,192,87439,1,0,0:0:0:0:
320,192,87489,1,0,0:0:0:0:
64,192,87489,1,0,0:0:0:0:
448,192,87489,1,0,0:0:0:0:
192,192,87538,1,0,0:0:0:0:
320,192,87587,1,0,0:0:0:0:
64,192,87636,1,0,0:0:0:0:
192,192,87686,1,0,0:0:0:0:
320,192,87686,1,0,0:0:0:0:
448,192,87686,1,0,0:0:0:0:
64,192,87735,1,0,0:0:0:0:
448,192,87784,1,0,0:0:0:0:
192,192,87833,1,0,0:0:0:0:
64,192,87883,1,0,0:0:0:0:
320,192,87883,1,0,0:0:0:0:
448,192,87883,1,0,0:0:0:0:
192,192,87932,1,0,0:0:0:0:
320,192,87981,1,0,0:0:0:0:
448,192,88030,1,0,0:0:0:0:
64,192,88080,1,0,0:0:0:0:
192,192,88080,1,0,0:0:0:0:
320,192,88080,1,0,0:0:0:0:
448,192,88129,1,0,0:0:0:0:
64,192,88178,1,0,0:0:0:0:
192,192,88178,1,0,0:0:0:0:
320,192,88227,1,0,0:0:0:0:
192,192,88276,1,0,0:0:0:0:
448,192,88276,1,0,0:0:0:0:
320,192,88326,1,0,0:0:0:0:
64,192,88375,1,0,0:0:0:0:
192,192,88375,1,0,0:0:0:0:
448,192,88424,1,0,0:0:0:0:
64,192,88473,1,0,0:0:0:0:
320,192,88473,1,0,0:0:0:0:
448,192,88523,1,0,0:0:0:0:
64,192,88572,1,0,0:0:0:0:
192,192,88572,1,0,0:0:0:0:
320,192,88621,1,0,0:0:0:0:
448,192,88621,1,0,0:0:0:0:
64,192,88670,1,0,0:0:0:0:
192,192,88670,1,0,0:0:0:0:
320,192,88769,1,0,0:0:0:0:
448,192,88769,1,0,0:0:0:0:
192,192,88818,1,0,0:0:0:0:
64,192,88818,1,0,0:0:0:0:
320,192,88867,1,0,0:0:0:0:
448,192,88867,1,0,0:0:0:0:
320,192,88966,1,0,0:0:0:0:
192,192,88966,1,0,0:0:0:0:
64,192,89064,1,0,0:0:0:0:
192,192,89064,1,0,0:0:0:0:
448,192,89064,1,0,0:0:0:0:
64,192,89458,1,0,0:0:0:0:
320,192,89458,1,0,0:0:0:0:
448,192,89458,1,0,0:0:0:0:
448,192,89754,1,0,0:0:0:0:
192,192,89754,1,0,0:0:0:0:
320,192,89852,1,0,0:0:0:0:
192,192,89852,1,0,0:0:0:0:
64,192,89852,1,0,0:0:0:0:
192,192,90049,1,0,0:0:0:0:
320,192,90049,1,0,0:0:0:0:
64,192,90049,1,0,0:0:0:0:
448,192,90344,1,0,0:0:0:0:
192,192,90344,1,0,0:0:0:0:
320,192,90344,1,0,0:0:0:0:
448,192,90541,1,0,0:0:0:0:
192,192,90541,1,0,0:0:0:0:
320,192,90541,1,0,0:0:0:0:
64,192,90640,1,0,0:0:0:0:
448,192,90640,1,0,0:0:0:0:
192,192,90640,1,0,0:0:0:0:
448,192,90738,1,0,0:0:0:0:
320,192,90738,1,0,0:0:0:0:
64,192,90763,1,0,0:0:0:0:
192,192,90788,1,0,0:0:0:0:
320,192,90812,1,0,0:0:0:0:
448,192,90837,1,0,0:0:0:0:
64,192,90935,1,0,0:0:0:0:
192,192,90960,1,0,0:0:0:0:
320,192,90985,1,0,0:0:0:0:
448,192,91009,1,0,0:0:0:0:
192,192,91034,1,0,0:0:0:0:
64,192,91034,1,0,0:0:0:0:
448,192,91132,1,0,0:0:0:0:
320,192,91157,1,0,0:0:0:0:
192,192,91182,1,0,0:0:0:0:
64,192,91206,1,0,0:0:0:0:
320,192,91231,1,0,0:0:0:0:
448,192,91231,1,0,0:0:0:0:
64,192,91329,1,0,0:0:0:0:
192,192,91329,1,0,0:0:0:0:
448,192,91354,1,0,0:0:0:0:
320,192,91378,1,0,0:0:0:0:
192,192,91403,1,0,0:0:0:0:
64,192,91428,1,0,0:0:0:0:
192,192,91526,1,0,0:0:0:0:
448,192,91526,1,0,0:0:0:0:
64,192,91575,1,0,0:0:0:0:
320,192,91575,1,0,0:0:0:0:
192,192,91625,1,0,0:0:0:0:
448,192,91625,1,0,0:0:0:0:
64,192,91723,1,0,0:0:0:0:
192,192,91723,1,0,0:0:0:0:
320,192,91772,1,0,0:0:0:0:
448,192,91772,1,0,0:0:0:0:
192,192,91822,1,0,0:0:0:0:
64,192,91871,1,0,0:0:0:0:
448,192,91871,1,0,0:0:0:0:
192,192,91920,1,0,0:0:0:0:
320,192,91969,1,0,0:0:0:0:
64,192,92019,1,0,0:0:0:0:
192,192,92019,1,0,0:0:0:0:
448,192,92019,1,0,0:0:0:0:
320,192,92117,1,0,0:0:0:0:
64,192,92117,1,0,0:0:0:0:
192,192,92166,1,0,0:0:0:0:
448,192,92166,1,0,0:0:0:0:
320,192,92216,1,0,0:0:0:0:
64,192,92216,1,0,0:0:0:0:
320,192,92314,1,0,0:0:0:0:
448,192,92314,1,0,0:0:0:0:
64,192,92363,1,0,0:0:0:0:
192,192,92363,1,0,0:0:0:0:
320,192,92412,1,0,0:0:0:0:
448,192,92412,1,0,0:0:0:0:
192,192,92511,1,0,0:0:0:0:
320,192,92511,1,0,0:0:0:0:
448,192,92560,1,0,0:0:0:0:
64,192,92560,1,0,0:0:0:0:
192,192,92609,1,0,0:0:0:0:
320,192,92609,1,0,0:0:0:0:
448,192,92659,1,0,0:0:0:0:
64,192,92708,1,0,0:0:0:0:
192,192,92708,1,0,0:0:0:0:
448,192,92733,1,0,0:0:0:0:
320,192,92757,1,0,0:0:0:0:
64,192,92782,1,0,0:0:0:0:
192,192,92806,1,0,0:0:0:0:
320,192,92806,1,0,0:0:0:0:
448,192,92831,1,0,0:0:0:0:
192,192,92856,1,0,0:0:0:0:
64,192,92880,1,0,0:0:0:0:
448,192,92905,1,0,0:0:0:0:
320,192,92905,1,0,0:0:0:0:
64,192,92929,1,0,0:0:0:0:
192,192,92954,1,0,0:0:0:0:
320,192,92954,1,0,0:0:0:0:
448,192,92979,1,0,0:0:0:0:
64,192,93003,1,0,0:0:0:0:
192,192,93003,1,0,0:0:0:0:
