osu file format v14

[General]
AudioFilename: audio.mp3
AudioLeadIn: 0
PreviewTime: 15737
Countdown: 1
SampleSet: Normal
StackLeniency: 0.7
Mode: 0
LetterboxInBreaks: 0
WidescreenStoryboard: 0

[Editor]
DistanceSpacing: 1.2
BeatDivisor: 4
GridSize: 8
TimelineZoom: 1

[Metadata]
Title:hana ha gensou no mamani
TitleUnicode:花は幻想のままに
Artist:ZUN
ArtistUnicode:ZUN
Creator:SDpeople
Version:Hard
Source:東方花映塚 ~ Phantasmagoria of Flower View.
Tags:Touhou th9
BeatmapID:2096573
BeatmapSetID:1001530

[Difficulty]
HPDrainRate:4
CircleSize:4.5
OverallDifficulty:6
ApproachRate:8
SliderMultiplier:1.4
SliderTickRate:1

[Events]
//Background and Video events
0,0,"CF2D9A178F95AE4CDCEC6D54477F12FE.jpg",0,0
//Break Periods
//Storyboard Layer 0 (Background)
//Storyboard Layer 1 (Fail)
//Storyboard Layer 2 (Pass)
//Storyboard Layer 3 (Foreground)
//Storyboard Layer 4 (Overlay)
//Storyboard Sound Samples

[TimingPoints]
0,491.803278688525,4,2,0,50,1,0
7868,-100,4,1,0,50,0,0
22377,-80,4,1,0,50,0,0
23360,-100,4,1,0,50,0,0
23606,-100,4,2,0,50,0,0
31475,-100,4,1,0,50,0,0
39344,-100,4,2,0,50,0,0
47213,-100,4,1,0,50,0,0
69590,-80,4,1,0,50,0,0
70573,-100,4,1,0,50,0,0
70819,-100,4,2,0,50,0,0
78688,-100,4,1,0,50,0,0
86557,-100,4,2,0,50,0,0
93688,-100,4,2,0,60,0,0

[Colours]
Combo1 : 230,0,230
Combo2 : 0,202,0
Combo3 : 241,228,71
Combo4 : 100,100,255

[HitObjects]
368,192,0,6,0,B|408:120|328:120|328:120|328:40|256:80,1,210
256,80,983,6,0,B|184:40|184:120|184:120|104:120|144:192,1,210
144,192,1967,6,0,B|104:264|184:264|184:264|184:344|256:304,1,210
256,304,2950,6,0,B|328:344|328:264|328:264|408:264|368:192,1,210
440,282,3934,6,0,L|371:294,3,70
374,204,4918,2,0,L|422:130,3,70
434,62,5901,2,0,L|349:77,3,70
296,9,6885,2,0,P|223:6|160:26,1,140,2|0,0:0|0:0,0:0:0:0:
198,93,7868,5,0,0:0:0:0:
159,26,8114,1,0,0:0:0:0:
198,93,8360,1,0,0:0:0:0:
159,26,8606,1,0,0:0:0:0:
321,106,9098,5,0,0:0:0:0:
371,48,9344,1,0,0:0:0:0:
321,106,9590,1,0,0:0:0:0:
343,242,10081,5,0,0:0:0:0:
405,286,10327,1,0,0:0:0:0:
343,242,10573,1,0,0:0:0:0:
220,303,11065,5,0,0:0:0:0:
198,377,11311,1,0,0:0:0:0:
220,303,11557,1,0,0:0:0:0:
123,207,12049,5,0,0:0:0:0:
46,217,12295,1,0,0:0:0:0:
123,207,12540,1,0,0:0:0:0:
55,345,13032,5,0,0:0:0:0:
90,277,13277,1,0,0:0:0:0:
55,345,13523,1,0,0:0:0:0:
81,149,14016,5,0,0:0:0:0:
46,217,14261,1,0,0:0:0:0:
81,149,14507,1,0,0:0:0:0:
3,147,14754,2,0,P|41:80|105:73,1,140,0|4,0:0|0:0,0:0:0:0:
320,84,15737,5,0,0:0:0:0:
306,237,16229,1,0,0:0:0:0:
239,197,16475,1,0,0:0:0:0:
307,161,16721,1,0,0:0:0:0:
179,74,17213,5,0,0:0:0:0:
71,170,17459,5,0,0:0:0:0:
91,299,17704,5,2,0:0:0:0:
91,299,17827,1,2,0:0:0:0:
91,299,17950,1,2,0:0:0:0:
159,333,18196,1,0,0:0:0:0:
156,256,18442,1,0,0:0:0:0:
224,291,18688,5,2,0:0:0:0:
224,291,18811,1,2,0:0:0:0:
224,291,18934,1,2,0:0:0:0:
237,215,19180,2,0,L|230:130,1,70
309,175,19672,6,0,P|320:131|300:112,1,70,2|8,0:0|0:0,0:0:0:0:
284,97,20040,1,2,0:0:0:0:
361,55,20164,5,0,0:0:0:0:
421,108,20410,5,0,0:0:0:0:
391,184,20655,6,0,P|345:165|351:135,1,70,2|8,0:0|0:0,0:0:0:0:
353,124,21024,1,2,0:0:0:0:
271,127,21147,5,0,0:0:0:0:
260,207,21393,5,0,0:0:0:0:
331,241,21639,5,0,0:0:0:0:
391,184,21885,5,0,0:0:0:0:
391,184,22131,1,0,0:0:0:0:
391,184,22377,2,0,P|254:188|367:118,1,350,0|4,0:0|0:0,0:0:0:0:
334,14,23606,5,0,0:0:0:0:
159,94,24098,5,0,0:0:0:0:
101,42,24344,1,0,0:0:0:0:
174,19,24590,1,0,0:0:0:0:
348,99,25081,5,0,0:0:0:0:
326,255,25327,5,0,0:0:0:0:
178,182,25573,6,0,P|121:184|101:216,1,70,2|8,0:0|0:0,0:0:0:0:
105,219,25942,1,2,0:0:0:0:
145,319,26065,1,0,0:0:0:0:
195,260,26311,5,0,0:0:0:0:
178,182,26557,5,2,0:0:0:0:
247,140,26803,5,2,0:0:0:0:
307,193,27049,5,2,0:0:0:0:
277,269,27295,5,2,0:0:0:0:
236,203,27540,6,0,P|196:204|169:244,1,70,2|8,0:0|0:0,0:0:0:0:
173,251,27909,1,2,0:0:0:0:
256,328,28032,1,0,0:0:0:0:
329,295,28278,5,0,0:0:0:0:
315,214,28524,6,0,P|282:194|246:214,1,70,2|8,0:0|0:0,0:0:0:0:
241,230,28893,1,2,0:0:0:0:
218,122,29016,1,0,0:0:0:0:
289,82,29262,5,0,0:0:0:0:
347,138,29508,5,0,0:0:0:0:
347,138,29754,1,0,0:0:0:0:
347,138,30000,2,0,L|265:182,1,70
214,126,30491,1,0,0:0:0:0:
156,187,30737,1,0,0:0:0:0:
195,261,30983,1,0,0:0:0:0:
277,246,31229,1,0,0:0:0:0:
413,98,31475,6,0,L|322:120,1,70
255,172,31967,6,0,L|346:194,1,70
413,246,32459,6,0,L|322:268,1,70
255,320,32950,6,0,L|346:342,1,70
399,322,33442,5,2,0:0:0:0:
399,322,33565,1,2,0:0:0:0:
399,322,33688,1,2,0:0:0:0:
344,262,33934,6,0,L|275:245,1,70
199,230,34426,5,2,0:0:0:0:
199,230,34549,1,2,0:0:0:0:
199,230,34672,1,2,0:0:0:0:
254,170,34918,6,0,L|322:153,1,70
316,76,35409,6,0,P|351:78|382:109,1,70
454,99,35901,2,0,P|452:134|421:165,1,70
438,236,36393,2,0,P|403:234|372:203,1,70
299,215,36885,2,0,P|301:180|332:149,1,70
318,75,37377,5,0,0:0:0:0:
214,56,37622,1,0,0:0:0:0:
154,142,37868,1,0,0:0:0:0:
194,238,38114,2,0,P|272:259|407:225,1,210,0|4,0:0|0:0,0:0:0:0:
139,367,39344,6,0,P|193:371|245:347,1,105,2|8,0:0|0:0,0:0:0:0:
270,337,39836,1,2,0:0:0:0:
364,247,40081,1,0,0:0:0:0:
275,161,40327,6,0,P|271:215|295:267,1,105,2|8,0:0|0:0,0:0:0:0:
302,287,40819,1,2,0:0:0:0:
275,161,41065,1,0,0:0:0:0:
344,101,41311,5,2,0:0:0:0:
344,101,41434,1,2,0:0:0:0:
344,101,41557,1,2,0:0:0:0:
431,79,41803,2,0,P|435:114|423:146,1,70
357,206,42295,5,2,0:0:0:0:
357,206,42418,1,2,0:0:0:0:
357,206,42540,1,2,0:0:0:0:
340,94,42786,2,0,P|308:80|274:87,1,70
215,27,43278,6,0,P|176:39|159:81,1,70,2|8,0:0|0:0,0:0:0:0:
165,88,43647,1,2,0:0:0:0:
245,146,43770,2,0,P|273:111|272:79,1,70,2|8,0:0|0:0,0:0:0:0:
110,123,44262,2,0,P|137:146|171:152,1,70,2|8,0:0|0:0,0:0:0:0:
209,136,44631,1,2,0:0:0:0:
328,51,44754,2,0,P|301:28|267:22,1,70,2|8,0:0|0:0,0:0:0:0:
259,212,45245,5,0,0:0:0:0:
274,87,45491,1,0,0:0:0:0:
311,155,45737,1,0,0:0:0:0:
393,59,45983,2,0,B|437:149|367:181|419:262,1,210,0|4,0:0|0:0,0:0:0:0:
484,306,47213,5,0,0:0:0:0:
413,336,47459,1,0,0:0:0:0:
484,306,47704,1,0,0:0:0:0:
413,336,47950,1,2,0:0:0:0:
348,294,48196,1,0,0:0:0:0:
286,247,48442,5,0,0:0:0:0:
357,217,48688,1,0,0:0:0:0:
286,247,48934,1,2,0:0:0:0:
213,275,49180,1,0,0:0:0:0:
142,305,49426,5,0,0:0:0:0:
213,275,49672,1,0,0:0:0:0:
142,305,49918,1,2,0:0:0:0:
146,228,50163,1,0,0:0:0:0:
217,200,50409,5,2,0:0:0:0:
288,170,50655,1,0,0:0:0:0:
217,200,50901,1,2,0:0:0:0:
146,228,51147,1,0,0:0:0:0:
213,275,51393,5,0,0:0:0:0:
142,305,51639,1,0,0:0:0:0:
213,275,51885,1,2,0:0:0:0:
286,247,52131,1,0,0:0:0:0:
277,323,52377,5,0,0:0:0:0:
348,294,52622,1,0,0:0:0:0:
277,323,52868,1,2,0:0:0:0:
205,351,53114,1,0,0:0:0:0:
142,305,53360,5,0,0:0:0:0:
205,351,53606,1,0,0:0:0:0:
142,305,53852,1,2,0:0:0:0:
86,252,54098,2,0,P|135:192|208:176,1,140,0|4,0:0|0:0,0:0:0:0:
289,125,55081,6,0,P|286:160|297:193,1,70
362,151,55573,1,0,0:0:0:0:
349,74,55819,1,2,0:0:0:0:
276,49,56065,1,0,0:0:0:0:
215,95,56311,6,0,P|180:91|151:72,1,70
206,21,56803,1,2,0:0:0:0:
132,0,57049,1,0,0:0:0:0:
75,53,57295,6,0,P|73:87|87:119,1,70
151,72,57786,1,2,0:0:0:0:
159,148,58032,1,0,0:0:0:0:
234,168,58278,6,0,P|235:133|221:102,1,70
159,148,58770,1,2,0:0:0:0:
177,222,59016,1,0,0:0:0:0:
113,267,59262,6,0,P|100:235|101:201,1,70
159,148,59754,1,2,0:0:0:0:
231,168,60000,1,0,0:0:0:0:
176,221,60245,6,0,P|206:240|241:243,1,70
303,198,60737,1,2,0:0:0:0:
309,274,60983,1,0,0:0:0:0:
374,225,61229,6,0,P|377:191|367:158,1,70
303,198,61721,1,2,0:0:0:0:
230,220,61967,2,0,P|240:153|300:121,1,140,0|4,0:0|0:0,0:0:0:0:
198,81,62950,5,0,0:0:0:0:
33,181,63442,1,0,0:0:0:0:
61,252,63688,1,0,0:0:0:0:
89,323,63934,1,0,0:0:0:0:
233,291,64426,5,0,0:0:0:0:
361,230,64672,5,0,0:0:0:0:
244,135,64918,5,2,0:0:0:0:
244,135,65040,1,2,0:0:0:0:
244,135,65163,1,2,0:0:0:0:
181,180,65409,1,0,0:0:0:0:
121,229,65655,1,0,0:0:0:0:
142,303,65901,5,2,0:0:0:0:
142,303,66023,1,2,0:0:0:0:
142,303,66146,1,2,0:0:0:0:
216,323,66393,2,0,P|253:331|299:318,1,70
316,254,66885,6,0,P|302:217|316:187,1,70,2|8,0:0|0:0,0:0:0:0:
337,187,67254,1,2,0:0:0:0:
264,134,67377,5,0,0:0:0:0:
204,187,67623,5,0,0:0:0:0:
234,263,67868,6,0,P|280:252|279:205,1,70,2|8,0:0|0:0,0:0:0:0:
276,204,68237,1,2,0:0:0:0:
354,206,68360,5,0,0:0:0:0:
365,286,68606,5,0,0:0:0:0:
294,320,68852,5,0,0:0:0:0:
234,263,69098,5,0,0:0:0:0:
234,263,69344,1,0,0:0:0:0:
234,263,69590,2,0,P|371:267|258:197,1,350,0|4,0:0|0:0,0:0:0:0:
257,92,70819,5,0,0:0:0:0:
92,192,71311,5,0,0:0:0:0:
119,263,71557,1,0,0:0:0:0:
148,334,71803,1,0,0:0:0:0:
295,377,72295,5,0,0:0:0:0:
347,257,72540,5,0,0:0:0:0:
397,120,72786,6,0,P|424:85|406:47,1,70,2|8,0:0|0:0,0:0:0:0:
396,39,73155,1,2,0:0:0:0:
320,14,73278,5,0,0:0:0:0:
273,78,73524,5,0,0:0:0:0:
319,146,73770,5,2,0:0:0:0:
342,69,74015,5,2,0:0:0:0:
423,63,74261,5,2,0:0:0:0:
451,139,74508,5,2,0:0:0:0:
390,188,74754,6,0,P|351:192|320:163,1,70,2|8,0:0|0:0,0:0:0:0:
319,146,75122,1,2,0:0:0:0:
296,69,75245,5,0,0:0:0:0:
215,63,75491,5,0,0:0:0:0:
187,139,75737,5,0,0:0:0:0:
248,188,75983,5,0,0:0:0:0:
319,146,76229,5,0,0:0:0:0:
319,146,76475,1,0,0:0:0:0:
319,146,76721,2,0,L|371:220,1,70
436,208,77213,1,0,0:0:0:0:
401,277,77459,1,0,0:0:0:0:
324,273,77704,1,0,0:0:0:0:
359,203,77950,1,0,0:0:0:0:
401,277,78196,1,0,0:0:0:0:
362,343,78442,1,4,0:0:0:0:
295,138,78688,6,0,L|209:159,1,70
150,263,79180,6,0,L|236:242,1,70
250,127,79672,6,0,L|164:148,1,70
105,252,80164,6,0,L|191:231,1,70
205,116,80655,1,2,0:0:0:0:
205,116,80778,1,2,0:0:0:0:
205,116,80901,1,2,0:0:0:0:
60,241,81147,6,0,P|96:275|124:278,1,70
245,302,81639,1,2,0:0:0:0:
245,302,81762,1,2,0:0:0:0:
245,302,81885,1,2,0:0:0:0:
205,116,82131,6,0,P|171:131|151:166,1,70
160,248,82622,6,0,P|196:255|228:225,1,70,2|8,0:0|0:0,0:0:0:0:
241,217,82991,1,2,0:0:0:0:
310,126,83114,6,0,P|341:148|342:204,1,70,2|8,0:0|0:0,0:0:0:0:
258,291,83606,6,0,P|217:272|202:224,1,70,2|8,0:0|0:0,0:0:0:0:
199,225,83975,1,0,0:0:0:0:
243,112,84098,6,0,P|277:111|318:133,1,70,2|8,0:0|0:0,0:0:0:0:
386,211,84590,5,0,0:0:0:0:
340,330,84836,1,0,0:0:0:0:
443,320,85081,1,0,0:0:0:0:
385,210,85327,2,0,P|292:167|192:192,1,210,0|4,0:0|0:0,0:0:0:0:
192,192,86557,5,0,0:0:0:0:
62,319,87049,5,0,0:0:0:0:
132,349,87295,1,0,0:0:0:0:
204,374,87540,1,0,0:0:0:0:
225,221,88032,5,0,0:0:0:0:
213,297,88278,1,0,0:0:0:0:
148,255,88524,2,0,P|119:218|128:183,1,70,2|8,0:0|0:0,0:0:0:0:
133,168,88893,1,2,0:0:0:0:
200,132,89016,5,0,0:0:0:0:
259,181,89262,5,0,0:0:0:0:
232,253,89508,5,0,0:0:0:0:
155,243,89754,5,0,0:0:0:0:
96,292,90000,5,0,0:0:0:0:
123,364,90246,5,0,0:0:0:0:
199,353,90491,6,0,P|184:324|201:294,1,70,2|8,0:0|0:0,0:0:0:0:
222,279,90860,1,2,0:0:0:0:
155,243,90984,5,0,0:0:0:0:
211,187,91229,5,0,0:0:0:0:
274,226,91475,5,0,0:0:0:0:
260,302,91721,5,0,0:0:0:0:
184,315,91967,5,0,0:0:0:0:
155,243,92213,5,0,0:0:0:0:
155,243,92459,2,0,L|90:215,1,70,0|2,0:0|0:0,0:0:0:0:
41,156,92950,1,2,0:0:0:0:
116,139,93196,1,2,0:0:0:0:
155,243,93442,1,2,0:0:0:0:
229,224,93688,5,2,0:0:0:0:
106,117,93934,1,2,0:0:0:0:
87,269,94180,1,6,0:0:0:0:
