osu file format v14

[General]
AudioFilename: audio.mp3
AudioLeadIn: 0
PreviewTime: 21
Countdown: 0
SampleSet: Soft
StackLeniency: 0.4
Mode: 0
LetterboxInBreaks: 0
WidescreenStoryboard: 0

[Editor]
DistanceSpacing: 1
BeatDivisor: 8
GridSize: 16
TimelineZoom: 3.799998

[Metadata]
Title:Voyage 1970
TitleUnicode:ヴォヤージュ1970
Artist:ZUN
ArtistUnicode:ZUN
Creator:Shurelia
Version:Eternity
Source:東方永夜抄 ~ Imperishable Night.
Tags:東方Project Touhou Eiyashou th8 蓬莱山 輝夜 Houraisan Kaguya team shanghai alice video game instrumental lunatic last spell pigeons arsalan aeril nik nikolomara
BeatmapID:3947978
BeatmapSetID:1913796

[Difficulty]
HPDrainRate:5.5
CircleSize:4
OverallDifficulty:9
ApproachRate:8
SliderMultiplier:2
SliderTickRate:1

[Events]
//Background and Video events
0,0,"kaguyabg.jpg",0,0
//Break Periods
//Storyboard Layer 0 (Background)
//Storyboard Layer 1 (Fail)
//Storyboard Layer 2 (Pass)
//Storyboard Layer 3 (Foreground)
//Storyboard Layer 4 (Overlay)
//Storyboard Sound Samples

[TimingPoints]
22,370.37,4,2,1,50,1,0
11873,-100,4,2,1,60,0,0
23725,-100,4,2,1,65,0,0
35577,370.37,3,2,1,40,1,0
44465,-100,3,2,1,50,0,0
50021,-100,3,2,1,60,0,0
53354,370.37,4,2,1,50,1,0
65205,-100,4,2,1,80,0,0
94835,-100,4,2,1,60,0,0

[Colours]
Combo1 : 128,128,128
Combo2 : 192,192,192

[HitObjects]
65,334,21,6,0,P|41:334|16:339,3,50,2|0|0|0,0:0|0:0|0:0|0:0,0:0:0:0:
80,340,391,1,0,0:0:0:0:
92,347,484,1,0,0:0:0:0:
111,351,577,1,0,0:0:0:0:
135,350,669,1,0,0:0:0:0:
163,340,762,1,0,0:0:0:0:
190,318,854,1,0,0:0:0:0:
211,284,947,1,0,0:0:0:0:
229,242,1040,1,0,0:0:0:0:
237,192,1132,1,0,0:0:0:0:
232,136,1225,1,0,0:0:0:0:
205,82,1317,1,0,0:0:0:0:
153,42,1410,1,0,0:0:0:0:
83,30,1503,1,2,0:0:0:0:
62,44,1595,1,0,0:0:0:0:
53,61,1688,1,0,0:0:0:0:
57,75,1780,1,0,0:0:0:0:
65,80,1873,1,0,0:0:0:0:
65,80,2614,5,0,0:0:0:0:
57,75,2707,1,0,0:0:0:0:
53,61,2799,1,0,0:0:0:0:
62,44,2892,1,0,0:0:0:0:
81,28,2984,22,0,P|105:32|130:37,1,50,2|0,0:0|0:0,0:0:0:0:
146,111,3169,2,0,L|187:83,1,50
247,142,3354,2,0,L|264:96,1,50
356,135,3540,2,0,L|349:85,1,50
375,0,3725,5,0,0:0:0:0:
418,10,3817,1,0,0:0:0:0:
454,44,3910,1,0,0:0:0:0:
483,90,4003,1,0,0:0:0:0:
490,149,4095,1,0,0:0:0:0:
474,212,4188,1,0,0:0:0:0:
425,262,4280,1,0,0:0:0:0:
359,299,4373,1,0,0:0:0:0:
279,287,4466,5,2,0:0:0:0:
251,307,4558,1,0,0:0:0:0:
225,290,4651,1,0,0:0:0:0:
198,303,4743,1,0,0:0:0:0:
175,292,4836,1,2,0:0:0:0:
153,305,4929,1,0,0:0:0:0:
137,292,5021,1,0,0:0:0:0:
120,302,5114,1,0,0:0:0:0:
109,291,5206,1,2,0:0:0:0:
96,299,5299,1,0,0:0:0:0:
91,290,5391,1,0,0:0:0:0:
82,295,5484,1,0,0:0:0:0:
78,291,5577,1,2,0:0:0:0:
74,294,5669,1,0,0:0:0:0:
70,290,5762,1,0,0:0:0:0:
171,56,5947,6,0,L|160:7,7,50,2|0|0|0|0|0|0|0,0:0|0:0|0:0|0:0|0:0|0:0|0:0|0:0,0:0:0:0:
182,81,6688,1,0,0:0:0:0:
211,114,6780,1,0,0:0:0:0:
259,127,6873,1,0,0:0:0:0:
314,122,6966,1,0,0:0:0:0:
364,89,7058,1,0,0:0:0:0:
319,65,7151,1,0,0:0:0:0:
285,94,7243,1,0,0:0:0:0:
292,133,7336,1,0,0:0:0:0:
303,149,7429,6,0,L|293:198,7,50,2|0|0|0|0|0|0|0,0:0|0:0|0:0|0:0|0:0|0:0|0:0|0:0,0:0:0:0:
282,223,8170,1,0,0:0:0:0:
253,256,8262,1,0,0:0:0:0:
205,269,8355,1,0,0:0:0:0:
150,264,8448,1,0,0:0:0:0:
100,231,8540,1,0,0:0:0:0:
145,207,8633,1,0,0:0:0:0:
179,236,8725,1,0,0:0:0:0:
172,275,8818,1,0,0:0:0:0:
148,289,8910,5,2,0:0:0:0:
150,264,9002,1,0,0:0:0:0:
151,238,9095,1,0,0:0:0:0:
154,212,9188,1,0,0:0:0:0:
156,187,9280,1,0,0:0:0:0:
195,171,9373,1,0,0:0:0:0:
194,146,9465,1,0,0:0:0:0:
194,120,9558,1,0,0:0:0:0:
194,94,9651,1,0,0:0:0:0:
218,53,9743,1,0,0:0:0:0:
243,53,9836,1,0,0:0:0:0:
260,68,9929,1,0,0:0:0:0:
285,68,10022,1,0,0:0:0:0:
310,52,10114,1,0,0:0:0:0:
335,52,10207,1,0,0:0:0:0:
354,70,10299,1,0,0:0:0:0:
378,69,10391,6,0,L|428:69,6,50,2|0|0|0|0|0|0,3:2|0:0|0:0|0:0|0:0|0:0|0:0,0:0:0:0:
344,157,11040,1,0,0:0:0:0:
344,157,11132,2,0,L|346:206,1,50,2|0,3:2|0:0,0:0:0:0:
442,229,11317,6,0,L|466:232,3,25,8|8|8|8,0:0|0:0|0:0|0:0,0:0:0:0:
423,249,11503,6,0,L|425:298,1,50,2|0,3:2|0:0,0:0:0:0:
393,384,11688,1,2,3:2:0:0:
393,384,11780,1,2,3:2:0:0:
376,373,11873,5,6,3:2:0:0:
359,362,11966,1,0,0:0:0:0:
341,353,12058,1,8,0:0:0:0:
323,342,12151,1,0,0:0:0:0:
306,331,12243,1,2,3:2:0:0:
287,322,12336,1,2,3:2:0:0:
267,319,12429,21,8,0:0:0:0:
217,324,12521,1,2,3:2:0:0:
167,333,12614,1,2,3:2:0:0:
118,342,12706,1,2,3:2:0:0:
71,353,12799,6,0,L|76:304,1,50,8|2,0:2|3:2,0:0:0:0:
0,241,12984,2,0,L|23:196,1,50,2|8,3:2|0:0,0:0:0:0:
126,159,13169,2,0,L|118:110,1,50,8|2,0:0|3:2,0:0:0:0:
0,5,13354,21,2,3:2:0:0:
18,12,13447,1,0,0:0:0:0:
37,17,13539,1,8,0:0:0:0:
56,21,13632,1,0,0:0:0:0:
75,24,13724,1,2,3:2:0:0:
95,23,13817,1,2,3:2:0:0:
116,20,13910,5,8,0:0:0:0:
160,12,14002,1,2,3:2:0:0:
205,13,14095,1,2,3:2:0:0:
247,26,14187,1,2,3:2:0:0:
278,58,14280,22,0,L|290:106,1,50,8|2,0:2|3:2,0:0:0:0:
378,24,14466,2,0,L|374:-1,2,25,8|8|8,0:0|0:0|0:0,0:0:0:0:
462,89,14650,2,0,L|469:149,1,50,8|8,0:0|0:0,0:0:0:0:
499,210,14836,5,6,3:2:0:0:
501,229,14929,1,0,0:0:0:0:
505,248,15021,1,8,0:0:0:0:
507,267,15114,1,0,0:0:0:0:
506,286,15206,1,2,3:2:0:0:
502,305,15299,1,2,3:2:0:0:
492,319,15392,21,8,0:0:0:0:
442,313,15484,1,2,3:2:0:0:
392,305,15577,1,2,3:2:0:0:
342,301,15669,1,2,3:2:0:0:
296,299,15762,6,0,L|308:246,1,50,8|2,0:2|3:2,0:0:0:0:
381,216,15947,2,0,L|393:168,1,50,2|8,3:2|0:0,0:0:0:0:
467,138,16132,2,0,L|484:91,1,50,8|2,0:0|3:2,0:0:0:0:
490,3,16317,5,2,3:2:0:0:
470,7,16410,1,0,0:0:0:0:
451,13,16502,1,8,0:0:0:0:
431,18,16595,1,0,0:0:0:0:
411,23,16687,1,2,3:2:0:0:
391,29,16780,1,2,3:2:0:0:
378,36,16873,5,8,0:0:0:0:
333,32,16965,1,2,3:2:0:0:
288,25,17058,1,2,3:2:0:0:
243,19,17150,1,2,3:2:0:0:
198,12,17243,22,0,L|149:17,1,50,8|2,0:2|3:2,0:0:0:0:
54,24,17429,2,0,L|49:-1,2,25,8|2|8,0:0|0:0|0:0,0:0:0:0:
22,106,17614,2,0,L|-1:151,1,50,8|8,0:0|0:0,0:0:0:0:
0,259,17799,5,6,3:2:0:0:
18,252,17892,1,0,0:0:0:0:
37,252,17984,1,8,0:0:0:0:
56,256,18077,1,0,0:0:0:0:
74,263,18169,1,2,3:2:0:0:
89,275,18262,1,2,3:2:0:0:
101,290,18355,5,8,0:0:0:0:
129,328,18447,1,2,3:2:0:0:
178,334,18540,1,2,3:2:0:0:
223,314,18632,1,2,3:2:0:0:
253,281,18725,6,0,L|299:300,1,50,8|2,0:2|3:2,0:0:0:0:
168,232,18910,2,0,L|162:183,1,50,2|8,3:2|0:0,0:0:0:0:
236,135,19095,2,0,L|233:85,1,50,8|2,0:0|3:2,0:0:0:0:
330,11,19280,5,2,3:2:0:0:
345,23,19373,1,0,0:0:0:0:
363,30,19465,1,8,0:0:0:0:
382,31,19558,1,0,0:0:0:0:
401,30,19650,1,2,3:2:0:0:
421,28,19743,1,2,3:2:0:0:
432,25,19836,5,8,0:0:0:0:
438,69,19928,1,2,3:2:0:0:
439,114,20021,1,2,3:2:0:0:
444,158,20113,1,2,3:2:0:0:
444,203,20206,6,0,L|490:222,1,50,8|2,0:2|3:2,0:0:0:0:
389,274,20391,2,0,L|335:255,1,50,8|8,0:0|0:0,0:0:0:0:
327,175,20576,2,0,L|325:126,1,50,8|8,0:0|0:0,0:0:0:0:
269,26,20762,5,6,3:2:0:0:
251,35,20855,1,0,0:0:0:0:
232,41,20947,1,8,0:0:0:0:
211,41,21040,1,0,0:0:0:0:
191,38,21132,1,2,3:2:0:0:
171,34,21225,1,2,3:2:0:0:
155,31,21318,5,8,0:0:0:0:
110,23,21410,1,2,3:2:0:0:
64,26,21503,1,2,3:2:0:0:
24,45,21595,1,2,3:2:0:0:
5,86,21688,1,8,0:2:0:0:
5,130,21780,1,2,3:2:0:0:
26,169,21873,1,2,3:2:0:0:
64,192,21966,1,8,0:0:0:0:
108,196,22058,1,8,0:0:0:0:
151,182,22151,1,2,3:2:0:0:
163,166,22243,5,2,3:2:0:0:
160,185,22336,1,0,0:0:0:0:
162,204,22429,1,8,0:0:0:0:
162,223,22521,1,0,0:0:0:0:
163,242,22613,1,2,3:2:0:0:
164,262,22706,1,2,3:2:0:0:
164,282,22799,1,8,0:0:0:0:
164,301,22891,1,2,3:2:0:0:
165,321,22984,1,2,3:2:0:0:
164,340,23076,1,2,3:2:0:0:
163,360,23169,6,0,L|113:369,1,50,8|2,0:2|3:2,0:0:0:0:
254,317,23354,2,0,L|252:293,2,25,8|0|8,0:0|0:0|0:0,0:0:0:0:
327,364,23539,2,0,L|376:373,1,50,8|8,0:0|0:0,0:0:0:0:
512,371,23725,5,6,3:2:0:0:
492,355,23818,1,2,0:0:0:0:
479,333,23910,1,10,0:0:0:0:
471,309,24003,1,2,0:0:0:0:
471,284,24095,1,2,3:2:0:0:
479,260,24188,1,0,0:0:0:0:
487,236,24280,5,10,0:0:0:0:
510,185,24373,1,2,3:2:0:0:
510,129,24466,1,2,3:2:0:0:
495,76,24558,1,2,3:2:0:0:
463,30,24651,6,0,L|415:44,1,50,10|2,0:2|3:2,0:0:0:0:
338,98,24836,2,0,L|330:147,1,50,2|2,3:2|3:2,0:0:0:0:
260,50,25021,2,0,L|265:1,1,50,8|2,0:0|3:2,0:0:0:0:
178,25,25206,5,2,3:2:0:0:
153,20,25299,1,2,3:2:0:0:
128,24,25391,1,10,0:0:0:0:
107,38,25484,1,2,0:0:0:0:
97,61,25576,1,2,3:2:0:0:
98,86,25669,1,2,3:2:0:0:
112,106,25762,5,10,0:0:0:0:
146,148,25854,1,2,3:2:0:0:
157,201,25947,1,2,3:2:0:0:
142,253,26039,1,2,3:2:0:0:
94,282,26132,6,0,L|33:284,1,50,10|2,0:2|3:2,0:0:0:0:
154,346,26318,2,0,L|157:370,2,25,8|0|8,0:0|0:0|0:0,0:0:0:0:
217,286,26502,2,0,L|258:258,1,50,8|8,0:0|0:0,0:0:0:0:
328,184,26688,5,6,3:2:0:0:
330,208,26781,1,2,0:0:0:0:
333,232,26873,1,10,0:0:0:0:
336,256,26966,1,2,0:0:0:0:
339,280,27058,1,2,3:2:0:0:
343,304,27151,1,2,3:2:0:0:
349,325,27244,5,10,0:0:0:0:
403,321,27336,1,2,3:2:0:0:
457,313,27429,1,2,3:2:0:0:
510,303,27521,1,2,3:2:0:0:
502,248,27614,6,0,L|495:199,1,50,10|2,0:2|3:2,0:0:0:0:
421,178,27799,2,0,L|417:128,1,50,2|2,3:2|3:2,0:0:0:0:
340,111,27984,2,0,L|338:62,1,50,8|2,0:0|3:2,0:0:0:0:
266,26,28170,5,2,3:2:0:0:
240,26,28262,1,2,3:2:0:0:
215,28,28354,1,8,0:0:0:0:
190,30,28447,1,2,0:0:0:0:
165,30,28539,1,2,3:2:0:0:
140,33,28632,1,2,3:2:0:0:
115,35,28725,5,10,0:0:0:0:
133,86,28817,1,2,3:2:0:0:
160,134,28910,1,2,3:2:0:0:
182,183,29002,1,2,3:2:0:0:
206,232,29095,2,0,L|252:250,1,50,10|2,0:2|3:2,0:0:0:0:
280,332,29281,2,0,L|284:356,6,25,8|8|8|8|8|0|8,0:0|0:0|0:0|0:0|0:0|0:0|0:0,0:0:0:0:
184,361,29651,5,6,3:2:0:0:
160,370,29744,1,2,0:0:0:0:
135,374,29836,1,10,0:0:0:0:
109,372,29929,1,2,0:0:0:0:
85,363,30021,1,2,3:2:0:0:
65,346,30114,1,2,3:2:0:0:
55,322,30207,5,10,0:0:0:0:
52,267,30299,1,2,3:2:0:0:
52,211,30392,1,2,3:2:0:0:
55,156,30484,1,2,3:2:0:0:
54,100,30577,6,0,L|48:51,1,50,10|2,0:2|3:2,0:0:0:0:
135,54,30762,2,0,L|133:4,1,50,2|2,3:2|3:2,0:0:0:0:
219,55,30947,2,0,L|229:6,1,50,8|2,0:0|3:2,0:0:0:0:
308,19,31132,5,2,3:2:0:0:
333,20,31225,1,2,3:2:0:0:
357,21,31317,1,8,0:0:0:0:
382,22,31410,1,2,0:0:0:0:
406,21,31502,1,2,3:2:0:0:
430,23,31595,1,2,3:2:0:0:
455,23,31688,5,10,0:0:0:0:
473,74,31780,1,2,3:2:0:0:
476,129,31873,1,2,3:2:0:0:
463,182,31965,1,2,3:2:0:0:
438,231,32058,6,0,L|388:229,1,50,10|2,0:2|3:2,0:0:0:0:
364,302,32243,2,0,L|307:296,1,50,8|8,0:0|0:0,0:0:0:0:
299,373,32428,2,0,L|247:368,1,50,8|8,0:0|0:0,0:0:0:0:
162,377,32614,5,6,3:2:0:0:
136,376,32707,1,2,0:0:0:0:
111,376,32799,1,8,0:0:0:0:
85,374,32892,1,2,0:0:0:0:
60,373,32984,1,2,3:2:0:0:
34,371,33077,1,2,3:2:0:0:
8,371,33170,5,10,0:0:0:0:
12,316,33262,1,2,3:2:0:0:
24,262,33355,1,2,3:2:0:0:
35,208,33447,1,2,3:2:0:0:
50,160,33540,5,10,0:2:0:0:
103,169,33632,1,2,3:2:0:0:
157,176,33725,1,2,3:2:0:0:
211,183,33818,1,2,3:2:0:0:
265,190,33910,1,8,0:0:0:0:
319,196,34003,1,2,3:2:0:0:
347,165,34095,5,2,3:2:0:0:
347,139,34188,1,2,0:0:0:0:
348,114,34280,1,8,0:0:0:0:
350,89,34373,1,2,0:0:0:0:
352,64,34465,1,2,3:2:0:0:
354,39,34558,1,2,3:2:0:0:
354,21,34651,5,10,0:0:0:0:
295,21,34743,1,2,3:2:0:0:
235,22,34836,6,0,L|210:22,6,25,8|8|8|8|10|0|2,3:3|0:3|0:3|0:3|0:2|0:0|3:2,0:0:0:0:
200,107,35206,2,0,L|172:104,6,25,8|8|8|8|8|8|8,0:0|0:0|0:0|0:0|0:0|0:0|0:0,0:0:0:0:
171,187,35577,6,0,B|121:183,11,50,2|0|0|2|0|0|2|0|0|2|0|0,0:0|0:0|0:0|0:0|0:0|0:0|0:0|0:0|0:0|0:0|0:0|0:0,0:0:0:0:
334,180,36688,2,0,B|393:176,11,50,2|0|0|2|0|0|2|0|0|2|0|0,0:0|0:0|0:0|0:0|0:0|0:0|0:0|0:0|0:0|0:0|0:0|0:0,0:0:0:0:
187,103,37799,6,0,B|135:99,11,50,2|0|0|2|0|0|2|0|0|2|0|0,0:0|0:0|0:0|0:0|0:0|0:0|0:0|0:0|0:0|0:0|0:0|0:0,0:0:0:0:
342,97,38910,2,0,B|392:94,11,50,2|0|0|2|0|0|2|0|0|2|0|0,0:0|0:0|0:0|0:0|0:0|0:0|0:0|0:0|0:0|0:0|0:0|0:0,0:0:0:0:
204,22,40021,5,2,0:0:0:0:
192,20,40114,1,0,0:0:0:0:
182,19,40206,1,0,0:0:0:0:
172,17,40299,1,2,0:0:0:0:
161,17,40391,1,0,0:0:0:0:
151,15,40484,1,0,0:0:0:0:
140,15,40576,1,2,0:0:0:0:
129,13,40669,1,0,0:0:0:0:
119,12,40762,1,0,0:0:0:0:
109,10,40854,1,2,0:0:0:0:
98,10,40947,1,0,0:0:0:0:
88,9,41039,1,0,0:0:0:0:
74,7,41132,5,2,0:0:0:0:
72,37,41225,1,0,0:0:0:0:
66,66,41317,1,0,0:0:0:0:
62,95,41410,1,2,0:0:0:0:
56,124,41502,1,0,0:0:0:0:
51,153,41595,1,0,0:0:0:0:
47,176,41688,5,2,0:0:0:0:
99,161,41780,1,0,0:0:0:0:
154,160,41873,1,0,0:0:0:0:
207,172,41965,1,2,0:0:0:0:
250,205,42058,1,0,0:0:0:0:
276,252,42150,1,0,0:0:0:0:
276,307,42243,6,0,L|228:317,1,50,2|0,3:2|0:0,0:0:0:0:
343,363,42428,1,0,0:0:0:0:
343,363,42521,2,0,L|392:370,1,50,2|0,3:2|0:0,0:0:0:0:
468,327,42706,1,0,0:0:0:0:
468,327,42799,2,0,L|461:277,1,50,2|0,3:2|0:0,0:0:0:0:
374,236,42984,1,0,0:0:0:0:
374,236,43076,2,0,L|384:188,1,50,2|0,3:2|0:0,0:0:0:0:
479,149,43261,1,0,0:0:0:0:
479,149,43354,6,0,L|471:99,1,50,2|0,3:2|0:0,0:0:0:0:
448,21,43539,1,0,3:2:0:0:
448,21,43632,2,0,L|398:26,1,50,8|0,0:0|0:0,0:0:0:0:
349,89,43817,1,0,3:2:0:0:
349,89,43910,2,0,L|293:80,1,50,8|0,0:0|0:0,0:0:0:0:
291,161,44095,1,8,0:0:0:0:
271,158,44188,1,0,3:2:0:0:
247,155,44280,1,8,0:0:0:0:
224,151,44373,2,0,L|200:148,1,25,8|8,0:0|0:0,0:0:0:0:
172,145,44465,6,0,L|182:96,1,50,4|2,3:2|3:2,0:0:0:0:
231,239,44651,1,8,0:0:0:0:
250,243,44743,2,0,L|298:254,1,50,2|0,0:0|3:0,0:0:0:0:
137,309,44928,1,2,3:2:0:0:
132,336,45021,2,0,L|121:384,1,50,10|0,0:0|3:0,0:0:0:0:
84,207,45206,1,2,3:2:0:0:
61,202,45298,2,0,L|12:192,1,50,2|8,0:0|3:2,0:0:0:0:
175,149,45484,1,0,3:0:0:0:
175,149,45576,6,0,L|200:98,1,50,4|2,3:2|3:2,0:0:0:0:
184,240,45762,1,8,0:0:0:0:
184,240,45854,2,0,L|246:276,1,50,2|0,0:0|3:0,0:0:0:0:
99,261,46039,1,2,3:2:0:0:
99,261,46132,2,0,L|70:304,1,50,10|0,0:0|3:0,0:0:0:0:
84,172,46317,1,2,3:2:0:0:
84,172,46409,2,0,L|42:141,1,50,2|8,0:0|3:2,0:0:0:0:
219,184,46594,1,0,3:0:0:0:
239,171,46688,6,0,L|282:148,1,50,4|2,3:2|3:2,0:0:0:0:
195,304,46873,1,8,0:0:0:0:
207,325,46966,2,0,L|230:368,1,50,2|0,0:0|3:0,0:0:0:0:
75,270,47151,1,2,3:2:0:0:
46,284,47243,2,0,L|0:305,1,50,10|0,0:0|3:0,0:0:0:0:
106,158,47428,1,2,3:2:0:0:
90,132,47521,2,0,L|66:87,1,50,2|8,0:0|3:2,0:0:0:0:
238,217,47706,1,0,3:0:0:0:
238,217,47799,6,0,L|287:211,1,50,4|2,3:2|3:2,0:0:0:0:
176,276,47984,1,8,0:0:0:0:
176,276,48077,2,0,L|179:337,1,50,2|0,0:0|3:0,0:0:0:0:
110,222,48262,1,2,3:2:0:0:
110,222,48354,2,0,L|43:229,1,50,10|0,0:0|3:0,0:0:0:0:
171,158,48540,1,2,3:2:0:0:
171,158,48632,2,0,L|168:99,1,50,2|8,0:0|3:2,0:0:0:0:
239,240,48817,1,0,3:0:0:0:
255,244,48910,6,0,L|318:259,1,50,4|2,3:2|3:2,0:0:0:0:
126,320,49095,1,8,0:0:0:0:
121,336,49188,2,0,L|107:384,1,50,2|0,0:0|3:0,0:0:0:0:
83,198,49373,1,2,3:2:0:0:
62,196,49465,2,0,L|11:179,1,50,10|0,0:0|3:0,0:0:0:0:
181,125,49651,1,2,3:2:0:0:
188,103,49743,2,0,L|203:50,1,50,2|8,0:0|3:2,0:0:0:0:
245,297,49928,1,0,3:0:0:0:
257,319,50021,6,0,L|284:360,1,50,4|2,3:2|3:2,0:0:0:0:
62,304,50206,1,8,0:0:0:0:
49,321,50299,2,0,L|19:362,1,50,2|0,0:0|3:0,0:0:0:0:
64,100,50484,1,2,3:2:0:0:
51,85,50576,2,0,L|14:41,1,50,14|0,0:0|3:0,0:0:0:0:
246,100,50762,1,2,3:2:0:0:
259,80,50854,2,0,L|287:39,1,50,2|8,0:0|3:2,0:0:0:0:
440,40,51039,1,0,3:0:0:0:
440,40,51132,5,4,3:2:0:0:
470,45,51225,1,2,3:2:0:0:
499,49,51317,1,8,0:0:0:0:
498,80,51410,21,2,0:0:0:0:
495,110,51503,1,0,3:0:0:0:
495,140,51595,1,2,3:2:0:0:
460,136,51688,5,10,0:0:0:0:
430,131,51781,1,0,3:0:0:0:
401,125,51873,1,2,3:2:0:0:
401,155,51965,5,2,0:0:0:0:
401,186,52058,1,8,3:2:0:0:
400,216,52150,1,0,3:0:0:0:
357,217,52243,5,4,3:2:0:0:
321,168,52336,1,2,3:2:0:0:
269,138,52428,1,8,0:0:0:0:
208,138,52521,1,2,0:0:0:0:
158,172,52614,6,0,L|164:197,6,25,8|8|8|8|8|8|8,0:0|0:0|0:0|0:0|0:0|0:0|0:0,0:0:0:0:
105,105,52984,6,0,L|111:80,6,25,8|0|8|8|8|8|8,0:3|0:3|0:3|0:3|0:3|0:3|0:3,0:0:0:0:
53,172,53354,5,6,0:0:0:0:
58,201,53446,1,0,0:0:0:0:
64,230,53539,1,0,0:0:0:0:
79,255,53631,1,0,0:0:0:0:
100,276,53724,1,0,0:0:0:0:
126,289,53817,1,0,0:0:0:0:
155,294,53909,1,2,0:0:0:0:
185,294,54002,1,0,0:0:0:0:
213,284,54095,1,0,0:0:0:0:
240,272,54187,1,0,0:0:0:0:
263,253,54280,1,0,0:0:0:0:
281,229,54372,1,0,0:0:0:0:
294,202,54465,1,2,0:0:0:0:
299,172,54558,1,0,0:0:0:0:
299,141,54650,1,0,0:0:0:0:
292,111,54743,1,0,0:0:0:0:
266,68,54835,5,2,0:0:0:0:
229,33,54928,1,0,0:0:0:0:
179,22,55021,1,0,0:0:0:0:
129,21,55113,1,0,0:0:0:0:
81,38,55206,1,0,0:0:0:0:
43,70,55298,1,0,0:0:0:0:
21,115,55391,1,2,0:0:0:0:
21,115,55946,21,2,0:0:0:0:
70,123,56039,1,0,0:0:0:0:
120,130,56132,1,0,0:0:0:0:
172,141,56224,1,0,0:0:0:0:
196,138,56317,5,2,0:0:0:0:
221,122,56409,1,0,0:0:0:0:
248,110,56502,1,0,0:0:0:0:
276,101,56595,1,0,0:0:0:0:
305,95,56687,1,0,0:0:0:0:
334,93,56779,1,0,0:0:0:0:
363,95,56872,1,2,0:0:0:0:
392,100,56965,1,0,0:0:0:0:
418,112,57057,21,0,0:0:0:0:
428,171,57150,1,0,0:0:0:0:
417,229,57242,1,0,0:0:0:0:
393,284,57335,1,0,0:0:0:0:
344,319,57428,1,2,0:0:0:0:
287,339,57521,1,0,0:0:0:0:
227,341,57613,1,0,0:0:0:0:
173,313,57706,1,0,0:0:0:0:
146,280,57798,5,2,0:0:0:0:
106,285,57891,1,0,0:0:0:0:
66,293,57984,1,0,0:0:0:0:
26,300,58077,1,0,0:0:0:0:
28,251,58168,5,0,0:0:0:0:
37,222,58262,1,0,0:0:0:0:
45,193,58354,1,2,0:0:0:0:
53,164,58447,1,0,0:0:0:0:
63,135,58539,5,0,0:0:0:0:
83,130,58632,1,0,0:0:0:0:
103,124,58725,1,0,0:0:0:0:
122,120,58817,1,0,0:0:0:0:
152,122,58909,21,2,0:0:0:0:
162,125,59003,1,0,0:0:0:0:
172,127,59095,1,0,0:0:0:0:
10,22,59280,5,6,0:0:0:0:
27,12,59373,1,0,0:0:0:0:
50,3,59466,1,0,0:0:0:0:
79,0,59557,1,0,0:0:0:0:
114,2,59651,1,0,0:0:0:0:
154,6,59743,1,0,0:0:0:0:
196,18,59835,1,2,0:0:0:0:
240,41,59928,1,0,0:0:0:0:
275,83,60021,1,0,0:0:0:0:
304,134,60113,1,0,0:0:0:0:
305,199,60206,1,0,0:0:0:0:
295,267,60298,1,0,0:0:0:0:
259,333,60391,1,2,0:0:0:0:
205,360,60484,1,0,0:0:0:0:
155,365,60576,1,0,0:0:0:0:
115,356,60669,1,0,0:0:0:0:
80,334,60761,5,6,0:0:0:0:
96,322,60854,1,0,0:0:0:0:
120,315,60947,1,0,0:0:0:0:
149,311,61039,1,0,0:0:0:0:
183,311,61131,1,0,0:0:0:0:
220,325,61224,1,0,0:0:0:0:
261,340,61316,1,2,0:0:0:0:
310,349,61410,1,0,0:0:0:0:
369,349,61502,1,0,0:0:0:0:
431,330,61595,1,0,0:0:0:0:
487,289,61687,1,0,0:0:0:0:
512,218,61779,1,0,0:0:0:0:
503,138,61872,1,2,0:0:0:0:
468,82,61965,1,0,0:0:0:0:
425,56,62057,1,0,0:0:0:0:
390,51,62150,1,0,0:0:0:0:
356,77,62242,5,6,0:0:0:0:
329,92,62335,1,0,0:0:0:0:
299,95,62428,1,0,0:0:0:0:
272,81,62520,1,0,0:0:0:0:
238,40,62613,5,0,0:0:0:0:
209,47,62705,1,0,0:0:0:0:
187,68,62798,1,2,0:0:0:0:
182,97,62891,1,0,0:0:0:0:
182,143,62983,5,2,3:2:0:0:
172,198,63076,1,0,0:0:0:0:
135,225,63168,6,0,L|104:225,4,25,8|0|8|8|8,0:0|0:0|0:0|0:0|0:0,0:0:0:0:
212,274,63446,5,0,0:0:0:0:
261,264,63539,1,8,0:0:0:0:
307,247,63631,1,0,0:0:0:0:
344,213,63724,1,2,3:2:0:0:
364,167,63817,1,0,0:0:0:0:
371,117,63909,1,8,3:2:0:0:
361,67,64002,1,0,0:0:0:0:
337,23,64094,6,0,L|330:-3,2,25,10|8|8,3:2|0:0|0:0,0:0:0:0:
428,9,64279,5,8,3:2:0:0:
465,42,64372,1,0,0:0:0:0:
490,85,64465,1,2,3:2:0:0:
503,132,64557,1,0,0:0:0:0:
492,181,64650,1,10,3:2:0:0:
482,230,64743,1,0,0:0:0:0:
457,272,64835,6,0,L|434:261,6,25,8|8|8|8|8|8|8,0:0|0:0|0:0|0:0|0:0|0:0|0:0,0:0:0:0:
431,341,65206,5,6,3:2:0:0:
403,352,65298,1,0,0:0:0:0:
372,352,65391,1,8,0:0:0:0:
342,348,65483,1,0,0:0:0:0:
313,338,65576,1,2,3:2:0:0:
287,322,65669,1,0,0:0:0:0:
262,304,65762,5,8,0:0:0:0:
217,282,65854,1,2,3:2:0:0:
167,272,65947,1,2,3:2:0:0:
117,279,66039,1,2,3:2:0:0:
72,303,66132,1,8,0:2:0:0:
37,340,66225,1,2,3:2:0:0:
5,378,66317,5,2,3:2:0:0:
30,307,66409,1,0,0:0:0:0:
33,231,66502,1,8,0:0:0:0:
21,156,66595,1,2,3:2:0:0:
12,127,66688,5,2,3:2:0:0:
41,133,66780,1,0,0:0:0:0:
71,131,66873,1,8,0:0:0:0:
99,121,66965,1,0,0:0:0:0:
127,111,67058,1,2,3:2:0:0:
151,92,67151,1,0,0:0:0:0:
175,73,67243,5,8,0:0:0:0:
213,40,67336,1,2,3:2:0:0:
260,26,67428,1,2,3:2:0:0:
309,26,67520,1,2,3:2:0:0:
357,37,67613,1,8,0:2:0:0:
399,62,67706,1,2,3:2:0:0:
434,96,67798,5,8,0:0:0:0:
375,135,67891,1,8,0:0:0:0:
308,156,67983,1,8,0:0:0:0:
237,155,68076,1,8,0:0:0:0:
206,155,68168,5,6,3:2:0:0:
189,179,68261,1,0,0:0:0:0:
185,208,68354,1,8,0:0:0:0:
193,236,68446,1,0,0:0:0:0:
211,260,68539,1,2,3:2:0:0:
238,272,68632,1,0,0:0:0:0:
267,266,68724,5,8,0:0:0:0:
312,245,68816,1,2,3:2:0:0:
357,222,68909,1,2,3:2:0:0:
407,224,69002,1,2,3:2:0:0:
456,234,69095,1,8,0:2:0:0:
493,266,69187,1,2,3:2:0:0:
478,314,69280,5,2,3:2:0:0:
423,357,69372,1,0,0:0:0:0:
353,368,69465,1,8,0:0:0:0:
284,350,69558,1,2,3:2:0:0:
255,342,69650,5,2,3:2:0:0:
225,343,69743,1,0,0:0:0:0:
196,347,69836,1,8,0:0:0:0:
167,353,69928,1,0,0:0:0:0:
138,359,70021,1,2,3:2:0:0:
111,371,70114,1,0,0:0:0:0:
81,372,70205,5,8,0:0:0:0:
36,347,70299,1,2,3:2:0:0:
16,301,70391,1,2,3:2:0:0:
20,251,70484,1,2,3:2:0:0:
45,207,70577,1,8,0:2:0:0:
90,187,70669,1,2,3:2:0:0:
136,204,70761,6,0,L|137:228,6,25,8|2|8|8|8|8|8,0:0|0:0|0:0|0:0|0:0|0:0|0:0,0:0:0:0:
209,165,71131,5,6,3:2:0:0:
237,154,71225,1,0,0:0:0:0:
266,154,71317,1,8,0:0:0:0:
294,161,71409,1,0,0:0:0:0:
319,177,71502,1,2,3:2:0:0:
340,198,71595,1,0,0:0:0:0:
364,215,71687,5,8,0:0:0:0:
413,208,71780,1,2,3:2:0:0:
443,168,71872,1,2,3:2:0:0:
438,117,71965,1,2,3:2:0:0:
410,75,72057,1,8,0:2:0:0:
361,61,72150,1,2,3:2:0:0:
313,77,72243,5,2,3:2:0:0:
243,84,72335,1,2,3:2:0:0:
173,71,72428,1,8,0:0:0:0:
116,28,72521,1,2,3:2:0:0:
90,12,72613,5,2,3:2:0:0:
60,8,72706,1,0,0:0:0:0:
33,21,72798,1,8,0:0:0:0:
15,45,72891,1,0,0:0:0:0:
7,74,72984,1,2,3:2:0:0:
11,103,73076,1,0,0:0:0:0:
24,129,73168,5,8,0:0:0:0:
55,168,73261,1,2,3:2:0:0:
70,215,73353,1,2,3:2:0:0:
79,264,73446,1,2,3:2:0:0:
73,313,73539,1,8,0:2:0:0:
48,356,73631,1,2,3:2:0:0:
9,384,73724,5,8,0:0:0:0:
29,317,73816,1,8,0:0:0:0:
92,285,73909,1,8,0:0:0:0:
161,291,74002,1,8,0:0:0:0:
187,304,74094,5,6,3:2:0:0:
217,307,74187,1,0,0:0:0:0:
245,300,74279,1,8,0:0:0:0:
271,285,74372,1,0,0:0:0:0:
294,266,74465,1,2,3:2:0:0:
305,239,74557,1,0,0:0:0:0:
303,208,74650,5,8,0:0:0:0:
256,222,74742,1,2,3:2:0:0:
206,219,74835,1,2,3:2:0:0:
157,211,74928,1,2,3:2:0:0:
110,196,75020,1,8,0:2:0:0:
70,165,75113,1,2,3:2:0:0:
57,116,75205,5,2,3:2:0:0:
125,132,75298,1,0,0:0:0:0:
195,126,75391,1,8,0:0:0:0:
252,85,75484,1,2,3:2:0:0:
261,40,75576,5,2,3:2:0:0:
290,44,75669,1,0,0:0:0:0:
319,49,75761,1,8,0:0:0:0:
348,55,75854,1,0,0:0:0:0:
377,62,75947,1,2,3:2:0:0:
405,68,76039,1,2,3:2:0:0:
445,96,76131,5,8,0:0:0:0:
462,142,76224,1,2,3:2:0:0:
457,191,76316,6,0,L|480:198,6,25,8|8|8|8|8|8|8,0:3|0:3|0:3|0:3|0:3|0:3|0:3,0:0:0:0:
452,280,76687,6,0,L|476:289,6,25,8|2|8|8|8|8|8,0:0|0:0|0:0|0:0|0:0|0:0|0:0,0:0:0:0:
407,350,77058,5,6,3:2:0:0:
377,350,77150,1,0,0:0:0:0:
347,343,77242,1,8,0:0:0:0:
321,328,77334,1,0,0:0:0:0:
291,321,77427,1,2,3:2:0:0:
261,325,77520,1,0,0:0:0:0:
235,340,77613,5,8,0:0:0:0:
186,350,77705,1,2,3:2:0:0:
143,323,77797,1,2,3:2:0:0:
132,273,77890,1,2,3:2:0:0:
133,222,77983,1,8,0:2:0:0:
165,184,78075,1,2,3:2:0:0:
215,187,78168,5,2,3:2:0:0:
277,216,78260,1,0,0:0:0:0:
347,215,78353,1,8,0:0:0:0:
399,168,78446,1,2,3:2:0:0:
399,137,78539,5,2,3:2:0:0:
369,136,78631,1,0,0:0:0:0:
340,130,78723,1,8,0:0:0:0:
314,116,78816,1,0,0:0:0:0:
297,90,78909,1,2,3:2:0:0:
290,60,79001,1,0,0:0:0:0:
281,31,79094,5,8,0:0:0:0:
230,26,79187,1,2,3:2:0:0:
180,30,79279,1,2,3:2:0:0:
130,32,79371,1,2,3:2:0:0:
80,37,79464,1,8,0:2:0:0:
30,42,79556,1,2,3:2:0:0:
4,84,79649,5,8,0:0:0:0:
0,154,79741,1,8,0:0:0:0:
22,220,79834,1,8,0:0:0:0:
86,249,79927,1,8,0:0:0:0:
115,254,80019,5,6,3:2:0:0:
143,242,80112,1,0,0:0:0:0:
171,233,80204,1,8,0:0:0:0:
201,232,80297,1,0,0:0:0:0:
230,238,80390,1,2,3:2:0:0:
257,250,80482,1,0,0:0:0:0:
284,263,80576,5,8,0:0:0:0:
309,305,80667,1,2,3:2:0:0:
331,348,80760,1,2,3:2:0:0:
377,367,80853,1,2,3:2:0:0:
426,367,80945,1,8,0:2:0:0:
469,340,81039,1,2,3:2:0:0:
489,295,81130,5,2,3:2:0:0:
497,225,81223,1,0,0:0:0:0:
504,155,81316,1,8,0:0:0:0:
504,84,81409,1,2,3:2:0:0:
505,53,81502,5,2,3:2:0:0:
481,34,81594,1,0,0:0:0:0:
451,31,81686,1,8,0:0:0:0:
421,33,81779,1,0,0:0:0:0:
393,45,81872,1,2,3:2:0:0:
375,69,81964,1,0,0:0:0:0:
361,96,82057,5,8,0:0:0:0:
321,126,82149,1,2,3:2:0:0:
274,145,82242,1,2,3:2:0:0:
223,145,82335,1,2,3:2:0:0:
178,122,82427,1,8,0:2:0:0:
158,75,82520,1,2,3:2:0:0:
176,28,82613,6,0,L|191:8,6,25,8|2|8|8|8|8|8,0:0|0:0|0:0|0:0|0:0|0:0|0:0,0:0:0:0:
85,56,82983,5,6,3:2:0:0:
68,80,83076,1,0,0:0:0:0:
61,108,83168,1,8,0:0:0:0:
63,137,83260,1,0,0:0:0:0:
73,165,83353,1,2,3:2:0:0:
93,187,83446,1,0,0:0:0:0:
118,202,83538,5,8,0:0:0:0:
164,219,83631,1,2,3:2:0:0:
211,205,83723,1,2,3:2:0:0:
249,173,83816,1,2,3:2:0:0:
296,153,83909,1,8,0:2:0:0:
345,154,84001,1,2,3:2:0:0:
393,166,84094,5,2,3:2:0:0:
437,219,84186,1,2,3:2:0:0:
435,289,84279,1,8,0:0:0:0:
390,343,84372,1,2,3:2:0:0:
362,355,84464,5,2,3:2:0:0:
331,355,84557,1,0,0:0:0:0:
303,343,84649,1,8,0:0:0:0:
280,323,84742,1,0,0:0:0:0:
266,296,84835,1,2,3:2:0:0:
261,266,84927,1,0,0:0:0:0:
244,240,85020,5,8,0:0:0:0:
195,229,85112,1,2,3:2:0:0:
145,234,85204,1,2,3:2:0:0:
96,248,85297,1,2,3:2:0:0:
57,279,85390,1,8,0:2:0:0:
37,324,85482,1,2,3:2:0:0:
20,371,85575,5,8,0:0:0:0:
19,301,85668,1,8,0:0:0:0:
29,232,85760,1,8,0:0:0:0:
36,162,85853,1,8,0:0:0:0:
43,133,85945,5,6,3:2:0:0:
70,145,86039,1,0,0:0:0:0:
97,154,86130,1,8,0:0:0:0:
126,157,86223,1,0,0:0:0:0:
155,153,86316,1,2,3:2:0:0:
183,143,86408,1,0,0:0:0:0:
210,130,86501,5,8,0:0:0:0:
257,116,86593,1,2,3:2:0:0:
306,109,86686,1,2,3:2:0:0:
356,109,86779,1,2,3:2:0:0:
404,122,86871,1,8,0:2:0:0:
451,138,86964,1,2,3:2:0:0:
491,167,87057,5,2,3:2:0:0:
483,236,87149,1,0,0:0:0:0:
471,305,87242,1,8,0:0:0:0:
460,374,87335,1,2,3:2:0:0:
430,374,87427,5,2,3:2:0:0:
401,382,87520,1,0,0:0:0:0:
371,379,87612,1,8,0:0:0:0:
345,362,87705,1,0,0:0:0:0:
326,338,87798,1,2,3:2:0:0:
298,326,87891,1,2,3:2:0:0:
276,304,87983,5,8,0:0:0:0:
248,292,88075,1,2,3:2:0:0:
217,292,88168,6,0,L|211:263,6,25,8|8|8|8|8|8|8,0:3|0:3|0:3|0:3|0:3|0:3|0:3,0:0:0:0:
146,354,88539,6,0,L|153:379,6,25,8|2|8|8|8|8|8,0:0|0:0|0:0|0:0|0:0|0:0|0:0,0:0:0:0:
65,319,88909,5,6,3:2:0:0:
256,192,89002,12,6,91872,3:2:0:0:
