osu file format v14

[General]
AudioFilename: audio.mp3
AudioLeadIn: 0
PreviewTime: 28615
Countdown: 0
SampleSet: Soft
StackLeniency: 0.7
Mode: 0
LetterboxInBreaks: 0
WidescreenStoryboard: 0

[Editor]
DistanceSpacing: 1
BeatDivisor: 3
GridSize: 4
TimelineZoom: 1

[Metadata]
Title:U.N. Owen was her? (Christmas Remix)
TitleUnicode:U.N.オーエンは彼女なのか?(Christmas Remix)
Artist:ZUN
ArtistUnicode:ZUN
Creator:Chewin
Version:Noz's Normal
Source:東方紅魔郷 ~ the Embodiment of Scarlet Devil.
Tags:touhou merry winter santa presents flandre scarlet remilia lights green red love snow Nozhomi
BeatmapID:1468245
BeatmapSetID:682929

[Difficulty]
HPDrainRate:4
CircleSize:3.2
OverallDifficulty:4
ApproachRate:5
SliderMultiplier:1.3
SliderTickRate:1

[Events]
//Background and Video events
0,0,"Konachan.com - 174428 sample.jpg",0,0
//Break Periods
//Storyboard Layer 0 (Background)
//Storyboard Layer 1 (Fail)
//Storyboard Layer 2 (Pass)
//Storyboard Layer 3 (Foreground)
//Storyboard Sound Samples

[TimingPoints]
10040,500,4,2,0,75,1,0
10040,-133.333333333333,4,2,0,75,0,0
28040,-133.333333333333,4,2,0,15,0,0
28615,375,4,2,2,40,1,0
39490,-100,4,2,2,25,0,0
39865,-100,4,2,2,30,0,0
40240,-100,4,2,2,10,0,0
40615,-100,4,2,2,40,0,0
51490,-100,4,2,2,25,0,0
51865,-100,4,2,2,30,0,0
52240,-100,4,2,2,10,0,0
52615,-100,4,2,3,50,0,0
64240,-100,4,2,3,80,0,0
64615,-100,4,2,2,40,0,0
75490,-100,4,2,2,25,0,0
75865,-100,4,2,2,30,0,0
76240,-100,4,2,2,10,0,0
76615,-100,4,2,3,40,0,0
88615,-100,4,1,2,40,0,0
100615,-100,4,2,2,40,0,1
111115,-100,4,2,2,40,0,0
111490,-100,4,2,2,25,0,0
111865,-100,4,2,2,30,0,0
112240,-100,4,2,2,10,0,0
112615,-100,4,2,2,40,0,1
123115,-100,4,2,2,40,0,0
123490,-100,4,2,2,25,0,0
123865,-100,4,2,2,30,0,0
124240,-100,4,2,2,10,0,0
124615,-100,4,2,3,50,0,0
136240,-100,4,2,3,80,0,0
136615,-100,4,2,2,40,0,0
147490,-100,4,2,2,25,0,0
147865,-100,4,2,2,30,0,0
148240,-100,4,2,2,10,0,0
148615,750,4,2,3,40,1,0
158740,-100,4,2,3,30,0,0
160615,-100,4,2,3,20,0,0
161365,-100,4,2,3,10,0,0
162115,-100,4,2,3,5,0,0

[Colours]
Combo1 : 101,177,177
Combo2 : 217,0,0
Combo3 : 233,233,233
Combo4 : 255,128,64
SliderTrackOverride : 206,16,16
SliderBorder : 47,130,32

[HitObjects]
54,79,10040,6,0,P|106:156|198:144,1,195.00000743866,2|2,0:0|0:0,0:0:0:0:
256,42,11540,1,0,0:0:0:0:
314,144,12040,2,0,P|405:156|457:79,1,195.00000743866,2|2,0:0|0:0,0:0:0:0:
350,31,13540,1,2,0:0:0:0:
314,144,14040,6,0,P|369:219|352:312,1,195.00000743866,2|2,0:0|0:0,0:0:0:0:
256,247,15540,1,0,0:0:0:0:
159,314,16040,2,0,P|116:312|72:272,1,97.50000371933,2|2,0:0|0:0,0:0:0:0:
24,176,17040,2,0,P|14:133|42:81,1,97.50000371933,2|2,0:0|0:0,0:0:0:0:
144,36,18040,6,0,L|248:32,2,97.50000371933,2|0|2,0:0|0:0|0:0,0:0:0:0:
37,86,19540,1,0,0:0:0:0:
133,154,20040,2,0,L|237:150,2,97.50000371933,2|2|2,0:0|0:0|0:0,0:0:0:0:
26,204,21540,1,2,0:0:0:0:
116,280,22040,6,0,B|156:316|156:316|224:332,1,97.50000371933,2|0,0:0|0:0,0:0:0:0:
313,326,23040,2,0,B|356:316|356:316|396:280,1,97.50000371933,2|0,0:0|0:0,0:0:0:0:
456,180,24040,1,2,0:0:0:0:
340,176,24540,1,2,0:0:0:0:
256,192,25040,12,0,27540,0:0:0:0:
448,48,28615,6,0,P|484:112|460:212,1,130,6|2,0:0|0:0,0:0:0:0:
356,140,29365,2,0,P|336:210|248:264,1,130,2|2,0:0|0:0,0:0:0:0:
172,292,30115,2,0,L|4:288,1,130,2|2,0:0|0:0,0:0:0:0:
39,204,30740,1,0,0:0:0:0:
39,204,30865,2,0,L|168:207,1,130,2|2,0:0|0:0,0:0:0:0:
231,320,31615,6,0,P|279:276|295:214,1,130,6|6,0:0|0:0,0:0:0:0:
347,147,32240,1,0,0:0:0:0:
347,147,32365,2,0,P|409:163|470:144,1,130,6|6,0:0|0:0,0:0:0:0:
471,57,32990,1,0,0:0:0:0:
471,57,33115,2,0,P|408:40|347:59,1,130,6|6,0:0|0:0,0:0:0:0:
224,104,33865,2,0,L|235:233,1,130,6|6,0:0|0:0,0:0:0:0:
204,316,34490,5,0,0:0:0:0:
204,316,34615,2,0,P|140:344|68:324,1,130,6|2,0:0|0:0,0:0:0:0:
12,224,35365,2,0,P|19:154|73:102,1,130,2|2,0:0|0:0,0:0:0:0:
188,108,36115,2,0,P|185:175|236:252,1,130,2|2,0:0|0:0,0:0:0:0:
300,230,36740,1,0,0:0:0:0:
299,230,36865,2,0,P|327:172|324:108,1,130,2|2,0:0|0:0,0:0:0:0:
220,28,37615,5,6,0:0:0:0:
144,71,37865,2,0,P|122:75|101:72,1,43.3333333333333,0|6,0:0|0:0,0:0:0:0:
44,136,38240,1,0,0:0:0:0:
44,136,38365,2,0,P|84:156|176:148,1,130,6|6,0:0|0:0,0:0:0:0:
248,120,38990,1,0,0:0:0:0:
248,120,39115,2,0,P|311:111|371:135,1,130,6|2,0:0|0:0,0:0:0:0:
464,228,39865,2,0,L|460:368,1,130,2|2,0:0|0:0,0:0:0:0:
332,344,40615,6,0,P|320:284|344:216,1,130,6|2,0:0|0:0,0:0:0:0:
384,96,41365,2,0,P|338:136|267:149,1,130,2|2,0:0|0:0,0:0:0:0:
156,92,42115,2,0,P|92:104|44:146,1,130,2|2,0:0|0:0,0:0:0:0:
44,238,42740,1,0,0:0:0:0:
44,239,42865,2,0,P|92:280|155:293,1,130,2|2,0:0|0:0,0:0:0:0:
244,196,43615,6,0,P|296:160|400:172,1,130,6|6,0:0|0:0,0:0:0:0:
436,212,44240,1,0,0:0:0:0:
436,212,44365,2,0,L|444:364,1,130,6|6,0:0|0:0,0:0:0:0:
364,372,44990,1,0,0:0:0:0:
364,372,45115,2,0,L|357:242,1,130,6|6,0:0|0:0,0:0:0:0:
235,287,45865,2,0,P|226:224|251:165,1,130,6|6,0:0|0:0,0:0:0:0:
324,116,46490,1,0,0:0:0:0:
324,116,46615,6,0,L|464:112,1,130,6|2,0:0|0:0,0:0:0:0:
486,238,47365,2,0,L|357:242,1,130,2|2,0:0|0:0,0:0:0:0:
235,287,48115,2,0,P|179:319|80:304,1,130,2|2,0:0|0:0,0:0:0:0:
44,268,48740,1,0,0:0:0:0:
44,268,48865,2,0,L|48:128,1,130,2|2,0:0|0:0,0:0:0:0:
24,12,49615,5,6,0:0:0:0:
104,44,49865,2,0,L|172:40,1,43.3333333333333,0|6,0:0|0:0,0:0:0:0:
224,92,50240,1,0,0:0:0:0:
224,92,50365,2,0,L|372:83,1,130,6|6,0:0|0:0,0:0:0:0:
420,148,50990,1,0,0:0:0:0:
420,148,51115,2,0,P|388:196|308:216,1,130,6|2,0:0|0:0,0:0:0:0:
190,217,51865,2,0,P|129:199|92:148,1,130,2|2,0:0|0:0,0:0:0:0:
15,42,52615,6,0,L|11:182,1,130,6|2,0:0|0:0,0:0:0:0:
94,71,53365,2,0,L|90:211,1,130,6|2,0:0|0:0,0:0:0:0:
172,100,54115,2,0,L|168:240,1,130,6|2,0:0|0:0,0:0:0:0:
212,304,54740,1,0,0:0:0:0:
212,304,54865,2,0,P|276:328|352:300,1,130,6|2,0:0|0:0,0:0:0:0:
444,240,55615,6,0,L|448:380,1,130,6|2,0:0|0:0,0:0:0:0:
334,313,56365,2,0,P|316:232|336:176,1,130,6|2,0:0|0:0,0:0:0:0:
396,76,57115,2,0,B|332:88|332:88|268:76,1,130,6|2,0:0|0:0,0:0:0:0:
184,56,57740,1,0,0:0:0:0:
184,56,57865,2,0,B|120:44|120:44|56:56,1,130,6|2,0:0|0:0,0:0:0:0:
8,128,58490,1,2,0:0:0:0:
8,128,58615,6,0,L|12:272,1,130,6|2,0:0|0:0,0:0:0:0:
71,372,59365,2,0,P|120:330|137:268,1,130,6|2,0:0|0:0,0:0:0:0:
184,148,60115,2,0,P|201:209|250:251,1,130,6|2,0:0|0:0,0:0:0:0:
341,251,60740,1,0,0:0:0:0:
341,251,60865,2,0,P|390:209|408:148,1,130,6|2,0:0|0:0,0:0:0:0:
488,48,61615,6,0,L|484:188,1,130,6|2,0:0|0:0,0:0:0:0:
410,72,62365,2,0,L|406:212,1,130,6|2,0:0|0:0,0:0:0:0:
332,96,63115,2,0,L|328:236,1,130,6|2,0:0|0:0,0:0:0:0:
288,348,63865,1,6,0:0:0:0:
164,308,64240,1,6,0:0:0:0:
43,359,64615,6,0,P|32:296|53:236,1,130,6|2,0:0|0:0,0:0:0:0:
156,156,65365,2,0,L|148:8,1,130,2|2,0:0|0:0,0:0:0:0:
46,106,66115,2,0,L|54:236,1,130,2|2,0:0|0:0,0:0:0:0:
76,320,66740,1,0,0:0:0:0:
76,320,66865,2,0,P|132:360|220:336,1,130,2|2,0:0|0:0,0:0:0:0:
321,355,67615,6,0,P|385:358|436:320,1,130,6|6,0:0|0:0,0:0:0:0:
468,240,68240,1,0,0:0:0:0:
468,240,68365,2,0,P|468:176|456:88,1,130,6|6,0:0|0:0,0:0:0:0:
372,100,68990,1,0,0:0:0:0:
372,100,69115,2,8,P|353:162|342:226,1,130,6|6,0:0|0:0,0:0:0:0:
304,352,69865,2,0,P|280:296|188:244,1,130,6|6,0:0|0:0,0:0:0:0:
140,256,70490,5,0,0:0:0:0:
140,256,70615,2,0,P|88:295|62:353,1,130,6|2,0:0|0:0,0:0:0:0:
36,224,71365,2,0,L|32:88,1,130,2|2,0:0|0:0,0:0:0:0:
144,24,72115,2,0,P|177:103|240:128,1,130,2|2,0:0|0:0,0:0:0:0:
300,123,72740,1,0,0:0:0:0:
300,123,72865,2,0,P|351:85|368:23,1,130,2|2,0:0|0:0,0:0:0:0:
408,148,73615,5,6,0:0:0:0:
376,228,73865,2,0,P|372:249|377:270,1,43.3333333333333,0|6,0:0|0:0,0:0:0:0:
432,340,74240,1,0,0:0:0:0:
432,340,74365,2,0,L|268:336,1,130,6|6,0:0|0:0,0:0:0:0:
244,272,74990,5,0,0:0:0:0:
244,272,75115,2,0,L|80:268,1,130,6|2,0:0|0:0,0:0:0:0:
128,140,75865,2,0,P|191:127|252:146,1,130,2|2,0:0|0:0,0:0:0:0:
356,224,76615,6,0,P|416:216|424:144,1,130,2|2,0:0|0:0,0:0:0:0:
344,56,77365,1,2,0:0:0:0:
252,146,77740,1,2,0:0:0:0:
356,224,78115,6,0,P|360:300|304:352,1,130,2|2,0:0|0:0,0:0:0:0:
200,364,78865,1,2,0:0:0:0:
76,328,79240,1,2,0:0:0:0:
32,204,79615,6,0,B|64:144|48:72|48:72|104:120|196:112,1,260,2|2,0:0|0:0,0:0:0:0:
256,24,80740,1,2,0:0:0:0:
349,113,81115,2,0,B|408:120|464:72|464:72|448:144|480:204,1,260,2|2,0:0|0:0,0:0:0:0:
440,328,82240,1,2,0:0:0:0:
312,352,82615,6,0,P|248:344|192:272,1,130,2|2,0:0|0:0,0:0:0:0:
164,176,83365,2,0,P|172:112|244:56,1,130,2|2,0:0|0:0,0:0:0:0:
304,56,83990,5,2,0:0:0:0:
304,56,84115,2,0,L|436:60,1,130,2|2,0:0|0:0,0:0:0:0:
496,176,84865,2,0,L|366:172,1,130,2|2,0:0|0:0,0:0:0:0:
256,240,85614,5,2,0:0:0:0:
180,196,85865,1,2,0:0:0:0:
180,196,85990,2,0,P|100:216|64:268,1,130,2|2,0:0|0:0,0:0:0:0:
176,328,86740,1,2,0:0:0:0:
256,296,86990,5,2,0:0:0:0:
256,296,87115,2,0,L|256:144,2,130,2|2|2,0:0|0:0|0:0,0:0:0:0:
364,368,88240,1,2,0:0:0:0:
452,271,88615,6,0,P|469:210|450:149,1,130,6|2,2:0|0:0,0:0:0:0:
368,52,89365,2,0,P|316:14|252:11,1,130,2|2,3:0|0:0,0:0:0:0:
140,76,90115,2,0,L|144:212,1,130,2|2,3:0|1:0,0:0:0:0:
64,235,90740,1,0,2:0:0:0:
64,235,90865,2,0,L|60:105,1,130,2|2,3:0|1:0,0:0:0:0:
144,206,91615,6,0,P|205:225|266:207,1,130,6|2,2:0|1:0,0:0:0:0:
348,184,92240,1,0,2:0:0:0:
348,184,92365,2,0,P|300:227|285:289,1,130,2|2,2:0|1:0,0:0:0:0:
348,348,92990,1,0,2:0:0:0:
348,348,93115,2,0,L|477:354,2,130,6|6|2,2:0|2:0|3:0,0:0:0:0:
256,256,94240,1,2,1:0:0:0:
164,348,94615,6,0,L|34:354,1,130,6|2,2:0|1:0,0:0:0:0:
128,264,95365,2,0,L|31:176,1,130,2|2,3:0|1:0,0:0:0:0:
160,172,96115,2,0,L|153:42,1,130,2|2,3:0|1:0,0:0:0:0:
240,44,96740,1,0,2:0:0:0:
240,44,96865,2,0,P|259:105|243:167,1,130,2|2,3:0|1:0,0:0:0:0:
148,256,97615,6,0,L|300:248,1,130,6|2,2:0|1:0,0:0:0:0:
332,316,98240,1,0,2:0:0:0:
332,316,98365,2,0,L|484:308,1,130,2|2,2:0|1:0,0:0:0:0:
488,228,98990,1,0,2:0:0:0:
488,228,99115,2,0,L|358:234,1,130,2|2,2:0|3:0,0:0:0:0:
300,172,99740,2,0,L|114:180,1,173.333333333333,2|2,3:0|3:0,0:0:0:0:
48,76,100615,6,0,L|177:70,1,130,6|2,0:0|0:0,0:0:0:0:
308,68,101365,2,0,P|367:91|401:145,1,130,2|2,0:0|0:0,0:0:0:0:
328,252,102115,2,0,L|184:248,1,130,2|2,0:0|0:0,0:0:0:0:
180,332,102740,1,0,0:0:0:0:
180,332,102865,2,0,L|309:335,1,130,2|2,0:0|0:0,0:0:0:0:
408,252,103615,6,0,P|423:189|401:129,1,130,6|6,0:0|0:0,0:0:0:0:
332,76,104240,2,0,L|332:32,4,43.3333333333333,0|6|0|0|6,0:0|0:0|0:0|0:0|0:0,0:0:0:0:
264,130,104990,1,0,0:0:0:0:
264,130,105115,2,0,P|200:154|128:128,1,130,6|6,0:0|0:0,0:0:0:0:
120,268,105865,2,0,P|56:240|16:173,1,130,6|6,0:0|0:0,0:0:0:0:
20,104,106490,1,0,0:0:0:0:
20,104,106615,6,0,P|58:52|118:28,1,130,6|2,0:0|0:0,0:0:0:0:
208,124,107365,2,0,P|204:200|184:272,1,130,2|2,0:0|0:0,0:0:0:0:
320,252,108115,2,0,P|306:188|304:124,1,130,2|2,0:0|0:0,0:0:0:0:
348,48,108740,1,0,0:0:0:0:
348,48,108865,2,0,L|492:40,1,130,2|2,0:0|0:0,0:0:0:0:
428,160,109615,6,0,P|408:216|420:288,1,130,6|6,0:0|0:0,0:0:0:0:
424,372,110240,2,0,P|445:377|466:376,4,43.3333333333333,0|6|0|0|6,0:0|0:0|0:0|0:0|0:0,0:0:0:0:
352,324,110990,1,0,0:0:0:0:
351,324,111115,2,0,P|294:351|230:343,1,130,6|2,0:0|0:0,0:0:0:0:
112,288,111865,2,0,P|66:243|52:180,1,130,2|2,0:0|0:0,0:0:0:0:
112,64,112615,6,0,P|172:56|244:56,1,130,6|6,0:0|0:0,0:0:0:0:
144,140,113365,2,0,P|204:142|275:155,1,130,6|6,0:0|0:0,0:0:0:0:
160,220,114115,2,0,P|219:233|286:257,1,130,6|6,0:0|0:0,0:0:0:0:
348,316,114740,1,0,0:0:0:0:
348,316,114865,2,0,L|477:312,1,130,6|6,0:0|0:0,0:0:0:0:
400,208,115615,5,6,0:0:0:0:
460,144,115865,2,0,L|456:72,1,43.3333333333333,0|6,0:0|0:0,0:0:0:0:
452,16,116240,2,0,L|494:8,4,43.3333333333333,0|6|0|0|6,0:0|0:0|0:0|0:0|0:0,0:0:0:0:
368,36,116990,1,0,0:0:0:0:
368,36,117115,2,0,L|357:165,1,130,6|6,0:0|0:0,0:0:0:0:
251,241,117865,2,0,P|227:180|235:117,1,130,6|6,0:0|0:0,0:0:0:0:
263,37,118490,1,0,0:0:0:0:
263,37,118615,6,0,L|133:33,1,130,6|6,0:0|0:0,0:0:0:0:
235,117,119365,2,0,L|105:113,1,130,6|6,0:0|0:0,0:0:0:0:
207,197,120115,2,0,L|77:193,1,130,6|6,0:0|0:0,0:0:0:0:
59,277,120740,1,0,0:0:0:0:
59,277,120865,2,0,L|188:280,1,130,6|6,0:0|0:0,0:0:0:0:
288,364,121615,5,6,0:0:0:0:
360,316,121865,2,0,L|435:318,1,43.3333333333333,0|6,0:0|0:0,0:0:0:0:
456,248,122240,2,0,L|499:248,4,43.3333333333333,0|6|0|0|6,0:0|0:0|0:0|0:0|0:0,0:0:0:0:
388,196,122990,1,0,0:0:0:0:
388,196,123115,2,0,P|384:120|416:56,1,130,6|2,0:0|0:0,0:0:0:0:
292,140,123865,2,0,P|296:64|264:0,1,130,2|2,0:0|0:0,0:0:0:0:
152,56,124615,6,0,L|156:192,1,130,6|2,0:0|0:0,0:0:0:0:
45,254,125365,2,0,L|41:124,1,130,6|2,0:0|0:0,0:0:0:0:
156,186,126115,2,0,L|160:326,1,130,6|2,0:0|0:0,0:0:0:0:
72,316,126740,1,0,0:0:0:0:
72,316,126865,2,0,P|49:256|71:192,1,130,6|2,0:0|0:0,0:0:0:0:
180,132,127615,6,0,L|320:140,1,130,6|2,0:0|0:0,0:0:0:0:
268,16,128365,2,0,L|408:24,1,130,6|2,0:0|0:0,0:0:0:0:
440,147,129115,2,0,L|310:139,1,130,6|2,0:0|0:0,0:0:0:0:
248,200,129740,1,0,0:0:0:0:
248,200,129865,2,0,P|276:262|349:296,1,130,6|2,0:0|0:0,0:0:0:0:
416,300,130490,1,2,0:0:0:0:
416,300,130615,6,0,P|470:266|495:207,1,130,6|2,0:0|0:0,0:0:0:0:
444,88,131365,2,0,P|387:57|323:65,1,130,6|2,0:0|0:0,0:0:0:0:
220,144,132115,2,0,P|163:174|99:166,1,130,6|2,0:0|0:0,0:0:0:0:
84,80,132740,1,0,0:0:0:0:
84,80,132865,2,0,P|140:49|204:57,1,130,6|2,0:0|0:0,0:0:0:0:
304,140,133615,6,0,L|324:296,1,130,6|2,0:0|0:0,0:0:0:0:
191,268,134365,2,0,L|208:140,1,130,6|2,0:0|0:0,0:0:0:0:
96,72,135115,2,0,P|76:136|100:212,1,130,6|2,0:0|0:0,0:0:0:0:
191,268,135865,1,6,0:0:0:0:
256,156,136240,1,6,0:0:0:0:
321,268,136615,6,0,P|392:280|456:244,1,130,6|2,0:0|0:0,0:0:0:0:
442,127,137365,2,0,P|383:102|321:116,1,130,2|2,0:0|0:0,0:0:0:0:
200,160,138115,2,0,P|137:173|78:148,1,130,2|2,0:0|0:0,0:0:0:0:
20,84,138740,1,0,0:0:0:0:
20,84,138865,2,0,L|24:236,1,130,2|2,0:0|0:0,0:0:0:0:
76,332,139615,6,0,P|96:280|168:268,1,130,6|6,0:0|0:0,0:0:0:0:
244,304,140240,1,0,0:0:0:0:
244,304,140365,2,0,L|384:300,1,130,6|6,0:0|0:0,0:0:0:0:
368,212,140990,1,0,0:0:0:0:
368,212,141115,2,0,L|238:215,1,130,6|6,0:0|0:0,0:0:0:0:
156,112,141865,2,0,P|180:64|272:24,1,130,6|6,0:0|0:0,0:0:0:0:
335,27,142490,1,0,0:0:0:0:
335,27,142615,6,0,P|391:56|423:112,1,130,6|2,0:0|0:0,0:0:0:0:
440,240,143365,2,0,L|436:369,1,130,2|2,0:0|0:0,0:0:0:0:
316,316,144115,2,0,L|312:186,1,130,2|2,0:0|0:0,0:0:0:0:
280,104,144740,1,0,0:0:0:0:
280,104,144865,2,0,P|220:80|144:100,1,130,2|2,0:0|0:0,0:0:0:0:
48,160,145615,5,6,0:0:0:0:
104,228,145865,2,0,L|100:280,1,43.3333333333333,0|6,0:0|0:0,0:0:0:0:
176,316,146240,1,0,0:0:0:0:
176,316,146365,2,0,L|187:186,1,130,6|6,0:0|0:0,0:0:0:0:
264,144,146990,1,0,0:0:0:0:
264,144,147115,2,0,L|275:14,1,130,6|2,0:0|0:0,0:0:0:0:
404,36,147865,2,0,P|412:99|387:159,1,130,2|2,0:0|0:0,0:0:0:0:
276,228,148615,6,0,L|140:224,1,130,2|2,0:0|0:0,0:0:0:0:
0,172,150115,1,2,0:0:0:0:
44,108,150490,2,0,P|52:76|36:24,2,65,2|2|0,0:0|0:0|0:0,0:0:0:0:
0,172,151615,5,2,0:0:0:0:
20,248,151990,1,2,0:0:0:0:
88,284,152365,1,2,0:0:0:0:
164,268,152740,1,2,0:0:0:0:
188,192,153115,2,0,P|188:156|202:117,1,65,2|2,0:0|0:0,0:0:0:0:
275,128,153865,2,0,P|283:159|283:191,1,65,2|2,0:0|0:0,0:0:0:0:
264,268,154615,6,0,L|393:271,1,130,2|2,0:0|0:0,0:0:0:0:
353,120,156115,1,2,0:0:0:0:
275,128,156490,2,0,B|243:132|243:132|211:128,2,65,2|2|2,0:0|0:0|0:0,0:0:0:0:
353,120,157615,5,2,0:0:0:0:
412,68,157990,1,2,0:0:0:0:
472,120,158365,2,0,P|477:151|474:184,1,65,2|2,0:0|0:0,0:0:0:0:
432,248,159115,5,6,0:0:0:0:
372,296,159490,1,2,0:0:0:0:
312,344,159865,1,6,0:0:0:0:
256,192,160052,12,0,162115,0:0:0:0:
