osu file format v14

[General]
AudioFilename: audio.mp3
AudioLeadIn: 0
PreviewTime: 28615
Countdown: 0
SampleSet: Soft
StackLeniency: 0.7
Mode: 0
LetterboxInBreaks: 0
WidescreenStoryboard: 0

[Editor]
DistanceSpacing: 1.2
BeatDivisor: 3
GridSize: 4
TimelineZoom: 1

[Metadata]
Title:U.N. Owen was her? (Christmas Remix)
TitleUnicode:U.N.オーエンは彼女なのか?(Christmas Remix)
Artist:ZUN
ArtistUnicode:ZUN
Creator:Chewin
Version:Merry Christmas!
Source:東方紅魔郷 ~ the Embodiment of Scarlet Devil.
Tags:touhou merry winter santa presents flandre scarlet remilia lights green red love snow Nozhomi
BeatmapID:1444156
BeatmapSetID:682929

[Difficulty]
HPDrainRate:6
CircleSize:4
OverallDifficulty:6
ApproachRate:8.3
SliderMultiplier:1.6
SliderTickRate:1

[Events]
//Background and Video events
0,0,"Konachan.com - 174428 sample.jpg",0,0
//Break Periods
//Storyboard Layer 0 (Background)
//Storyboard Layer 1 (Fail)
//Storyboard Layer 2 (Pass)
//Storyboard Layer 3 (Foreground)
//Storyboard Sound Samples

[TimingPoints]
10040,500,4,2,0,75,1,0
10040,-133.333333333333,4,2,0,75,0,0
28040,-133.333333333333,4,2,0,15,0,0
28615,375,4,2,2,40,1,0
39490,-100,4,2,2,25,0,0
39865,-100,4,2,2,30,0,0
40240,-100,4,2,2,10,0,0
40615,-100,4,2,2,40,0,0
51490,-100,4,2,2,25,0,0
51865,-100,4,2,2,30,0,0
52240,-100,4,2,2,10,0,0
52615,-100,4,2,3,50,0,0
64240,-100,4,2,3,80,0,0
64615,-100,4,2,2,40,0,0
75490,-100,4,2,2,25,0,0
75865,-100,4,2,2,30,0,0
76240,-100,4,2,2,10,0,0
76615,-100,4,2,3,40,0,0
88615,-100,4,1,2,40,0,0
100615,-100,4,2,2,40,0,1
111115,-100,4,2,2,40,0,0
111490,-100,4,2,2,25,0,0
111865,-100,4,2,2,30,0,0
112240,-100,4,2,2,10,0,0
112615,-100,4,2,2,40,0,1
123115,-100,4,2,2,40,0,0
123490,-100,4,2,2,25,0,0
123865,-100,4,2,2,30,0,0
124240,-100,4,2,2,10,0,0
124615,-100,4,2,3,50,0,0
136240,-100,4,2,3,80,0,0
136615,-100,4,2,2,40,0,0
147490,-100,4,2,2,25,0,0
147865,-100,4,2,2,30,0,0
148240,-100,4,2,2,10,0,0
148615,750,4,2,3,40,1,0
158740,-100,4,2,3,30,0,0
160615,-100,4,2,3,20,0,0
161365,-100,4,2,3,10,0,0
162115,-100,4,2,3,5,0,0

[Colours]
Combo1 : 101,177,177
Combo2 : 217,0,0
Combo3 : 233,233,233
Combo4 : 255,128,64
SliderTrackOverride : 206,16,16
SliderBorder : 47,130,32

[HitObjects]
96,192,10040,5,2,0:0:0:0:
176,152,10540,1,0,0:0:0:0:
256,112,11040,1,2,0:0:0:0:
336,72,11540,1,0,0:0:0:0:
464,192,12040,5,2,0:0:0:0:
448,280,12540,1,2,0:0:0:0:
384,220,13040,1,2,0:0:0:0:
364,308,13540,1,2,0:0:0:0:
256,160,14040,5,2,0:0:0:0:
216,240,14540,1,0,0:0:0:0:
176,320,15040,1,2,0:0:0:0:
128,244,15540,1,0,0:0:0:0:
256,112,16040,5,2,0:0:0:0:
300,192,16540,1,2,0:0:0:0:
256,272,17040,1,2,0:0:0:0:
212,192,17540,1,2,0:0:0:0:
392,192,18040,6,0,L|516:192,2,120.000004577637,2|0|2,0:0|0:0|0:0,0:0:0:0:
300,192,19540,1,0,0:0:0:0:
120,192,20040,6,0,L|-4:192,2,120.000004577637,2|2|2,0:0|0:0|0:0,0:0:0:0:
212,192,21540,1,2,0:0:0:0:
256,368,22040,5,2,0:0:0:0:
208,292,22540,1,0,0:0:0:0:
304,292,23040,2,0,B|360:316|360:316|424:288,1,120.000004577637,2|0,0:0|0:0,0:0:0:0:
464,116,24040,5,2,0:0:0:0:
416,192,24540,1,2,0:0:0:0:
376,116,25040,6,0,B|240:156|160:48|264:-20|348:-4|360:48|348:136|328:220|224:232|184:128|176:80|176:80|196:144|172:176|128:188|104:168|84:152|96:116|112:104,1,720.000027465821,2|0,0:0|0:0,0:0:0:0:
102,115,28615,6,0,L|94:271,1,106.666666666667,6|0,0:0|0:0,0:0:0:0:
96,221,28990,1,2,0:0:0:0:
200,296,29240,1,0,0:0:0:0:
200,296,29365,2,0,L|205:189,1,106.666666666667,2|0,0:0|0:0,0:0:0:0:
205,189,29740,1,2,0:0:0:0:
256,72,29990,5,0,0:0:0:0:
256,72,30115,2,0,P|320:88|408:44,1,160,2|2,0:0|0:0,0:0:0:0:
488,148,30740,1,0,0:0:0:0:
488,148,30865,2,0,L|480:280,1,106.666666666667,2|0,0:0|0:0,0:0:0:0:
476,320,31240,2,0,P|428:308|352:356,1,106.666666666667,2|0,0:0|0:0,0:0:0:0:
328,372,31615,5,6,0:0:0:0:
256,268,31865,2,0,L|264:200,1,53.3333333333333,0|6,0:0|0:0,0:0:0:0:
156,40,32240,1,0,0:0:0:0:
158,66,32365,1,6,0:0:0:0:
161,93,32490,1,0,0:0:0:0:
164,119,32615,1,0,0:0:0:0:
167,146,32740,1,6,0:0:0:0:
148,332,32990,5,0,0:0:0:0:
148,332,33115,2,0,L|136:216,1,106.666666666667,6|0,0:0|0:0,0:0:0:0:
124,352,33490,6,0,L|113:245,1,106.666666666667,6|0,0:0|0:0,0:0:0:0:
96,372,33865,6,0,L|85:265,1,106.666666666667,6|0,0:0|0:0,0:0:0:0:
76,204,34240,1,6,0:0:0:0:
160,40,34490,5,0,0:0:0:0:
160,40,34615,2,0,P|176:92|152:160,1,106.666666666667,6|0,0:0|0:0,0:0:0:0:
164,141,34990,1,2,0:0:0:0:
216,260,35240,1,0,0:0:0:0:
216,260,35365,2,0,P|200:312|220:364,1,106.666666666667,2|0,0:0|0:0,0:0:0:0:
216,359,35740,1,2,0:0:0:0:
336,308,35990,5,0,0:0:0:0:
336,308,36115,2,0,P|416:300|484:348,1,160,2|2,0:0|0:0,0:0:0:0:
460,216,36740,1,0,0:0:0:0:
460,216,36865,2,0,L|464:96,1,106.666666666667,2|0,0:0|0:0,0:0:0:0:
464,44,37240,2,0,P|408:64|356:36,1,106.666666666667,2|0,0:0|0:0,0:0:0:0:
320,4,37615,5,6,0:0:0:0:
256,112,37865,2,0,L|264:184,1,53.3333333333333,0|6,0:0|0:0,0:0:0:0:
120,308,38240,1,0,0:0:0:0:
155,298,38365,1,6,0:0:0:0:
192,300,38490,1,0,0:0:0:0:
227,314,38615,1,0,0:0:0:0:
255,339,38740,1,6,0:0:0:0:
440,192,38990,5,0,0:0:0:0:
440,192,39115,2,0,L|432:364,1,160,6|2,0:0|0:0,0:0:0:0:
412,160,39865,6,0,L|404:332,1,160,2|2,0:0|0:0,0:0:0:0:
384,128,40615,6,0,L|376:276,1,106.666666666667,6|0,0:0|0:0,0:0:0:0:
378,234,40990,1,2,0:0:0:0:
288,328,41240,1,0,0:0:0:0:
288,328,41365,2,0,L|284:204,1,106.666666666667,2|0,0:0|0:0,0:0:0:0:
284,221,41740,1,2,0:0:0:0:
256,96,41990,5,0,0:0:0:0:
256,96,42115,2,0,P|180:88|100:144,1,160,2|2,0:0|0:0,0:0:0:0:
40,236,42740,1,0,0:0:0:0:
40,236,42865,2,0,P|100:240|148:272,1,106.666666666667,2|0,0:0|0:0,0:0:0:0:
180,312,43240,2,0,P|244:312|284:280,1,106.666666666667,2|0,0:0|0:0,0:0:0:0:
316,236,43615,5,6,0:0:0:0:
340,112,43865,2,0,L|336:32,1,53.3333333333333,0|6,0:0|0:0,0:0:0:0:
488,192,44240,1,0,0:0:0:0:
484,229,44365,1,6,0:0:0:0:
480,266,44490,1,0,0:0:0:0:
477,303,44615,1,0,0:0:0:0:
473,340,44740,1,6,0:0:0:0:
256,368,44990,5,0,0:0:0:0:
256,368,45115,2,0,L|248:261,1,106.666666666667,6|0,0:0|0:0,0:0:0:0:
240,155,45490,6,0,L|248:262,1,106.666666666667,6|0,0:0|0:0,0:0:0:0:
141,269,45865,6,0,L|248:261,1,106.666666666667,6|0,0:0|0:0,0:0:0:0:
312,256,46240,1,6,0:0:0:0:
452,80,46490,5,0,0:0:0:0:
452,80,46615,2,0,P|392:80|340:108,1,106.666666666667,6|0,0:0|0:0,0:0:0:0:
350,99,46990,1,2,0:0:0:0:
304,220,47240,1,0,0:0:0:0:
304,220,47365,2,0,P|240:216|192:184,1,106.666666666667,2|0,0:0|0:0,0:0:0:0:
168,144,47740,1,2,0:0:0:0:
64,72,47990,5,0,0:0:0:0:
64,72,48115,2,0,P|44:136|68:232,1,160,2|2,0:0|0:0,0:0:0:0:
168,300,48740,1,0,0:0:0:0:
168,300,48865,2,0,P|232:300|284:344,1,106.666666666667,2|0,0:0|0:0,0:0:0:0:
312,368,49240,2,0,P|368:368|416:336,1,106.666666666667,2|0,0:0|0:0,0:0:0:0:
460,304,49615,5,6,0:0:0:0:
400,192,49865,2,0,L|404:120,1,53.3333333333333,0|6,0:0|0:0,0:0:0:0:
240,44,50240,1,0,0:0:0:0:
242,80,50365,1,6,0:0:0:0:
247,117,50490,1,0,0:0:0:0:
251,153,50615,1,0,0:0:0:0:
255,191,50740,1,6,0:0:0:0:
64,312,50990,5,0,0:0:0:0:
64,312,51115,2,0,P|128:304|220:360,1,160,6|2,0:0|0:0,0:0:0:0:
460,344,51865,6,0,P|396:352|304:296,1,160,2|2,0:0|0:0,0:0:0:0:
396,56,52615,5,6,0:0:0:0:
414,31,52740,1,0,0:0:0:0:
444,31,52865,1,0,0:0:0:0:
462,56,52990,1,2,0:0:0:0:
452,85,53115,1,0,0:0:0:0:
422,94,53240,1,0,0:0:0:0:
376,92,53365,5,6,0:0:0:0:
351,64,53490,1,0,0:0:0:0:
316,54,53615,1,0,0:0:0:0:
281,65,53740,1,2,0:0:0:0:
258,94,53865,1,0,0:0:0:0:
254,130,53990,1,0,0:0:0:0:
280,168,54115,5,6,0:0:0:0:
310,197,54240,1,0,0:0:0:0:
321,237,54365,1,0,0:0:0:0:
311,278,54490,1,2,0:0:0:0:
280,307,54615,1,0,0:0:0:0:
239,317,54740,1,0,0:0:0:0:
204,276,54865,5,6,0:0:0:0:
159,257,54990,1,0,0:0:0:0:
141,302,55115,1,0,0:0:0:0:
184,322,55240,1,2,0:0:0:0:
456,192,55615,5,6,0:0:0:0:
453,161,55740,1,0,0:0:0:0:
428,143,55865,1,0,0:0:0:0:
398,151,55990,1,2,0:0:0:0:
384,178,56115,1,0,0:0:0:0:
397,207,56240,1,0,0:0:0:0:
424,232,56365,5,6,0:0:0:0:
460,237,56490,1,0,0:0:0:0:
481,267,56615,1,0,0:0:0:0:
474,303,56740,1,2,0:0:0:0:
443,322,56865,1,0,0:0:0:0:
408,312,56990,1,0,0:0:0:0:
376,284,57115,5,6,0:0:0:0:
375,242,57240,1,0,0:0:0:0:
347,211,57365,1,0,0:0:0:0:
306,207,57490,1,2,0:0:0:0:
272,231,57615,1,0,0:0:0:0:
264,272,57740,1,0,0:0:0:0:
284,308,57865,5,6,0:0:0:0:
271,355,57990,1,2,0:0:0:0:
223,345,58115,1,2,0:0:0:0:
229,297,58240,1,2,0:0:0:0:
284,308,58365,1,2,0:0:0:0:
271,355,58490,1,2,0:0:0:0:
223,345,58615,5,6,0:0:0:0:
241,319,58740,1,0,0:0:0:0:
233,289,58865,1,0,0:0:0:0:
205,276,58990,1,2,0:0:0:0:
176,288,59115,1,0,0:0:0:0:
167,318,59240,1,0,0:0:0:0:
164,356,59365,5,6,0:0:0:0:
132,372,59490,1,0,0:0:0:0:
96,366,59615,1,0,0:0:0:0:
71,340,59740,1,2,0:0:0:0:
67,303,59865,1,0,0:0:0:0:
86,272,59990,1,0,0:0:0:0:
120,244,60115,5,6,0:0:0:0:
159,231,60240,1,0,0:0:0:0:
180,195,60365,1,0,0:0:0:0:
171,155,60490,1,2,0:0:0:0:
136,132,60615,1,0,0:0:0:0:
95,138,60740,1,0,0:0:0:0:
76,180,60865,5,6,0:0:0:0:
38,209,60990,1,0,0:0:0:0:
7,172,61115,1,0,0:0:0:0:
44,141,61240,1,2,0:0:0:0:
256,88,61615,5,6,0:0:0:0:
251,57,61740,1,0,0:0:0:0:
225,40,61865,1,0,0:0:0:0:
195,48,61990,1,2,0:0:0:0:
181,75,62115,1,0,0:0:0:0:
192,104,62240,1,0,0:0:0:0:
220,132,62365,5,6,0:0:0:0:
252,148,62490,1,0,0:0:0:0:
266,182,62615,1,0,0:0:0:0:
255,217,62740,1,2,0:0:0:0:
224,236,62865,1,0,0:0:0:0:
188,232,62990,1,0,0:0:0:0:
156,204,63115,5,6,0:0:0:0:
158,162,63240,1,0,0:0:0:0:
132,130,63365,1,0,0:0:0:0:
91,124,63490,1,2,0:0:0:0:
57,148,63615,1,2,0:0:0:0:
48,188,63740,1,2,0:0:0:0:
69,224,63865,5,6,0:0:0:0:
256,360,64240,1,6,0:0:0:0:
500,192,64615,6,0,P|512:252|492:316,1,106.666666666667,6|0,0:0|0:0,0:0:0:0:
502,295,64990,1,2,0:0:0:0:
376,324,65240,1,0,0:0:0:0:
376,324,65365,2,0,L|264:328,1,106.666666666667,2|0,0:0|0:0,0:0:0:0:
269,327,65740,1,2,0:0:0:0:
140,332,65990,5,0,0:0:0:0:
140,332,66115,2,0,P|120:260|144:168,1,160,2|2,0:0|0:0,0:0:0:0:
256,128,66740,1,0,0:0:0:0:
256,128,66865,2,0,L|268:16,1,106.666666666667,2|0,0:0|0:0,0:0:0:0:
344,8,67240,2,0,L|332:114,1,106.666666666667,2|0,0:0|0:0,0:0:0:0:
324,180,67615,5,6,0:0:0:0:
256,288,67865,2,0,L|264:364,1,53.3333333333333,0|6,0:0|0:0,0:0:0:0:
440,324,68240,1,0,0:0:0:0:
448,287,68365,1,6,0:0:0:0:
452,250,68490,1,0,0:0:0:0:
449,213,68615,1,0,0:0:0:0:
440,177,68740,1,6,0:0:0:0:
256,52,68990,5,0,0:0:0:0:
256,52,69115,2,0,L|260:188,1,106.666666666667,6|0,0:0|0:0,0:0:0:0:
236,36,69490,6,0,L|240:172,1,106.666666666667,6|0,0:0|0:0,0:0:0:0:
212,20,69865,6,0,L|216:156,1,106.666666666667,6|0,0:0|0:0,0:0:0:0:
216,192,70240,1,6,0:0:0:0:
448,312,70490,5,0,0:0:0:0:
448,312,70615,2,0,P|384:320|344:348,1,106.666666666667,6|0,0:0|0:0,0:0:0:0:
349,342,70990,1,2,0:0:0:0:
224,320,71240,1,0,0:0:0:0:
224,320,71365,2,0,L|96:316,1,106.666666666667,2|0,0:0|0:0,0:0:0:0:
117,316,71740,1,2,0:0:0:0:
84,192,71990,5,0,0:0:0:0:
84,192,72115,2,0,L|243:198,1,160,2|2,0:0|0:0,0:0:0:0:
372,204,72740,1,0,0:0:0:0:
372,204,72865,2,0,P|384:144|360:80,1,106.666666666667,2|0,0:0|0:0,0:0:0:0:
328,52,73240,2,0,L|208:56,1,106.666666666667,2|0,0:0|0:0,0:0:0:0:
156,60,73615,5,6,0:0:0:0:
84,164,73865,2,0,L|88:236,1,53.3333333333333,0|6,0:0|0:0,0:0:0:0:
220,356,74240,1,0,0:0:0:0:
222,318,74365,1,6,0:0:0:0:
224,281,74490,1,0,0:0:0:0:
227,244,74615,1,0,0:0:0:0:
229,206,74740,1,6,0:0:0:0:
352,44,74990,5,0,0:0:0:0:
352,44,75115,2,0,L|340:248,1,160,6|2,0:0|0:0,0:0:0:0:
384,20,75865,6,0,L|372:224,1,160,2|2,0:0|0:0,0:0:0:0:
188,344,76615,5,2,0:0:0:0:
172,343,76740,1,0,0:0:0:0:
156,342,76865,1,0,0:0:0:0:
140,341,76990,1,2,0:0:0:0:
124,340,77115,1,0,0:0:0:0:
108,339,77240,1,0,0:0:0:0:
93,338,77365,6,0,L|264:347,1,160,2|2,0:0|0:0,0:0:0:0:
376,200,78115,5,2,0:0:0:0:
392,199,78240,1,0,0:0:0:0:
408,198,78365,1,0,0:0:0:0:
424,197,78490,1,2,0:0:0:0:
440,196,78615,1,0,0:0:0:0:
456,195,78740,1,0,0:0:0:0:
471,194,78865,6,0,L|300:203,1,160,2|2,0:0|0:0,0:0:0:0:
24,128,79615,5,2,0:0:0:0:
43,135,79740,1,0,0:0:0:0:
65,137,79865,1,0,0:0:0:0:
86,134,79990,1,2,0:0:0:0:
105,126,80115,1,0,0:0:0:0:
122,113,80240,1,0,0:0:0:0:
144,92,80365,5,2,0:0:0:0:
160,92,80490,1,0,0:0:0:0:
176,91,80615,1,0,0:0:0:0:
196,64,80740,5,2,0:0:0:0:
221,45,80865,1,0,0:0:0:0:
253,39,80990,1,0,0:0:0:0:
283,48,81115,1,2,0:0:0:0:
307,68,81240,1,0,0:0:0:0:
320,97,81365,1,0,0:0:0:0:
319,129,81490,1,2,0:0:0:0:
305,157,81615,1,0,0:0:0:0:
280,177,81740,1,0,0:0:0:0:
240,192,81865,5,2,0:0:0:0:
209,163,81990,1,0,0:0:0:0:
167,159,82115,1,0,0:0:0:0:
133,182,82240,1,2,0:0:0:0:
120,222,82365,1,0,0:0:0:0:
135,261,82490,1,0,0:0:0:0:
171,282,82615,6,0,L|176:348,2,53.3333333333333,2|0|0,0:0|0:0|0:0,0:0:0:0:
248,296,82990,2,0,L|252:361,2,53.3333333333333,2|0|0,0:0|0:0|0:0,0:0:0:0:
324,312,83365,2,0,P|392:296|480:360,1,160,2|2,0:0|0:0,0:0:0:0:
460,212,83990,5,2,0:0:0:0:
460,212,84115,2,0,L|468:72,1,106.666666666667,2|0,0:0|0:0,0:0:0:0:
408,56,84490,2,0,L|411:2,2,53.3333333333333,2|2|2,0:0|0:0|0:0,0:0:0:0:
348,104,84865,2,0,L|341:198,2,53.3333333333333,2|2|2,0:0|0:0|0:0,0:0:0:0:
312,36,85240,2,0,P|244:20|160:64,1,160,2|2,0:0|0:0,0:0:0:0:
60,132,85865,5,2,0:0:0:0:
60,132,85990,2,0,L|56:216,1,53.3333333333333,2|0,0:0|0:0,0:0:0:0:
132,188,86240,1,0,0:0:0:0:
132,188,86365,2,0,L|128:272,2,53.3333333333333,2|0|0,0:0|0:0|0:0,0:0:0:0:
208,180,86740,5,2,0:0:0:0:
256,300,86990,1,2,0:0:0:0:
256,300,87115,2,0,P|320:304|368:336,1,106.666666666667,2|0,0:0|0:0,0:0:0:0:
424,364,87490,2,0,L|488:356,2,53.3333333333333,2|0|0,0:0|0:0|0:0,0:0:0:0:
424,288,87865,2,0,L|488:280,2,53.3333333333333,2|0|0,0:0|0:0|0:0,0:0:0:0:
424,212,88240,2,0,L|488:204,2,53.3333333333333,2|0|0,0:0|0:0|0:0,0:0:0:0:
352,248,88615,6,0,L|236:244,1,106.666666666667,6|0,2:0|2:0,0:0:0:0:
245,244,88990,1,2,0:0:0:0:
160,340,89240,1,0,2:0:0:0:
160,340,89365,2,0,L|24:344,1,106.666666666667,2|0,3:0|2:0,0:0:0:0:
53,343,89740,1,2,0:0:0:0:
108,228,89990,5,0,2:0:0:0:
108,228,90115,2,0,P|88:144|124:64,1,160,2|2,3:0|1:0,2:0:0:0:
228,24,90740,1,0,2:0:0:0:
228,24,90865,2,0,P|244:88|220:140,1,106.666666666667,2|0,3:0|2:0,2:0:0:0:
188,172,91240,2,0,P|172:224|208:296,1,106.666666666667,2|0,1:0|2:0,2:0:0:0:
216,332,91615,5,6,2:0:0:0:
340,308,91865,2,0,L|336:384,1,53.3333333333333,0|2,2:0|1:0,2:0:0:0:
448,248,92240,1,0,2:0:0:0:
446,210,92365,1,2,2:0:0:0:
444,173,92490,1,0,2:0:0:0:
442,136,92615,1,0,2:0:0:0:
441,98,92740,1,2,1:0:0:0:
256,24,92990,5,0,2:0:0:0:
256,24,93115,2,0,P|236:84|268:144,1,106.666666666667,6|0,2:0|2:0,2:0:0:0:
242,222,93490,6,0,P|262:173|249:123,1,106.666666666667,6|0,2:0|2:0,2:0:0:0:
120,132,93865,6,0,L|213:128,2,53.3333333333333,2|0|0,3:0|2:0|2:0,2:0:0:0:
72,192,94240,2,0,L|-21:188,2,53.3333333333333,2|0|0,0:0|2:0|2:0,2:0:0:0:
148,212,94615,6,0,L|148:340,1,106.666666666667,6|0,2:0|2:0,2:0:0:0:
148,318,94990,1,2,1:0:0:0:
272,356,95240,1,0,2:0:0:0:
272,356,95365,2,0,L|272:249,1,106.666666666667,2|0,3:0|2:0,2:0:0:0:
272,249,95740,1,2,1:0:0:0:
256,124,95990,5,0,2:0:0:0:
256,124,96115,2,0,P|332:128|408:84,1,160,2|2,3:0|1:0,2:0:0:0:
480,192,96740,1,0,2:0:0:0:
480,192,96865,2,0,L|476:320,1,106.666666666667,2|0,3:0|2:0,2:0:0:0:
404,328,97240,2,0,L|407:221,1,106.666666666667,2|0,1:0|2:0,2:0:0:0:
408,156,97615,5,6,2:0:0:0:
284,192,97865,2,0,L|208:180,1,53.3333333333333,0|2,2:0|1:0,2:0:0:0:
52,272,98240,1,0,2:0:0:0:
88,262,98365,1,2,2:0:0:0:
125,265,98490,1,0,2:0:0:0:
158,281,98615,1,0,2:0:0:0:
185,306,98740,1,2,1:0:0:0:
332,356,98990,1,0,2:0:0:0:
332,356,99115,5,2,2:0:0:0:
460,216,99490,2,0,P|468:152|452:92,1,106.666666666667,2|2,3:0|3:0,2:0:0:0:
404,56,99865,2,0,L|408:0,2,53.3333333333333,2|2|2,3:0|3:0|3:0,3:0:0:0:
348,116,100240,2,0,L|352:180,2,53.3333333333333,2|2|2,3:0|3:0|3:0,3:0:0:0:
300,48,100615,6,0,P|256:40|180:72,1,106.666666666667,6|0,0:0|0:0,0:0:0:0:
197,57,100990,1,2,0:0:0:0:
88,120,101240,1,0,0:0:0:0:
88,120,101365,2,0,L|92:248,1,106.666666666667,2|0,0:0|0:0,0:0:0:0:
91,226,101740,1,2,0:0:0:0:
168,328,101990,5,0,0:0:0:0:
168,328,102115,2,0,P|236:320|328:364,1,160,2|2,0:0|0:0,0:0:0:0:
440,316,102740,1,0,0:0:0:0:
440,316,102865,2,0,L|436:196,1,106.666666666667,2|0,0:0|0:0,0:0:0:0:
432,144,103240,2,0,P|376:144|328:112,1,106.666666666667,2|0,0:0|0:0,0:0:0:0:
304,64,103615,5,6,0:0:0:0:
208,192,103865,1,0,0:0:0:0:
208,192,103990,1,6,0:0:0:0:
68,40,104240,1,0,0:0:0:0:
68,77,104365,1,6,0:0:0:0:
69,114,104490,1,0,0:0:0:0:
70,151,104615,1,0,0:0:0:0:
70,189,104740,1,6,0:0:0:0:
184,332,104990,5,0,0:0:0:0:
184,332,105115,2,0,L|316:328,1,106.666666666667,6|0,0:0|0:0,0:0:0:0:
470,324,105490,6,0,L|364:328,1,106.666666666667,6|0,0:0|0:0,0:0:0:0:
320,156,105865,6,0,L|323:262,1,106.666666666667,6|0,0:0|0:0,0:0:0:0:
327,326,106240,1,6,0:0:0:0:
452,192,106490,5,0,0:0:0:0:
452,192,106615,2,0,P|464:124|432:72,1,106.666666666667,6|0,0:0|0:0,0:0:0:0:
449,91,106990,1,2,0:0:0:0:
336,32,107240,1,0,0:0:0:0:
336,32,107365,2,0,P|319:82|333:132,1,106.666666666667,2|0,0:0|0:0,0:0:0:0:
333,132,107740,1,2,0:0:0:0:
368,256,107990,5,0,0:0:0:0:
368,256,108115,2,0,P|296:252|192:324,1,160,2|2,0:0|0:0,0:0:0:0:
112,360,108740,1,0,0:0:0:0:
112,360,108865,2,0,L|104:236,1,106.666666666667,2|0,0:0|0:0,0:0:0:0:
36,328,109240,2,0,L|28:204,1,106.666666666667,2|0,0:0|0:0,0:0:0:0:
24,156,109615,5,6,0:0:0:0:
136,24,109865,1,0,0:0:0:0:
136,24,109990,1,6,0:0:0:0:
256,124,110240,1,0,0:0:0:0:
252,161,110365,1,6,0:0:0:0:
249,198,110490,1,0,0:0:0:0:
246,235,110615,1,0,0:0:0:0:
243,272,110740,1,6,0:0:0:0:
424,352,110990,5,0,0:0:0:0:
424,352,111115,2,0,P|440:256|420:188,1,160,6|2,0:0|0:0,0:0:0:0:
256,100,111865,2,0,P|239:177|256:255,1,160,2|2,0:0|0:0,0:0:0:0:
424,352,112615,6,0,P|436:276|436:208,1,106.666666666667,6|0,0:0|0:0,0:0:0:0:
404,192,112990,2,0,P|396:132|424:48,1,106.666666666667,6|0,0:0|0:0,0:0:0:0:
444,36,113365,1,6,0:0:0:0:
320,8,113615,1,0,0:0:0:0:
320,8,113740,1,6,0:0:0:0:
256,120,113990,5,0,0:0:0:0:
256,120,114115,2,0,L|260:240,1,106.666666666667,6|0,0:0|0:0,0:0:0:0:
264,292,114490,2,0,P|216:284|140:328,1,106.666666666667,6|0,0:0|0:0,0:0:0:0:
128,356,114865,2,0,P|76:360|24:328,1,106.666666666667,6|0,0:0|0:0,0:0:0:0:
28,268,115240,2,0,L|32:180,1,53.3333333333333,6|0,0:0|0:0,0:0:0:0:
36,152,115490,5,0,0:0:0:0:
36,152,115615,2,0,P|96:152|156:116,1,106.666666666667,6|0,0:0|0:0,0:0:0:0:
168,76,115990,2,0,P|224:72|276:108,1,106.666666666667,6|0,0:0|0:0,0:0:0:0:
296,140,116365,1,6,0:0:0:0:
340,168,116490,1,0,0:0:0:0:
392,168,116615,1,0,0:0:0:0:
436,140,116740,1,6,0:0:0:0:
468,304,116990,5,0,0:0:0:0:
468,304,117115,2,0,P|396:308|356:340,1,106.666666666667,6|0,0:0|0:0,0:0:0:0:
316,364,117490,6,0,P|256:364|212:328,1,106.666666666667,6|0,0:0|0:0,0:0:0:0:
200,276,117865,6,0,P|140:268|84:312,1,106.666666666667,6|0,0:0|0:0,0:0:0:0:
44,320,118240,6,0,L|48:376,2,53.3333333333333,6|0|0,0:0|0:0|0:0,0:0:0:0:
44,256,118615,6,0,P|32:192|76:128,1,106.666666666667,6|0,0:0|0:0,0:0:0:0:
92,112,118990,2,0,L|212:124,1,106.666666666667,6|0,0:0|0:0,0:0:0:0:
260,132,119365,1,6,0:0:0:0:
348,36,119615,1,0,0:0:0:0:
348,36,119740,1,6,0:0:0:0:
436,132,119990,5,0,0:0:0:0:
436,132,120115,2,0,P|448:196|428:256,1,106.666666666667,6|0,0:0|0:0,0:0:0:0:
376,248,120490,2,0,L|260:244,1,106.666666666667,6|0,0:0|0:0,0:0:0:0:
204,240,120865,2,0,P|188:304|220:360,1,106.666666666667,6|0,0:0|0:0,0:0:0:0:
264,348,121240,2,0,L|370:351,1,106.666666666667,6|0,0:0|0:0,0:0:0:0:
436,356,121615,5,6,0:0:0:0:
480,192,121865,1,0,0:0:0:0:
480,192,121990,1,6,0:0:0:0:
336,32,122240,1,0,0:0:0:0:
339,69,122365,1,6,0:0:0:0:
342,106,122490,1,0,0:0:0:0:
344,144,122615,1,0,0:0:0:0:
347,181,122740,1,6,0:0:0:0:
256,344,122990,5,0,0:0:0:0:
256,344,123115,2,0,L|248:168,1,160,6|2,0:0|0:0,0:0:0:0:
228,376,123865,6,0,L|220:200,1,160,2|2,0:0|0:0,0:0:0:0:
116,56,124615,5,6,0:0:0:0:
97,31,124740,1,0,0:0:0:0:
67,31,124865,1,0,0:0:0:0:
49,56,124990,1,2,0:0:0:0:
59,85,125115,1,0,0:0:0:0:
89,94,125240,1,0,0:0:0:0:
136,92,125365,5,6,0:0:0:0:
160,64,125490,1,0,0:0:0:0:
195,54,125615,1,0,0:0:0:0:
230,65,125740,1,2,0:0:0:0:
253,94,125865,1,0,0:0:0:0:
257,130,125990,1,0,0:0:0:0:
232,168,126115,5,6,0:0:0:0:
201,197,126240,1,0,0:0:0:0:
190,237,126365,1,0,0:0:0:0:
200,278,126490,1,2,0:0:0:0:
231,307,126615,1,0,0:0:0:0:
272,317,126740,1,0,0:0:0:0:
308,276,126865,5,6,0:0:0:0:
353,257,126990,1,0,0:0:0:0:
371,302,127115,1,0,0:0:0:0:
328,322,127240,1,2,0:0:0:0:
56,192,127615,5,6,0:0:0:0:
58,161,127740,1,0,0:0:0:0:
83,143,127865,1,0,0:0:0:0:
113,151,127990,1,2,0:0:0:0:
127,178,128115,1,0,0:0:0:0:
114,207,128240,1,0,0:0:0:0:
88,232,128365,5,6,0:0:0:0:
52,237,128490,1,0,0:0:0:0:
31,267,128615,1,0,0:0:0:0:
38,303,128740,1,2,0:0:0:0:
69,322,128865,1,0,0:0:0:0:
104,312,128990,1,0,0:0:0:0:
136,284,129115,5,6,0:0:0:0:
136,242,129240,1,0,0:0:0:0:
164,211,129365,1,0,0:0:0:0:
205,207,129490,1,2,0:0:0:0:
239,231,129615,1,0,0:0:0:0:
247,272,129740,1,0,0:0:0:0:
227,308,129865,5,6,0:0:0:0:
240,355,129990,1,2,0:0:0:0:
288,345,130115,1,2,0:0:0:0:
282,297,130240,1,2,0:0:0:0:
227,308,130365,1,2,0:0:0:0:
240,355,130490,1,2,0:0:0:0:
288,345,130615,5,6,0:0:0:0:
270,319,130740,1,0,0:0:0:0:
278,289,130865,1,0,0:0:0:0:
306,276,130990,1,2,0:0:0:0:
335,288,131115,1,0,0:0:0:0:
344,318,131240,1,0,0:0:0:0:
348,356,131365,5,6,0:0:0:0:
380,372,131490,1,0,0:0:0:0:
416,366,131615,1,0,0:0:0:0:
441,340,131740,1,2,0:0:0:0:
445,303,131865,1,0,0:0:0:0:
426,272,131990,1,0,0:0:0:0:
392,244,132115,5,6,0:0:0:0:
352,231,132240,1,0,0:0:0:0:
331,195,132365,1,0,0:0:0:0:
340,155,132490,1,2,0:0:0:0:
375,132,132615,1,0,0:0:0:0:
416,138,132740,1,0,0:0:0:0:
436,180,132865,5,6,0:0:0:0:
473,209,132990,1,0,0:0:0:0:
504,172,133115,1,0,0:0:0:0:
467,141,133240,1,2,0:0:0:0:
256,296,133615,5,6,0:0:0:0:
251,326,133740,1,0,0:0:0:0:
225,343,133865,1,0,0:0:0:0:
195,335,133990,1,2,0:0:0:0:
181,308,134115,1,0,0:0:0:0:
192,279,134240,1,0,0:0:0:0:
220,252,134365,5,6,0:0:0:0:
252,235,134490,1,0,0:0:0:0:
266,201,134615,1,0,0:0:0:0:
255,166,134740,1,2,0:0:0:0:
224,147,134865,1,0,0:0:0:0:
188,151,134990,1,0,0:0:0:0:
156,180,135115,5,6,0:0:0:0:
158,221,135240,1,0,0:0:0:0:
132,253,135365,1,0,0:0:0:0:
91,259,135490,1,2,0:0:0:0:
57,235,135615,1,2,0:0:0:0:
48,195,135740,1,2,0:0:0:0:
69,159,135865,5,6,0:0:0:0:
256,24,136240,1,6,0:0:0:0:
442,159,136615,6,0,L|434:315,1,106.666666666667,6|0,0:0|0:0,0:0:0:0:
436,265,136990,1,2,0:0:0:0:
316,312,137240,1,0,0:0:0:0:
316,312,137365,2,0,L|321:205,1,106.666666666667,2|0,0:0|0:0,0:0:0:0:
321,205,137740,1,2,0:0:0:0:
256,96,137990,5,0,0:0:0:0:
256,96,138115,2,0,P|192:112|104:68,1,160,2|2,0:0|0:0,0:0:0:0:
8,152,138740,1,0,0:0:0:0:
8,152,138865,2,0,L|16:284,1,106.666666666667,2|0,0:0|0:0,0:0:0:0:
20,324,139240,2,0,P|68:312|144:360,1,106.666666666667,2|0,0:0|0:0,0:0:0:0:
168,376,139615,5,6,0:0:0:0:
256,280,139865,2,0,L|248:212,1,53.3333333333333,0|6,0:0|0:0,0:0:0:0:
356,40,140240,1,0,0:0:0:0:
352,66,140365,1,6,0:0:0:0:
349,92,140490,1,0,0:0:0:0:
346,119,140615,1,0,0:0:0:0:
343,145,140740,1,6,0:0:0:0:
364,332,140990,5,0,0:0:0:0:
364,332,141115,2,0,L|376:216,1,106.666666666667,6|0,0:0|0:0,0:0:0:0:
388,352,141490,6,0,L|399:245,1,106.666666666667,6|0,0:0|0:0,0:0:0:0:
416,372,141865,6,0,L|427:265,1,106.666666666667,6|0,0:0|0:0,0:0:0:0:
436,204,142240,1,6,0:0:0:0:
352,40,142490,5,0,0:0:0:0:
352,40,142615,2,0,P|336:92|360:160,1,106.666666666667,6|0,0:0|0:0,0:0:0:0:
348,141,142990,1,2,0:0:0:0:
296,260,143240,1,0,0:0:0:0:
296,260,143365,2,0,P|312:312|292:364,1,106.666666666667,2|0,0:0|0:0,0:0:0:0:
296,359,143740,1,2,0:0:0:0:
176,308,143990,5,0,0:0:0:0:
176,308,144115,2,0,P|96:300|28:348,1,160,2|2,0:0|0:0,0:0:0:0:
52,216,144740,1,0,0:0:0:0:
52,216,144865,2,0,L|48:96,1,106.666666666667,2|0,0:0|0:0,0:0:0:0:
48,44,145240,2,0,P|104:64|156:36,1,106.666666666667,2|0,0:0|0:0,0:0:0:0:
192,4,145615,5,6,0:0:0:0:
256,112,145865,2,0,L|248:184,1,53.3333333333333,0|6,0:0|0:0,0:0:0:0:
392,308,146240,1,0,0:0:0:0:
357,298,146365,1,6,0:0:0:0:
320,300,146490,1,0,0:0:0:0:
285,314,146615,1,0,0:0:0:0:
257,339,146740,1,6,0:0:0:0:
72,192,146990,5,0,0:0:0:0:
72,192,147115,2,0,L|80:364,1,160,6|2,0:0|0:0,0:0:0:0:
100,160,147865,6,0,L|108:332,1,160,2|2,0:0|0:0,0:0:0:0:
256,192,148615,5,0,0:0:0:0:
320,120,148990,1,2,0:0:0:0:
384,192,149365,1,0,0:0:0:0:
356,284,149740,1,2,0:0:0:0:
424,352,150115,1,0,0:0:0:0:
480,272,150490,5,2,0:0:0:0:
476,224,150677,1,0,0:0:0:0:
472,176,150865,1,2,0:0:0:0:
464,80,151240,1,0,0:0:0:0:
384,136,151615,5,2,0:0:0:0:
344,224,151990,1,2,0:0:0:0:
296,220,152177,1,0,0:0:0:0:
248,216,152365,1,2,0:0:0:0:
200,212,152552,1,0,0:0:0:0:
152,208,152740,1,2,0:0:0:0:
104,204,152927,1,0,0:0:0:0:
56,200,153115,6,0,L|64:136,1,40,2|0,0:0|0:0,0:0:0:0:
136,132,153490,2,0,L|144:68,1,40,2|0,0:0|0:0,0:0:0:0:
220,84,153865,2,0,L|228:20,1,40,2|0,0:0|0:0,0:0:0:0:
304,60,154240,2,0,L|312:-4,2,40,2|2|2,0:0|0:0|0:0,0:0:0:0:
284,156,154990,5,2,0:0:0:0:
340,232,155365,1,0,0:0:0:0:
428,192,155740,1,2,0:0:0:0:
472,276,156115,1,0,0:0:0:0:
408,348,156490,5,2,0:0:0:0:
360,344,156677,1,0,0:0:0:0:
312,340,156865,1,2,0:0:0:0:
256,264,157240,1,2,0:0:0:0:
200,340,157615,5,2,0:0:0:0:
168,248,157990,1,2,0:0:0:0:
176,200,158177,1,2,0:0:0:0:
184,152,158365,1,2,0:0:0:0:
256,88,158740,5,2,0:0:0:0:
328,192,159115,5,6,0:0:0:0:
256,356,159490,5,2,0:0:0:0:
48,192,159865,5,6,0:0:0:0:
256,192,160052,12,0,162115,0:0:0:0:
