osu file format v14

[General]
AudioFilename: audio.mp3
AudioLeadIn: 0
PreviewTime: 28615
Countdown: 0
SampleSet: Soft
StackLeniency: 0.7
Mode: 0
LetterboxInBreaks: 0
WidescreenStoryboard: 1

[Editor]
DistanceSpacing: 1
BeatDivisor: 4
GridSize: 4
TimelineZoom: 1

[Metadata]
Title:U.N. Owen was her? (Christmas Remix)
TitleUnicode:U.N.オーエンは彼女なのか?(Christmas Remix)
Artist:ZUN
ArtistUnicode:ZUN
Creator:Chewin
Version:Easy
Source:東方紅魔郷 ~ the Embodiment of Scarlet Devil.
Tags:touhou merry winter santa presents flandre scarlet remilia lights green red love snow Nozhomi
BeatmapID:1468269
BeatmapSetID:682929

[Difficulty]
HPDrainRate:3
CircleSize:2
OverallDifficulty:3
ApproachRate:4
SliderMultiplier:1.1
SliderTickRate:1

[Events]
//Background and Video events
0,0,"Konachan.com - 174428 sample.jpg",0,0
//Break Periods
2,76615,87295
//Storyboard Layer 0 (Background)
//Storyboard Layer 1 (Fail)
//Storyboard Layer 2 (Pass)
//Storyboard Layer 3 (Foreground)
//Storyboard Sound Samples

[TimingPoints]
10040,500,4,2,0,75,1,0
10040,-133.333333333333,4,2,0,75,0,0
27540,-133.333333333333,4,2,0,75,0,0
28040,-133.333333333333,4,2,0,15,0,0
28615,375,4,2,2,40,1,0
39490,-100,4,2,2,25,0,0
39865,-100,4,2,2,30,0,0
40240,-100,4,2,2,10,0,0
40615,-100,4,2,2,40,0,0
51490,-100,4,2,2,25,0,0
51865,-100,4,2,2,30,0,0
52240,-100,4,2,2,10,0,0
52615,-100,4,2,3,50,0,0
64240,-100,4,2,3,80,0,0
64615,-100,4,2,2,40,0,0
75490,-100,4,2,2,25,0,0
75865,-100,4,2,2,30,0,0
76240,-100,4,2,2,10,0,0
76615,-100,4,2,3,40,0,0
88615,-100,4,1,2,40,0,0
100615,-100,4,2,2,40,0,1
111115,-100,4,2,2,40,0,0
111490,-100,4,2,2,25,0,0
111865,-100,4,2,2,30,0,0
112240,-100,4,2,2,10,0,0
112615,-100,4,2,2,40,0,1
123115,-100,4,2,2,40,0,0
123490,-100,4,2,2,25,0,0
123865,-100,4,2,2,30,0,0
124240,-100,4,2,2,10,0,0
124615,-100,4,2,3,50,0,0
136240,-100,4,2,3,80,0,0
136615,-100,4,2,2,40,0,0
147490,-100,4,2,2,25,0,0
147865,-100,4,2,2,30,0,0
148240,-100,4,2,2,10,0,0
148615,750,4,2,3,40,1,0
158740,-100,4,2,3,30,0,0
160615,-100,4,2,3,20,0,0
161365,-100,4,2,3,10,0,0
162115,-100,4,2,3,5,0,0

[Colours]
Combo1 : 101,177,177
Combo2 : 217,0,0
Combo3 : 233,233,233
Combo4 : 255,128,64
SliderTrackOverride : 206,16,16
SliderBorder : 47,130,32

[HitObjects]
256,92,10040,6,0,L|256:-4,2,82.5000031471254,2|0|2,0:0|0:0|0:0,0:0:0:0:
256,192,11540,1,0,0:0:0:0:
256,292,12040,6,0,L|256:388,2,82.5000031471254,2|2|2,0:0|0:0|0:0,0:0:0:0:
256,192,13540,1,2,0:0:0:0:
356,192,14040,6,0,L|452:192,2,82.5000031471254,2|0|2,0:0|0:0|0:0,0:0:0:0:
256,192,15540,1,0,0:0:0:0:
156,192,16040,6,0,L|60:192,2,82.5000031471254,2|2|2,0:0|0:0|0:0,0:0:0:0:
256,192,17540,1,2,0:0:0:0:
328,124,18040,6,0,P|336:88|316:32,2,82.5000031471254,2|0|2,0:0|0:0|0:0,0:0:0:0:
256,192,19540,1,0,0:0:0:0:
184,260,20040,6,0,P|176:296|196:352,2,82.5000031471254,2|2|2,0:0|0:0|0:0,0:0:0:0:
256,192,21540,1,2,0:0:0:0:
328,260,22040,6,0,P|336:296|316:352,2,82.5000031471254,2|0|2,0:0|0:0|0:0,0:0:0:0:
256,192,23540,1,0,0:0:0:0:
184,124,24040,6,0,P|176:88|196:32,2,82.5000031471254,2|2|2,0:0|0:0|0:0,0:0:0:0:
256,192,25165,12,0,27540,0:0:0:0:
96,192,28615,6,0,P|96:296|208:344,1,220,6|2,0:0|0:0,0:0:0:0:
256,260,29740,1,2,0:0:0:0:
323,346,30115,2,0,P|415:296|416:192,1,220,2|2,0:0|0:0,0:0:0:0:
256,40,31615,5,6,0:0:0:0:
96,192,32365,1,6,0:0:0:0:
256,344,33115,2,0,L|368:344,2,110,6|6|6,0:0|0:0|0:0,0:0:0:0:
176,268,34240,1,6,0:0:0:0:
256,191,34615,6,0,P|348:141|440:193,1,220,6|2,0:0|0:0,0:0:0:0:
348,256,35740,1,2,0:0:0:0:
440,312,36115,2,0,P|348:363|255:313,1,220,2|2,0:0|0:0,0:0:0:0:
72,192,37615,5,6,0:0:0:0:
256,68,38365,1,6,0:0:0:0:
256,288,39115,6,0,B|360:256|360:336|476:280,1,220,6|2,0:0|0:0,0:0:0:0:
468,64,40615,6,0,P|408:48|300:168,1,220,6|2,0:0|0:0,0:0:0:0:
256,244,41740,1,2,0:0:0:0:
211,144,42115,2,0,P|149:58|44:64,1,220,2|2,0:0|0:0,0:0:0:0:
128,268,43615,5,6,0:0:0:0:
256,88,44365,1,6,0:0:0:0:
384,268,45115,2,0,L|384:388,2,110,6|6|6,0:0|0:0|0:0,0:0:0:0:
468,196,46240,1,6,0:0:0:0:
408,104,46615,6,0,P|324:92|260:212,1,220,6|2,0:0|0:0,0:0:0:0:
320,284,47740,1,2,0:0:0:0:
228,344,48115,2,0,P|144:356|80:236,1,220,2|2,0:0|0:0,0:0:0:0:
148,44,49615,5,6,0:0:0:0:
256,236,50365,1,6,0:0:0:0:
364,44,51115,5,6,0:0:0:0:
460,248,52615,6,0,P|440:328|308:352,1,220,6|6,0:0|0:0,0:0:0:0:
256,268,53740,1,2,0:0:0:0:
193,357,54115,2,0,P|89:345|52:248,1,220,6|6,0:0|0:0,0:0:0:0:
256,168,55615,6,0,L|256:44,2,110,6|2|6,0:0|0:0|0:0,0:0:0:0:
256,276,56740,1,2,0:0:0:0:
352,220,57115,2,0,L|476:220,2,110,6|2|6,0:0|0:0|0:0,0:0:0:0:
256,276,58240,1,2,0:0:0:0:
160,220,58615,6,0,P|116:116|180:24,1,220,6|6,0:0|0:0,0:0:0:0:
256,100,59740,1,2,0:0:0:0:
344,31,60115,2,0,P|396:123|352:220,1,220,6|6,0:0|0:0,0:0:0:0:
172,344,61615,6,0,L|44:344,2,110,6|2|6,0:0|0:0|0:0,0:0:0:0:
256,272,62740,1,2,0:0:0:0:
340,344,63115,2,0,L|450:344,2,110,6|2|6,0:0|0:0|0:0,0:0:0:0:
256,272,64240,1,6,0:0:0:0:
172,344,64615,6,0,P|140:256|224:160,1,220,6|2,0:0|0:0,0:0:0:0:
256,272,65740,1,2,0:0:0:0:
339,344,66115,2,0,P|369:242|300:163,1,220,2|2,0:0|0:0,0:0:0:0:
84,192,67615,5,6,0:0:0:0:
256,56,68365,1,6,0:0:0:0:
428,192,69115,2,0,L|428:316,2,110,6|6|6,0:0|0:0|0:0,0:0:0:0:
392,88,70240,1,6,0:0:0:0:
316,168,70615,6,0,P|216:124|120:176,1,220,6|2,0:0|0:0,0:0:0:0:
32,232,71740,1,2,0:0:0:0:
120,296,72115,2,0,P|215:343|312:299,1,220,2|2,0:0|0:0,0:0:0:0:
360,84,73615,5,6,0:0:0:0:
168,192,74365,1,6,0:0:0:0:
360,298,75115,6,0,B|395:191|319:191|359:83,1,220,6|2,0:0|0:0,0:0:0:0:
256,320,88615,6,0,P|192:344|64:264,1,220,6|2,2:0|3:0,0:0:0:0:
140,192,89740,1,2,0:0:0:0:
68,109,90115,2,0,P|151:43|256:64,1,220,2|2,3:0|3:0,0:0:0:0:
436,192,91615,6,0,P|424:288|312:340,1,220,6|2,2:0|2:0,0:0:0:0:
256,252,92740,1,2,1:0:0:0:
256,144,93115,2,0,L|256:20,2,110,6|6|2,2:0|2:0|3:0,0:0:0:0:
256,252,94240,1,2,0:0:0:0:
189,340,94615,6,0,P|93:296|76:192,1,220,6|2,2:0|3:0,0:0:0:0:
148,108,95740,1,2,1:0:0:0:
220,192,96115,2,0,P|324:192|376:92,1,220,2|2,3:0|3:0,0:0:0:0:
156,100,97615,6,0,P|100:184|164:288,1,220,6|2,2:0|2:0,0:0:0:0:
256,248,98740,1,2,1:0:0:0:
362,280,99115,2,0,P|412:188|356:100,1,220,2|2,2:0|3:0,0:0:0:0:
172,230,100615,6,0,L|176:340,1,110,6|2,0:0|0:0,0:0:0:0:
76,292,101365,2,0,L|73:183,1,110,2|2,0:0|0:0,0:0:0:0:
168,120,102115,5,2,0:0:0:0:
256,52,102490,1,2,0:0:0:0:
344,120,102865,1,2,0:0:0:0:
256,184,103240,1,2,0:0:0:0:
348,244,103615,6,0,L|352:354,2,110,6|6|6,0:0|0:0|0:0,0:0:0:0:
256,184,104740,1,6,0:0:0:0:
164,244,105115,2,0,L|160:354,2,110,6|6|6,0:0|0:0|0:0,0:0:0:0:
256,184,106240,1,6,0:0:0:0:
256,72,106615,6,0,P|312:56|372:88,1,110,6|2,0:0|0:0,0:0:0:0:
416,168,107365,2,0,L|412:292,1,110,2|2,0:0|0:0,0:0:0:0:
340,360,108115,1,2,0:0:0:0:
256,288,108490,1,2,0:0:0:0:
256,288,108865,1,2,0:0:0:0:
172,360,109240,1,2,0:0:0:0:
99,277,109615,6,0,L|96:168,2,110,6|6|6,0:0|0:0|0:0,0:0:0:0:
172,360,110740,1,6,0:0:0:0:
256,288,111115,6,0,B|280:188|224:188|256:60,1,220,6|2,0:0|0:0,0:0:0:0:
440,192,112615,5,6,0:0:0:0:
440,192,112990,1,6,0:0:0:0:
400,296,113365,2,0,P|352:296|304:348,1,110,6|6,0:0|0:0,0:0:0:0:
256,240,114115,1,6,0:0:0:0:
256,240,114490,1,6,0:0:0:0:
203,336,114865,2,0,P|165:298|112:296,1,110,6|6,0:0|0:0,0:0:0:0:
96,188,115615,6,0,L|104:60,1,110,6|6,0:0|0:0,0:0:0:0:
196,140,116365,2,0,L|204:12,1,110,6|6,0:0|0:0,0:0:0:0:
309,30,117115,2,0,L|316:140,1,110,6|6,0:0|0:0,0:0:0:0:
409,78,117865,2,0,L|416:188,1,110,6|6,0:0|0:0,0:0:0:0:
424,296,118615,5,6,0:0:0:0:
424,296,118990,1,6,0:0:0:0:
328,348,119365,2,0,P|316:292|336:232,1,110,6|6,0:0|0:0,0:0:0:0:
256,160,120115,1,6,0:0:0:0:
256,160,120490,1,6,0:0:0:0:
182,242,120865,2,0,P|196:294|184:348,1,110,6|6,0:0|0:0,0:0:0:0:
88,296,121615,5,6,0:0:0:0:
88,296,121990,1,6,0:0:0:0:
48,192,122365,1,6,0:0:0:0:
48,192,122740,1,6,0:0:0:0:
88,88,123115,6,0,B|196:44|196:144|320:80,1,220,6|2,0:0|0:0,0:0:0:0:
460,248,124615,6,0,P|440:328|308:352,1,220,6|6,0:0|0:0,0:0:0:0:
256,268,125740,1,2,0:0:0:0:
193,357,126115,2,0,P|89:345|52:248,1,220,6|6,0:0|0:0,0:0:0:0:
256,168,127615,6,0,L|256:44,2,110,6|2|6,0:0|0:0|0:0,0:0:0:0:
256,276,128740,1,2,0:0:0:0:
352,220,129115,2,0,L|476:220,2,110,6|2|6,0:0|0:0|0:0,0:0:0:0:
256,276,130240,1,2,0:0:0:0:
160,220,130615,6,0,P|116:116|180:24,1,220,6|6,0:0|0:0,0:0:0:0:
256,100,131740,1,2,0:0:0:0:
344,31,132115,2,0,P|396:123|352:220,1,220,6|6,0:0|0:0,0:0:0:0:
172,344,133615,6,0,L|44:344,2,110,6|2|6,0:0|0:0|0:0,0:0:0:0:
256,272,134740,1,2,0:0:0:0:
340,344,135115,2,0,L|450:344,2,110,6|2|6,0:0|0:0|0:0,0:0:0:0:
256,272,136240,1,6,0:0:0:0:
340,200,136615,6,0,P|380:120|312:16,1,220,6|2,0:0|0:0,0:0:0:0:
256,104,137740,1,2,0:0:0:0:
195,17,138115,2,0,P|132:102|172:200,1,220,2|2,0:0|0:0,0:0:0:0:
392,192,139615,5,6,0:0:0:0:
256,364,140365,1,6,0:0:0:0:
120,192,141115,2,0,L|8:192,2,110,6|6|6,0:0|0:0|0:0,0:0:0:0:
180,100,142240,1,6,0:0:0:0:
256,193,142615,6,0,P|348:243|440:191,1,220,6|2,0:0|0:0,0:0:0:0:
348,128,143740,1,2,0:0:0:0:
440,72,144115,2,0,P|348:21|255:71,1,220,2|2,0:0|0:0,0:0:0:0:
72,192,145615,5,6,0:0:0:0:
256,316,146365,1,6,0:0:0:0:
256,96,147115,6,0,B|356:136|356:48|476:104,1,220,6|2,0:0|0:0,0:0:0:0:
404,204,148615,5,2,0:0:0:0:
476,288,149365,1,2,0:0:0:0:
396,364,150115,1,2,0:0:0:0:
316,288,150865,1,2,0:0:0:0:
396,212,151615,6,0,P|408:156|384:96,1,110,2|2,0:0|0:0,0:0:0:0:
275,107,153115,2,0,P|259:158|272:212,1,110,2|2,0:0|0:0,0:0:0:0:
344,296,154615,5,2,0:0:0:0:
424,220,155365,1,2,0:0:0:0:
344,144,156115,1,2,0:0:0:0:
264,220,156865,1,2,0:0:0:0:
168,168,157615,6,0,P|152:216|172:276,1,110,2|2,0:0|0:0,0:0:0:0:
266,324,159115,2,0,P|279:271|264:220,1,110,6|6,0:0|0:0,0:0:0:0:
256,192,160052,12,0,162115,0:0:0:0:
