osu file format v14

[General]
AudioFilename: audio.mp3
AudioLeadIn: 0
PreviewTime: 28615
Countdown: 0
SampleSet: Soft
StackLeniency: 0.7
Mode: 0
LetterboxInBreaks: 0
WidescreenStoryboard: 1

[Editor]
DistanceSpacing: 1.2
BeatDivisor: 4
GridSize: 4
TimelineZoom: 1

[Metadata]
Title:U.N. Owen was her? (Christmas Remix)
TitleUnicode:U.N.オーエンは彼女なのか?(Christmas Remix)
Artist:ZUN
ArtistUnicode:ZUN
Creator:Chewin
Version:Hard
Source:東方紅魔郷 ~ the Embodiment of Scarlet Devil.
Tags:touhou merry winter santa presents flandre scarlet remilia lights green red love snow Nozhomi
BeatmapID:1488233
BeatmapSetID:682929

[Difficulty]
HPDrainRate:5
CircleSize:4
OverallDifficulty:5
ApproachRate:7
SliderMultiplier:1.4
SliderTickRate:1

[Events]
//Background and Video events
0,0,"Konachan.com - 174428 sample.jpg",0,0
//Break Periods
//Storyboard Layer 0 (Background)
//Storyboard Layer 1 (Fail)
//Storyboard Layer 2 (Pass)
//Storyboard Layer 3 (Foreground)
//Storyboard Sound Samples

[TimingPoints]
10040,500,4,2,0,75,1,0
10040,-133.333333333333,4,2,0,75,0,0
28040,-133.333333333333,4,2,0,15,0,0
28615,375,4,2,2,40,1,0
39490,-100,4,2,2,25,0,0
39865,-100,4,2,2,30,0,0
40240,-100,4,2,2,10,0,0
40615,-100,4,2,2,40,0,0
51490,-100,4,2,2,25,0,0
51865,-100,4,2,2,30,0,0
52240,-100,4,2,2,10,0,0
52615,-100,4,2,3,50,0,0
64240,-100,4,2,3,80,0,0
64615,-100,4,2,2,40,0,0
75490,-100,4,2,2,25,0,0
75865,-100,4,2,2,30,0,0
76240,-100,4,2,2,10,0,0
76615,-100,4,2,3,40,0,0
88615,-100,4,1,2,40,0,0
100615,-100,4,2,2,40,0,1
111115,-100,4,2,2,40,0,0
111490,-100,4,2,2,25,0,0
111865,-100,4,2,2,30,0,0
112240,-100,4,2,2,10,0,0
112615,-100,4,2,2,40,0,1
123115,-100,4,2,2,40,0,0
123490,-100,4,2,2,25,0,0
123865,-100,4,2,2,30,0,0
124240,-100,4,2,2,10,0,0
124615,-100,4,2,3,50,0,0
136240,-100,4,2,3,80,0,0
136615,-100,4,2,2,40,0,0
147490,-100,4,2,2,25,0,0
147865,-100,4,2,2,30,0,0
148240,-100,4,2,2,10,0,0
148615,750,4,2,3,40,1,0
158740,-100,4,2,3,30,0,0
160615,-100,4,2,3,20,0,0
161365,-100,4,2,3,10,0,0
162115,-100,4,2,3,5,0,0

[Colours]
Combo1 : 101,177,177
Combo2 : 217,0,0
Combo3 : 233,233,233
Combo4 : 255,128,64
SliderTrackOverride : 206,16,16
SliderBorder : 47,130,32

[HitObjects]
256,192,10040,5,2,0:0:0:0:
204,308,10540,1,0,0:0:0:0:
152,192,11040,2,0,P|136:144|172:80,1,105.000004005432,2|0,0:0|0:0,0:0:0:0:
256,192,12040,5,2,0:0:0:0:
308,76,12540,1,2,0:0:0:0:
360,192,13040,2,0,P|376:240|340:304,1,105.000004005432,2|2,0:0|0:0,0:0:0:0:
256,192,14040,5,2,0:0:0:0:
204,76,14540,1,0,0:0:0:0:
152,192,15040,2,0,P|136:240|172:304,1,105.000004005432,2|0,0:0|0:0,0:0:0:0:
256,192,16040,5,2,0:0:0:0:
308,308,16540,1,2,0:0:0:0:
360,192,17040,2,0,P|376:144|340:80,1,105.000004005432,2|2,0:0|0:0,0:0:0:0:
256,192,18040,5,2,0:0:0:0:
224,312,18540,1,0,0:0:0:0:
136,224,19040,1,2,0:0:0:0:
256,192,19540,1,0,0:0:0:0:
344,280,20040,6,0,L|460:276,2,105.000004005432,2|2|2,0:0|0:0|0:0,0:0:0:0:
224,312,21540,1,2,0:0:0:0:
256,192,22040,5,2,0:0:0:0:
224,72,22540,1,0,0:0:0:0:
136,160,23040,1,2,0:0:0:0:
256,192,23540,1,0,0:0:0:0:
344,104,24040,6,0,L|460:108,2,105.000004005432,2|2|2,0:0|0:0|0:0,0:0:0:0:
256,192,25165,12,0,28040,0:0:0:0:
80,64,28615,6,0,L|84:160,1,93.3333333333333,6|0,0:0|0:0,0:0:0:0:
40,192,28990,2,0,P|96:192|176:248,1,140,2|2,0:0|0:0,0:0:0:0:
256,304,29615,2,0,L|320:300,1,46.6666666666667,0|2,0:0|0:0,0:0:0:0:
468,340,30115,2,0,L|460:224,1,93.3333333333333,2|0,0:0|0:0,0:0:0:0:
480,196,30490,2,0,P|432:204|372:160,1,93.3333333333333,2|0,0:0|0:0,0:0:0:0:
376,132,30865,2,0,P|324:120|240:184,1,140,2|2,0:0|0:0,0:0:0:0:
220,324,31615,5,6,0:0:0:0:
136,252,31865,2,0,L|68:256,1,46.6666666666667,0|6,0:0|0:0,0:0:0:0:
60,148,32240,2,0,L|106:145,3,46.6666666666667,0|6|0|0,0:0|0:0|0:0|0:0,0:0:0:0:
164,140,32740,1,6,0:0:0:0:
256,76,32990,5,0,0:0:0:0:
256,76,33115,2,0,P|316:84|372:52,1,93.3333333333333,6|0,0:0|0:0,0:0:0:0:
388,36,33490,2,0,L|384:160,1,93.3333333333333,6|0,0:0|0:0,0:0:0:0:
356,176,33865,2,0,P|412:176|468:224,1,93.3333333333333,6|0,0:0|0:0,0:0:0:0:
484,232,34240,1,6,0:0:0:0:
448,340,34490,5,0,0:0:0:0:
448,340,34615,2,0,P|392:344|348:304,1,93.3333333333333,6|0,0:0|0:0,0:0:0:0:
376,272,34990,2,0,L|228:288,1,140,2|2,0:0|0:0,0:0:0:0:
148,356,35615,2,0,L|88:344,1,46.6666666666667,0|2,0:0|0:0,0:0:0:0:
40,192,36115,2,0,L|48:92,1,93.3333333333333,2|0,0:0|0:0,0:0:0:0:
20,48,36490,2,0,P|76:56|120:28,1,93.3333333333333,2|0,0:0|0:0,0:0:0:0:
160,16,36865,2,0,L|148:156,1,140,2|2,0:0|0:0,0:0:0:0:
136,324,37615,5,6,0:0:0:0:
236,276,37865,2,0,L|240:226,1,46.6666666666667,0|6,0:0|0:0,0:0:0:0:
252,116,38240,1,0,0:0:0:0:
252,116,38365,1,6,0:0:0:0:
252,116,38490,1,0,0:0:0:0:
252,116,38615,1,0,0:0:0:0:
252,116,38740,2,0,P|308:120|364:76,1,93.3333333333333,6|0,0:0|0:0,0:0:0:0:
376,60,39115,6,0,L|368:236,1,140,6|2,0:0|0:0,0:0:0:0:
408,36,39865,6,0,L|400:212,1,140,2|2,0:0|0:0,0:0:0:0:
436,340,40615,6,0,P|388:340|344:308,1,93.3333333333333,6|0,0:0|0:0,0:0:0:0:
372,264,40990,2,0,L|220:276,1,140,2|2,0:0|0:0,0:0:0:0:
152,352,41615,2,0,L|84:344,1,46.6666666666667,0|2,0:0|0:0,0:0:0:0:
44,192,42115,2,0,P|32:148|56:88,1,93.3333333333333,2|0,0:0|0:0,0:0:0:0:
32,48,42490,2,0,P|80:64|136:48,1,93.3333333333333,2|0,0:0|0:0,0:0:0:0:
172,28,42865,2,0,L|160:192,1,140,2|2,0:0|0:0,0:0:0:0:
196,332,43615,5,6,0:0:0:0:
264,244,43865,2,0,L|332:248,1,46.6666666666667,0|6,0:0|0:0,0:0:0:0:
352,352,44240,2,0,L|408:344,3,46.6666666666667,0|6|0|0,0:0|0:0|0:0|0:0,0:0:0:0:
452,336,44740,1,6,0:0:0:0:
448,224,44990,5,0,0:0:0:0:
448,224,45115,2,0,L|452:108,1,93.3333333333333,6|0,0:0|0:0,0:0:0:0:
480,84,45490,2,0,P|432:84|384:56,1,93.3333333333333,6|0,0:0|0:0,0:0:0:0:
352,24,45865,2,0,L|348:117,1,93.3333333333333,6|0,0:0|0:0,0:0:0:0:
344,172,46240,1,6,0:0:0:0:
344,284,46490,5,0,0:0:0:0:
344,284,46615,2,0,P|296:280|232:320,1,93.3333333333333,6|0,0:0|0:0,0:0:0:0:
236,352,46990,2,0,P|160:356|92:288,1,140,2|2,0:0|0:0,0:0:0:0:
44,228,47615,2,0,L|48:144,1,46.6666666666667,0|2,0:0|0:0,0:0:0:0:
168,64,48115,2,0,L|163:168,1,93.3333333333333,2|0,0:0|0:0,0:0:0:0:
136,204,48490,2,0,P|200:204|240:236,1,93.3333333333333,2|0,0:0|0:0,0:0:0:0:
252,268,48865,2,0,P|304:284|392:228,1,140,2|2,0:0|0:0,0:0:0:0:
396,84,49615,5,6,0:0:0:0:
300,144,49865,2,0,L|308:220,1,46.6666666666667,0|6,0:0|0:0,0:0:0:0:
416,192,50240,1,0,0:0:0:0:
416,192,50365,1,6,0:0:0:0:
416,192,50490,1,0,0:0:0:0:
416,192,50615,1,0,0:0:0:0:
416,192,50740,2,0,P|428:240|408:304,1,93.3333333333333,6|0,0:0|0:0,0:0:0:0:
372,312,51115,6,0,L|196:300,1,140,6|2,0:0|0:0,0:0:0:0:
396,348,51865,6,0,L|220:336,1,140,2|2,0:0|0:0,0:0:0:0:
88,348,52615,6,0,L|96:288,5,46.6666666666667,6|0|0|2|0|0,0:0|0:0|0:0|0:0|0:0|0:0,0:0:0:0:
80,248,53365,2,0,L|148:260,5,46.6666666666667,6|0|0|2|0|0,0:0|0:0|0:0|0:0|0:0|0:0,0:0:0:0:
172,292,54115,2,0,L|180:232,5,46.6666666666667,6|0|0|2|0|0,0:0|0:0|0:0|0:0|0:0|0:0,0:0:0:0:
164,192,54865,2,0,L|232:204,2,46.6666666666667,6|0|0,0:0|0:0|0:0,0:0:0:0:
108,184,55240,1,2,0:0:0:0:
256,104,55615,6,0,L|340:88,5,46.6666666666667,6|0|0|2|0|0,0:0|0:0|0:0|0:0|0:0|0:0,0:0:0:0:
348,64,56365,2,0,L|396:80,5,46.6666666666667,6|0|0|2|0|0,0:0|0:0|0:0|0:0|0:0|0:0,0:0:0:0:
448,68,57115,2,0,L|436:136,5,46.6666666666667,6|0|0|2|0|0,0:0|0:0|0:0|0:0|0:0|0:0,0:0:0:0:
408,160,57865,2,0,L|416:232,1,46.6666666666667,6|2,0:0|0:0,0:0:0:0:
464,228,58115,2,0,L|452:304,3,46.6666666666667,2|2|2|2,0:0|0:0|0:0|0:0,0:0:0:0:
468,328,58615,6,0,L|400:308,5,46.6666666666667,6|0|0|2|0|0,0:0|0:0|0:0|0:0|0:0|0:0,0:0:0:0:
368,300,59365,2,0,L|304:312,5,46.6666666666667,6|0|0|2|0|0,0:0|0:0|0:0|0:0|0:0|0:0,0:0:0:0:
276,344,60115,2,0,L|204:336,5,46.6666666666667,6|0|0|2|0|0,0:0|0:0|0:0|0:0|0:0|0:0,0:0:0:0:
184,308,60865,2,0,L|124:316,2,46.6666666666667,6|0|0,0:0|0:0|0:0,0:0:0:0:
220,264,61240,1,2,0:0:0:0:
384,232,61615,6,0,L|380:156,5,46.6666666666667,6|0|0|2|0|0,0:0|0:0|0:0|0:0|0:0|0:0,0:0:0:0:
410,134,62365,2,0,L|360:136,5,46.6666666666667,6|0|0|2|0|0,0:0|0:0|0:0|0:0|0:0|0:0,0:0:0:0:
316,104,63115,2,0,L|316:164,5,46.6666666666667,6|0|0|2|2|2,0:0|0:0|0:0|0:0|0:0|0:0,0:0:0:0:
344,200,63865,2,0,P|292:188|200:240,1,140,6|6,0:0|0:0,0:0:0:0:
56,276,64615,6,0,P|104:284|136:320,1,93.3333333333333,6|0,0:0|0:0,0:0:0:0:
100,360,64990,2,0,L|276:352,1,140,2|2,0:0|0:0,0:0:0:0:
344,312,65615,2,0,L|404:320,1,46.6666666666667,0|2,0:0|0:0,0:0:0:0:
452,160,66115,2,0,P|404:160|348:200,1,93.3333333333333,2|0,0:0|0:0,0:0:0:0:
340,232,66490,2,0,P|280:232|244:192,1,93.3333333333333,2|0,0:0|0:0,0:0:0:0:
248,156,66865,2,0,P|192:144|112:208,1,140,2|2,0:0|0:0,0:0:0:0:
84,348,67615,5,6,0:0:0:0:
180,292,67865,2,0,L|232:296,1,46.6666666666667,0|6,0:0|0:0,0:0:0:0:
328,344,68240,2,0,L|380:336,3,46.6666666666667,0|6|0|0,0:0|0:0|0:0|0:0,0:0:0:0:
428,332,68740,1,6,0:0:0:0:
464,228,68990,5,0,0:0:0:0:
464,228,69115,2,0,P|408:224|368:248,1,93.3333333333333,6|0,0:0|0:0,0:0:0:0:
328,268,69490,2,0,P|276:268|232:232,1,93.3333333333333,6|0,0:0|0:0,0:0:0:0:
240,192,69865,2,0,L|132:200,1,93.3333333333333,6|0,0:0|0:0,0:0:0:0:
92,204,70240,1,6,0:0:0:0:
76,316,70490,5,0,0:0:0:0:
76,316,70615,2,0,L|169:309,1,93.3333333333333,6|0,0:0|0:0,0:0:0:0:
220,288,70990,2,0,P|272:280|352:332,1,140,2|2,0:0|0:0,0:0:0:0:
452,352,71615,2,0,L|460:284,1,46.6666666666667,0|2,0:0|0:0,0:0:0:0:
472,136,72115,2,0,P|416:136|368:168,1,93.3333333333333,2|0,0:0|0:0,0:0:0:0:
364,204,72490,2,0,P|304:200|264:168,1,93.3333333333333,2|0,0:0|0:0,0:0:0:0:
280,128,72865,2,0,L|124:136,1,140,2|2,0:0|0:0,0:0:0:0:
44,272,73615,5,6,0:0:0:0:
136,336,73865,2,0,L|200:328,1,46.6666666666667,0|6,0:0|0:0,0:0:0:0:
256,244,74240,1,0,0:0:0:0:
256,244,74365,1,6,0:0:0:0:
256,244,74490,1,0,0:0:0:0:
256,244,74615,1,0,0:0:0:0:
256,244,74740,2,0,P|304:240|352:272,1,93.3333333333333,6|0,0:0|0:0,0:0:0:0:
372,308,75115,6,0,L|368:148,1,140,6|2,0:0|0:0,0:0:0:0:
404,332,75865,6,0,L|400:172,1,140,2|2,0:0|0:0,0:0:0:0:
256,108,76615,5,2,0:0:0:0:
256,108,76740,1,0,0:0:0:0:
256,108,76865,1,0,0:0:0:0:
256,108,76990,1,2,0:0:0:0:
256,108,77115,1,0,0:0:0:0:
256,108,77240,1,0,0:0:0:0:
256,108,77365,6,0,L|259:247,1,140,2|2,0:0|0:0,0:0:0:0:
120,344,78115,5,2,0:0:0:0:
120,344,78240,1,0,0:0:0:0:
120,344,78365,1,0,0:0:0:0:
120,344,78490,1,2,0:0:0:0:
120,344,78615,1,0,0:0:0:0:
120,344,78740,1,0,0:0:0:0:
120,344,78865,6,0,L|116:204,1,140,2|2,0:0|0:0,0:0:0:0:
256,112,79615,6,0,L|257:181,5,46.6666666666667,2|0|0|2|0|0,0:0|0:0|0:0|0:0|0:0|0:0,0:0:0:0:
276,212,80365,2,0,L|344:204,2,46.6666666666667,2|0|0,0:0|0:0|0:0,0:0:0:0:
220,216,80740,6,0,L|224:272,5,46.6666666666667,2|0|0|2|0|0,0:0|0:0|0:0|0:0|0:0|0:0,0:0:0:0:
212,316,81490,2,0,L|272:312,5,46.6666666666667,2|0|0|2|0|0,0:0|0:0|0:0|0:0|0:0|0:0,0:0:0:0:
308,284,82240,2,0,L|304:237,2,46.6666666666667,2|0|0,0:0|0:0|0:0,0:0:0:0:
348,324,82615,6,0,L|344:376,2,46.6666666666667,2|0|0,0:0|0:0|0:0,0:0:0:0:
372,272,82990,2,0,L|424:280,2,46.6666666666667,2|0|0,0:0|0:0|0:0,0:0:0:0:
308,284,83365,2,0,P|320:212|296:128,1,140,2|2,0:0|0:0,0:0:0:0:
212,84,83990,5,2,0:0:0:0:
212,84,84115,2,0,P|204:144|228:208,1,93.3333333333333,2|0,0:0|0:0,0:0:0:0:
216,232,84490,2,0,L|144:224,2,46.6666666666667,2|2|2,0:0|0:0|0:0,0:0:0:0:
256,272,84865,2,0,L|308:264,2,46.6666666666667,2|2|2,0:0|0:0|0:0,0:0:0:0:
224,316,85240,1,2,0:0:0:0:
64,368,85615,5,2,0:0:0:0:
84,260,85865,2,0,L|80:196,3,46.6666666666667,2|2|0|0,0:0|0:0|0:0|0:0,0:0:0:0:
76,156,86365,2,0,L|12:164,2,46.6666666666667,2|0|0,0:0|0:0|0:0,0:0:0:0:
132,152,86740,1,2,0:0:0:0:
192,248,86990,1,2,0:0:0:0:
192,248,87115,5,2,0:0:0:0:
256,156,87365,1,0,0:0:0:0:
256,156,87490,2,0,L|252:76,2,46.6666666666667,2|0|0,0:0|0:0|0:0,0:0:0:0:
280,208,87865,2,0,L|276:272,2,46.6666666666667,2|0|0,0:0|0:0|0:0,0:0:0:0:
308,160,88240,2,0,L|368:164,2,46.6666666666667,2|0|0,0:0|0:0|0:0,0:0:0:0:
256,156,88615,5,6,2:0:0:0:
228,320,88990,1,2,0:0:0:0:
120,192,89365,1,2,3:0:0:0:
64,352,89740,1,2,0:0:0:0:
228,320,90115,5,2,3:0:0:0:
340,192,90490,2,0,L|448:200,1,93.3333333333333,2|0,1:0|2:0,0:0:0:0:
480,168,90865,2,0,P|464:216|480:288,1,93.3333333333333,2|0,3:0|2:0,0:0:0:0:
484,312,91240,2,0,L|312:299,1,140,2|6,1:0|2:0,0:0:0:0:
252,240,91865,6,0,L|184:248,1,46.6666666666667,0|2,2:0|1:0,0:0:0:0:
144,340,92240,2,0,L|72:336,3,46.6666666666667,0|2|0|0,2:0|2:0|2:0|2:0,0:0:0:0:
40,332,92740,1,2,1:0:0:0:
76,228,92990,1,0,2:0:0:0:
76,228,93115,6,0,P|64:176|104:116,1,93.3333333333333,6|0,2:0|2:0,0:0:0:0:
128,116,93490,2,0,L|224:120,1,93.3333333333333,6|0,2:0|2:0,0:0:0:0:
276,120,93865,2,0,L|280:184,2,46.6666666666667,2|0|0,3:0|2:0|2:0,0:0:0:0:
248,72,94240,2,0,L|252:12,2,46.6666666666667,2|0|0,0:0|2:0|2:0,0:0:0:0:
221,119,94615,5,6,2:0:0:0:
68,192,94990,1,2,1:0:0:0:
128,348,95365,1,2,3:0:0:0:
256,236,95740,1,2,1:0:0:0:
384,348,96115,5,2,3:0:0:0:
448,192,96490,2,0,P|456:140|436:88,1,93.3333333333333,2|0,1:0|2:0,0:0:0:0:
432,48,96865,2,0,L|332:56,1,93.3333333333333,2|0,3:0|2:0,0:0:0:0:
284,52,97240,2,0,P|264:112|288:196,1,140,2|6,1:0|2:0,0:0:0:0:
376,244,97865,6,0,L|368:328,1,46.6666666666667,0|2,2:0|1:0,0:0:0:0:
288,368,98240,2,0,L|283:321,3,46.6666666666667,0|2|0|0,2:0|2:0|2:0|2:0,0:0:0:0:
276,264,98740,1,2,1:0:0:0:
256,152,98990,2,0,L|264:80,1,46.6666666666667,0|2,2:0|2:0,0:0:0:0:
412,32,99490,6,0,P|424:80|412:128,1,93.3333333333333,2|2,3:0|3:0,0:0:0:0:
380,164,99865,2,0,L|328:160,2,46.6666666666667,2|2|2,3:0|3:0|3:0,0:0:0:0:
424,200,100240,2,0,L|480:192,2,46.6666666666667,2|2|2,3:0|3:0|3:0,0:0:0:0:
372,216,100615,6,0,P|360:264|380:320,1,93.3333333333333,6|0,0:0|0:0,0:0:0:0:
420,332,100990,2,0,L|264:324,1,140,2|2,0:0|0:0,0:0:0:0:
228,224,101615,2,0,L|160:228,1,46.6666666666667,0|2,0:0|0:0,0:0:0:0:
44,340,102115,2,0,L|52:224,1,93.3333333333333,2|0,0:0|0:0,0:0:0:0:
32,196,102490,2,0,P|80:204|140:160,1,93.3333333333333,2|0,0:0|0:0,0:0:0:0:
136,132,102865,2,0,P|188:120|272:184,1,140,2|2,0:0|0:0,0:0:0:0:
292,324,103615,5,6,0:0:0:0:
376,252,103865,2,0,L|444:256,1,46.6666666666667,0|6,0:0|0:0,0:0:0:0:
452,148,104240,2,0,L|406:145,3,46.6666666666667,0|6|0|0,0:0|0:0|0:0|0:0,0:0:0:0:
348,140,104740,1,6,0:0:0:0:
256,76,104990,5,0,0:0:0:0:
256,76,105115,2,0,P|196:84|140:52,1,93.3333333333333,6|0,0:0|0:0,0:0:0:0:
124,36,105490,2,0,L|128:160,1,93.3333333333333,6|0,0:0|0:0,0:0:0:0:
156,176,105865,2,0,P|100:176|44:224,1,93.3333333333333,6|0,0:0|0:0,0:0:0:0:
28,232,106240,1,6,0:0:0:0:
64,340,106490,5,0,0:0:0:0:
64,340,106615,2,0,P|120:344|164:304,1,93.3333333333333,6|0,0:0|0:0,0:0:0:0:
136,272,106990,2,0,L|284:288,1,140,2|2,0:0|0:0,0:0:0:0:
364,356,107615,2,0,L|424:344,1,46.6666666666667,0|2,0:0|0:0,0:0:0:0:
472,192,108115,2,0,L|464:92,1,93.3333333333333,2|0,0:0|0:0,0:0:0:0:
492,48,108490,2,0,P|436:56|392:28,1,93.3333333333333,2|0,0:0|0:0,0:0:0:0:
352,16,108865,2,0,L|364:156,1,140,2|2,0:0|0:0,0:0:0:0:
376,324,109615,5,6,0:0:0:0:
276,276,109865,2,0,L|272:226,1,46.6666666666667,0|6,0:0|0:0,0:0:0:0:
260,116,110240,1,0,0:0:0:0:
260,116,110365,1,6,0:0:0:0:
260,116,110490,1,0,0:0:0:0:
260,116,110615,1,0,0:0:0:0:
260,116,110740,2,0,P|204:120|148:76,1,93.3333333333333,6|0,0:0|0:0,0:0:0:0:
136,60,111115,6,0,L|144:236,1,140,6|2,0:0|0:0,0:0:0:0:
104,36,111865,6,0,L|112:212,1,140,2|2,0:0|0:0,0:0:0:0:
76,340,112615,6,0,P|124:340|168:308,1,93.3333333333333,6|0,0:0|0:0,0:0:0:0:
140,264,112990,2,0,L|292:276,1,140,6|6,0:0|0:0,0:0:0:0:
360,352,113615,2,0,L|428:344,1,46.6666666666667,0|6,0:0|0:0,0:0:0:0:
468,192,114115,2,0,P|480:148|456:88,1,93.3333333333333,6|0,0:0|0:0,0:0:0:0:
480,48,114490,2,0,P|432:64|376:48,1,93.3333333333333,6|0,0:0|0:0,0:0:0:0:
340,28,114865,2,0,L|352:192,1,140,6|6,0:0|0:0,0:0:0:0:
316,332,115615,5,6,0:0:0:0:
248,244,115865,2,0,L|180:248,1,46.6666666666667,0|6,0:0|0:0,0:0:0:0:
160,352,116240,2,0,L|104:344,3,46.6666666666667,0|6|0|0,0:0|0:0|0:0|0:0,0:0:0:0:
60,336,116740,1,6,0:0:0:0:
64,224,116990,5,0,0:0:0:0:
64,224,117115,2,0,L|60:108,1,93.3333333333333,6|0,0:0|0:0,0:0:0:0:
32,84,117490,2,0,P|80:84|128:56,1,93.3333333333333,6|0,0:0|0:0,0:0:0:0:
160,24,117865,2,0,L|164:117,1,93.3333333333333,6|0,0:0|0:0,0:0:0:0:
168,172,118240,1,6,0:0:0:0:
168,284,118490,5,0,0:0:0:0:
168,284,118615,2,0,P|216:280|280:320,1,93.3333333333333,6|0,0:0|0:0,0:0:0:0:
276,352,118990,2,0,P|352:356|420:288,1,140,6|6,0:0|0:0,0:0:0:0:
468,228,119615,2,0,L|464:144,1,46.6666666666667,0|6,0:0|0:0,0:0:0:0:
344,64,120115,2,0,L|349:168,1,93.3333333333333,6|0,0:0|0:0,0:0:0:0:
376,204,120490,2,0,P|312:204|272:236,1,93.3333333333333,6|0,0:0|0:0,0:0:0:0:
260,268,120865,2,0,P|208:284|120:228,1,140,6|6,0:0|0:0,0:0:0:0:
116,84,121615,5,6,0:0:0:0:
212,144,121865,2,0,L|204:220,1,46.6666666666667,0|6,0:0|0:0,0:0:0:0:
96,192,122240,1,0,0:0:0:0:
96,192,122365,1,6,0:0:0:0:
96,192,122490,1,0,0:0:0:0:
96,192,122615,1,0,0:0:0:0:
96,192,122740,2,0,P|84:240|104:304,1,93.3333333333333,6|0,0:0|0:0,0:0:0:0:
140,312,123115,6,0,L|316:300,1,140,6|2,0:0|0:0,0:0:0:0:
116,348,123865,6,0,L|292:336,1,140,2|2,0:0|0:0,0:0:0:0:
424,348,124615,6,0,L|416:288,5,46.6666666666667,6|0|0|2|0|0,0:0|0:0|0:0|0:0|0:0|0:0,0:0:0:0:
432,248,125365,2,0,L|364:260,5,46.6666666666667,6|0|0|2|0|0,0:0|0:0|0:0|0:0|0:0|0:0,0:0:0:0:
340,292,126115,2,0,L|332:232,5,46.6666666666667,6|0|0|2|0|0,0:0|0:0|0:0|0:0|0:0|0:0,0:0:0:0:
348,192,126865,2,0,L|280:204,2,46.6666666666667,6|0|0,0:0|0:0|0:0,0:0:0:0:
404,184,127240,1,2,0:0:0:0:
256,104,127615,6,0,L|172:88,5,46.6666666666667,6|0|0|2|0|0,0:0|0:0|0:0|0:0|0:0|0:0,0:0:0:0:
164,64,128365,2,0,L|116:80,5,46.6666666666667,6|0|0|2|0|0,0:0|0:0|0:0|0:0|0:0|0:0,0:0:0:0:
64,68,129115,2,0,L|76:136,5,46.6666666666667,6|0|0|2|0|0,0:0|0:0|0:0|0:0|0:0|0:0,0:0:0:0:
104,160,129865,2,0,L|96:232,1,46.6666666666667,6|2,0:0|0:0,0:0:0:0:
48,228,130115,2,0,L|60:304,3,46.6666666666667,2|2|2|2,0:0|0:0|0:0|0:0,0:0:0:0:
44,328,130615,6,0,L|112:308,5,46.6666666666667,6|0|0|2|0|0,0:0|0:0|0:0|0:0|0:0|0:0,0:0:0:0:
144,300,131365,2,0,L|208:312,5,46.6666666666667,6|0|0|2|0|0,0:0|0:0|0:0|0:0|0:0|0:0,0:0:0:0:
236,344,132115,2,0,L|308:336,5,46.6666666666667,6|0|0|2|0|0,0:0|0:0|0:0|0:0|0:0|0:0,0:0:0:0:
328,308,132865,2,0,L|388:316,2,46.6666666666667,6|0|0,0:0|0:0|0:0,0:0:0:0:
292,264,133240,1,2,0:0:0:0:
128,232,133615,6,0,L|132:156,5,46.6666666666667,6|0|0|2|0|0,0:0|0:0|0:0|0:0|0:0|0:0,0:0:0:0:
102,134,134365,2,0,L|152:136,5,46.6666666666667,6|0|0|2|0|0,0:0|0:0|0:0|0:0|0:0|0:0,0:0:0:0:
196,104,135115,2,0,L|196:164,5,46.6666666666667,6|0|0|2|2|2,0:0|0:0|0:0|0:0|0:0|0:0,0:0:0:0:
168,200,135865,2,0,P|220:188|312:240,1,140,6|6,0:0|0:0,0:0:0:0:
456,276,136615,6,0,P|408:284|376:320,1,93.3333333333333,6|0,0:0|0:0,0:0:0:0:
412,360,136990,2,0,L|236:352,1,140,2|2,0:0|0:0,0:0:0:0:
168,312,137615,2,0,L|108:320,1,46.6666666666667,0|2,0:0|0:0,0:0:0:0:
60,160,138115,2,0,P|108:160|164:200,1,93.3333333333333,2|0,0:0|0:0,0:0:0:0:
172,232,138490,2,0,P|232:232|268:192,1,93.3333333333333,2|0,0:0|0:0,0:0:0:0:
264,156,138865,2,0,P|320:144|400:208,1,140,2|2,0:0|0:0,0:0:0:0:
428,348,139615,5,6,0:0:0:0:
332,292,139865,2,0,L|280:296,1,46.6666666666667,0|6,0:0|0:0,0:0:0:0:
184,344,140240,2,0,L|132:336,3,46.6666666666667,0|6|0|0,0:0|0:0|0:0|0:0,0:0:0:0:
84,332,140740,1,6,0:0:0:0:
48,228,140990,5,0,0:0:0:0:
48,228,141115,2,0,P|104:224|144:248,1,93.3333333333333,6|0,0:0|0:0,0:0:0:0:
184,268,141490,2,0,P|236:268|280:232,1,93.3333333333333,6|0,0:0|0:0,0:0:0:0:
272,192,141865,2,0,L|380:200,1,93.3333333333333,6|0,0:0|0:0,0:0:0:0:
420,204,142240,1,6,0:0:0:0:
436,316,142490,5,0,0:0:0:0:
436,316,142615,2,0,L|343:309,1,93.3333333333333,6|0,0:0|0:0,0:0:0:0:
292,288,142990,2,0,P|240:280|160:332,1,140,2|2,0:0|0:0,0:0:0:0:
60,352,143615,2,0,L|52:284,1,46.6666666666667,0|2,0:0|0:0,0:0:0:0:
40,136,144115,2,0,P|96:136|144:168,1,93.3333333333333,2|0,0:0|0:0,0:0:0:0:
148,204,144490,2,0,P|208:200|248:168,1,93.3333333333333,2|0,0:0|0:0,0:0:0:0:
232,128,144865,2,0,L|388:136,1,140,2|2,0:0|0:0,0:0:0:0:
468,272,145615,5,6,0:0:0:0:
376,336,145865,2,0,L|312:328,1,46.6666666666667,0|6,0:0|0:0,0:0:0:0:
256,244,146240,1,0,0:0:0:0:
256,244,146365,1,6,0:0:0:0:
256,244,146490,1,0,0:0:0:0:
256,244,146615,1,0,0:0:0:0:
256,244,146740,2,0,P|208:240|160:272,1,93.3333333333333,6|0,0:0|0:0,0:0:0:0:
140,308,147115,6,0,L|144:148,1,140,6|2,0:0|0:0,0:0:0:0:
108,332,147865,6,0,L|112:172,1,140,2|2,0:0|0:0,0:0:0:0:
256,60,148615,5,0,0:0:0:0:
308,128,148990,1,2,0:0:0:0:
380,84,149365,1,0,0:0:0:0:
436,148,149740,1,2,0:0:0:0:
364,192,150115,2,0,L|356:288,1,70,0|2,0:0|0:0,0:0:0:0:
356,304,150677,1,0,0:0:0:0:
356,304,150865,2,0,P|312:304|268:328,1,70,2|0,0:0|0:0,0:0:0:0:
216,360,151615,5,2,0:0:0:0:
152,304,151990,1,2,0:0:0:0:
152,304,152177,1,0,0:0:0:0:
152,304,152365,2,0,L|148:240,1,35,2|0,0:0|0:0,0:0:0:0:
76,296,152740,2,0,L|72:232,1,35,2|0,0:0|0:0,0:0:0:0:
120,196,153115,6,0,L|116:132,1,35,2|0,0:0|0:0,0:0:0:0:
44,188,153490,2,0,L|40:124,1,35,2|0,0:0|0:0,0:0:0:0:
96,88,153865,2,0,L|92:24,1,35,2|0,0:0|0:0,0:0:0:0:
20,80,154240,6,0,L|16:16,2,35,2|2|2,0:0|0:0|0:0,0:0:0:0:
41,153,154990,1,2,0:0:0:0:
96,88,155365,1,0,0:0:0:0:
140,160,155740,1,2,0:0:0:0:
192,96,156115,2,0,L|272:104,1,70,0|2,0:0|0:0,0:0:0:0:
296,76,156677,1,0,0:0:0:0:
296,76,156865,2,0,P|288:128|304:160,1,70,2|2,0:0|0:0,0:0:0:0:
360,192,157615,5,2,0:0:0:0:
384,272,157990,1,2,0:0:0:0:
384,272,158177,1,2,0:0:0:0:
384,272,158365,1,2,0:0:0:0:
348,348,158740,1,2,0:0:0:0:
288,288,159115,5,6,0:0:0:0:
184,356,159490,5,2,0:0:0:0:
160,192,159865,5,6,0:0:0:0:
256,192,160052,12,0,162115,0:0:0:0:
