osu file format v14

[General]
AudioFilename: Luna Dial.mp3
AudioLeadIn: 0
PreviewTime: 39738
Countdown: 0
SampleSet: Normal
StackLeniency: 0.7
Mode: 3
LetterboxInBreaks: 0
SpecialStyle: 0
WidescreenStoryboard: 0

[Editor]
DistanceSpacing: 0.8
BeatDivisor: 4
GridSize: 32
TimelineZoom: 1.5

[Metadata]
Title:Tsukidokei ~ Luna Dial
TitleUnicode:月時計 ~ ルナ・ダイアル
Artist:ZUN
ArtistUnicode:ZUN
Creator:Mage
Version:Easy
Source:東方紅魔郷 ~ the Embodiment of Scarlet Devil.
Tags:lunar clock runa daiaru touhou project eosd sakuya izayoi
BeatmapID:810828
BeatmapSetID:369857

[Difficulty]
HPDrainRate:7
CircleSize:8
OverallDifficulty:7
ApproachRate:5
SliderMultiplier:1.4
SliderTickRate:1

[Events]
//Background and Video events
0,0,"BG.jpg",0,0
//Break Periods
//Storyboard Layer 0 (Background)
//Storyboard Layer 1 (Fail)
//Storyboard Layer 2 (Pass)
//Storyboard Layer 3 (Foreground)
//Storyboard Sound Samples

[TimingPoints]
286,410.958904109589,4,1,1,25,1,0
52888,-100,4,1,1,25,0,1
79190,-100,4,1,1,25,0,0

[HitObjects]
32,192,286,5,0,0:0:0:0:
352,192,286,1,0,0:0:0:0:
96,192,696,128,0,1005:0:0:0:0:
224,192,1005,1,0,0:0:0:0:
480,192,1313,1,0,0:0:0:0:
224,192,1518,1,0,0:0:0:0:
288,192,1724,1,0,0:0:0:0:
352,192,1929,1,0,0:0:0:0:
160,192,2546,1,12,0:0:0:0:
416,192,2751,1,12,0:0:0:0:
224,192,2957,1,12,0:0:0:0:
416,192,3162,1,12,0:0:0:0:
96,192,3368,1,12,0:0:0:0:
32,192,3573,1,12,0:0:0:0:
480,192,3984,128,0,4292:0:0:0:0:
352,192,4292,1,0,0:0:0:0:
96,192,4601,1,0,0:0:0:0:
352,192,4806,1,0,0:0:0:0:
288,192,5012,1,0,0:0:0:0:
224,192,5217,1,0,0:0:0:0:
416,192,5833,1,12,0:0:0:0:
160,192,6039,1,12,0:0:0:0:
352,192,6244,1,12,0:0:0:0:
160,192,6450,1,12,0:0:0:0:
480,192,6655,1,12,0:0:0:0:
32,192,6861,1,12,0:0:0:0:
224,192,7066,1,8,0:0:0:0:
352,192,7477,1,8,0:0:0:0:
160,192,7888,1,8,0:0:0:0:
288,192,8299,1,8,0:0:0:0:
96,192,8710,1,8,0:0:0:0:
480,192,9121,1,8,0:0:0:0:
288,192,9327,1,12,0:0:0:0:
416,192,9532,1,12,0:0:0:0:
160,192,9738,1,12,0:0:0:0:
288,192,9943,1,12,0:0:0:0:
32,192,10149,1,4,0:0:0:0:
480,192,10149,128,8,10970:0:0:0:0:
32,192,10970,1,4,0:0:0:0:
352,192,10970,128,8,11792:0:0:0:0:
32,192,11792,1,4,0:0:0:0:
224,192,11792,128,8,12614:0:0:0:0:
96,192,12614,1,12,0:0:0:0:
480,192,12820,1,12,0:0:0:0:
96,192,13025,1,12,0:0:0:0:
480,192,13231,1,12,0:0:0:0:
32,192,13436,1,4,0:0:0:0:
352,192,13847,1,8,0:0:0:0:
224,192,14053,1,8,0:0:0:0:
352,192,14429,128,0,15080:0:0:0:0:
32,192,15080,1,4,0:0:0:0:
416,192,15491,1,8,0:0:0:0:
160,192,15696,1,8,0:0:0:0:
224,192,16073,128,0,16724:0:0:0:0:
32,192,16724,1,4,0:0:0:0:
480,192,17135,1,8,0:0:0:0:
96,192,17340,1,8,0:0:0:0:
352,192,17717,128,0,18368:0:0:0:0:
32,192,18368,1,4,0:0:0:0:
416,192,18779,1,8,0:0:0:0:
160,192,18984,1,8,0:0:0:0:
224,192,19361,128,0,20012:0:0:0:0:
32,192,20012,1,4,0:0:0:0:
352,192,20012,1,8,0:0:0:0:
480,192,20320,1,8,0:0:0:0:
416,192,20628,1,0,0:0:0:0:
160,192,20833,1,0,0:0:0:0:
288,192,21039,1,8,0:0:0:0:
480,192,21244,1,0,0:0:0:0:
352,192,21450,1,0,0:0:0:0:
96,192,21655,1,8,0:0:0:0:
224,192,21964,1,8,0:0:0:0:
352,192,22272,1,0,0:0:0:0:
32,192,22477,1,12,0:0:0:0:
224,192,22683,1,0,0:0:0:0:
352,192,22888,1,0,0:0:0:0:
32,192,23094,1,12,0:0:0:0:
416,192,23299,1,0,0:0:0:0:
288,192,23505,1,0,0:0:0:0:
32,192,23710,1,4,0:0:0:0:
160,192,24121,1,8,0:0:0:0:
352,192,24327,1,0,0:0:0:0:
224,192,24532,1,0,0:0:0:0:
416,192,24738,1,8,0:0:0:0:
32,192,24943,1,4,0:0:0:0:
480,192,25251,1,8,0:0:0:0:
352,192,25559,1,0,0:0:0:0:
96,192,25765,1,0,0:0:0:0:
224,192,25970,1,8,0:0:0:0:
416,192,26176,1,0,0:0:0:0:
160,192,26381,1,0,0:0:0:0:
288,192,26587,1,8,0:0:0:0:
480,192,26895,1,8,0:0:0:0:
96,192,27203,1,8,0:0:0:0:
352,192,27409,1,8,0:0:0:0:
224,192,27614,1,0,0:0:0:0:
480,192,27820,1,0,0:0:0:0:
32,192,28025,1,8,0:0:0:0:
352,192,28231,1,0,0:0:0:0:
224,192,28436,1,0,0:0:0:0:
32,192,28642,1,8,0:0:0:0:
416,192,28847,1,0,0:0:0:0:
288,192,29053,1,0,0:0:0:0:
32,192,29258,1,8,0:0:0:0:
480,192,29464,1,0,0:0:0:0:
352,192,29669,1,0,0:0:0:0:
32,192,29875,1,12,0:0:0:0:
224,192,30183,1,8,0:0:0:0:
352,192,30388,1,0,0:0:0:0:
160,192,30696,1,0,0:0:0:0:
416,192,30902,1,8,0:0:0:0:
288,192,31107,1,0,0:0:0:0:
96,192,31313,1,8,0:0:0:0:
224,192,31518,1,0,0:0:0:0:
480,192,31724,1,8,0:0:0:0:
352,192,31929,1,0,0:0:0:0:
224,192,32135,1,8,0:0:0:0:
32,192,32340,1,12,0:0:0:0:
224,192,32546,1,0,0:0:0:0:
352,192,32751,1,0,0:0:0:0:
32,192,32957,1,12,0:0:0:0:
288,192,33162,1,0,0:0:0:0:
416,192,33368,1,8,0:0:0:0:
32,192,33573,1,4,0:0:0:0:
288,192,33779,1,8,0:0:0:0:
160,192,33984,1,0,0:0:0:0:
352,192,34190,1,8,0:0:0:0:
224,192,34395,1,0,0:0:0:0:
416,192,34601,1,8,0:0:0:0:
32,192,34806,1,4,0:0:0:0:
224,192,35114,1,8,0:0:0:0:
352,192,35422,1,0,0:0:0:0:
96,192,35628,1,0,0:0:0:0:
224,192,35833,1,8,0:0:0:0:
480,192,36039,1,0,0:0:0:0:
352,192,36244,1,8,0:0:0:0:
160,192,36450,1,0,0:0:0:0:
288,192,36655,1,8,0:0:0:0:
416,192,36861,1,0,0:0:0:0:
224,192,37066,1,0,0:0:0:0:
32,192,37272,1,12,0:0:0:0:
160,192,37477,1,0,0:0:0:0:
288,192,37683,1,0,0:0:0:0:
32,192,37888,1,12,0:0:0:0:
352,192,38094,1,0,0:0:0:0:
224,192,38299,1,0,0:0:0:0:
32,192,38505,1,12,0:0:0:0:
480,192,38710,1,0,0:0:0:0:
352,192,38916,1,0,0:0:0:0:
32,192,39121,1,12,0:0:0:0:
416,192,39327,1,0,0:0:0:0:
288,192,39532,1,0,0:0:0:0:
96,192,39738,1,4,0:0:0:0:
224,192,40149,1,8,0:0:0:0:
32,192,40559,1,0,0:0:0:0:
352,192,40559,128,0,41381:0:0:0:0:
160,192,40970,1,8,0:0:0:0:
288,192,41381,1,0,0:0:0:0:
416,192,41792,1,8,0:0:0:0:
32,192,42203,1,0,0:0:0:0:
352,192,42203,128,0,42614:0:0:0:0:
96,192,42614,1,8,0:0:0:0:
224,192,42820,1,0,0:0:0:0:
32,192,43025,1,0,0:0:0:0:
480,192,43025,1,0,0:0:0:0:
160,192,43436,1,8,0:0:0:0:
288,192,43847,1,0,0:0:0:0:
416,192,44258,128,8,44669:0:0:0:0:
32,192,44669,1,0,0:0:0:0:
224,192,44669,1,0,0:0:0:0:
352,192,45080,1,8,0:0:0:0:
96,192,45491,1,0,0:0:0:0:
160,192,45902,128,8,46313:0:0:0:0:
352,192,46313,1,0,0:0:0:0:
480,192,46724,1,8,0:0:0:0:
32,192,47135,1,0,0:0:0:0:
288,192,47135,128,0,47546:0:0:0:0:
416,192,47546,1,8,0:0:0:0:
224,192,47957,1,0,0:0:0:0:
352,192,48368,1,8,0:0:0:0:
32,192,48779,1,0,0:0:0:0:
288,192,48779,128,0,49190:0:0:0:0:
96,192,49190,1,8,0:0:0:0:
224,192,49395,1,0,0:0:0:0:
32,192,49601,1,0,0:0:0:0:
352,192,49601,1,0,0:0:0:0:
160,192,50012,1,8,0:0:0:0:
288,192,50422,1,0,0:0:0:0:
416,192,50833,128,8,51244:0:0:0:0:
32,192,51244,1,0,0:0:0:0:
224,192,51244,1,0,0:0:0:0:
480,192,51655,1,8,0:0:0:0:
160,192,52066,1,0,0:0:0:0:
416,192,52477,128,8,52888:0:0:0:0:
32,192,52888,1,12,0:0:0:0:
96,192,52888,1,0,0:0:0:0:
352,192,53299,1,0,0:0:0:0:
160,192,53710,1,0,0:0:0:0:
352,192,54121,128,8,54532:0:0:0:0:
480,192,54532,1,0,0:0:0:0:
32,192,54532,1,4,0:0:0:0:
96,192,54943,1,0,0:0:0:0:
160,192,54943,1,8,0:0:0:0:
480,192,55354,1,0,0:0:0:0:
352,192,55765,1,8,0:0:0:0:
416,192,55765,1,0,0:0:0:0:
224,192,55970,1,0,0:0:0:0:
32,192,56176,1,4,0:0:0:0:
96,192,56176,1,0,0:0:0:0:
288,192,56587,1,0,0:0:0:0:
160,192,56998,1,0,0:0:0:0:
352,192,57409,128,8,57820:0:0:0:0:
480,192,57820,1,0,0:0:0:0:
32,192,57820,1,4,0:0:0:0:
224,192,58231,1,8,0:0:0:0:
352,192,58231,1,0,0:0:0:0:
288,192,58642,1,0,0:0:0:0:
416,192,59053,128,8,59464:0:0:0:0:
32,192,59464,1,4,0:0:0:0:
96,192,59464,1,0,0:0:0:0:
352,192,59875,1,0,0:0:0:0:
224,192,60285,1,0,0:0:0:0:
352,192,60696,128,8,61107:0:0:0:0:
480,192,61107,1,0,0:0:0:0:
32,192,61107,1,4,0:0:0:0:
96,192,61518,1,0,0:0:0:0:
224,192,61518,1,8,0:0:0:0:
416,192,61929,1,0,0:0:0:0:
160,192,62340,1,0,0:0:0:0:
224,192,62340,1,8,0:0:0:0:
416,192,62546,1,0,0:0:0:0:
32,192,62751,1,4,0:0:0:0:
96,192,62751,1,0,0:0:0:0:
224,192,63162,1,0,0:0:0:0:
352,192,63573,1,0,0:0:0:0:
224,192,63984,128,8,64395:0:0:0:0:
480,192,64395,1,0,0:0:0:0:
32,192,64395,1,4,0:0:0:0:
160,192,64806,1,0,0:0:0:0:
224,192,64806,1,8,0:0:0:0:
416,192,65217,1,0,0:0:0:0:
288,192,65628,128,8,66039:0:0:0:0:
32,192,66039,1,4,0:0:0:0:
480,192,66039,1,0,0:0:0:0:
480,192,66450,1,0,0:0:0:0:
160,192,66861,1,0,0:0:0:0:
160,192,67272,1,0,0:0:0:0:
288,192,67272,128,8,67683:0:0:0:0:
480,192,67683,1,0,0:0:0:0:
32,192,67683,1,4,0:0:0:0:
416,192,68094,1,0,0:0:0:0:
160,192,68094,1,8,0:0:0:0:
224,192,68505,1,0,0:0:0:0:
224,192,68916,1,0,0:0:0:0:
416,192,68916,1,8,0:0:0:0:
352,192,69121,1,0,0:0:0:0:
32,192,69327,1,4,0:0:0:0:
288,192,69327,1,0,0:0:0:0:
416,192,69738,1,0,0:0:0:0:
160,192,70149,1,0,0:0:0:0:
160,192,70559,1,0,0:0:0:0:
352,192,70559,128,8,70970:0:0:0:0:
96,192,70970,1,0,0:0:0:0:
32,192,70970,1,4,0:0:0:0:
416,192,71381,1,8,0:0:0:0:
96,192,71381,1,0,0:0:0:0:
352,192,71792,1,0,0:0:0:0:
352,192,72203,1,8,0:0:0:0:
480,192,72203,128,0,72614:0:0:0:0:
32,192,72614,1,4,0:0:0:0:
224,192,72614,1,0,0:0:0:0:
224,192,73025,1,0,0:0:0:0:
416,192,73436,1,0,0:0:0:0:
416,192,73847,1,8,0:0:0:0:
160,192,73847,128,0,74258:0:0:0:0:
32,192,74258,1,4,0:0:0:0:
224,192,74258,1,0,0:0:0:0:
96,192,74669,1,0,0:0:0:0:
224,192,74669,1,8,0:0:0:0:
352,192,75080,1,0,0:0:0:0:
288,192,75491,1,8,0:0:0:0:
352,192,75491,1,0,0:0:0:0:
160,192,75696,1,0,0:0:0:0:
32,192,75902,1,4,0:0:0:0:
480,192,75902,1,0,0:0:0:0:
480,192,76313,1,0,0:0:0:0:
416,192,76724,1,0,0:0:0:0:
416,192,77135,1,0,0:0:0:0:
160,192,77135,128,8,77546:0:0:0:0:
480,192,77546,1,0,0:0:0:0:
32,192,77546,1,4,0:0:0:0:
288,192,77546,128,0,79190:0:0:0:0:
352,192,77957,1,0,0:0:0:0:
224,192,78368,1,0,0:0:0:0:
96,192,78779,1,0,0:0:0:0:
32,192,79190,1,4,0:0:0:0:
