osu file format v14

[General]
AudioFilename: Luna Dial.mp3
AudioLeadIn: 0
PreviewTime: 39686
Countdown: 0
SampleSet: Soft
StackLeniency: 0.7
Mode: 3
LetterboxInBreaks: 0
SpecialStyle: 0
WidescreenStoryboard: 1

[Editor]
DistanceSpacing: 2.2
BeatDivisor: 4
GridSize: 4
TimelineZoom: 1.5

[Metadata]
Title:Tsukidokei ~ Luna Dial
TitleUnicode:月時計 ~ ルナ・ダイアル
Artist:ZUN
ArtistUnicode:ZUN
Creator:FAMoss
Version:Hard
Source:東方紅魔郷 ~ the Embodiment of Scarlet Devil.
Tags:lunar clock runa daiaru touhou project eosd sakuya izayoi dudehacker
BeatmapID:1568548
BeatmapSetID:678723

[Difficulty]
HPDrainRate:8
CircleSize:4
OverallDifficulty:8
ApproachRate:5
SliderMultiplier:1.4
SliderTickRate:1

[Events]
//Background and Video events
0,0,"BG.jpg",0,0
//Break Periods
//Storyboard Layer 0 (Background)
//Storyboard Layer 1 (Fail)
//Storyboard Layer 2 (Pass)
//Storyboard Layer 3 (Foreground)
//Storyboard Sound Samples

[TimingPoints]
286,410.958904109589,4,2,1,40,1,0
52888,-100,4,2,1,40,0,1
79190,-100,4,2,1,40,0,0

[HitObjects]
64,192,286,5,2,0:0:0:0:
448,192,286,1,0,0:0:0:0:
320,192,696,1,2,0:0:0:0:
448,192,696,1,0,0:0:0:0:
64,192,799,1,2,0:0:0:0:
192,192,799,1,0,0:0:0:0:
64,192,902,1,2,0:0:0:0:
192,192,902,1,0,0:0:0:0:
320,192,1005,1,2,0:0:0:0:
448,192,1005,1,0,0:0:0:0:
64,192,1416,1,2,0:0:0:0:
192,192,1416,1,0,0:0:0:0:
320,192,1518,1,2,0:0:0:0:
448,192,1518,1,0,0:0:0:0:
320,192,1621,1,2,0:0:0:0:
448,192,1621,1,0,0:0:0:0:
192,192,1724,1,0,0:0:0:0:
320,192,1827,1,2,0:0:0:0:
448,192,1827,1,0,0:0:0:0:
64,192,1929,1,2,0:0:0:0:
192,192,1929,1,0,0:0:0:0:
320,192,2340,1,2,0:0:0:0:
448,192,2340,1,0,0:0:0:0:
64,192,2443,1,2,0:0:0:0:
192,192,2443,1,0,0:0:0:0:
320,192,2546,1,2,0:0:0:0:
448,192,2546,1,0,0:0:0:0:
192,192,2649,1,2,0:0:0:0:
448,192,2649,1,0,0:0:0:0:
64,192,2751,1,2,0:0:0:0:
320,192,2751,1,8,0:0:0:0:
192,192,2957,1,2,0:0:0:0:
448,192,2957,1,8,0:0:0:0:
64,192,3162,1,2,0:0:0:0:
320,192,3162,1,8,0:0:0:0:
192,192,3368,1,2,0:0:0:0:
448,192,3368,1,8,0:0:0:0:
64,192,3573,1,2,0:0:0:0:
448,192,3573,1,0,0:0:0:0:
64,192,3984,1,2,0:0:0:0:
192,192,3984,1,0,0:0:0:0:
320,192,4087,1,2,0:0:0:0:
448,192,4087,1,0,0:0:0:0:
320,192,4190,1,2,0:0:0:0:
448,192,4190,1,0,0:0:0:0:
64,192,4292,1,2,0:0:0:0:
192,192,4292,1,0,0:0:0:0:
320,192,4395,1,0,0:0:0:0:
320,192,4703,1,2,0:0:0:0:
448,192,4703,1,0,0:0:0:0:
64,192,4806,1,2,0:0:0:0:
192,192,4806,1,0,0:0:0:0:
64,192,4909,1,2,0:0:0:0:
192,192,4909,1,0,0:0:0:0:
320,192,5012,1,0,0:0:0:0:
64,192,5114,1,2,0:0:0:0:
192,192,5114,1,0,0:0:0:0:
320,192,5217,1,2,0:0:0:0:
448,192,5217,1,0,0:0:0:0:
64,192,5628,1,2,0:0:0:0:
192,192,5628,1,0,0:0:0:0:
320,192,5731,1,2,0:0:0:0:
448,192,5731,1,8,0:0:0:0:
64,192,5833,1,2,0:0:0:0:
192,192,5833,1,0,0:0:0:0:
64,192,5936,1,2,0:0:0:0:
320,192,5936,1,0,0:0:0:0:
192,192,6039,1,2,0:0:0:0:
448,192,6039,1,8,0:0:0:0:
320,192,6142,1,0,0:0:0:0:
64,192,6244,1,2,0:0:0:0:
448,192,6244,1,8,0:0:0:0:
192,192,6347,1,0,0:0:0:0:
320,192,6450,1,2,0:0:0:0:
448,192,6450,1,8,0:0:0:0:
64,192,6553,1,0,0:0:0:0:
192,192,6655,1,2,0:0:0:0:
448,192,6655,1,8,0:0:0:0:
320,192,6758,1,0,0:0:0:0:
64,192,6861,1,2,0:0:0:0:
448,192,6861,1,8,0:0:0:0:
64,192,7066,1,8,0:0:0:0:
320,192,7066,1,0,0:0:0:0:
320,192,7272,1,2,0:0:0:0:
448,192,7272,1,0,0:0:0:0:
320,192,7375,1,2,0:0:0:0:
448,192,7375,1,0,0:0:0:0:
64,192,7477,1,8,0:0:0:0:
192,192,7477,1,0,0:0:0:0:
192,192,7683,1,2,0:0:0:0:
448,192,7683,1,0,0:0:0:0:
320,192,7888,1,8,0:0:0:0:
448,192,7888,1,0,0:0:0:0:
64,192,7991,1,2,0:0:0:0:
192,192,7991,1,0,0:0:0:0:
320,192,8094,1,0,0:0:0:0:
64,192,8196,1,2,0:0:0:0:
192,192,8196,1,0,0:0:0:0:
320,192,8299,1,8,0:0:0:0:
448,192,8299,1,0,0:0:0:0:
64,192,8505,1,2,0:0:0:0:
448,192,8505,1,0,0:0:0:0:
64,192,8710,1,8,0:0:0:0:
320,192,8710,1,0,0:0:0:0:
64,192,8916,1,2,0:0:0:0:
192,192,8916,1,0,0:0:0:0:
64,192,9018,1,2,0:0:0:0:
192,192,9018,1,0,0:0:0:0:
320,192,9121,1,8,0:0:0:0:
448,192,9121,1,0,0:0:0:0:
64,192,9327,1,2,0:0:0:0:
320,192,9327,1,0,0:0:0:0:
64,192,9532,1,8,0:0:0:0:
192,192,9532,1,0,0:0:0:0:
320,192,9635,1,2,0:0:0:0:
448,192,9635,1,0,0:0:0:0:
192,192,9738,1,0,0:0:0:0:
320,192,9840,1,2,0:0:0:0:
448,192,9840,1,0,0:0:0:0:
64,192,9943,1,8,0:0:0:0:
192,192,9943,1,0,0:0:0:0:
64,192,10149,1,2,0:0:0:0:
448,192,10149,1,0,0:0:0:0:
192,192,10251,1,0,0:0:0:0:
64,192,10354,1,8,0:0:0:0:
320,192,10354,1,0,0:0:0:0:
448,192,10457,1,0,0:0:0:0:
64,192,10559,1,2,0:0:0:0:
192,192,10559,1,0,0:0:0:0:
320,192,10662,1,2,0:0:0:0:
192,192,10765,1,8,0:0:0:0:
448,192,10765,1,0,0:0:0:0:
64,192,10868,1,0,0:0:0:0:
320,192,10970,1,2,0:0:0:0:
448,192,10970,1,0,0:0:0:0:
192,192,11073,1,0,0:0:0:0:
64,192,11176,1,8,0:0:0:0:
320,192,11176,1,0,0:0:0:0:
448,192,11279,1,2,0:0:0:0:
320,192,11381,1,0,0:0:0:0:
64,192,11484,1,2,0:0:0:0:
192,192,11587,1,8,0:0:0:0:
448,192,11587,1,0,0:0:0:0:
320,192,11690,1,0,0:0:0:0:
64,192,11792,1,2,0:0:0:0:
192,192,11792,1,0,0:0:0:0:
448,192,11895,1,0,0:0:0:0:
64,192,11998,1,8,0:0:0:0:
320,192,11998,1,0,0:0:0:0:
192,192,12101,1,0,0:0:0:0:
320,192,12203,1,2,0:0:0:0:
448,192,12203,1,0,0:0:0:0:
64,192,12306,1,2,0:0:0:0:
192,192,12409,1,8,0:0:0:0:
448,192,12409,1,0,0:0:0:0:
320,192,12512,1,0,0:0:0:0:
64,192,12614,1,4,0:0:0:0:
448,192,12614,1,0,0:0:0:0:
192,192,12820,1,12,0:0:0:0:
320,192,12922,1,2,0:0:0:0:
448,192,12922,1,4,0:0:0:0:
64,192,13025,1,0,0:0:0:0:
192,192,13128,1,2,0:0:0:0:
448,192,13128,1,4,0:0:0:0:
320,192,13231,1,4,0:0:0:0:
192,192,13333,1,4,0:0:0:0:
64,192,13436,1,2,0:0:0:0:
448,192,13436,1,0,0:0:0:0:
320,192,13847,1,0,0:0:0:0:
64,192,14053,1,0,0:0:0:0:
320,192,14155,1,2,0:0:0:0:
448,192,14155,1,0,0:0:0:0:
64,192,14258,1,2,0:0:0:0:
192,192,14258,1,0,0:0:0:0:
448,192,14464,1,0,0:0:0:0:
320,192,14566,1,0,0:0:0:0:
192,192,14669,1,0,0:0:0:0:
64,192,14772,1,0,0:0:0:0:
320,192,14875,1,2,0:0:0:0:
448,192,14875,1,0,0:0:0:0:
192,192,14977,1,0,0:0:0:0:
64,192,15080,1,2,0:0:0:0:
448,192,15080,1,0,0:0:0:0:
192,192,15491,1,0,0:0:0:0:
448,192,15696,1,0,0:0:0:0:
64,192,15799,1,2,0:0:0:0:
192,192,15799,1,0,0:0:0:0:
320,192,15902,1,2,0:0:0:0:
448,192,15902,1,0,0:0:0:0:
192,192,16005,1,4,0:0:0:0:
448,192,16107,1,0,0:0:0:0:
320,192,16210,1,4,0:0:0:0:
192,192,16313,1,4,0:0:0:0:
64,192,16416,1,0,0:0:0:0:
320,192,16518,1,2,0:0:0:0:
448,192,16518,1,8,0:0:0:0:
192,192,16621,1,4,0:0:0:0:
64,192,16724,1,2,0:0:0:0:
448,192,16724,1,0,0:0:0:0:
192,192,17135,1,2,0:0:0:0:
448,192,17340,1,0,0:0:0:0:
64,192,17443,1,2,0:0:0:0:
192,192,17443,1,0,0:0:0:0:
320,192,17546,1,2,0:0:0:0:
448,192,17546,1,0,0:0:0:0:
64,192,17751,1,0,0:0:0:0:
192,192,17854,1,0,0:0:0:0:
320,192,17957,1,2,0:0:0:0:
448,192,18059,1,0,0:0:0:0:
64,192,18162,1,2,0:0:0:0:
192,192,18162,1,0,0:0:0:0:
320,192,18265,1,0,0:0:0:0:
64,192,18368,1,2,0:0:0:0:
448,192,18368,1,0,0:0:0:0:
320,192,18779,1,2,0:0:0:0:
64,192,18984,1,8,0:0:0:0:
320,192,19087,1,2,0:0:0:0:
192,192,19190,1,2,0:0:0:0:
320,192,19292,1,8,0:0:0:0:
448,192,19292,1,0,0:0:0:0:
64,192,19395,1,8,0:0:0:0:
192,192,19395,1,0,0:0:0:0:
320,192,19498,1,8,0:0:0:0:
448,192,19498,1,0,0:0:0:0:
64,192,19601,1,2,0:0:0:0:
192,192,19601,1,8,0:0:0:0:
448,192,19703,1,0,0:0:0:0:
64,192,19806,1,2,0:0:0:0:
320,192,19806,1,0,0:0:0:0:
192,192,19909,1,0,0:0:0:0:
64,192,20012,1,2,0:0:0:0:
448,192,20012,1,0,0:0:0:0:
192,192,20320,1,8,0:0:0:0:
448,192,20320,1,0,0:0:0:0:
64,192,20628,1,2,0:0:0:0:
192,192,20628,1,0,0:0:0:0:
64,192,20833,1,2,0:0:0:0:
192,192,20833,1,0,0:0:0:0:
64,192,21039,1,8,0:0:0:0:
320,192,21039,1,0,0:0:0:0:
320,192,21244,1,2,0:0:0:0:
448,192,21244,1,0,0:0:0:0:
320,192,21450,1,2,0:0:0:0:
448,192,21450,1,0,0:0:0:0:
64,192,21655,1,8,0:0:0:0:
448,192,21655,1,0,0:0:0:0:
64,192,21861,1,2,0:0:0:0:
192,192,21861,1,0,0:0:0:0:
320,192,21964,1,8,0:0:0:0:
448,192,21964,1,0,0:0:0:0:
64,192,22272,1,2,0:0:0:0:
448,192,22272,1,8,0:0:0:0:
64,192,22477,1,2,0:0:0:0:
320,192,22477,1,8,0:0:0:0:
320,192,22683,1,2,0:0:0:0:
448,192,22683,1,0,0:0:0:0:
64,192,22888,1,2,0:0:0:0:
192,192,22888,1,0,0:0:0:0:
320,192,22991,1,2,0:0:0:0:
448,192,22991,1,0,0:0:0:0:
64,192,23094,1,2,0:0:0:0:
192,192,23094,1,8,0:0:0:0:
64,192,23299,1,2,0:0:0:0:
192,192,23299,1,0,0:0:0:0:
320,192,23505,1,2,0:0:0:0:
448,192,23505,1,0,0:0:0:0:
192,192,23710,1,2,0:0:0:0:
448,192,23710,1,0,0:0:0:0:
320,192,24018,1,2,0:0:0:0:
448,192,24018,1,0,0:0:0:0:
64,192,24121,1,8,0:0:0:0:
192,192,24121,1,0,0:0:0:0:
192,192,24327,1,2,0:0:0:0:
320,192,24327,1,0,0:0:0:0:
192,192,24532,1,2,0:0:0:0:
320,192,24532,1,0,0:0:0:0:
64,192,24738,1,8,0:0:0:0:
448,192,24738,1,0,0:0:0:0:
192,192,24840,1,8,0:0:0:0:
320,192,24840,1,0,0:0:0:0:
64,192,24943,1,2,0:0:0:0:
448,192,24943,1,0,0:0:0:0:
64,192,25251,1,8,0:0:0:0:
320,192,25251,1,0,0:0:0:0:
320,192,25559,1,2,0:0:0:0:
448,192,25559,1,0,0:0:0:0:
320,192,25765,1,2,0:0:0:0:
448,192,25765,1,0,0:0:0:0:
192,192,25970,1,8,0:0:0:0:
448,192,25970,1,0,0:0:0:0:
64,192,26176,1,2,0:0:0:0:
192,192,26176,1,0,0:0:0:0:
64,192,26381,1,2,0:0:0:0:
192,192,26381,1,0,0:0:0:0:
64,192,26587,1,8,0:0:0:0:
448,192,26587,1,0,0:0:0:0:
320,192,26792,1,2,0:0:0:0:
448,192,26792,1,0,0:0:0:0:
64,192,26895,1,8,0:0:0:0:
192,192,26895,1,0,0:0:0:0:
64,192,27203,1,2,0:0:0:0:
448,192,27203,1,8,0:0:0:0:
192,192,27409,1,2,0:0:0:0:
448,192,27409,1,8,0:0:0:0:
64,192,27614,1,2,0:0:0:0:
192,192,27614,1,0,0:0:0:0:
320,192,27820,1,2,0:0:0:0:
448,192,27820,1,0,0:0:0:0:
64,192,27922,1,2,0:0:0:0:
192,192,27922,1,0,0:0:0:0:
320,192,28025,1,2,0:0:0:0:
448,192,28025,1,8,0:0:0:0:
320,192,28231,1,2,0:0:0:0:
448,192,28231,1,0,0:0:0:0:
64,192,28436,1,2,0:0:0:0:
192,192,28436,1,0,0:0:0:0:
64,192,28642,1,2,0:0:0:0:
448,192,28642,1,0,0:0:0:0:
320,192,28847,1,4,0:0:0:0:
64,192,28950,1,4,0:0:0:0:
192,192,28950,1,2,0:0:0:0:
320,192,29053,1,8,0:0:0:0:
448,192,29053,1,0,0:0:0:0:
192,192,29155,1,4,0:0:0:0:
64,192,29258,1,4,0:0:0:0:
448,192,29258,1,2,0:0:0:0:
192,192,29464,1,2,0:0:0:0:
448,192,29464,1,4,0:0:0:0:
64,192,29669,1,4,0:0:0:0:
320,192,29669,1,0,0:0:0:0:
192,192,29772,1,4,0:0:0:0:
448,192,29772,1,0,0:0:0:0:
64,192,29875,1,2,0:0:0:0:
320,192,29875,1,4,0:0:0:0:
64,192,30080,1,2,0:0:0:0:
192,192,30080,1,0,0:0:0:0:
320,192,30183,1,8,0:0:0:0:
448,192,30183,1,0,0:0:0:0:
320,192,30388,1,2,0:0:0:0:
448,192,30388,1,0,0:0:0:0:
64,192,30491,1,2,0:0:0:0:
192,192,30491,1,0,0:0:0:0:
64,192,30696,1,2,0:0:0:0:
192,192,30696,1,0,0:0:0:0:
320,192,30902,1,8,0:0:0:0:
448,192,30902,1,0,0:0:0:0:
64,192,31005,1,2,0:0:0:0:
192,192,31005,1,0,0:0:0:0:
320,192,31107,1,2,0:0:0:0:
448,192,31107,1,0,0:0:0:0:
64,192,31313,1,8,0:0:0:0:
448,192,31313,1,0,0:0:0:0:
192,192,31416,1,2,0:0:0:0:
320,192,31416,1,0,0:0:0:0:
64,192,31518,1,2,0:0:0:0:
448,192,31518,1,0,0:0:0:0:
64,192,31724,1,8,0:0:0:0:
320,192,31724,1,0,0:0:0:0:
192,192,31929,1,2,0:0:0:0:
448,192,31929,1,0,0:0:0:0:
64,192,32032,1,2,0:0:0:0:
320,192,32032,1,0,0:0:0:0:
192,192,32135,1,2,0:0:0:0:
448,192,32135,1,8,0:0:0:0:
64,192,32340,1,2,0:0:0:0:
320,192,32340,1,0,0:0:0:0:
320,192,32546,1,2,0:0:0:0:
448,192,32546,1,0,0:0:0:0:
64,192,32649,1,8,0:0:0:0:
192,192,32649,1,0,0:0:0:0:
64,192,32854,1,2,0:0:0:0:
192,192,32854,1,0,0:0:0:0:
320,192,32957,1,2,0:0:0:0:
448,192,32957,1,0,0:0:0:0:
320,192,33162,1,2,0:0:0:0:
448,192,33162,1,0,0:0:0:0:
64,192,33368,1,8,0:0:0:0:
448,192,33368,1,0,0:0:0:0:
192,192,33470,1,2,0:0:0:0:
320,192,33470,1,0,0:0:0:0:
64,192,33573,1,2,0:0:0:0:
448,192,33573,1,0,0:0:0:0:
64,192,33779,1,8,0:0:0:0:
320,192,33779,1,0,0:0:0:0:
192,192,33881,1,2,0:0:0:0:
448,192,33881,1,0,0:0:0:0:
64,192,33984,1,2,0:0:0:0:
320,192,33984,1,0,0:0:0:0:
192,192,34190,1,8,0:0:0:0:
448,192,34190,1,0,0:0:0:0:
64,192,34395,1,2,0:0:0:0:
192,192,34395,1,0,0:0:0:0:
320,192,34498,1,2,0:0:0:0:
448,192,34498,1,0,0:0:0:0:
64,192,34601,1,2,0:0:0:0:
192,192,34601,1,8,0:0:0:0:
64,192,34806,1,2,0:0:0:0:
320,192,34806,1,0,0:0:0:0:
64,192,35012,1,2,0:0:0:0:
192,192,35012,1,0,0:0:0:0:
320,192,35114,1,8,0:0:0:0:
448,192,35114,1,0,0:0:0:0:
320,192,35320,1,2,0:0:0:0:
448,192,35320,1,0,0:0:0:0:
64,192,35422,1,2,0:0:0:0:
192,192,35422,1,0,0:0:0:0:
64,192,35628,1,2,0:0:0:0:
192,192,35628,1,0,0:0:0:0:
192,192,35833,1,8,0:0:0:0:
448,192,35833,1,0,0:0:0:0:
64,192,35936,1,2,0:0:0:0:
320,192,35936,1,0,0:0:0:0:
192,192,36039,1,2,0:0:0:0:
448,192,36039,1,0,0:0:0:0:
320,192,36244,1,8,0:0:0:0:
448,192,36244,1,0,0:0:0:0:
64,192,36347,1,2,0:0:0:0:
192,192,36347,1,0,0:0:0:0:
320,192,36450,1,2,0:0:0:0:
448,192,36450,1,0,0:0:0:0:
64,192,36655,1,8,0:0:0:0:
320,192,36655,1,0,0:0:0:0:
64,192,36861,1,2,0:0:0:0:
448,192,36861,1,0,0:0:0:0:
192,192,36964,1,2,0:0:0:0:
320,192,36964,1,0,0:0:0:0:
64,192,37066,1,2,0:0:0:0:
448,192,37066,1,8,0:0:0:0:
320,192,37272,1,2,0:0:0:0:
448,192,37272,1,0,0:0:0:0:
64,192,37477,1,2,0:0:0:0:
192,192,37477,1,0,0:0:0:0:
320,192,37580,1,8,0:0:0:0:
448,192,37580,1,0,0:0:0:0:
320,192,37786,1,2,0:0:0:0:
448,192,37786,1,0,0:0:0:0:
64,192,37888,1,2,0:0:0:0:
192,192,37888,1,0,0:0:0:0:
64,192,38094,1,2,0:0:0:0:
192,192,38094,1,0,0:0:0:0:
320,192,38196,1,0,0:0:0:0:
192,192,38299,1,4,0:0:0:0:
448,192,38299,1,0,0:0:0:0:
64,192,38402,1,4,0:0:0:0:
320,192,38505,1,2,0:0:0:0:
448,192,38505,1,4,0:0:0:0:
192,192,38607,1,4,0:0:0:0:
64,192,38710,1,8,0:0:0:0:
320,192,38813,1,2,0:0:0:0:
448,192,38813,1,4,0:0:0:0:
64,192,38916,1,2,0:0:0:0:
192,192,38916,1,4,0:0:0:0:
320,192,39018,1,0,0:0:0:0:
64,192,39121,1,8,0:0:0:0:
448,192,39121,1,4,0:0:0:0:
192,192,39224,1,0,0:0:0:0:
320,192,39327,1,2,0:0:0:0:
448,192,39327,1,4,0:0:0:0:
64,192,39429,1,2,0:0:0:0:
192,192,39429,1,4,0:0:0:0:
320,192,39532,1,2,0:0:0:0:
448,192,39532,1,8,0:0:0:0:
192,192,39635,1,4,0:0:0:0:
64,192,39738,1,2,0:0:0:0:
448,192,39738,1,0,0:0:0:0:
320,192,39943,1,0,0:0:0:0:
64,192,40046,1,2,0:0:0:0:
192,192,40046,1,0,0:0:0:0:
320,192,40149,1,8,0:0:0:0:
448,192,40149,1,0,0:0:0:0:
64,192,40354,1,2,0:0:0:0:
192,192,40354,1,0,0:0:0:0:
64,192,40559,1,2,0:0:0:0:
448,192,40559,1,0,0:0:0:0:
320,192,40765,1,2,0:0:0:0:
448,192,40765,1,0,0:0:0:0:
64,192,40868,1,2,0:0:0:0:
192,192,40868,1,0,0:0:0:0:
320,192,40970,1,8,0:0:0:0:
448,192,40970,1,0,0:0:0:0:
192,192,41073,1,0,0:0:0:0:
64,192,41176,1,2,0:0:0:0:
448,192,41176,1,0,0:0:0:0:
64,192,41381,1,2,0:0:0:0:
320,192,41381,1,0,0:0:0:0:
192,192,41587,1,0,0:0:0:0:
320,192,41690,1,2,0:0:0:0:
448,192,41690,1,0,0:0:0:0:
64,192,41792,1,8,0:0:0:0:
192,192,41792,1,0,0:0:0:0:
320,192,41998,1,2,0:0:0:0:
448,192,41998,1,0,0:0:0:0:
64,192,42203,1,2,0:0:0:0:
448,192,42203,1,0,0:0:0:0:
320,192,42306,1,0,0:0:0:0:
64,192,42409,1,2,0:0:0:0:
192,192,42409,1,0,0:0:0:0:
320,192,42512,1,2,0:0:0:0:
448,192,42512,1,0,0:0:0:0:
64,192,42614,1,8,0:0:0:0:
192,192,42614,1,0,0:0:0:0:
192,192,42820,1,2,0:0:0:0:
448,192,42820,1,0,0:0:0:0:
192,192,43025,1,2,0:0:0:0:
448,192,43025,1,0,0:0:0:0:
320,192,43231,1,0,0:0:0:0:
64,192,43333,1,2,0:0:0:0:
448,192,43333,1,0,0:0:0:0:
192,192,43436,1,8,0:0:0:0:
320,192,43436,1,0,0:0:0:0:
192,192,43642,1,2,0:0:0:0:
448,192,43642,1,0,0:0:0:0:
64,192,43847,1,2,0:0:0:0:
320,192,43847,1,0,0:0:0:0:
64,192,44053,1,2,0:0:0:0:
448,192,44053,1,0,0:0:0:0:
192,192,44155,1,2,0:0:0:0:
320,192,44155,1,0,0:0:0:0:
64,192,44258,1,8,0:0:0:0:
448,192,44258,1,0,0:0:0:0:
320,192,44361,1,0,0:0:0:0:
64,192,44464,1,2,0:0:0:0:
192,192,44464,1,0,0:0:0:0:
320,192,44566,1,0,0:0:0:0:
192,192,44669,1,2,0:0:0:0:
448,192,44669,1,0,0:0:0:0:
320,192,44875,1,0,0:0:0:0:
64,192,44977,1,2,0:0:0:0:
448,192,44977,1,0,0:0:0:0:
192,192,45080,1,8,0:0:0:0:
320,192,45080,1,0,0:0:0:0:
64,192,45286,1,2,0:0:0:0:
320,192,45286,1,0,0:0:0:0:
192,192,45491,1,2,0:0:0:0:
448,192,45491,1,0,0:0:0:0:
64,192,45696,1,2,0:0:0:0:
320,192,45696,1,4,0:0:0:0:
192,192,45799,1,2,0:0:0:0:
448,192,45799,1,4,0:0:0:0:
64,192,45902,1,8,0:0:0:0:
320,192,45902,1,0,0:0:0:0:
192,192,46005,1,0,0:0:0:0:
320,192,46107,1,2,0:0:0:0:
448,192,46107,1,4,0:0:0:0:
192,192,46210,1,4,0:0:0:0:
64,192,46313,1,2,0:0:0:0:
448,192,46313,1,0,0:0:0:0:
192,192,46518,1,0,0:0:0:0:
320,192,46621,1,2,0:0:0:0:
448,192,46621,1,0,0:0:0:0:
64,192,46724,1,8,0:0:0:0:
192,192,46724,1,0,0:0:0:0:
320,192,46929,1,2,0:0:0:0:
448,192,46929,1,0,0:0:0:0:
64,192,47135,1,2,0:0:0:0:
448,192,47135,1,0,0:0:0:0:
64,192,47340,1,2,0:0:0:0:
192,192,47340,1,0,0:0:0:0:
320,192,47443,1,2,0:0:0:0:
448,192,47443,1,0,0:0:0:0:
64,192,47546,1,8,0:0:0:0:
192,192,47546,1,0,0:0:0:0:
320,192,47649,1,0,0:0:0:0:
64,192,47751,1,2,0:0:0:0:
448,192,47751,1,0,0:0:0:0:
192,192,47957,1,2,0:0:0:0:
448,192,47957,1,0,0:0:0:0:
320,192,48162,1,0,0:0:0:0:
64,192,48265,1,2,0:0:0:0:
192,192,48265,1,0,0:0:0:0:
320,192,48368,1,8,0:0:0:0:
448,192,48368,1,0,0:0:0:0:
64,192,48573,1,2,0:0:0:0:
192,192,48573,1,0,0:0:0:0:
64,192,48779,1,2,0:0:0:0:
448,192,48779,1,0,0:0:0:0:
192,192,48881,1,0,0:0:0:0:
320,192,48984,1,2,0:0:0:0:
448,192,48984,1,0,0:0:0:0:
64,192,49087,1,2,0:0:0:0:
192,192,49087,1,0,0:0:0:0:
320,192,49190,1,8,0:0:0:0:
448,192,49190,1,0,0:0:0:0:
64,192,49395,1,2,0:0:0:0:
320,192,49395,1,0,0:0:0:0:
64,192,49601,1,2,0:0:0:0:
320,192,49601,1,0,0:0:0:0:
192,192,49806,1,0,0:0:0:0:
64,192,49909,1,2,0:0:0:0:
448,192,49909,1,0,0:0:0:0:
192,192,50012,1,8,0:0:0:0:
320,192,50012,1,0,0:0:0:0:
64,192,50217,1,2,0:0:0:0:
320,192,50217,1,0,0:0:0:0:
192,192,50422,1,2,0:0:0:0:
448,192,50422,1,0,0:0:0:0:
64,192,50628,1,2,0:0:0:0:
448,192,50628,1,0,0:0:0:0:
192,192,50731,1,2,0:0:0:0:
320,192,50731,1,0,0:0:0:0:
64,192,50833,1,8,0:0:0:0:
448,192,50833,1,0,0:0:0:0:
192,192,50936,1,0,0:0:0:0:
320,192,51039,1,2,0:0:0:0:
448,192,51039,1,0,0:0:0:0:
192,192,51142,1,0,0:0:0:0:
64,192,51244,1,2,0:0:0:0:
320,192,51244,1,0,0:0:0:0:
192,192,51450,1,0,0:0:0:0:
64,192,51553,1,2,0:0:0:0:
448,192,51553,1,0,0:0:0:0:
192,192,51655,1,8,0:0:0:0:
320,192,51655,1,0,0:0:0:0:
192,192,51861,1,2,0:0:0:0:
448,192,51861,1,0,0:0:0:0:
64,192,52066,1,2,0:0:0:0:
320,192,52066,1,0,0:0:0:0:
192,192,52272,1,2,0:0:0:0:
448,192,52272,1,4,0:0:0:0:
64,192,52375,1,2,0:0:0:0:
320,192,52375,1,4,0:0:0:0:
192,192,52477,1,8,0:0:0:0:
448,192,52477,1,0,0:0:0:0:
320,192,52580,1,4,0:0:0:0:
64,192,52683,1,4,0:0:0:0:
192,192,52683,1,2,0:0:0:0:
320,192,52785,1,4,0:0:0:0:
64,192,52888,1,2,0:0:0:0:
448,192,52888,1,0,0:0:0:0:
192,192,53094,1,4,0:0:0:0:
64,192,53196,1,2,0:0:0:0:
320,192,53196,1,0,0:0:0:0:
192,192,53299,1,2,0:0:0:0:
448,192,53299,1,0,0:0:0:0:
64,192,53505,1,2,0:0:0:0:
192,192,53505,1,4,0:0:0:0:
64,192,53710,1,2,0:0:0:0:
448,192,53710,1,0,0:0:0:0:
320,192,53916,1,2,0:0:0:0:
448,192,53916,1,4,0:0:0:0:
64,192,54018,1,2,0:0:0:0:
192,192,54018,1,0,0:0:0:0:
320,192,54121,1,8,0:0:0:0:
448,192,54121,1,0,0:0:0:0:
192,192,54224,1,0,0:0:0:0:
64,192,54327,1,2,0:0:0:0:
448,192,54327,1,4,0:0:0:0:
192,192,54532,1,2,0:0:0:0:
448,192,54532,1,0,0:0:0:0:
320,192,54738,1,4,0:0:0:0:
192,192,54840,1,2,0:0:0:0:
448,192,54840,1,0,0:0:0:0:
64,192,54943,1,8,0:0:0:0:
320,192,54943,1,0,0:0:0:0:
320,192,55149,1,2,0:0:0:0:
448,192,55149,1,4,0:0:0:0:
64,192,55354,1,2,0:0:0:0:
448,192,55354,1,0,0:0:0:0:
64,192,55559,1,2,0:0:0:0:
192,192,55559,1,4,0:0:0:0:
320,192,55662,1,2,0:0:0:0:
448,192,55662,1,0,0:0:0:0:
64,192,55765,1,8,0:0:0:0:
192,192,55765,1,0,0:0:0:0:
320,192,55970,1,2,0:0:0:0:
448,192,55970,1,4,0:0:0:0:
320,192,56176,1,2,0:0:0:0:
448,192,56176,1,0,0:0:0:0:
64,192,56381,1,4,0:0:0:0:
192,192,56484,1,2,0:0:0:0:
448,192,56484,1,0,0:0:0:0:
64,192,56587,1,2,0:0:0:0:
320,192,56587,1,0,0:0:0:0:
192,192,56792,1,2,0:0:0:0:
448,192,56792,1,4,0:0:0:0:
320,192,56998,1,2,0:0:0:0:
448,192,56998,1,0,0:0:0:0:
64,192,57203,1,2,0:0:0:0:
192,192,57203,1,4,0:0:0:0:
320,192,57306,1,2,0:0:0:0:
448,192,57306,1,0,0:0:0:0:
64,192,57409,1,8,0:0:0:0:
192,192,57409,1,0,0:0:0:0:
320,192,57512,1,0,0:0:0:0:
192,192,57614,1,2,0:0:0:0:
448,192,57614,1,4,0:0:0:0:
64,192,57717,1,0,0:0:0:0:
320,192,57820,1,2,0:0:0:0:
448,192,57820,1,0,0:0:0:0:
448,192,58025,1,4,0:0:0:0:
64,192,58128,1,2,0:0:0:0:
320,192,58128,1,0,0:0:0:0:
192,192,58231,1,8,0:0:0:0:
448,192,58231,1,0,0:0:0:0:
64,192,58436,1,2,0:0:0:0:
320,192,58436,1,4,0:0:0:0:
64,192,58642,1,2,0:0:0:0:
192,192,58642,1,0,0:0:0:0:
320,192,58847,1,2,0:0:0:0:
448,192,58847,1,4,0:0:0:0:
64,192,58950,1,2,0:0:0:0:
192,192,58950,1,0,0:0:0:0:
320,192,59053,1,8,0:0:0:0:
448,192,59053,1,0,0:0:0:0:
192,192,59155,1,0,0:0:0:0:
64,192,59258,1,2,0:0:0:0:
448,192,59258,1,4,0:0:0:0:
64,192,59464,1,2,0:0:0:0:
192,192,59464,1,0,0:0:0:0:
320,192,59669,1,4,0:0:0:0:
192,192,59772,1,2,0:0:0:0:
448,192,59772,1,0,0:0:0:0:
64,192,59875,1,2,0:0:0:0:
320,192,59875,1,0,0:0:0:0:
320,192,60080,1,2,0:0:0:0:
448,192,60080,1,4,0:0:0:0:
64,192,60285,1,2,0:0:0:0:
448,192,60285,1,0,0:0:0:0:
64,192,60491,1,2,0:0:0:0:
192,192,60491,1,4,0:0:0:0:
320,192,60594,1,2,0:0:0:0:
448,192,60594,1,0,0:0:0:0:
64,192,60696,1,8,0:0:0:0:
192,192,60696,1,0,0:0:0:0:
320,192,60799,1,0,0:0:0:0:
64,192,60902,1,2,0:0:0:0:
448,192,60902,1,4,0:0:0:0:
64,192,61107,1,2,0:0:0:0:
320,192,61107,1,0,0:0:0:0:
192,192,61313,1,4,0:0:0:0:
64,192,61416,1,2,0:0:0:0:
320,192,61416,1,0,0:0:0:0:
192,192,61518,1,8,0:0:0:0:
448,192,61518,1,0,0:0:0:0:
64,192,61724,1,2,0:0:0:0:
192,192,61724,1,4,0:0:0:0:
64,192,61929,1,2,0:0:0:0:
448,192,61929,1,0,0:0:0:0:
320,192,62135,1,2,0:0:0:0:
448,192,62135,1,4,0:0:0:0:
64,192,62238,1,2,0:0:0:0:
192,192,62238,1,0,0:0:0:0:
320,192,62340,1,8,0:0:0:0:
448,192,62340,1,0,0:0:0:0:
64,192,62546,1,2,0:0:0:0:
192,192,62546,1,4,0:0:0:0:
64,192,62751,1,2,0:0:0:0:
192,192,62751,1,0,0:0:0:0:
448,192,62957,1,4,0:0:0:0:
64,192,63059,1,2,0:0:0:0:
320,192,63059,1,0,0:0:0:0:
192,192,63162,1,2,0:0:0:0:
448,192,63162,1,0,0:0:0:0:
64,192,63368,1,2,0:0:0:0:
320,192,63368,1,4,0:0:0:0:
64,192,63573,1,2,0:0:0:0:
192,192,63573,1,0,0:0:0:0:
320,192,63779,1,2,0:0:0:0:
448,192,63779,1,4,0:0:0:0:
64,192,63881,1,2,0:0:0:0:
192,192,63881,1,0,0:0:0:0:
320,192,63984,1,8,0:0:0:0:
448,192,63984,1,0,0:0:0:0:
192,192,64087,1,0,0:0:0:0:
64,192,64190,1,2,0:0:0:0:
320,192,64190,1,4,0:0:0:0:
448,192,64292,1,0,0:0:0:0:
64,192,64395,1,2,0:0:0:0:
192,192,64395,1,0,0:0:0:0:
64,192,64601,1,4,0:0:0:0:
192,192,64703,1,2,0:0:0:0:
448,192,64703,1,0,0:0:0:0:
64,192,64806,1,8,0:0:0:0:
320,192,64806,1,0,0:0:0:0:
192,192,65012,1,2,0:0:0:0:
448,192,65012,1,4,0:0:0:0:
320,192,65217,1,2,0:0:0:0:
448,192,65217,1,0,0:0:0:0:
64,192,65422,1,2,0:0:0:0:
192,192,65422,1,4,0:0:0:0:
320,192,65525,1,2,0:0:0:0:
448,192,65525,1,0,0:0:0:0:
64,192,65628,1,8,0:0:0:0:
192,192,65628,1,0,0:0:0:0:
320,192,65731,1,0,0:0:0:0:
64,192,65833,1,2,0:0:0:0:
448,192,65833,1,4,0:0:0:0:
192,192,65936,1,0,0:0:0:0:
320,192,66039,1,2,0:0:0:0:
448,192,66039,1,0,0:0:0:0:
64,192,66244,1,4,0:0:0:0:
320,192,66347,1,2,0:0:0:0:
448,192,66347,1,0,0:0:0:0:
64,192,66450,1,2,0:0:0:0:
192,192,66450,1,0,0:0:0:0:
64,192,66655,1,2,0:0:0:0:
320,192,66655,1,4,0:0:0:0:
320,192,66861,1,2,0:0:0:0:
448,192,66861,1,0,0:0:0:0:
64,192,67066,1,2,0:0:0:0:
192,192,67066,1,4,0:0:0:0:
320,192,67169,1,2,0:0:0:0:
448,192,67169,1,0,0:0:0:0:
64,192,67272,1,8,0:0:0:0:
192,192,67272,1,0,0:0:0:0:
320,192,67375,1,0,0:0:0:0:
192,192,67477,1,2,0:0:0:0:
448,192,67477,1,4,0:0:0:0:
64,192,67683,1,2,0:0:0:0:
448,192,67683,1,0,0:0:0:0:
320,192,67888,1,4,0:0:0:0:
64,192,67991,1,2,0:0:0:0:
192,192,67991,1,0,0:0:0:0:
320,192,68094,1,8,0:0:0:0:
448,192,68094,1,0,0:0:0:0:
192,192,68299,1,2,0:0:0:0:
448,192,68299,1,4,0:0:0:0:
64,192,68505,1,2,0:0:0:0:
192,192,68505,1,0,0:0:0:0:
320,192,68710,1,4,0:0:0:0:
448,192,68710,1,2,0:0:0:0:
64,192,68813,1,2,0:0:0:0:
192,192,68813,1,0,0:0:0:0:
320,192,68916,1,8,0:0:0:0:
448,192,68916,1,0,0:0:0:0:
64,192,69121,1,2,0:0:0:0:
448,192,69121,1,4,0:0:0:0:
192,192,69327,1,2,0:0:0:0:
320,192,69327,1,0,0:0:0:0:
448,192,69532,1,4,0:0:0:0:
64,192,69635,1,2,0:0:0:0:
192,192,69635,1,0,0:0:0:0:
320,192,69738,1,2,0:0:0:0:
448,192,69738,1,0,0:0:0:0:
192,192,69943,1,2,0:0:0:0:
448,192,69943,1,4,0:0:0:0:
64,192,70149,1,2,0:0:0:0:
192,192,70149,1,0,0:0:0:0:
320,192,70354,1,2,0:0:0:0:
448,192,70354,1,4,0:0:0:0:
64,192,70457,1,2,0:0:0:0:
192,192,70457,1,0,0:0:0:0:
320,192,70559,1,8,0:0:0:0:
448,192,70559,1,0,0:0:0:0:
192,192,70662,1,0,0:0:0:0:
64,192,70765,1,2,0:0:0:0:
320,192,70765,1,4,0:0:0:0:
192,192,70868,1,0,0:0:0:0:
64,192,70970,1,2,0:0:0:0:
448,192,70970,1,0,0:0:0:0:
192,192,71176,1,4,0:0:0:0:
320,192,71279,1,2,0:0:0:0:
448,192,71279,1,0,0:0:0:0:
64,192,71381,1,8,0:0:0:0:
192,192,71381,1,0,0:0:0:0:
64,192,71587,1,2,0:0:0:0:
320,192,71587,1,4,0:0:0:0:
320,192,71792,1,2,0:0:0:0:
448,192,71792,1,0,0:0:0:0:
64,192,71998,1,2,0:0:0:0:
192,192,71998,1,4,0:0:0:0:
320,192,72101,1,2,0:0:0:0:
448,192,72101,1,0,0:0:0:0:
64,192,72203,1,8,0:0:0:0:
192,192,72203,1,0,0:0:0:0:
320,192,72306,1,0,0:0:0:0:
64,192,72409,1,2,0:0:0:0:
448,192,72409,1,4,0:0:0:0:
192,192,72614,1,2,0:0:0:0:
320,192,72614,1,0,0:0:0:0:
448,192,72820,1,4,0:0:0:0:
64,192,72922,1,2,0:0:0:0:
192,192,72922,1,0,0:0:0:0:
320,192,73025,1,2,0:0:0:0:
448,192,73025,1,0,0:0:0:0:
192,192,73231,1,2,0:0:0:0:
448,192,73231,1,4,0:0:0:0:
64,192,73436,1,2,0:0:0:0:
192,192,73436,1,0,0:0:0:0:
320,192,73642,1,4,0:0:0:0:
448,192,73642,1,2,0:0:0:0:
64,192,73744,1,2,0:0:0:0:
192,192,73744,1,0,0:0:0:0:
320,192,73847,1,8,0:0:0:0:
448,192,73847,1,0,0:0:0:0:
192,192,73950,1,0,0:0:0:0:
64,192,74053,1,2,0:0:0:0:
320,192,74053,1,4,0:0:0:0:
64,192,74258,1,2,0:0:0:0:
448,192,74258,1,0,0:0:0:0:
192,192,74464,1,4,0:0:0:0:
320,192,74566,1,2,0:0:0:0:
448,192,74566,1,0,0:0:0:0:
64,192,74669,1,8,0:0:0:0:
192,192,74669,1,0,0:0:0:0:
64,192,74875,1,2,0:0:0:0:
320,192,74875,1,4,0:0:0:0:
320,192,75080,1,2,0:0:0:0:
448,192,75080,1,0,0:0:0:0:
64,192,75286,1,2,0:0:0:0:
192,192,75286,1,4,0:0:0:0:
320,192,75388,1,2,0:0:0:0:
448,192,75388,1,0,0:0:0:0:
64,192,75491,1,8,0:0:0:0:
192,192,75491,1,0,0:0:0:0:
64,192,75696,1,2,0:0:0:0:
448,192,75696,1,4,0:0:0:0:
192,192,75902,1,2,0:0:0:0:
320,192,75902,1,0,0:0:0:0:
64,192,76107,1,4,0:0:0:0:
320,192,76210,1,2,0:0:0:0:
448,192,76210,1,0,0:0:0:0:
64,192,76313,1,2,0:0:0:0:
192,192,76313,1,0,0:0:0:0:
64,192,76518,1,2,0:0:0:0:
320,192,76518,1,4,0:0:0:0:
320,192,76724,1,2,0:0:0:0:
448,192,76724,1,0,0:0:0:0:
64,192,76929,1,2,0:0:0:0:
192,192,76929,1,4,0:0:0:0:
320,192,77032,1,2,0:0:0:0:
448,192,77032,1,0,0:0:0:0:
64,192,77135,1,8,0:0:0:0:
192,192,77135,1,0,0:0:0:0:
320,192,77238,1,0,0:0:0:0:
192,192,77340,1,2,0:0:0:0:
448,192,77340,1,4,0:0:0:0:
320,192,77443,1,0,0:0:0:0:
64,192,77546,1,2,0:0:0:0:
448,192,77546,1,8,0:0:0:0:
192,192,77649,1,4,0:0:0:0:
320,192,77751,1,4,0:0:0:0:
64,192,77854,1,4,0:0:0:0:
192,192,77854,1,2,0:0:0:0:
320,192,77957,1,8,0:0:0:0:
448,192,77957,1,0,0:0:0:0:
64,192,78059,1,0,0:0:0:0:
192,192,78162,1,4,0:0:0:0:
448,192,78162,1,2,0:0:0:0:
320,192,78265,1,0,0:0:0:0:
64,192,78368,1,4,0:0:0:0:
192,192,78368,1,2,0:0:0:0:
448,192,78470,1,0,0:0:0:0:
192,192,78573,1,4,0:0:0:0:
320,192,78573,1,2,0:0:0:0:
64,192,78676,1,4,0:0:0:0:
448,192,78676,1,2,0:0:0:0:
320,192,78779,1,4,0:0:0:0:
192,192,78881,1,4,0:0:0:0:
320,192,78984,1,4,0:0:0:0:
448,192,78984,1,2,0:0:0:0:
192,192,79087,1,4,0:0:0:0:
64,192,79190,1,2,0:0:0:0:
448,192,79190,1,8,0:0:0:0:
