osu file format v14

[General]
AudioFilename: audio.mp3
AudioLeadIn: 0
PreviewTime: -1
Countdown: 1
SampleSet: Normal
StackLeniency: 0.7
Mode: 0
LetterboxInBreaks: 0
WidescreenStoryboard: 0

[Editor]
DistanceSpacing: 1.9
BeatDivisor: 4
GridSize: 8
TimelineZoom: 2.2

[Metadata]
Title:Treacherous Maiden ~ Judas Kiss
TitleUnicode:Treacherous Maiden ~ Judas Kiss
Artist:ZUN
ArtistUnicode:ZUN
Creator:Champs de ble
Version:All Out
Source:東方 Project
Tags:
BeatmapID:1796372
BeatmapSetID:859690

[Difficulty]
HPDrainRate:5
CircleSize:5
OverallDifficulty:8.8
ApproachRate:8
SliderMultiplier:1.6
SliderTickRate:1

[Events]
//Background and Video events
0,0,"Mai.(Touhou).full.2067131.jpg",0,0
//Break Periods
2,16127,18257
//Storyboard Layer 0 (Background)
//Storyboard Layer 1 (Fail)
//Storyboard Layer 2 (Pass)
//Storyboard Layer 3 (Foreground)
//Storyboard Sound Samples

[TimingPoints]
7060,373.366521468575,4,1,0,100,1,0

[HitObjects]
208,344,7059,5,0,0:0:0:0:
136,328,7153,1,0,0:0:0:0:
72,288,7246,1,0,0:0:0:0:
40,224,7340,1,0,0:0:0:0:
112,224,7433,1,0,0:0:0:0:
184,224,7526,1,0,0:0:0:0:
256,224,7620,1,0,0:0:0:0:
328,224,7713,1,0,0:0:0:0:
392,136,7806,5,0,0:0:0:0:
336,88,7900,1,0,0:0:0:0:
264,64,7993,1,0,0:0:0:0:
192,64,8086,1,0,0:0:0:0:
128,96,8180,1,0,0:0:0:0:
128,168,8273,1,0,0:0:0:0:
128,240,8366,1,0,0:0:0:0:
128,312,8460,1,0,0:0:0:0:
248,312,8553,5,0,0:0:0:0:
192,264,8646,1,0,0:0:0:0:
136,216,8740,1,0,0:0:0:0:
80,168,8833,1,0,0:0:0:0:
80,96,8926,1,0,0:0:0:0:
144,64,9020,1,0,0:0:0:0:
216,64,9113,1,0,0:0:0:0:
288,64,9206,1,0,0:0:0:0:
392,120,9300,5,0,0:0:0:0:
368,192,9393,1,0,0:0:0:0:
328,256,9486,1,0,0:0:0:0:
272,304,9580,1,0,0:0:0:0:
208,336,9673,1,0,0:0:0:0:
136,336,9766,1,0,0:0:0:0:
136,264,9860,1,0,0:0:0:0:
136,192,9953,1,0,0:0:0:0:
56,88,10046,5,0,0:0:0:0:
56,160,10140,1,0,0:0:0:0:
56,232,10233,1,0,0:0:0:0:
112,280,10326,1,0,0:0:0:0:
184,280,10420,1,0,0:0:0:0:
256,280,10513,1,0,0:0:0:0:
304,336,10606,1,0,0:0:0:0:
376,336,10700,1,0,0:0:0:0:
456,232,10793,5,0,0:0:0:0:
416,168,10887,1,0,0:0:0:0:
360,120,10980,1,0,0:0:0:0:
288,112,11073,1,0,0:0:0:0:
312,184,11167,1,0,0:0:0:0:
272,248,11260,1,0,0:0:0:0:
216,200,11353,1,0,0:0:0:0:
160,152,11447,1,0,0:0:0:0:
240,56,11540,5,0,0:0:0:0:
240,128,11633,1,0,0:0:0:0:
240,200,11727,1,0,0:0:0:0:
232,272,11820,1,0,0:0:0:0:
180,317,11913,1,0,0:0:0:0:
128,272,12007,1,0,0:0:0:0:
128,200,12100,1,0,0:0:0:0:
128,128,12193,1,0,0:0:0:0:
216,200,12287,5,0,0:0:0:0:
288,200,12380,1,0,0:0:0:0:
360,200,12473,1,0,0:0:0:0:
432,200,12567,1,0,0:0:0:0:
384,256,12660,1,0,0:0:0:0:
328,304,12753,1,0,0:0:0:0:
256,320,12847,1,0,0:0:0:0:
184,320,12940,1,0,0:0:0:0:
56,320,13033,6,0,L|56:280,5,40
56,208,13593,1,0,0:0:0:0:
56,136,13687,1,0,0:0:0:0:
104,40,13780,2,0,L|144:40,5,40
216,40,14340,1,0,0:0:0:0:
288,40,14433,1,0,0:0:0:0:
432,40,14527,5,0,0:0:0:0:
464,96,14620,1,0,0:0:0:0:
480,160,14714,1,0,0:0:0:0:
480,224,14807,1,0,0:0:0:0:
448,280,14900,1,0,0:0:0:0:
400,328,14994,1,0,0:0:0:0:
336,352,15087,1,0,0:0:0:0:
264,352,15180,1,0,0:0:0:0:
184,352,15274,5,0,0:0:0:0:
104,320,15367,1,0,0:0:0:0:
40,264,15460,1,0,0:0:0:0:
0,184,15554,1,0,0:0:0:0:
24,104,15647,1,0,0:0:0:0:
72,32,15740,1,0,0:0:0:0:
152,8,15834,1,0,0:0:0:0:
236,8,15927,1,0,0:0:0:0:
64,168,19007,6,0,P|112:112|160:96,1,120
176,16,19380,2,0,P|240:24|288:56,1,120
368,24,19754,2,0,P|352:104|328:136,1,120
264,184,20127,2,0,P|328:224|352:264,1,120
216,360,20501,6,0,P|192:320|152:256,1,120
88,304,20874,2,0,L|24:200,1,120
96,152,21247,2,0,L|144:40,1,120
208,104,21621,2,0,L|256:-8,1,120
384,32,21994,5,0,0:0:0:0:
384,208,22368,1,0,0:0:0:0:
184,208,22741,1,0,0:0:0:0:
184,32,23114,1,0,0:0:0:0:
184,208,23488,1,0,0:0:0:0:
384,208,23861,1,0,0:0:0:0:
384,368,24234,1,0,0:0:0:0:
184,376,24608,1,0,0:0:0:0:
248,232,24981,6,0,P|296:160|328:152,1,120
184,192,25354,2,0,P|232:112|264:96,1,120
112,176,25728,2,0,P|152:88|176:64,1,120
40,160,26101,2,0,P|72:64|88:40,1,120
280,40,26475,6,0,L|376:120,1,120
248,128,26848,2,0,L|344:208,1,120
208,216,27221,2,0,L|304:296,1,120
152,296,27595,2,0,L|248:376,1,120
440,320,27968,5,0,0:0:0:0:
440,152,28341,1,0,0:0:0:0:
440,152,28715,1,0,0:0:0:0:
272,152,29088,1,0,0:0:0:0:
104,64,29461,5,0,0:0:0:0:
104,272,29742,1,0,0:0:0:0:
224,112,30022,1,0,0:0:0:0:
224,280,30208,5,0,0:0:0:0:
280,344,30333,1,0,0:0:0:0:
336,280,30457,1,0,0:0:0:0:
384,216,30582,1,0,0:0:0:0:
440,152,30706,1,0,0:0:0:0:
440,64,30831,1,0,0:0:0:0:
296,40,30955,5,0,0:0:0:0:
240,88,31048,1,0,0:0:0:0:
184,40,31142,1,0,0:0:0:0:
120,64,31235,1,0,0:0:0:0:
80,120,31328,1,0,0:0:0:0:
56,184,31422,1,0,0:0:0:0:
56,248,31515,1,0,0:0:0:0:
96,304,31608,1,0,0:0:0:0:
32,368,31702,5,0,0:0:0:0:
96,368,31795,1,0,0:0:0:0:
160,368,31888,1,0,0:0:0:0:
224,368,31982,1,0,0:0:0:0:
288,368,32075,1,0,0:0:0:0:
352,368,32168,1,0,0:0:0:0:
416,368,32262,1,0,0:0:0:0:
480,368,32355,1,0,0:0:0:0:
424,256,32448,5,0,0:0:0:0:
376,208,32542,1,0,0:0:0:0:
328,160,32635,1,0,0:0:0:0:
392,160,32728,1,0,0:0:0:0:
440,112,32822,1,0,0:0:0:0:
408,56,32915,1,0,0:0:0:0:
352,24,33008,1,0,0:0:0:0:
288,16,33102,1,0,0:0:0:0:
160,16,33195,5,0,0:0:0:0:
160,80,33288,1,0,0:0:0:0:
160,144,33382,1,0,0:0:0:0:
160,208,33475,1,0,0:0:0:0:
160,272,33569,1,0,0:0:0:0:
160,336,33662,1,0,0:0:0:0:
96,336,33755,1,0,0:0:0:0:
32,336,33849,1,0,0:0:0:0:
96,240,33942,5,0,0:0:0:0:
144,192,34035,1,0,0:0:0:0:
192,144,34129,1,0,0:0:0:0:
256,120,34222,1,0,0:0:0:0:
320,128,34315,1,0,0:0:0:0:
352,184,34409,1,0,0:0:0:0:
328,248,34502,1,0,0:0:0:0:
272,280,34595,1,0,0:0:0:0:
336,376,34689,5,0,0:0:0:0:
336,312,34782,1,0,0:0:0:0:
336,248,34875,1,0,0:0:0:0:
336,184,34969,1,0,0:0:0:0:
336,120,35062,1,0,0:0:0:0:
336,56,35155,1,0,0:0:0:0:
272,56,35249,1,0,0:0:0:0:
208,56,35342,1,0,0:0:0:0:
112,24,35435,5,0,0:0:0:0:
52,52,35529,1,0,0:0:0:0:
24,112,35622,1,0,0:0:0:0:
52,172,35715,1,0,0:0:0:0:
116,192,35809,1,0,0:0:0:0:
180,200,35902,1,0,0:0:0:0:
240,224,35995,1,0,0:0:0:0:
280,276,36089,1,0,0:0:0:0:
328,324,36182,1,0,0:0:0:0:
384,360,36275,1,0,0:0:0:0:
452,360,36369,1,0,0:0:0:0:
504,316,36462,1,0,0:0:0:0:
476,256,36555,1,0,0:0:0:0:
416,224,36649,1,0,0:0:0:0:
380,168,36742,1,0,0:0:0:0:
400,104,36835,1,0,0:0:0:0:
292,32,36929,5,0,0:0:0:0:
228,40,37022,1,0,0:0:0:0:
164,64,37116,1,0,0:0:0:0:
116,108,37209,1,0,0:0:0:0:
92,172,37302,1,0,0:0:0:0:
104,240,37396,1,0,0:0:0:0:
152,284,37489,1,0,0:0:0:0:
212,312,37582,1,0,0:0:0:0:
120,376,37676,5,0,0:0:0:0:
184,376,37769,1,0,0:0:0:0:
248,376,37862,1,0,0:0:0:0:
312,376,37956,1,0,0:0:0:0:
376,376,38049,1,0,0:0:0:0:
440,376,38142,1,0,0:0:0:0:
504,376,38236,1,0,0:0:0:0:
504,312,38329,1,0,0:0:0:0:
424,216,38422,5,0,0:0:0:0:
384,164,38516,1,0,0:0:0:0:
336,120,38609,1,0,0:0:0:0:
284,80,38702,1,0,0:0:0:0:
284,148,38796,1,0,0:0:0:0:
276,212,38889,1,0,0:0:0:0:
244,272,38982,1,0,0:0:0:0:
184,304,39076,1,0,0:0:0:0:
72,360,39169,5,0,0:0:0:0:
72,296,39262,1,0,0:0:0:0:
72,232,39356,1,0,0:0:0:0:
72,168,39449,1,0,0:0:0:0:
72,104,39542,1,0,0:0:0:0:
72,40,39636,1,0,0:0:0:0:
136,40,39729,1,0,0:0:0:0:
200,40,39822,1,0,0:0:0:0:
328,80,39916,5,0,0:0:0:0:
272,116,40009,1,0,0:0:0:0:
240,172,40102,1,0,0:0:0:0:
232,240,40196,1,0,0:0:0:0:
264,300,40289,1,0,0:0:0:0:
228,356,40382,1,0,0:0:0:0:
164,368,40476,1,0,0:0:0:0:
104,336,40569,1,0,0:0:0:0:
8,248,40662,5,0,0:0:0:0:
8,184,40756,1,0,0:0:0:0:
76,184,40849,1,0,0:0:0:0:
136,184,40943,1,0,0:0:0:0:
200,184,41036,1,0,0:0:0:0:
264,184,41129,1,0,0:0:0:0:
328,184,41223,1,0,0:0:0:0:
392,184,41316,1,0,0:0:0:0:
352,280,41409,5,0,0:0:0:0:
296,316,41503,1,0,0:0:0:0:
232,308,41596,1,0,0:0:0:0:
176,272,41689,1,0,0:0:0:0:
180,204,41783,1,0,0:0:0:0:
232,164,41876,1,0,0:0:0:0:
260,104,41969,1,0,0:0:0:0:
224,48,42063,1,0,0:0:0:0:
104,16,42156,5,0,0:0:0:0:
104,80,42249,1,0,0:0:0:0:
104,144,42343,1,0,0:0:0:0:
104,208,42436,1,0,0:0:0:0:
168,208,42529,1,0,0:0:0:0:
232,208,42623,1,0,0:0:0:0:
296,208,42716,1,0,0:0:0:0:
360,208,42809,1,0,0:0:0:0:
360,272,42903,1,0,0:0:0:0:
