osu file format v14

[General]
AudioFilename: audio.mp3
AudioLeadIn: 0
PreviewTime: 0
Countdown: 0
SampleSet: Soft
StackLeniency: 0.7
Mode: 0
LetterboxInBreaks: 0
WidescreenStoryboard: 1

[Editor]
Bookmarks: 27065,52836,78608,91494,117266,143038,155924,168809,181695
DistanceSpacing: 1
BeatDivisor: 4
GridSize: 8
TimelineZoom: 1

[Metadata]
Title:Toragara no Bishamonten
TitleUnicode:虎柄の毘沙門天
Artist:ZUN
ArtistUnicode:ZUN
Creator:Halfslashed
Version:Normal
Source:東方星蓮船 ~ Undefined Fantastic Object.
Tags:東方project touhou seireisen ufo th12 shou toramaru 寅丸 星 the tiger-patterned tiger patterned vaisravana video game instrumental consumerofbean failureatosu owc2021ro32dt3 team shanghai alice dōjin doujin stage 5 boss comiket 76
BeatmapID:3133282
BeatmapSetID:1381135

[Difficulty]
HPDrainRate:3
CircleSize:3
OverallDifficulty:4
ApproachRate:6
SliderMultiplier:0.999999999999999
SliderTickRate:1

[Events]
//Background and Video events
0,0,"shou bg.jpg",0,0
//Break Periods
2,56076,64129
2,149499,154331
//Storyboard Layer 0 (Background)
//Storyboard Layer 1 (Fail)
//Storyboard Layer 2 (Pass)
//Storyboard Layer 3 (Foreground)
//Storyboard Layer 4 (Overlay)
//Storyboard Sound Samples

[TimingPoints]
-2,428.571428571429,4,2,1,50,1,0
6855,424.028268551237,4,2,1,50,1,0
13639,421.940928270042,4,2,1,50,1,0
20390,419.58041958042,4,2,1,50,1,0
27083,402.684563758389,4,2,1,50,1,0
27083,-83.3333333333333,4,2,1,80,0,1
52854,-100,4,2,1,50,0,0
65740,-100,4,2,1,60,0,0
91512,-90.9090909090909,4,2,1,50,0,0
117284,-83.3333333333333,4,2,1,90,0,1
143056,-133.333333333333,4,2,1,70,0,0
155942,-125,4,2,1,60,0,0
168827,-100,4,2,1,60,0,0

[Colours]
Combo1 : 214,7,100
Combo2 : 200,160,2
Combo3 : 201,201,201
Combo4 : 240,138,0

[HitObjects]
0,95,27083,6,0,P|68:91|124:40,1,119.999996337891,6|0,1:2|1:0,0:0:0:0:
141,12,27687,1,10,0:0:0:0:
141,12,27888,2,0,P|171:72|155:146,1,119.999996337891,2|0,1:2|1:0,0:0:0:0:
84,209,28693,2,0,P|38:173|-10:159,2,89.999997253418,2|2|10,1:2|0:0|0:0,0:0:0:0:
143,202,29499,2,0,P|112:262|128:336,1,119.999996337891,2|0,1:2|1:0,0:0:0:0:
143,366,30103,1,8,0:0:0:0:
143,366,30304,6,0,P|75:362|18:311,1,119.999996337891,6|0,1:2|1:0,0:0:0:0:
22,273,30908,1,10,0:0:0:0:
22,273,31109,2,0,P|72:227|148:224,1,119.999996337891,2|0,1:2|1:0,0:0:0:0:
226,158,31915,2,0,P|261:112|275:63,2,89.999997253418,2|2|10,1:2|0:0|0:0,0:0:0:0:
213,216,32720,2,0,P|250:272|322:295,1,119.999996337891,2|0,1:2|1:0,0:0:0:0:
302,358,33324,1,10,0:0:0:0:
302,358,33525,6,0,P|339:301|411:278,1,119.999996337891,2|0,1:2|1:0,0:0:0:0:
448,293,34129,1,10,0:0:0:0:
448,293,34331,2,0,P|442:337|422:377,2,89.999997253418,2|2|10,1:2|0:0|0:0,0:0:0:0:
495,256,35136,2,0,L|461:177,1,59.9999981689453,2|10,1:2|0:0,0:0:0:0:
420,195,35539,1,2,1:2:0:0:
420,195,35740,1,8,0:0:0:0:
420,195,35942,2,0,P|355:173|314:109,1,119.999996337891,2|2,0:0|1:2,0:0:0:0:
366,22,36747,6,0,L|445:-12,2,59.9999981689453,2|8|0,1:2|0:0|1:0,0:0:0:0:
469,82,37552,2,0,L|435:161,1,59.9999981689453,2|8,1:2|0:0,0:0:0:0:
471,191,37955,2,0,L|391:222,1,59.9999981689453,2|8,1:2|0:0,0:0:0:0:
358,191,38358,1,2,1:2:0:0:
287,93,38760,2,0,L|207:61,1,59.9999981689453,2|10,0:0|0:0,0:0:0:0:
185,109,39163,2,0,P|230:159|233:235,1,119.999996337891,10|8,0:0|0:0,0:0:0:0:
216,265,39767,1,8,0:0:0:0:
216,265,39968,6,0,P|148:261|91:209,1,119.999996337891,6|0,1:2|1:0,0:0:0:0:
73,189,40572,1,10,0:0:0:0:
73,189,40774,2,0,P|29:228|12:285,1,119.999996337891,2|0,1:2|1:0,0:0:0:0:
82,383,41579,2,0,P|99:341|102:297,2,89.999997253418,2|2|10,1:2|0:0|0:0,0:0:0:0:
142,382,42385,2,0,P|193:353|252:356,1,119.999996337891,2|0,1:2|1:0,0:0:0:0:
315,374,42989,1,8,0:0:0:0:
315,374,43190,6,0,P|285:322|288:263,1,119.999996337891,6|0,1:2|1:0,0:0:0:0:
316,212,43794,1,10,0:0:0:0:
316,212,43995,2,0,P|259:196|219:152,1,119.999996337891,2|0,1:2|1:0,0:0:0:0:
128,72,44801,2,0,P|86:89|53:118,2,89.999997253418,2|2|10,1:2|0:0|0:0,0:0:0:0:
187,61,45606,2,0,P|147:17|90:1,1,119.999996337891,2|0,1:2|1:0,0:0:0:0:
34,5,46210,1,10,0:0:0:0:
34,5,46411,6,0,P|51:61|36:119,1,119.999996337891,2|0,1:2|1:0,0:0:0:0:
22,180,47015,1,10,0:0:0:0:
22,180,47217,2,0,P|66:174|106:154,2,89.999997253418,2|2|10,1:2|0:0|0:0,0:0:0:0:
18,239,48022,2,0,L|41:294,1,59.9999981689453,2|10,1:2|0:0,0:0:0:0:
15,352,48425,1,2,1:2:0:0:
15,352,48626,1,8,0:0:0:0:
15,352,48827,2,0,P|66:323|126:325,1,119.999996337891,2|2,1:2|1:2,0:0:0:0:
242,356,49633,6,0,L|297:379,2,59.9999981689453,2|10|2,1:2|0:0|1:2,0:0:0:0:
236,236,50438,2,0,P|288:232|323:205,1,89.999997253418,2|2,1:2|0:0,0:0:0:0:
381,148,51042,1,10,0:0:0:0:
381,148,51244,2,0,P|415:187|420:231,2,89.999997253418,10|10|10,0:0|0:0|0:0,0:0:0:0:
411,96,52049,2,0,P|359:67|299:69,1,119.999996337891,10|8,0:0|0:0,0:0:0:0:
251,105,52653,1,10,0:0:0:0:
197,79,52854,1,6,1:2:0:0:
256,192,52955,12,8,55270,0:0:0:0:
508,54,65740,6,0,B|443:97|376:56|372:53|368:50|285:1|217:70,1,300,2|2,1:2|1:2,0:0:0:0:
199,162,67351,2,0,P|169:216|75:239,1,150,2|0,1:2|0:0,0:0:0:0:
47,269,68156,2,0,P|2:226|4:129,1,150,0|8,1:0|0:0,0:0:0:0:
19,95,68962,6,0,P|56:145|255:295,1,300,2|0,0:0|0:0,0:0:0:0:
342,298,70572,2,0,P|282:313|235:397,1,150,2|8,1:2|0:0,0:0:0:0:
196,353,71378,2,0,P|165:299|114:279,1,99.9999999999999,2|2,1:2|1:2,0:0:0:0:
90,303,71982,1,8,1:2:0:0:
90,303,72183,6,0,L|73:358,1,50,2|8,1:2|0:0,0:0:0:0:
34,380,72586,2,0,P|2:327|10:273,1,99.9999999999999,2|0,1:2|0:0,0:0:0:0:
49,201,73391,2,0,P|157:231|265:240,1,200,2|2,1:2|1:2,0:0:0:0:
317,171,74599,2,0,P|280:131|246:119,1,74.9999999999999,2|2,1:2|0:0,0:0:0:0:
184,107,75203,1,10,0:0:0:0:
184,107,75405,6,0,P|216:137|226:380,1,300,14|0,0:0|1:0,0:0:0:0:
279,372,76814,1,8,0:0:0:0:
279,372,77015,2,0,P|331:340|386:349,1,99.9999999999999,8|10,0:0|0:0,0:0:0:0:
450,285,77821,2,0,P|396:255|376:203,1,99.9999999999999,10|10,0:0|0:0,0:0:0:0:
379,172,78425,1,8,0:0:0:0:
426,157,78626,6,0,P|455:97|447:53,1,99.9999999999999,6|0,1:2|1:0,0:0:0:0:
368,10,79431,2,0,L|310:-10,2,50,2|8|2,1:2|0:0|1:2,0:0:0:0:
314,94,80237,2,0,P|263:137|218:141,1,99.9999999999999,2|0,1:2|1:0,0:0:0:0:
148,87,81042,2,0,L|168:29,2,50,2|8|2,1:2|0:0|1:2,0:0:0:0:
101,90,81646,1,10,0:0:0:0:
101,90,81848,6,0,P|45:127|30:169,1,99.9999999999999,2|0,1:2|1:2,0:0:0:0:
24,256,82653,2,0,L|40:303,2,50,2|8|2,1:2|0:0|1:2,0:0:0:0:
123,246,83458,2,0,P|178:283|205:359,1,150,0|8,1:2|0:0,0:0:0:0:
252,375,84264,2,0,P|318:370|352:341,1,99.9999999999999,2|10,1:2|1:2,0:0:0:0:
388,374,84868,1,10,0:0:0:0:
388,374,85069,6,0,P|450:352|496:286,1,150,6|8,1:2|0:0,0:0:0:0:
493,234,85874,2,0,L|477:187,2,50,2|8|2,1:2|0:0|1:2,0:0:0:0:
393,223,86680,2,0,P|331:201|285:135,1,150,6|8,1:2|0:0,0:0:0:0:
276,84,87485,2,0,L|229:100,2,50,2|8|2,1:2|0:0|1:2,0:0:0:0:
278,33,88089,1,10,0:0:0:0:
278,33,88291,6,0,P|213:21|140:55,1,150,6|8,1:2|0:0,0:0:0:0:
107,94,89096,2,0,L|60:78,2,50,2|8|2,1:2|0:0|1:2,0:0:0:0:
96,193,89901,6,0,P|135:255|204:282,1,150,14|8,0:0|0:0,0:0:0:0:
252,268,90707,1,10,0:0:0:0:
252,268,90908,1,8,0:0:0:0:
252,268,91109,2,0,L|268:221,1,50,8|8,0:0|0:0,0:0:0:0:
286,168,91512,5,6,1:2:0:0:
200,33,92116,1,0,0:0:0:0:
200,33,92317,2,0,P|143:28|90:-16,1,110.000003356934,10|0,0:0|1:0,0:0:0:0:
43,92,93123,2,0,P|16:142|-20:172,2,82.5000025177002,2|0|2,1:2|1:0|1:2,0:0:0:0:
95,106,93928,2,0,P|141:138|165:203,1,110.000003356934,10|0,0:0|1:0,0:0:0:0:
151,239,94532,1,8,0:0:0:0:
151,239,94734,5,6,1:2:0:0:
5,316,95338,1,0,0:0:0:0:
5,316,95539,2,0,P|37:362|102:386,1,110.000003356934,10|0,0:0|1:0,0:0:0:0:
171,317,96344,2,0,P|184:261|211:223,2,82.5000025177002,2|0|2,1:2|1:0|1:2,0:0:0:0:
201,363,97150,2,0,P|233:317|298:293,1,110.000003356934,8|0,0:0|1:0,0:0:0:0:
390,285,97955,6,0,P|422:331|487:355,1,110.000003356934,6|8,1:2|0:0,0:0:0:0:
496,307,98559,1,2,0:0:0:0:
496,307,98760,2,0,P|512:252|508:205,2,82.5000025177002,2|2|10,1:2|1:2|0:0,0:0:0:0:
446,282,99566,1,2,1:2:0:0:
337,262,99968,1,2,1:2:0:0:
286,164,100371,1,2,1:2:0:0:
367,90,100774,2,0,L|422:128,1,55.0000016784668,0|8,0:0|0:0,0:0:0:0:
451,159,101176,6,0,L|505:149,2,55.0000016784668,2|0|8,1:2|0:0|0:0,0:0:0:0:
506,254,101982,1,2,1:2:0:0:
488,361,102385,2,0,L|438:384,1,55.0000016784668,2|8,1:2|0:0,0:0:0:0:
383,375,102787,1,2,1:2:0:0:
326,280,103190,1,0,1:0:0:0:
222,316,103593,2,0,P|194:367|158:397,2,82.5000025177002,10|8|8,0:0|0:0|0:0,0:0:0:0:
205,264,104398,5,6,1:2:0:0:
55,208,105002,1,0,0:0:0:0:
55,208,105203,2,0,P|18:165|12:96,1,110.000003356934,10|0,0:0|1:0,0:0:0:0:
75,24,106009,2,0,P|131:11|169:-16,2,82.5000025177002,2|0|2,1:2|1:0|1:2,0:0:0:0:
104,70,106814,2,0,P|148:100|203:104,1,110.000003356934,10|0,0:0|1:0,0:0:0:0:
253,6,107619,5,6,1:2:0:0:
417,3,108223,1,0,0:0:0:0:
417,3,108425,2,0,P|466:26|496:71,1,110.000003356934,10|0,0:0|1:0,0:0:0:0:
425,155,109230,2,0,P|370:138|323:142,2,82.5000025177002,2|0|2,1:2|1:0|1:2,0:0:0:0:
414,209,110036,2,0,P|423:262|459:303,1,110.000003356934,8|0,0:0|1:0,0:0:0:0:
383,383,110841,6,0,P|338:352|283:348,1,110.000003356934,6|8,1:2|0:0,0:0:0:0:
249,313,111445,1,2,0:0:0:0:
249,313,111646,2,0,P|194:329|147:325,2,82.5000025177002,2|2|10,1:2|1:2|0:0,0:0:0:0:
269,261,112452,1,2,1:2:0:0:
214,165,112854,1,2,1:2:0:0:
107,192,113257,1,2,1:2:0:0:
13,134,113660,2,0,L|0:68,1,55.0000016784668,0|8,0:0|0:0,0:0:0:0:
51,54,114062,6,0,L|63:-11,2,55.0000016784668,2|0|8,1:2|0:0|0:0,0:0:0:0:
146,109,114868,2,0,P|200:125|247:121,1,82.5000025177002,2|0,1:2|0:0,0:0:0:0:
310,114,115472,1,8,0:0:0:0:
310,114,115673,2,0,P|297:170|270:207,2,82.5000025177002,2|0|10,1:2|0:0|0:0,0:0:0:0:
298,60,116478,2,0,P|339:24|392:14,1,110.000003356934,10|0,0:0|0:0,0:0:0:0:
501,67,117284,6,0,P|456:130|448:193,1,119.999996337891,6|0,1:2|1:0,0:0:0:0:
485,217,117888,1,10,0:0:0:0:
485,217,118089,2,0,P|422:261|359:270,1,119.999996337891,2|0,1:2|1:0,0:0:0:0:
279,206,118895,2,0,P|260:157|229:128,2,89.999997253418,2|2|10,1:2|0:0|0:0,0:0:0:0:
221,222,119700,2,0,P|176:284|168:348,1,119.999996337891,2|0,1:2|1:0,0:0:0:0:
208,377,120304,1,8,0:0:0:0:
208,377,120505,6,0,P|259:347|319:341,1,119.999996337891,6|0,1:2|1:0,0:0:0:0:
368,375,121109,1,10,0:0:0:0:
368,375,121311,2,0,P|423:353|466:311,1,119.999996337891,2|0,1:2|1:0,0:0:0:0:
427,198,122116,2,0,P|474:177|516:178,2,89.999997253418,2|2|10,1:2|0:0|0:0,0:0:0:0:
390,150,122921,2,0,P|334:128|291:86,1,119.999996337891,2|0,1:2|1:0,0:0:0:0:
271,30,123525,1,10,0:0:0:0:
271,30,123727,6,0,P|228:71|172:93,1,119.999996337891,2|0,1:2|1:0,0:0:0:0:
144,46,124331,1,10,0:0:0:0:
144,46,124532,2,0,P|95:27|66:-3,2,89.999997253418,2|2|10,1:2|0:0|0:0,0:0:0:0:
100,87,125338,2,0,L|35:105,1,59.9999981689453,2|10,1:2|0:0,0:0:0:0:
0,78,125740,1,2,1:2:0:0:
0,78,125942,1,8,0:0:0:0:
0,78,126143,2,0,P|28:130|35:189,1,119.999996337891,2|2,0:0|1:2,0:0:0:0:
142,242,126948,6,0,L|158:184,2,59.9999981689453,2|8|0,1:2|0:0|1:0,0:0:0:0:
22,232,127754,2,0,L|38:289,1,59.9999981689453,2|8,1:2|0:0,0:0:0:0:
12,343,128156,2,0,L|64:372,1,59.9999981689453,2|8,1:2|0:0,0:0:0:0:
124,378,128559,1,2,1:2:0:0:
229,321,128962,2,0,L|245:263,1,59.9999981689453,2|10,0:0|0:0,0:0:0:0:
291,225,129364,2,0,P|307:282|345:329,1,119.999996337891,10|8,0:0|0:0,0:0:0:0:
397,368,129968,1,8,0:0:0:0:
397,368,130170,6,0,P|454:351|501:313,1,119.999996337891,6|0,1:2|1:0,0:0:0:0:
468,262,130774,1,10,0:0:0:0:
468,262,130975,2,0,P|410:245|363:207,1,119.999996337891,2|0,1:2|1:0,0:0:0:0:
322,95,131780,2,0,P|313:43|325:2,2,89.999997253418,2|2|10,1:2|0:0|0:0,0:0:0:0:
292,147,132586,2,0,P|248:188|192:209,1,119.999996337891,2|0,1:2|1:0,0:0:0:0:
138,199,133190,1,8,0:0:0:0:
138,199,133391,6,0,P|179:242|200:298,1,119.999996337891,6|0,1:2|1:0,0:0:0:0:
150,330,133995,1,10,0:0:0:0:
150,330,134197,2,0,P|90:328|35:304,1,119.999996337891,2|0,1:2|1:0,0:0:0:0:
0,189,135002,2,0,P|8:137|-3:96,2,89.999997253418,2|2|10,1:2|0:0|0:0,0:0:0:0:
59,189,135807,2,0,P|109:158|145:109,1,119.999996337891,2|0,1:2|1:0,0:0:0:0:
140,49,136411,1,10,0:0:0:0:
140,49,136613,6,0,P|199:50|254:74,1,119.999996337891,2|0,1:2|1:0,0:0:0:0:
306,114,137217,1,10,0:0:0:0:
306,114,137418,2,0,P|297:165|309:206,2,89.999997253418,2|2|10,1:2|0:0|0:0,0:0:0:0:
346,69,138223,2,0,L|398:39,1,59.9999981689453,2|10,1:2|0:0,0:0:0:0:
465,58,138626,1,2,1:2:0:0:
465,58,138827,1,8,0:0:0:0:
465,58,139029,2,0,P|436:110|429:169,1,119.999996337891,2|2,1:2|1:2,0:0:0:0:
482,277,139834,6,0,L|511:329,2,59.9999981689453,2|10|2,1:2|0:0|1:2,0:0:0:0:
380,341,140640,2,0,P|339:373|298:384,1,89.999997253418,2|2,1:2|0:0,0:0:0:0:
215,363,141244,1,10,0:0:0:0:
215,363,141445,2,0,P|206:311|218:270,2,89.999997253418,10|10|10,0:0|0:0|0:0,0:0:0:0:
155,354,142250,2,0,P|126:301|119:242,1,119.999996337891,10|8,0:0|0:0,0:0:0:0:
147,189,142854,1,10,0:0:0:0:
198,165,143056,5,6,1:2:0:0:
256,192,143156,12,0,148895,0:0:0:0:
509,381,155942,6,0,P|461:377|391:337,1,120,6|0,1:2|0:0,0:0:0:0:
377,309,156747,2,0,P|390:260|387:242,2,59.9999999999999,10|2|10,0:0|1:2|0:0,0:0:0:0:
337,314,157552,2,0,P|301:278|294:260,2,59.9999999999999,10|10|10,0:0|0:0|0:0,0:0:0:0:
307,341,158358,2,0,P|291:366|267:384,1,59.9999999999999,0|0,1:0|1:0,0:0:0:0:
208,375,158962,1,0,1:0:0:0:
208,375,159163,5,6,1:2:0:0:
129,284,159767,1,0,0:0:0:0:
129,284,159968,2,0,P|144:258|168:240,2,59.9999999999999,10|2|10,0:0|1:2|0:0,0:0:0:0:
89,289,160774,2,0,P|53:253|46:235,2,59.9999999999999,10|10|10,0:0|0:0|0:0,0:0:0:0:
109,323,161579,1,10,0:0:0:0:
53,380,161982,2,0,L|1:370,1,40,8|8,0:0|0:0,0:0:0:0:
15,332,162385,6,0,P|36:265|27:204,1,120,2|0,1:2|1:0,0:0:0:0:
13,180,163190,2,0,P|25:135|49:101,1,79.9999999999999,10|0,0:0|0:0,0:0:0:0:
75,82,163794,1,10,0:0:0:0:
75,82,163995,2,0,P|63:37|39:3,2,79.9999999999999,10|10|10,0:0|0:0|0:0,0:0:0:0:
119,148,165203,1,10,0:0:0:0:
119,148,165405,1,10,0:0:0:0:
119,148,165606,6,0,P|187:180|277:195,1,160,6|0,1:2|0:0,0:0:0:0:
347,175,166814,2,0,L|357:123,1,40,2|10,0:0|0:0,0:0:0:0:
334,101,167217,2,0,P|379:89|413:65,2,79.9999999999999,10|10|10,0:0|0:0|0:0,0:0:0:0:
257,76,168425,1,10,0:0:0:0:
226,1,168827,6,0,P|292:19|334:19,1,99.9999999999999,6|0,1:2|1:0,0:0:0:0:
422,33,169633,2,0,L|489:12,2,50,2|8|2,1:2|0:0|1:2,0:0:0:0:
395,129,170438,2,0,P|377:195|377:237,1,99.9999999999999,2|0,1:2|1:0,0:0:0:0:
367,326,171244,2,0,L|300:305,2,50,2|8|2,1:2|0:0|1:2,0:0:0:0:
403,368,171848,1,10,0:0:0:0:
403,368,172049,6,0,P|462:334|492:304,1,99.9999999999999,2|0,1:2|1:2,0:0:0:0:
510,215,172854,2,0,L|489:148,2,50,2|8|2,1:2|0:0|1:2,0:0:0:0:
412,191,173660,2,0,P|346:173|304:173,1,99.9999999999999,0|0,1:2|1:0,0:0:0:0:
247,245,174465,2,0,L|232:292,2,50,2|8|10,1:2|0:0|1:2,0:0:0:0:
200,225,175069,1,10,0:0:0:0:
200,225,175270,6,0,P|140:191|110:161,1,99.9999999999999,6|0,1:2|1:2,0:0:0:0:
37,110,176076,2,0,L|58:43,2,50,2|8|2,1:2|0:0|1:2,0:0:0:0:
0,209,176881,6,0,P|3:258|18:306,1,99.9999999999999,6|8,1:2|0:0,0:0:0:0:
114,335,177687,2,0,L|128:382,2,50,2|8|2,1:2|0:0|1:2,0:0:0:0:
149,299,178291,1,10,0:0:0:0:
149,299,178492,2,0,P|193:277|242:266,1,99.9999999999999,6|0,1:2|1:2,0:0:0:0:
338,294,179297,2,0,L|385:308,2,50,2|8|2,1:2|0:0|1:2,0:0:0:0:
355,195,180103,2,0,P|357:145|348:96,1,99.9999999999999,14|8,0:0|0:0,0:0:0:0:
280,21,180908,1,10,0:0:0:0:
280,21,181109,1,8,0:0:0:0:
280,21,181311,2,0,L|265:68,1,50,8|8,0:0|0:0,0:0:0:0:
249,116,181713,1,6,1:2:0:0:
