osu file format v14

[General]
AudioFilename: audio.mp3
AudioLeadIn: 0
PreviewTime: 0
Countdown: 0
SampleSet: Soft
StackLeniency: 0.8
Mode: 0
LetterboxInBreaks: 0
WidescreenStoryboard: 1

[Editor]
Bookmarks: 27065,52836,78608,91494,117266,143038,155924,168809,181695
DistanceSpacing: 0.2
BeatDivisor: 4
GridSize: 4
TimelineZoom: 2.999999

[Metadata]
Title:Toragara no Bishamonten
TitleUnicode:虎柄の毘沙門天
Artist:ZUN
ArtistUnicode:ZUN
Creator:Halfslashed
Version:Insane
Source:東方星蓮船 ~ Undefined Fantastic Object.
Tags:東方project touhou seireisen ufo th12 shou toramaru 寅丸 星 the tiger-patterned tiger patterned vaisravana video game instrumental consumerofbean failureatosu owc2021ro32dt3 team shanghai alice dōjin doujin stage 5 boss comiket 76
BeatmapID:3276774
BeatmapSetID:1381135

[Difficulty]
HPDrainRate:5
CircleSize:4
OverallDifficulty:8
ApproachRate:8
SliderMultiplier:1.4
SliderTickRate:1

[Events]
//Background and Video events
0,0,"shou bg.jpg",0,0
//Break Periods
2,56076,64129
2,149499,154331
//Storyboard Layer 0 (Background)
//Storyboard Layer 1 (Fail)
//Storyboard Layer 2 (Pass)
//Storyboard Layer 3 (Foreground)
//Storyboard Layer 4 (Overlay)
//Storyboard Sound Samples

[TimingPoints]
-2,428.571428571429,4,2,1,50,1,0
6855,424.028268551237,4,2,1,50,1,0
13639,421.940928270042,4,2,1,50,1,0
20390,419.58041958042,4,2,1,50,1,0
26264,-200,4,2,1,50,0,0
27083,402.684563758389,4,2,1,50,1,0
27083,-83.3333333333333,4,2,1,80,0,1
52854,-100,4,2,1,50,0,0
56076,-125,4,2,1,50,0,0
65740,-100,4,2,1,60,0,0
78626,-100,4,2,1,60,0,0
91512,-83.3333333333333,4,2,1,50,0,0
117284,-76.9230769230769,4,2,1,90,0,1
143056,-142.857142857143,4,2,1,70,0,0
155942,-100,4,2,1,60,0,0
168827,-100,4,2,1,60,0,0

[Colours]
Combo1 : 214,7,100
Combo2 : 200,160,2
Combo3 : 201,201,201
Combo4 : 240,138,0

[HitObjects]
119,61,27083,6,0,P|77:60|32:47,1,83.9999974365235,6|8,1:2|0:0,0:0:0:0:
7,31,27385,1,0,0:0:0:0:
7,31,27485,1,0,1:0:0:0:
24,132,27687,1,10,0:0:0:0:
0,266,27888,2,0,P|42:265|128:228,1,125.999996154785,2|0,1:2|0:0,0:0:0:0:
150,206,28291,1,0,1:0:0:0:
150,206,28391,1,0,1:0:0:0:
150,206,28492,1,8,0:0:0:0:
141,36,28693,5,2,1:2:0:0:
234,14,28895,1,8,0:0:0:0:
259,30,28995,1,2,0:0:0:0:
298,105,29197,1,0,0:0:0:0:
327,112,29298,1,10,0:0:0:0:
468,45,29499,2,0,P|432:66|399:100,1,83.9999974365235,2|8,1:2|0:0,0:0:0:0:
409,243,29901,1,0,1:0:0:0:
490,321,30103,1,8,0:0:0:0:
502,275,30204,1,8,0:0:0:0:
512,231,30304,6,0,P|500:190|475:150,1,83.9999974365235,6|8,1:2|0:0,0:0:0:0:
442,134,30606,1,0,0:0:0:0:
442,134,30707,1,0,1:0:0:0:
352,186,30908,1,10,0:0:0:0:
226,146,31109,2,0,P|205:182|201:274,1,125.999996154785,2|0,1:2|0:0,0:0:0:0:
233,308,31512,1,0,1:0:0:0:
233,308,31613,1,0,1:0:0:0:
233,308,31713,1,8,0:0:0:0:
430,316,31915,5,2,1:2:0:0:
344,349,32117,1,8,0:0:0:0:
336,377,32217,1,2,0:0:0:0:
236,384,32419,1,0,0:0:0:0:
224,357,32520,1,10,0:0:0:0:
88,285,32720,2,0,P|124:263|164:251,1,83.9999974365235,2|8,1:2|0:0,0:0:0:0:
346,260,33123,1,0,1:0:0:0:
346,260,33223,1,0,1:0:0:0:
346,260,33324,1,10,0:0:0:0:
378,234,33425,1,0,1:0:0:0:
422,209,33525,6,0,P|353:145|364:69,1,167.999994873047,2|0,1:2|1:0,0:0:0:0:
193,3,34129,1,10,0:0:0:0:
71,59,34331,1,2,1:2:0:0:
102,151,34532,1,8,0:0:0:0:
111,179,34633,2,0,L|143:286,1,83.9999974365235,2|0,0:0|0:0,0:0:0:0:
150,299,34935,1,10,0:0:0:0:
53,384,35136,5,2,1:2:0:0:
31,347,35237,1,0,0:0:0:0:
44,307,35338,1,10,0:0:0:0:
0,216,35539,1,2,1:2:0:0:
0,216,35640,1,0,0:0:0:0:
0,216,35741,1,8,0:0:0:0:
53,126,35942,2,0,P|52:84|15:-2,1,125.999996154785,2|0,0:0|0:0,0:0:0:0:
76,3,36344,1,2,1:2:0:0:
76,3,36445,1,0,0:0:0:0:
76,3,36546,1,8,0:0:0:0:
76,3,36646,1,8,0:0:0:0:
76,3,36747,6,0,P|96:39|124:69,2,83.9999974365235,2|8|0,1:2|0:0|1:0,0:0:0:0:
250,243,37552,1,2,1:2:0:0:
266,215,37653,1,0,0:0:0:0:
283,189,37754,1,8,0:0:0:0:
301,163,37854,1,0,0:0:0:0:
320,138,37955,1,2,1:2:0:0:
362,131,38056,1,0,1:0:0:0:
403,124,38156,1,8,0:0:0:0:
445,119,38257,1,0,1:0:0:0:
487,114,38358,6,0,P|457:85|435:49,1,83.9999974365235,2|8,1:2|0:0,0:0:0:0:
235,1,38760,1,2,0:0:0:0:
235,1,38861,1,0,0:0:0:0:
235,1,38962,1,10,0:0:0:0:
138,94,39163,1,10,0:0:0:0:
150,143,39264,1,8,0:0:0:0:
162,191,39364,1,8,0:0:0:0:
174,240,39465,1,8,0:0:0:0:
187,289,39566,1,8,0:0:0:0:
280,371,39767,1,8,0:0:0:0:
287,342,39868,1,0,0:0:0:0:
294,314,39968,6,0,P|330:293|391:298,1,83.9999974365235,6|8,1:2|0:0,0:0:0:0:
413,313,40270,1,0,0:0:0:0:
413,313,40371,1,0,1:0:0:0:
490,370,40572,1,10,0:0:0:0:
512,243,40774,2,0,P|500:202|442:129,1,125.999996154785,2|0,1:2|0:0,0:0:0:0:
412,143,41176,1,0,1:0:0:0:
412,143,41277,1,0,1:0:0:0:
412,143,41378,1,8,0:0:0:0:
320,281,41579,5,2,1:2:0:0:
258,347,41781,1,8,0:0:0:0:
230,354,41881,1,2,0:0:0:0:
139,339,42083,1,0,0:0:0:0:
125,313,42184,1,10,0:0:0:0:
0,221,42385,2,0,P|40:210|79:163,1,83.9999974365235,2|8,1:2|0:0,0:0:0:0:
104,98,42787,1,0,1:0:0:0:
22,4,42989,1,8,0:0:0:0:
10,50,43090,1,8,0:0:0:0:
0,94,43190,6,0,P|12:135|37:175,1,83.9999974365235,6|8,1:2|0:0,0:0:0:0:
70,181,43492,1,0,0:0:0:0:
70,181,43593,1,0,1:0:0:0:
163,144,43794,1,10,0:0:0:0:
177,279,43995,2,0,P|233:252|296:247,1,125.999996154785,2|0,1:2|0:0,0:0:0:0:
339,276,44398,1,0,1:0:0:0:
339,276,44499,1,0,1:0:0:0:
339,276,44599,1,8,0:0:0:0:
512,384,44801,5,2,1:2:0:0:
493,294,45003,1,8,0:0:0:0:
485,266,45103,1,2,0:0:0:0:
464,179,45305,1,0,0:0:0:0:
457,150,45406,1,10,0:0:0:0:
389,10,45607,2,0,P|389:51|353:100,1,83.9999974365235,2|8,1:2|0:0,0:0:0:0:
270,206,46009,1,0,1:0:0:0:
270,206,46109,1,0,1:0:0:0:
270,206,46210,1,10,0:0:0:0:
294,172,46311,1,0,1:0:0:0:
324,145,46411,6,0,P|407:188|416:265,1,167.999994873047,2|0,1:2|1:0,0:0:0:0:
300,375,47015,1,10,0:0:0:0:
440,360,47217,1,2,1:2:0:0:
354,309,47418,1,8,0:0:0:0:
328,293,47519,2,0,L|239:245,1,83.9999974365235,2|0,0:0|0:0,0:0:0:0:
221,235,47821,1,10,0:0:0:0:
104,91,48022,5,2,1:2:0:0:
93,131,48123,1,0,0:0:0:0:
110,168,48223,1,10,0:0:0:0:
164,295,48425,1,2,1:2:0:0:
164,295,48525,1,0,0:0:0:0:
164,295,48626,1,8,0:0:0:0:
103,376,48827,2,0,P|113:313|102:251,1,125.999996154785,2|0,1:2|0:0,0:0:0:0:
70,227,49230,1,2,1:2:0:0:
29,239,49331,1,0,0:0:0:0:
9,275,49431,1,10,0:0:0:0:
0,316,49532,1,8,0:0:0:0:
10,357,49633,6,0,P|38:327|73:305,2,83.9999974365235,2|10|2,1:2|0:0|1:2,0:0:0:0:
17,161,50438,1,2,1:2:0:0:
24,130,50539,1,0,0:0:0:0:
33,100,50640,1,8,0:0:0:0:
41,71,50740,2,0,L|-23:60,3,41.9999987182618,2|0|0|10,0:0|1:0|0:0|0:0,0:0:0:0:
106,13,51244,5,10,0:0:0:0:
130,47,51344,1,8,0:0:0:0:
172,53,51445,1,8,0:0:0:0:
209,32,51546,1,10,0:0:0:0:
251,29,51646,1,8,0:0:0:0:
285,55,51747,1,8,0:0:0:0:
325,41,51848,1,10,0:0:0:0:
429,3,52049,1,10,0:0:0:0:
450,40,52150,1,8,0:0:0:0:
444,82,52250,1,8,0:0:0:0:
419,116,52351,1,8,0:0:0:0:
381,134,52452,1,8,0:0:0:0:
284,121,52653,1,10,0:0:0:0:
303,249,52854,6,0,B|323:294|356:359|253:432|236:438|76:377|54:225|111:204|182:152|185:150|188:147|237:120|272:97|264:1|205:-33|155:-70|103:-50|31:3|52:113|143:136|145:30,1,840,6|8,1:2|0:0,0:0:0:0:
510,8,65740,6,0,P|465:48|431:46,1,70,2|8,1:2|0:0,0:0:0:0:
329,31,66143,1,2,1:2:0:0:
322,66,66243,1,2,0:0:0:0:
238,112,66445,1,2,0:0:0:0:
296,188,66646,1,2,0:0:0:0:
399,198,66848,1,2,0:0:0:0:
421,170,66948,1,2,1:2:0:0:
506,137,67150,1,8,0:0:0:0:
512,270,67351,6,0,P|493:316|450:342,1,70,2|8,1:2|0:0,0:0:0:0:
354,384,67754,1,2,1:2:0:0:
359,348,67854,1,2,0:0:0:0:
291,265,68056,1,2,0:0:0:0:
262,363,68257,1,2,0:0:0:0:
228,376,68357,1,10,0:0:0:0:
158,295,68559,1,2,1:2:0:0:
124,308,68659,1,0,0:0:0:0:
53,383,68861,1,10,0:0:0:0:
53,383,68962,6,0,P|26:329|36:296,1,70,2|0,0:0|0:0,0:0:0:0:
23,197,69364,1,2,1:2:0:0:
57,210,69464,1,2,0:0:0:0:
162,187,69666,1,2,0:0:0:0:
85,117,69868,1,0,0:0:0:0:
85,117,69968,1,0,0:0:0:0:
85,117,70069,2,0,L|70:20,1,70,2|0,0:0|0:0,0:0:0:0:
75,8,70371,1,10,0:0:0:0:
75,8,70472,1,0,0:0:0:0:
75,8,70572,6,0,P|54:35|21:47,1,70,2|0,1:2|0:0,0:0:0:0:
222,0,70975,1,2,1:2:0:0:
211,33,71076,1,0,0:0:0:0:
208,68,71176,1,8,0:0:0:0:
212,103,71277,1,0,0:0:0:0:
298,164,71478,1,0,0:0:0:0:
298,164,71579,1,8,0:0:0:0:
256,250,71780,1,2,1:2:0:0:
244,283,71881,2,0,P|278:287|304:309,1,70,2|0,0:0|1:0,0:0:0:0:
324,351,72183,6,0,P|358:346|384:324,1,70,2|8,1:2|0:0,0:0:0:0:
509,201,72586,1,2,1:2:0:0:
474,205,72687,2,0,L|377:220,1,70
281,177,73089,1,2,0:0:0:0:
281,177,73190,1,10,0:0:0:0:
236,82,73391,1,2,1:2:0:0:
240,47,73492,1,0,0:0:0:0:
372,0,73693,1,2,0:0:0:0:
360,33,73794,6,0,P|355:67|369:98,1,70,2|8,1:2|0:0,0:0:0:0:
409,233,74197,1,2,1:2:0:0:
388,261,74298,1,2,0:0:0:0:
297,306,74499,1,2,0:0:0:0:
297,306,74599,2,0,P|302:272|288:241,1,70,2|8,1:2|0:0,0:0:0:0:
257,214,74901,2,0,P|222:217|196:239,1,70,2|0,0:0|0:0,0:0:0:0:
193,282,75203,1,10,0:0:0:0:
205,333,75304,1,8,0:0:0:0:
218,384,75405,1,14,0:0:0:0:
38,303,75807,5,0,1:0:0:0:
38,303,76210,1,0,1:0:0:0:
38,303,76613,1,0,1:0:0:0:
38,303,76713,1,0,1:0:0:0:
38,303,76814,1,8,0:0:0:0:
0,212,77015,5,8,0:0:0:0:
171,39,77317,1,8,0:0:0:0:
131,23,77418,1,10,0:0:0:0:
90,12,77519,1,8,0:0:0:0:
51,0,77619,1,8,0:0:0:0:
0,98,77821,1,10,0:0:0:0:
24,122,77921,1,8,0:0:0:0:
48,148,78022,1,8,0:0:0:0:
72,174,78123,1,8,0:0:0:0:
103,207,78223,1,10,0:0:0:0:
103,207,78324,1,8,0:0:0:0:
103,207,78425,1,8,0:0:0:0:
195,129,78626,6,0,L|259:81,3,70,6|8|0|8,1:2|0:0|1:0|0:0,0:0:0:0:
331,24,79431,1,2,1:2:0:0:
364,11,79532,1,0,0:0:0:0:
398,21,79633,1,8,0:0:0:0:
424,44,79734,1,0,0:0:0:0:
431,78,79834,1,2,1:2:0:0:
360,139,80036,1,8,0:0:0:0:
472,231,80237,6,0,L|462:151,3,70,2|8|0|8,1:2|0:0|1:0|0:0,0:0:0:0:
487,353,81042,1,2,1:2:0:0:
453,370,81143,1,0,0:0:0:0:
417,377,81244,1,8,0:0:0:0:
379,373,81344,1,0,0:0:0:0:
347,353,81445,1,2,1:2:0:0:
316,238,81646,1,10,0:0:0:0:
316,238,81747,1,8,0:0:0:0:
316,238,81848,6,0,L|395:247,3,70,2|8|0|8,1:2|0:0|1:2|0:0,0:0:0:0:
191,161,82653,1,2,1:2:0:0:
153,192,82754,1,0,0:0:0:0:
147,239,82854,1,8,0:0:0:0:
165,283,82955,1,0,0:0:0:0:
145,327,83056,1,2,1:2:0:0:
58,384,83257,1,8,0:0:0:0:
19,271,83458,6,0,L|9:191,3,70,0|8|0|8,1:2|0:0|1:0|0:0,0:0:0:0:
41,60,84264,1,2,1:2:0:0:
65,67,84365,1,0,0:0:0:0:
83,87,84466,1,8,0:0:0:0:
89,113,84567,1,0,0:0:0:0:
79,138,84667,1,10,1:2:0:0:
120,152,84767,1,8,0:0:0:0:
162,165,84868,1,10,0:0:0:0:
297,150,85069,6,0,P|248:121|201:55,1,140,6|0,1:2|1:2,0:0:0:0:
24,0,85673,1,8,0:0:0:0:
119,51,85874,1,2,1:2:0:0:
132,84,85975,1,0,0:0:0:0:
133,119,86076,1,8,0:0:0:0:
120,152,86177,1,0,0:0:0:0:
93,175,86277,1,2,1:2:0:0:
0,152,86478,1,8,0:0:0:0:
29,288,86680,6,0,P|75:269|120:278,1,70,6|8,1:2|0:0,0:0:0:0:
136,283,86982,1,0,1:0:0:0:
136,283,87082,1,8,0:0:0:0:
182,365,87284,1,8,0:0:0:0:
277,338,87485,1,2,1:2:0:0:
258,300,87586,1,0,0:0:0:0:
249,260,87687,1,8,0:0:0:0:
254,218,87787,1,0,0:0:0:0:
277,182,87888,1,2,1:2:0:0:
374,101,88089,1,10,0:0:0:0:
331,71,88190,1,8,0:0:0:0:
278,68,88291,6,0,P|332:52|395:1,1,140,6|0,1:2|1:2,0:0:0:0:
476,158,88895,1,8,0:0:0:0:
512,252,89096,1,2,1:2:0:0:
471,279,89197,1,0,0:0:0:0:
425,272,89297,1,8,0:0:0:0:
386,242,89398,1,0,0:0:0:0:
338,252,89499,1,2,1:2:0:0:
322,347,89700,1,8,0:0:0:0:
158,377,89901,6,0,L|123:384,3,35,14|8|8|8,0:0|0:0|0:0|0:0,0:0:0:0:
195,379,90304,1,8,0:0:0:0:
195,379,90405,1,8,0:0:0:0:
195,379,90505,1,8,0:0:0:0:
262,304,90707,1,10,0:0:0:0:
216,272,90807,1,8,0:0:0:0:
187,224,90908,1,8,0:0:0:0:
187,168,91009,1,8,0:0:0:0:
211,117,91109,1,8,0:0:0:0:
300,56,91311,1,8,0:0:0:0:
160,54,91512,6,0,P|95:51|1:-9,1,167.999994873047,6|0,1:2|0:0,0:0:0:0:
88,181,92116,1,0,0:0:0:0:
211,117,92317,2,0,P|247:142|342:156,1,125.999996154785,10|0,0:0|0:0,0:0:0:0:
377,153,92720,1,0,1:0:0:0:
377,153,92821,1,0,1:0:0:0:
377,153,92921,1,8,0:0:0:0:
448,31,93123,6,0,P|507:70|523:111,1,83.9999974365235,2|0,1:2|0:0,0:0:0:0:
501,115,93425,2,0,P|515:184|497:224,1,83.9999974365235,0|0,1:0|0:0,0:0:0:0:
496,233,93727,1,2,1:2:0:0:
412,377,93928,2,0,P|359:312|343:231,1,167.999994873047,10|0,0:0|1:0,0:0:0:0:
366,72,94532,1,8,0:0:0:0:
366,72,94633,1,0,1:0:0:0:
366,72,94734,6,0,P|296:25|214:17,1,167.999994873047,6|0,1:2|0:0,0:0:0:0:
47,34,95338,1,0,0:0:0:0:
0,145,95539,2,0,P|39:163|99:238,1,125.999996154785,10|0,0:0|0:0,0:0:0:0:
98,277,95942,1,0,1:0:0:0:
98,277,96042,1,0,1:0:0:0:
98,277,96143,1,8,0:0:0:0:
186,369,96344,6,0,P|256:364|290:337,1,83.9999974365235,2|0,1:2|0:0,0:0:0:0:
273,322,96646,2,0,P|319:269|324:225,1,83.9999974365235,0|0,1:0|0:0,0:0:0:0:
328,218,96948,1,2,1:2:0:0:
194,225,97150,2,0,P|169:189|154:94,1,125.999996154785,8|8,0:0|0:0,0:0:0:0:
122,113,97552,1,0,1:0:0:0:
122,113,97653,1,0,1:0:0:0:
122,113,97754,1,10,0:0:0:0:
94,145,97854,1,0,1:0:0:0:
91,187,97955,6,0,P|28:132|-1:54,1,167.999994873047,6|8,1:2|0:0,0:0:0:0:
211,0,98559,1,2,0:0:0:0:
101,75,98760,1,2,1:2:0:0:
207,89,98962,1,0,0:0:0:0:
207,89,99062,2,0,L|328:101,1,83.9999974365235,2|0,1:2|0:0,0:0:0:0:
331,103,99364,1,10,0:0:0:0:
454,17,99566,5,2,1:2:0:0:
494,25,99666,1,0,0:0:0:0:
512,63,99767,1,10,0:0:0:0:
489,173,99968,1,2,1:2:0:0:
489,173,100069,1,0,0:0:0:0:
489,173,100170,1,8,0:0:0:0:
379,174,100371,2,0,P|354:210|340:305,1,125.999996154785,2|0,1:2|1:0,0:0:0:0:
364,336,100774,1,0,0:0:0:0:
364,336,100874,1,0,0:0:0:0:
364,336,100975,1,8,0:0:0:0:
364,336,101076,1,8,0:0:0:0:
364,336,101176,6,0,P|430:358|456:393,2,83.9999974365235,2|0|8,1:2|0:0|0:0,0:0:0:0:
130,369,101982,1,2,1:2:0:0:
111,378,102082,1,0,0:0:0:0:
90,381,102183,1,8,0:0:0:0:
69,379,102284,1,0,0:0:0:0:
49,372,102385,1,2,1:2:0:0:
37,343,102485,1,0,0:0:0:0:
40,311,102586,1,8,0:0:0:0:
59,286,102687,1,0,0:0:0:0:
89,279,102787,6,0,P|135:226|140:182,1,83.9999974365235,2|0,1:2|0:0,0:0:0:0:
126,87,103190,1,0,1:0:0:0:
126,87,103291,1,0,1:0:0:0:
126,87,103391,1,10,0:0:0:0:
198,0,103593,2,0,L|227:158,1,125.999996154785,10|8,0:0|0:0,0:0:0:0:
37,263,104197,1,8,0:0:0:0:
4,237,104297,1,8,0:0:0:0:
0,195,104398,6,0,P|75:160|158:166,1,167.999994873047,6|0,1:2|0:0,0:0:0:0:
178,334,105002,1,0,0:0:0:0:
292,384,105203,2,0,P|335:387|424:352,1,125.999996154785,10|0,0:0|0:0,0:0:0:0:
443,341,105606,1,0,1:0:0:0:
443,341,105707,1,0,1:0:0:0:
443,341,105807,1,8,0:0:0:0:
512,222,106009,6,0,P|459:175|415:171,1,83.9999974365235,2|0,1:2|0:0,0:0:0:0:
405,203,106311,2,0,P|367:185|340:153,1,83.9999974365235,0|0,1:0|0:0,0:0:0:0:
316,118,106613,1,2,1:2:0:0:
366,0,106814,2,0,P|430:52|512:68,1,167.999994873047,10|0,0:0|1:0,0:0:0:0:
413,210,107418,1,8,0:0:0:0:
413,210,107519,1,0,1:0:0:0:
413,210,107619,6,0,P|330:201|261:154,1,167.999994873047,6|0,1:2|0:0,0:0:0:0:
178,0,108223,1,0,0:0:0:0:
58,40,108425,2,0,P|32:75|18:171,1,125.999996154785,10|0,0:0|0:0,0:0:0:0:
29,191,108828,1,0,1:0:0:0:
29,191,108929,1,0,1:0:0:0:
29,191,109029,1,8,0:0:0:0:
174,267,109230,6,0,P|107:289|81:325,1,83.9999974365235,2|0,1:2|0:0,0:0:0:0:
70,282,109532,2,0,P|24:334|19:379,1,83.9999974365235,0|0,1:0|0:0,0:0:0:0:
17,384,109834,1,2,1:2:0:0:
171,384,110036,2,0,P|195:347|209:252,1,125.999996154785,8|8,0:0|0:0,0:0:0:0:
208,232,110438,1,0,1:0:0:0:
208,232,110539,1,0,1:0:0:0:
208,232,110640,1,10,0:0:0:0:
185,183,110740,1,0,1:0:0:0:
172,143,110841,6,0,P|254:151|323:198,1,167.999994873047,6|8,1:2|0:0,0:0:0:0:
440,335,111445,1,2,0:0:0:0:
309,371,111646,1,2,1:2:0:0:
372,292,111848,1,0,0:0:0:0:
372,292,111948,2,0,L|442:193,1,83.9999974365235,2|0,1:2|0:0,0:0:0:0:
444,190,112250,1,10,0:0:0:0:
511,83,112452,5,2,1:2:0:0:
491,46,112552,1,0,0:0:0:0:
451,32,112653,1,10,0:0:0:0:
355,112,112854,1,2,1:2:0:0:
355,112,112954,1,0,0:0:0:0:
355,112,113055,1,8,0:0:0:0:
339,217,113257,2,0,P|281:192|238:147,1,125.999996154785,2|0,1:2|1:0,0:0:0:0:
218,115,113660,1,0,0:0:0:0:
219,73,113760,1,0,0:0:0:0:
249,43,113861,1,8,0:0:0:0:
290,52,113962,1,8,0:0:0:0:
311,88,114062,6,0,P|356:33|361:-8,2,83.9999974365235,2|0|8,1:2|0:0|0:0,0:0:0:0:
0,156,114868,1,2,1:2:0:0:
40,168,114968,1,0,0:0:0:0:
81,178,115069,1,8,0:0:0:0:
132,201,115170,1,0,0:0:0:0:
132,201,115270,1,2,1:2:0:0:
132,201,115371,1,0,0:0:0:0:
132,201,115472,1,8,0:0:0:0:
42,292,115673,6,0,P|69:355|110:376,1,83.9999974365235,2|0,1:2|0:0,0:0:0:0:
123,384,115975,1,0,0:0:0:0:
123,384,116076,2,0,P|148:320|135:276,1,83.9999974365235,0|10,1:0|0:0,0:0:0:0:
186,295,116378,1,0,0:0:0:0:
186,295,116478,2,0,P|226:343|279:373,1,125.999996154785,10|8,0:0|0:0,0:0:0:0:
272,89,117082,1,8,0:0:0:0:
286,49,117183,1,8,0:0:0:0:
301,6,117284,6,0,P|356:21|414:-2,1,90.9999958343508,6|8,1:2|0:0,0:0:0:0:
433,0,117586,1,0,0:0:0:0:
433,0,117687,1,0,1:0:0:0:
510,74,117888,1,10,0:0:0:0:
428,176,118089,2,0,P|446:255|486:315,1,136.499993751526,2|0,1:2|0:0,0:0:0:0:
505,339,118492,1,0,1:0:0:0:
505,339,118593,1,0,1:0:0:0:
505,339,118693,1,8,0:0:0:0:
359,285,118895,5,2,1:2:0:0:
270,329,119096,1,8,0:0:0:0:
263,360,119197,1,2,0:0:0:0:
171,359,119398,1,0,0:0:0:0:
151,384,119499,1,10,0:0:0:0:
42,271,119700,2,0,P|78:243|119:225,1,90.9999958343508,2|8,1:2|0:0,0:0:0:0:
299,199,120103,1,0,1:0:0:0:
200,118,120304,1,8,0:0:0:0:
155,125,120405,1,8,0:0:0:0:
111,135,120505,6,0,P|66:128|23:111,1,90.9999958343508,6|8,1:2|0:0,0:0:0:0:
0,78,120807,1,0,0:0:0:0:
0,78,120908,1,0,1:0:0:0:
53,0,121109,1,10,0:0:0:0:
180,21,121311,2,0,P|177:102|200:171,1,136.499993751526,2|0,1:2|0:0,0:0:0:0:
225,191,121713,1,0,1:0:0:0:
225,191,121814,1,0,1:0:0:0:
225,191,121915,1,8,0:0:0:0:
323,319,122116,5,2,1:2:0:0:
388,244,122317,1,8,0:0:0:0:
376,214,122418,1,2,0:0:0:0:
305,152,122619,1,0,0:0:0:0:
314,121,122720,1,10,0:0:0:0:
406,0,122921,2,0,P|434:35|469:63,1,90.9999958343508,2|8,1:2|0:0,0:0:0:0:
509,227,123324,1,0,1:0:0:0:
509,227,123425,1,0,1:0:0:0:
509,227,123525,1,10,0:0:0:0:
465,238,123626,1,0,1:0:0:0:
429,259,123727,6,0,P|385:203|265:227,1,181.999991668702,2|0,1:2|1:0,0:0:0:0:
244,367,124331,1,10,0:0:0:0:
138,295,124532,1,2,1:2:0:0:
173,208,124734,1,8,0:0:0:0:
196,229,124834,2,0,L|238:114,1,90.9999958343508,2|0,0:0|0:0,0:0:0:0:
241,103,125136,1,10,0:0:0:0:
127,4,125338,5,2,1:2:0:0:
90,30,125438,1,0,0:0:0:0:
44,25,125539,1,10,0:0:0:0:
0,129,125740,1,2,1:2:0:0:
0,129,125841,1,0,0:0:0:0:
0,129,125942,1,8,0:0:0:0:
84,195,126143,2,0,P|107:272|103:345,1,136.499993751526,2|0,0:0|0:0,0:0:0:0:
112,384,126546,1,2,1:2:0:0:
112,384,126646,1,0,0:0:0:0:
112,384,126747,1,8,0:0:0:0:
112,384,126848,1,8,0:0:0:0:
112,384,126948,6,0,P|67:377|24:360,2,90.9999958343508,2|8|0,1:2|0:0|1:0,0:0:0:0:
381,384,127754,1,2,1:2:0:0:
370,352,127854,1,0,0:0:0:0:
357,320,127955,1,8,0:0:0:0:
347,287,128056,1,0,0:0:0:0:
336,255,128156,1,2,1:2:0:0:
351,212,128257,1,0,1:0:0:0:
373,172,128358,1,8,0:0:0:0:
395,132,128458,1,0,1:0:0:0:
418,93,128559,6,0,P|460:75|504:69,1,90.9999958343508,2|8,1:2|0:0,0:0:0:0:
502,261,128962,1,2,0:0:0:0:
502,261,129062,1,0,0:0:0:0:
502,261,129163,1,10,0:0:0:0:
439,365,129364,1,10,0:0:0:0:
391,354,129465,1,8,0:0:0:0:
344,340,129566,1,8,0:0:0:0:
298,331,129666,1,8,0:0:0:0:
251,318,129767,1,8,0:0:0:0:
111,342,129968,1,8,0:0:0:0:
135,361,130069,1,0,0:0:0:0:
157,384,130170,6,0,P|150:339|133:296,1,90.9999958343508,6|8,1:2|0:0,0:0:0:0:
99,264,130472,1,0,0:0:0:0:
99,264,130572,1,0,1:0:0:0:
197,213,130774,1,10,0:0:0:0:
143,85,130975,2,0,P|60:87|-7:64,1,136.499993751526,2|0,1:2|0:0,0:0:0:0:
0,41,131378,1,0,1:0:0:0:
0,41,131478,1,0,1:0:0:0:
0,41,131579,1,8,0:0:0:0:
0,186,131780,5,2,1:2:0:0:
80,243,131982,1,8,0:0:0:0:
111,250,132082,1,2,0:0:0:0:
185,185,132284,1,0,0:0:0:0:
216,193,132385,1,10,0:0:0:0:
347,286,132586,2,0,P|340:240|322:198,1,90.9999958343508,2|8,1:2|0:0,0:0:0:0:
208,77,132989,1,0,1:0:0:0:
322,0,133190,1,8,0:0:0:0:
365,15,133291,1,8,0:0:0:0:
408,31,133391,6,0,P|435:67|453:108,1,90.9999958343508,6|8,1:2|0:0,0:0:0:0:
450,159,133693,1,0,0:0:0:0:
450,159,133794,1,0,1:0:0:0:
368,200,133995,1,10,0:0:0:0:
335,322,134197,2,0,P|394:355|461:367,1,136.499993751526,2|0,1:2|0:0,0:0:0:0:
512,366,134599,1,0,1:0:0:0:
512,366,134700,1,0,1:0:0:0:
512,366,134801,1,8,0:0:0:0:
384,229,135002,5,2,1:2:0:0:
309,303,135203,1,2,0:0:0:0:
335,322,135304,1,8,0:0:0:0:
228,352,135505,1,0,0:0:0:0:
215,381,135605,1,10,0:0:0:0:
68,340,135807,2,0,P|110:321|146:294,1,90.9999958343508,2|8,1:2|0:0,0:0:0:0:
322,116,136210,1,0,1:0:0:0:
322,116,136311,1,0,1:0:0:0:
322,116,136411,1,10,0:0:0:0:
278,103,136512,1,0,1:0:0:0:
242,98,136613,6,0,P|171:108|132:224,1,181.999991668702,2|0,1:2|1:0,0:0:0:0:
217,324,137217,1,10,0:0:0:0:
94,384,137418,1,2,1:2:0:0:
61,290,137619,1,8,0:0:0:0:
52,259,137720,2,0,L|10:134,1,90.9999958343508,2|0,0:0|0:0,0:0:0:0:
8,128,138022,1,10,0:0:0:0:
98,10,138223,5,2,1:2:0:0:
144,15,138324,1,0,0:0:0:0:
169,54,138425,1,10,0:0:0:0:
314,36,138626,1,2,1:2:0:0:
314,36,138727,1,0,0:0:0:0:
314,36,138827,1,8,0:0:0:0:
365,126,139029,2,0,P|299:143|243:181,1,136.499993751526,2|0,1:2|0:0,0:0:0:0:
243,224,139431,1,2,1:2:0:0:
282,247,139532,1,0,0:0:0:0:
327,242,139633,1,10,0:0:0:0:
367,219,139734,1,8,0:0:0:0:
410,233,139834,6,0,P|437:270|454:312,2,90.9999958343508,2|10|2,1:2|0:0|1:2,0:0:0:0:
512,49,140640,1,2,1:2:0:0:
481,56,140741,1,0,0:0:0:0:
451,65,140842,1,8,0:0:0:0:
422,74,140942,2,0,L|411:138,3,45.4999979171754,2|0|0|0,0:0|0:0|0:0|0:0,0:0:0:0:
473,247,141445,5,10,0:0:0:0:
493,290,141546,1,8,0:0:0:0:
484,334,141646,1,8,0:0:0:0:
456,370,141747,1,10,0:0:0:0:
412,383,141848,1,8,0:0:0:0:
371,362,141948,1,8,0:0:0:0:
326,373,142049,1,10,0:0:0:0:
205,324,142250,1,10,0:0:0:0:
236,289,142351,1,8,0:0:0:0:
248,245,142452,1,8,0:0:0:0:
242,200,142552,1,8,0:0:0:0:
215,162,142653,1,8,0:0:0:0:
135,95,142854,1,10,0:0:0:0:
256,47,143056,6,0,B|256:93|267:110|313:156|451:185|451:185|221:214|83:248|83:300|256:323|256:323|428:300|428:248|290:214|60:185|60:185|186:156|244:110|250:93|250:87,1,1420.99995663452,6|0,1:2|0:0,0:0:0:0:
31,348,155338,5,8,0:0:0:0:
31,348,155438,1,8,0:0:0:0:
31,348,155539,1,8,0:0:0:0:
31,348,155640,1,8,0:0:0:0:
31,348,155740,1,8,0:0:0:0:
31,348,155841,1,8,0:0:0:0:
31,348,155942,5,6,1:2:0:0:
11,93,156445,1,0,0:0:0:0:
11,93,156546,1,0,0:0:0:0:
13,67,156646,1,0,0:0:0:0:
20,42,156747,2,0,P|76:14|107:17,1,70,10|0,0:0|0:0,0:0:0:0:
107,45,157049,2,0,P|159:79|172:107,1,70,2|0,1:2|0:0,0:0:0:0:
154,127,157351,1,10,0:0:0:0:
252,212,157552,6,0,P|264:150|253:121,1,70,10|0,0:0|0:0,0:0:0:0:
316,92,157854,2,0,P|303:153|314:182,1,70,10|0,0:0|0:0,0:0:0:0:
330,195,158156,1,10,0:0:0:0:
359,289,158358,1,0,1:0:0:0:
235,351,158559,1,2,0:0:0:0:
235,351,158660,1,0,1:0:0:0:
357,384,158861,1,0,0:0:0:0:
382,377,158962,1,0,1:0:0:0:
407,370,159062,1,0,1:0:0:0:
431,362,159163,5,6,1:2:0:0:
505,338,159767,1,0,0:0:0:0:
512,231,159968,2,0,P|488:205|456:191,1,70,10|0,0:0|0:0,0:0:0:0:
410,199,160270,2,0,P|378:185|354:159,1,70,2|0,1:2|0:0,0:0:0:0:
366,115,160572,1,10,0:0:0:0:
293,13,160774,6,0,P|327:17|361:7,1,70,10|0,0:0|0:0,0:0:0:0:
456,56,161076,2,0,P|422:45|388:49,1,70,10|0,0:0|0:0,0:0:0:0:
363,88,161378,1,10,0:0:0:0:
238,189,161579,1,10,0:0:0:0:
271,173,161680,1,0,0:0:0:0:
282,140,161780,1,0,0:0:0:0:
273,106,161881,1,8,0:0:0:0:
245,84,161982,1,8,0:0:0:0:
221,95,162082,1,8,0:0:0:0:
197,106,162183,1,8,0:0:0:0:
174,119,162284,1,8,0:0:0:0:
150,130,162385,6,0,P|81:129|34:80,1,140,2|8,1:2|0:0,0:0:0:0:
0,257,162989,1,0,1:0:0:0:
0,257,163089,1,0,1:0:0:0:
0,257,163190,1,10,0:0:0:0:
68,359,163391,1,0,1:0:0:0:
60,384,163492,1,8,0:0:0:0:
201,384,163693,1,0,1:0:0:0:
201,384,163794,1,10,0:0:0:0:
215,344,163895,1,8,0:0:0:0:
254,327,163995,6,0,P|328:324|359:291,1,105,10|0,0:0|0:0,0:0:0:0:
359,280,164398,1,10,0:0:0:0:
359,280,164499,1,0,0:0:0:0:
359,280,164599,1,0,0:0:0:0:
263,203,164801,2,0,P|265:128|298:97,1,105,10|0,0:0|0:0,0:0:0:0:
317,85,165203,1,10,0:0:0:0:
393,146,165405,1,10,0:0:0:0:
511,54,165606,6,0,P|480:152|491:358,1,280,6|0,1:2|0:0,0:0:0:0:
411,50,166814,1,2,0:0:0:0:
374,59,166915,1,0,0:0:0:0:
345,38,167015,1,10,0:0:0:0:
310,36,167116,1,0,0:0:0:0:
280,55,167217,6,0,P|250:79|164:85,1,105,10|8,0:0|0:0,0:0:0:0:
151,63,167619,1,10,0:0:0:0:
151,63,167720,1,8,0:0:0:0:
151,63,167821,1,8,0:0:0:0:
44,73,168022,1,10,0:0:0:0:
32,106,168123,1,8,0:0:0:0:
36,140,168223,1,8,0:0:0:0:
47,173,168324,1,8,0:0:0:0:
79,205,168425,1,10,0:0:0:0:
79,205,168525,1,8,0:0:0:0:
79,205,168626,1,8,0:0:0:0:
196,253,168827,6,0,L|128:274,3,70,6|8|0|8,1:2|0:0|1:0|0:0,0:0:0:0:
24,268,169633,1,2,1:2:0:0:
3,296,169734,1,0,0:0:0:0:
0,331,169834,1,8,0:0:0:0:
15,363,169935,1,0,0:0:0:0:
48,375,170036,1,2,1:2:0:0:
133,317,170237,1,8,0:0:0:0:
251,381,170438,6,0,L|272:313,3,70,2|8|0|8,1:2|0:0|1:0|0:0,0:0:0:0:
399,229,171244,1,2,1:2:0:0:
429,256,171344,1,0,0:0:0:0:
441,297,171445,1,8,0:0:0:0:
425,337,171546,1,0,0:0:0:0:
388,357,171646,1,2,1:2:0:0:
283,277,171848,1,10,0:0:0:0:
283,277,171948,1,8,0:0:0:0:
283,277,172049,6,0,L|262:209,3,70,2|8|0|8,1:2|0:0|1:2|0:0,0:0:0:0:
321,114,172854,1,2,1:2:0:0:
275,131,172955,1,0,0:0:0:0:
230,114,173056,1,8,0:0:0:0:
204,73,173156,1,0,0:0:0:0:
156,71,173257,1,2,1:2:0:0:
71,122,173458,1,8,0:0:0:0:
0,0,173660,6,0,L|66:20,3,70,0|8|0|8,1:2|0:0|1:0|0:0,0:0:0:0:
193,51,174465,1,2,1:2:0:0:
219,48,174566,1,0,0:0:0:0:
242,36,174666,1,8,0:0:0:0:
266,26,174767,1,0,0:0:0:0:
279,3,174868,1,10,1:2:0:0:
291,43,174968,1,8,0:0:0:0:
301,84,175069,1,10,0:0:0:0:
210,190,175270,6,0,P|206:229|258:340,1,140,6|0,1:2|1:2,0:0:0:0:
452,373,175874,1,8,0:0:0:0:
383,311,176076,1,2,1:2:0:0:
375,277,176176,1,0,0:0:0:0:
379,242,176277,1,8,0:0:0:0:
393,212,176378,1,0,0:0:0:0:
418,188,176478,1,2,1:2:0:0:
512,201,176680,1,8,0:0:0:0:
470,74,176881,6,0,P|416:84|376:77,1,70,6|8,1:2|0:0,0:0:0:0:
368,70,177183,1,0,1:0:0:0:
368,70,177284,1,8,0:0:0:0:
293,0,177485,1,8,0:0:0:0:
192,39,177687,1,2,1:2:0:0:
226,60,177787,1,0,0:0:0:0:
249,96,177888,1,8,0:0:0:0:
255,138,177989,1,0,0:0:0:0:
241,176,178089,1,2,1:2:0:0:
135,270,178291,1,10,0:0:0:0:
86,250,178391,1,8,0:0:0:0:
46,216,178492,6,0,P|22:183|12:61,1,140,6|0,1:2|1:2,0:0:0:0:
140,0,179096,1,8,0:0:0:0:
125,99,179297,1,2,1:2:0:0:
157,135,179398,1,0,0:0:0:0:
205,139,179499,1,8,0:0:0:0:
250,121,179599,1,0,0:0:0:0:
291,147,179700,1,2,1:2:0:0:
366,211,179901,1,8,0:0:0:0:
279,308,180103,6,0,L|272:273,3,35,14|8|8|8,0:0|0:0|0:0|0:0,0:0:0:0:
289,345,180505,1,8,0:0:0:0:
289,345,180606,1,8,0:0:0:0:
289,345,180707,1,8,0:0:0:0:
384,384,180908,1,10,0:0:0:0:
430,352,181009,1,8,0:0:0:0:
445,298,181109,1,8,0:0:0:0:
422,247,181210,1,8,0:0:0:0:
369,227,181311,1,8,0:0:0:0:
248,193,181512,1,8,0:0:0:0:
400,130,181713,5,6,1:2:0:0:
