osu file format v14

[General]
AudioFilename: audio.mp3
AudioLeadIn: 0
PreviewTime: 0
Countdown: 0
SampleSet: Soft
StackLeniency: 0.7
Mode: 0
LetterboxInBreaks: 0
WidescreenStoryboard: 0

[Editor]
Bookmarks: 27065,52836,78608,91494,117266,143038,155924,168809,181695
DistanceSpacing: 1.1
BeatDivisor: 4
GridSize: 8
TimelineZoom: 1

[Metadata]
Title:Toragara no Bishamonten
TitleUnicode:虎柄の毘沙門天
Artist:ZUN
ArtistUnicode:ZUN
Creator:Halfslashed
Version:Extra Stage
Source:東方星蓮船 ~ Undefined Fantastic Object.
Tags:東方project touhou seireisen ufo th12 shou toramaru 寅丸 星 the tiger-patterned tiger patterned vaisravana video game instrumental consumerofbean failureatosu owc2021ro32dt3 team shanghai alice dōjin doujin stage 5 boss comiket 76
BeatmapID:2853665
BeatmapSetID:1381135

[Difficulty]
HPDrainRate:4
CircleSize:4
OverallDifficulty:9
ApproachRate:8
SliderMultiplier:1.8
SliderTickRate:1

[Events]
//Background and Video events
0,0,"shou bg.jpg",0,0
//Break Periods
2,149499,154331
//Storyboard Layer 0 (Background)
//Storyboard Layer 1 (Fail)
//Storyboard Layer 2 (Pass)
//Storyboard Layer 3 (Foreground)
//Storyboard Layer 4 (Overlay)
//Storyboard Sound Samples

[TimingPoints]
-2,428.571428571429,4,2,1,50,1,0
6855,424.028268551237,4,2,1,50,1,0
13639,421.940928270042,4,2,1,50,1,0
20390,419.58041958042,4,2,1,50,1,0
27083,402.684563758389,4,2,1,50,1,0
27083,-66.6666666666667,4,2,1,80,0,1
52854,-100,4,2,1,50,0,0
65740,-100,4,2,1,60,0,0
91512,-83.3333333333333,4,2,1,50,0,0
117284,-57.1428571428571,4,2,1,90,0,1
143056,-133.333333333333,4,2,1,70,0,0
155942,-125,4,2,1,60,0,0
168827,-100,4,2,1,60,0,0

[Colours]
Combo1 : 214,7,100
Combo2 : 200,160,2
Combo3 : 201,201,201
Combo4 : 240,138,0

[HitObjects]
22,354,26264,6,0,L|18:393,14,22.5,0|0|0|0|0|0|0|0|0|0|0|0|0|0|0,3:3|3:3|3:3|3:3|3:3|3:3|3:3|3:3|3:3|3:3|3:3|3:3|3:3|3:3|3:3,3:3:0:0:
27,317,27083,6,0,P|69:244|77:137,1,135.000005149842,6|8,1:2|0:0,0:0:0:0:
60,49,27385,1,0,0:0:0:0:
11,105,27485,1,0,1:0:0:0:
40,123,27586,1,0,0:0:0:0:
74,121,27687,6,0,P|136:103|193:106,1,67.5000025749208,10|0,0:0|0:0,0:0:0:0:
229,5,27888,2,0,P|277:50|341:72,1,135.000005149842,2|8,1:2|0:0,0:0:0:0:
488,235,28291,1,0,1:0:0:0:
488,235,28391,1,0,1:0:0:0:
512,100,28492,1,8,0:0:0:0:
512,347,28693,6,0,P|486:303|402:251,1,135.000005149842,2|8,1:2|0:0,0:0:0:0:
289,342,28995,1,2,0:0:0:0:
353,289,29096,1,0,1:0:0:0:
367,319,29196,1,0,0:0:0:0:
362,353,29297,1,10,0:0:0:0:
328,283,29398,1,0,0:0:0:0:
264,236,29499,6,0,P|221:212|122:208,2,135.000005149842,2|8|0,1:2|0:0|1:0,0:0:0:0:
407,17,30103,1,8,0:0:0:0:
330,83,30203,1,8,0:0:0:0:
260,146,30304,6,0,P|246:97|179:25,1,135.000005149842,6|8,1:2|0:0,0:0:0:0:
48,34,30606,1,0,0:0:0:0:
120,8,30707,1,0,1:0:0:0:
121,42,30807,1,0,0:0:0:0:
109,74,30908,6,0,P|124:136|155:184,1,67.5000025749208,10|0,0:0|0:0,0:0:0:0:
53,234,31109,2,0,P|88:290|143:328,1,135.000005149842,2|8,1:2|0:0,0:0:0:0:
468,288,31512,1,0,1:0:0:0:
468,288,31613,1,0,1:0:0:0:
332,262,31713,1,8,0:0:0:0:
512,0,31915,6,0,P|524:48|502:144,1,135.000005149842,2|8,1:2|0:0,0:0:0:0:
367,140,32217,1,2,0:0:0:0:
418,204,32317,1,0,1:0:0:0:
440,179,32418,1,0,0:0:0:0:
437,144,32519,1,10,0:0:0:0:
391,211,32619,1,0,0:0:0:0:
313,194,32720,6,0,P|262:195|174:241,1,135.000005149842,2|8,1:2|0:0,0:0:0:0:
22,18,33123,1,0,1:0:0:0:
22,18,33223,1,0,1:0:0:0:
22,18,33324,1,10,0:0:0:0:
96,26,33425,1,0,1:0:0:0:
50,87,33525,6,0,P|50:137|96:224,1,135.000005149842,2|8,1:2|0:0,0:0:0:0:
262,295,33928,1,0,1:0:0:0:
262,295,34029,1,0,0:0:0:0:
262,295,34129,2,0,P|238:354|227:368,1,67.5000025749208,10|0,0:0|0:0,0:0:0:0:
196,384,34331,2,0,P|214:308|193:248,1,135.000005149842,2|8,1:2|0:0,0:0:0:0:
288,205,34633,2,0,P|219:167|155:172,1,135.000005149842,2|0,0:0|0:0,0:0:0:0:
53,257,34935,2,0,P|2:296|-13:303,1,67.5000025749208,10|0,0:0|0:0,0:0:0:0:
115,8,35136,5,2,1:2:0:0:
199,47,35237,1,0,0:0:0:0:
284,91,35338,1,10,0:0:0:0:
512,66,35539,1,2,1:2:0:0:
441,101,35640,1,0,0:0:0:0:
372,134,35741,1,8,0:0:0:0:
416,283,35942,1,2,0:0:0:0:
416,283,36143,1,8,0:0:0:0:
416,283,36344,5,2,1:2:0:0:
445,302,36445,1,0,0:0:0:0:
451,268,36546,1,8,0:0:0:0:
420,253,36646,1,8,0:0:0:0:
387,354,36747,6,0,P|437:353|524:307,2,135.000005149842,2|8|0,1:2|0:0|1:0,0:0:0:0:
127,373,37351,1,8,0:0:0:0:
127,373,37552,5,2,1:2:0:0:
134,339,37653,1,0,0:0:0:0:
163,320,37754,1,8,0:0:0:0:
197,321,37854,1,0,0:0:0:0:
163,320,37955,5,2,1:2:0:0:
233,293,38056,1,0,1:0:0:0:
259,224,38156,1,8,0:0:0:0:
221,159,38257,1,0,1:0:0:0:
299,239,38358,6,0,P|342:263|441:267,1,135.000005149842,2|8,1:2|0:0,0:0:0:0:
502,10,38760,1,2,0:0:0:0:
463,48,38861,1,0,0:0:0:0:
502,10,38962,2,0,P|439:19|421:17,1,67.5000025749208,10|0,0:0|0:0,0:0:0:0:
170,0,39163,5,10,0:0:0:0:
204,42,39263,1,8,0:0:0:0:
238,83,39364,1,8,0:0:0:0:
271,126,39465,1,8,0:0:0:0:
292,75,39566,1,8,0:0:0:0:
238,83,39666,1,0,0:0:0:0:
186,96,39767,1,8,0:0:0:0:
109,117,39868,1,0,0:0:0:0:
59,184,39968,6,0,P|34:226|31:326,1,135.000005149842,6|8,1:2|0:0,0:0:0:0:
166,369,40270,1,0,0:0:0:0:
93,381,40371,1,0,1:0:0:0:
93,348,40472,1,0,0:0:0:0:
111,319,40572,6,0,P|168:294|183:283,1,67.5000025749208,10|0,0:0|0:0,0:0:0:0:
272,178,40774,2,0,P|314:154|414:150,1,135.000005149842,2|8,1:2|0:0,0:0:0:0:
484,384,41176,1,0,1:0:0:0:
484,384,41277,1,0,1:0:0:0:
494,242,41378,1,8,0:0:0:0:
427,0,41579,6,0,P|413:47|346:120,1,135.000005149842,2|8,1:2|0:0,0:0:0:0:
197,86,41881,1,2,0:0:0:0:
267,98,41982,1,0,1:0:0:0:
266,65,42082,1,0,0:0:0:0:
248,36,42183,1,10,0:0:0:0:
288,98,42284,1,0,0:0:0:0:
273,171,42385,6,0,P|225:183|129:161,2,135.000005149842,2|8|0,1:2|0:0|1:0,0:0:0:0:
43,316,42989,1,8,0:0:0:0:
128,358,43089,1,8,0:0:0:0:
234,340,43190,6,0,P|276:315|374:311,1,135.000005149842,6|8,1:2|0:0,0:0:0:0:
509,360,43492,1,0,0:0:0:0:
466,295,43593,1,0,1:0:0:0:
443,319,43693,1,0,0:0:0:0:
436,353,43794,6,0,P|378:377|360:379,1,67.5000025749208,10|0,0:0|0:0,0:0:0:0:
204,354,43995,2,0,P|203:305|157:217,1,135.000005149842,2|8,1:2|0:0,0:0:0:0:
16,48,44398,1,0,1:0:0:0:
16,48,44499,1,0,1:0:0:0:
144,76,44599,1,8,0:0:0:0:
14,293,44801,6,0,P|80:291|141:262,1,135.000005149842,2|8,1:2|0:0,0:0:0:0:
273,294,45103,1,2,0:0:0:0:
226,353,45203,1,0,1:0:0:0:
256,368,45304,1,0,0:0:0:0:
290,364,45405,1,10,0:0:0:0:
214,336,45505,1,0,0:0:0:0:
213,255,45606,6,0,P|248:221|343:192,1,135.000005149842,2|8,1:2|0:0,0:0:0:0:
109,5,46009,1,0,1:0:0:0:
109,5,46109,1,0,1:0:0:0:
109,5,46210,1,10,0:0:0:0:
48,48,46311,1,0,1:0:0:0:
117,77,46411,6,0,P|142:118|145:217,1,135.000005149842,2|8,1:2|0:0,0:0:0:0:
439,142,46814,1,0,1:0:0:0:
439,142,46915,1,0,1:0:0:0:
439,142,47015,2,0,P|488:103|499:89,1,67.5000025749208,10|0,0:0|0:0,0:0:0:0:
476,61,47217,6,0,P|463:108|485:204,1,135.000005149842,2|8,1:2|0:0,0:0:0:0:
512,320,47519,2,0,P|464:307|392:240,1,135.000005149842,2|0,0:0|0:0,0:0:0:0:
216,131,47821,2,0,L|238:67,1,67.5000025749208,10|0,0:0|0:0,0:0:0:0:
491,100,48022,5,2,1:2:0:0:
406,172,48123,1,0,0:0:0:0:
302,135,48223,1,10,0:0:0:0:
156,272,48425,1,2,1:2:0:0:
227,211,48526,1,0,0:0:0:0:
314,242,48626,1,8,0:0:0:0:
88,211,48827,1,2,1:2:0:0:
88,211,49029,1,8,0:0:0:0:
88,211,49230,5,2,1:2:0:0:
100,159,49331,1,0,0:0:0:0:
51,181,49431,1,10,0:0:0:0:
50,235,49532,1,8,0:0:0:0:
134,188,49633,6,0,P|168:255|167:272,1,67.5000025749208,2|0,1:2|0:0,0:0:0:0:
245,347,49834,2,0,P|319:362|335:358,1,67.5000025749208,10|0,0:0|0:0,0:0:0:0:
388,258,50036,2,0,P|426:230|535:228,1,135.000005149842,2|8,1:2|0:0,0:0:0:0:
130,113,50438,5,2,1:2:0:0:
134,188,50539,1,0,0:0:0:0:
71,229,50640,1,8,0:0:0:0:
96,304,50740,5,2,0:0:0:0:
128,269,50841,1,0,1:0:0:0:
127,222,50942,1,0,0:0:0:0:
98,193,51042,2,0,L|163:176,1,67.5000025749208,10|0,0:0|0:0,0:0:0:0:
280,261,51244,5,10,0:0:0:0:
311,219,51344,1,8,0:0:0:0:
344,184,51445,1,8,0:0:0:0:
372,144,51546,5,10,0:0:0:0:
326,202,51646,1,8,0:0:0:0:
280,261,51747,1,8,0:0:0:0:
234,319,51848,2,0,L|251:393,1,67.5000025749208,10|0,0:0|0:0,0:0:0:0:
398,11,52049,5,10,0:0:0:0:
415,82,52150,1,8,0:0:0:0:
467,23,52250,1,8,0:0:0:0:
490,96,52351,1,8,0:0:0:0:
490,96,52452,1,8,0:0:0:0:
338,132,52653,2,0,P|259:125|230:108,1,67.5000025749208,10|0,0:0|0:0,0:0:0:0:
8,12,52854,5,6,1:2:0:0:
168,28,53056,1,0,0:0:0:0:
27,81,53257,1,2,0:0:0:0:
100,163,53358,1,2,0:0:0:0:
206,316,53559,2,0,L|214:366,1,45,2|8,0:0|0:0,0:0:0:0:
185,315,53760,1,0,0:0:0:0:
0,363,53962,1,2,0:0:0:0:
42,255,54062,2,0,L|9:154,1,90,2|0,0:0|0:0,0:0:0:0:
245,246,54465,5,2,1:2:0:0:
404,223,54666,1,0,0:0:0:0:
262,173,54868,1,2,0:0:0:0:
302,71,54968,1,2,0:0:0:0:
454,2,55170,2,0,L|449:52,1,45,2|8,0:0|0:0,0:0:0:0:
447,69,55371,1,0,0:0:0:0:
512,137,55472,1,0,0:0:0:0:
470,358,55673,1,2,0:0:0:0:
386,317,55774,1,2,0:0:0:0:
414,173,55975,1,0,0:0:0:0:
437,166,56076,5,6,1:2:0:0:
303,212,56277,1,0,0:0:0:0:
444,243,56478,1,2,0:0:0:0:
395,340,56579,1,2,0:0:0:0:
229,365,56780,2,0,L|105:390,1,90,2|0,0:0|0:0,0:0:0:0:
43,303,57082,1,2,0:0:0:0:
119,287,57183,2,0,L|133:158,1,90,2|0,0:0|0:0,0:0:0:0:
1,124,57485,1,2,0:0:0:0:
12,212,57586,1,0,0:0:0:0:
38,221,57687,5,2,0:0:0:0:
169,192,57888,1,0,0:0:0:0:
68,112,58089,1,2,0:0:0:0:
81,40,58190,1,0,0:0:0:0:
140,86,58291,1,0,0:0:0:0:
151,13,58391,1,2,0:0:0:0:
282,96,58593,1,2,0:0:0:0:
268,170,58693,1,2,0:0:0:0:
305,306,58895,1,2,0:0:0:0:
347,213,58995,2,0,L|397:103,1,90,2|0,0:0|0:0,0:0:0:0:
506,7,59297,5,6,1:2:0:0:
340,29,59499,1,0,0:0:0:0:
492,111,59700,1,2,0:0:0:0:
398,143,59801,1,2,0:0:0:0:
229,108,60002,2,0,L|108:119,1,90,2|0,0:0|0:0,0:0:0:0:
103,182,60304,1,0,0:0:0:0:
167,347,60505,1,2,0:0:0:0:
278,384,60606,1,2,0:0:0:0:
383,211,60807,1,0,0:0:0:0:
362,200,60908,5,2,1:2:0:0:
512,246,61109,1,0,0:0:0:0:
355,277,61311,1,2,0:0:0:0:
366,375,61411,1,2,0:0:0:0:
215,323,61613,2,0,L|304:331,1,90,2|0,0:0|0:0,0:0:0:0:
439,384,61915,1,0,0:0:0:0:
460,194,62116,1,2,0:0:0:0:
512,88,62217,2,0,L|470:-26,1,90,2|0,0:0|0:0,0:0:0:0:
296,1,62519,5,6,1:2:0:0:
365,181,62720,1,0,0:0:0:0:
179,133,62921,1,2,0:0:0:0:
127,0,63022,1,2,0:0:0:0:
5,155,63223,2,0,L|97:120,1,90,2|0,0:0|0:0,0:0:0:0:
230,141,63525,1,0,0:0:0:0:
180,332,63727,1,2,0:0:0:0:
53,374,63827,1,2,0:0:0:0:
4,194,64029,1,0,0:0:0:0:
4,194,64129,5,2,1:2:0:0:
49,187,64230,1,0,0:0:0:0:
91,203,64331,1,2,0:0:0:0:
135,384,64532,1,2,0:0:0:0:
5,343,64633,1,2,0:0:0:0:
199,240,64834,1,0,0:0:0:0:
315,300,64935,2,0,L|349:392,1,90,10|0,0:0|0:0,0:0:0:0:
477,265,65338,1,2,1:2:0:0:
405,301,65438,1,0,1:0:0:0:
477,265,65539,1,10,0:0:0:0:
512,146,65740,6,0,P|505:99|485:36,1,90,2|8,1:2|0:0,0:0:0:0:
285,0,66143,1,2,1:2:0:0:
227,106,66244,1,2,0:0:0:0:
316,297,66445,1,2,0:0:0:0:
463,361,66646,1,2,0:0:0:0:
316,297,66848,1,2,0:0:0:0:
254,245,66948,1,2,1:2:0:0:
156,274,67150,1,8,0:0:0:0:
4,117,67351,6,0,P|21:62|60:14,1,90,2|8,1:2|0:0,0:0:0:0:
231,0,67754,1,2,1:2:0:0:
354,26,67854,1,2,0:0:0:0:
417,201,68056,2,0,L|481:212,1,45,2|0,0:0|1:0,0:0:0:0:
402,192,68257,1,2,0:0:0:0:
336,232,68358,1,10,0:0:0:0:
168,110,68559,1,2,1:2:0:0:
111,60,68660,2,0,L|95:18,1,45,0|8,0:0|0:0,0:0:0:0:
100,68,68861,1,10,0:0:0:0:
35,110,68962,6,0,P|17:150|33:248,1,135,2|0,0:0|0:0,0:0:0:0:
50,250,69364,1,2,1:2:0:0:
30,371,69465,1,2,0:0:0:0:
255,348,69666,1,2,0:0:0:0:
255,348,69868,1,0,0:0:0:0:
308,290,69968,1,0,0:0:0:0:
321,215,70069,2,0,L|294:104,1,90,2|0,0:0|0:0,0:0:0:0:
292,108,70371,1,10,0:0:0:0:
220,80,70472,1,0,0:0:0:0:
282,33,70572,6,0,P|326:27|440:67,1,135,2|0,1:2|0:0,0:0:0:0:
433,64,70975,1,2,1:2:0:0:
388,106,71076,1,0,0:0:0:0:
410,160,71176,1,8,0:0:0:0:
368,201,71277,1,0,0:0:0:0:
379,258,71378,2,0,L|421:244,2,45,2|0|8,1:2|0:0|0:0,0:0:0:0:
369,275,71780,1,2,1:2:0:0:
291,321,71881,1,2,0:0:0:0:
291,321,71982,1,8,1:2:0:0:
291,321,72082,1,0,1:0:0:0:
279,197,72183,6,0,P|293:155|286:111,1,90,2|8,1:2|0:0,0:0:0:0:
272,91,72485,1,2,0:0:0:0:
426,98,72586,2,0,P|400:134|393:178,1,90,2|8,1:2|0:0,0:0:0:0:
398,200,72888,1,0,0:0:0:0:
252,212,73089,1,2,0:0:0:0:
186,173,73190,1,10,0:0:0:0:
312,335,73391,2,0,L|247:360,1,45,2|0,1:2|0:0,0:0:0:0:
332,344,73693,1,2,0:0:0:0:
329,226,73794,5,2,1:2:0:0:
329,226,73995,1,8,0:0:0:0:
483,239,74197,1,2,1:2:0:0:
459,312,74297,1,2,0:0:0:0:
326,384,74499,1,2,0:0:0:0:
312,312,74599,2,0,P|237:303|199:322,1,90,2|8,1:2|0:0,0:0:0:0:
160,356,74901,2,0,P|101:308|88:268,1,90,2|0,0:0|0:0,0:0:0:0:
104,203,75203,1,10,0:0:0:0:
104,203,75304,1,8,0:0:0:0:
0,369,75405,5,14,0:0:0:0:
64,1,75807,1,0,1:0:0:0:
67,24,76210,1,0,1:0:0:0:
69,44,76613,1,0,1:0:0:0:
72,68,76713,1,0,1:0:0:0:
99,187,76814,1,8,0:0:0:0:
220,0,77015,5,8,0:0:0:0:
441,72,77317,1,8,0:0:0:0:
512,106,77418,1,10,0:0:0:0:
445,144,77518,1,8,0:0:0:0:
379,187,77619,1,8,0:0:0:0:
379,187,77821,1,10,0:0:0:0:
302,166,77921,1,8,0:0:0:0:
229,147,78022,1,8,0:0:0:0:
155,129,78123,1,8,0:0:0:0:
85,109,78223,1,10,0:0:0:0:
85,109,78324,1,8,0:0:0:0:
85,109,78425,1,8,0:0:0:0:
1,380,78626,5,6,1:2:0:0:
324,365,78827,1,8,0:0:0:0:
324,365,79029,1,0,1:0:0:0:
324,365,79230,1,8,0:0:0:0:
397,383,79431,5,2,1:2:0:0:
376,309,79532,1,0,0:0:0:0:
299,295,79633,1,8,0:0:0:0:
238,245,79734,1,0,0:0:0:0:
253,167,79834,2,0,P|256:90|243:37,1,90,2|8,1:2|0:0,0:0:0:0:
512,0,80237,5,2,1:2:0:0:
480,285,80438,1,8,0:0:0:0:
456,299,80639,1,0,1:0:0:0:
434,313,80841,1,8,0:0:0:0:
400,378,81042,5,2,1:2:0:0:
341,332,81143,1,0,0:0:0:0:
354,260,81244,1,8,0:0:0:0:
421,222,81344,1,0,0:0:0:0:
492,249,81445,1,2,1:2:0:0:
482,171,81646,1,10,0:0:0:0:
482,171,81747,1,8,0:0:0:0:
322,103,81848,5,2,1:2:0:0:
21,208,82049,1,8,0:0:0:0:
15,252,82250,1,0,1:2:0:0:
9,295,82452,1,8,0:0:0:0:
0,372,82653,5,2,1:2:0:0:
83,355,82753,1,0,0:0:0:0:
131,287,82854,1,8,0:0:0:0:
143,202,82955,1,0,0:0:0:0:
117,122,83056,2,0,P|60:69|32:23,1,90,2|8,1:2|0:0,0:0:0:0:
383,8,83458,5,0,1:2:0:0:
215,177,83660,1,8,0:0:0:0:
242,188,83861,1,0,1:0:0:0:
266,201,84062,1,8,0:0:0:0:
308,135,84264,5,2,1:2:0:0:
362,187,84364,1,0,0:0:0:0:
335,259,84465,1,8,0:0:0:0:
258,281,84566,1,0,0:0:0:0:
247,362,84666,1,10,1:2:0:0:
319,336,84767,1,8,0:0:0:0:
247,362,84868,1,10,0:0:0:0:
509,284,85069,5,6,1:2:0:0:
303,74,85270,1,8,0:0:0:0:
260,55,85471,1,0,1:2:0:0:
218,34,85673,1,8,0:0:0:0:
150,3,85874,5,2,1:2:0:0:
152,88,85975,1,0,0:0:0:0:
211,151,86076,1,8,0:0:0:0:
296,168,86176,1,0,0:0:0:0:
374,135,86277,2,0,P|396:61|397:6,1,90,2|8,1:2|0:0,0:0:0:0:
328,384,86680,5,6,1:2:0:0:
4,197,86881,1,8,0:0:0:0:
71,222,86982,1,0,1:0:0:0:
4,197,87082,1,8,0:0:0:0:
4,197,87284,1,8,0:0:0:0:
16,122,87485,5,2,1:2:0:0:
106,135,87586,1,0,0:0:0:0:
169,199,87687,1,8,0:0:0:0:
173,288,87787,1,0,0:0:0:0:
120,361,87888,1,2,1:2:0:0:
83,283,88089,1,10,0:0:0:0:
83,283,88190,1,8,0:0:0:0:
220,365,88291,5,6,1:2:0:0:
312,5,88492,1,8,0:0:0:0:
235,18,88693,1,0,1:2:0:0:
159,34,88895,1,8,0:0:0:0:
89,2,89096,5,2,1:2:0:0:
97,93,89197,1,0,0:0:0:0:
182,124,89297,1,8,0:0:0:0:
278,97,89398,1,0,0:0:0:0:
361,134,89499,2,0,P|417:186|445:232,1,90,2|8,1:2|0:0,0:0:0:0:
209,328,89901,5,14,0:0:0:0:
245,329,90002,1,8,0:0:0:0:
281,331,90103,1,8,0:0:0:0:
317,331,90203,1,8,0:0:0:0:
353,331,90304,1,8,0:0:0:0:
389,332,90405,1,8,0:0:0:0:
429,338,90505,1,8,0:0:0:0:
429,338,90707,5,10,0:0:0:0:
346,285,90807,1,8,0:0:0:0:
289,203,90908,1,8,0:0:0:0:
299,104,91009,1,8,0:0:0:0:
364,30,91109,1,8,0:0:0:0:
389,200,91311,1,8,0:0:0:0:
156,0,91512,6,0,P|84:80|0:147,1,215.999993408203,6|0,1:2|0:0,0:0:0:0:
0,384,92116,2,0,L|26:321,1,53.9999983520508,0|0,0:0|0:0,0:0:0:0:
67,269,92317,2,0,P|133:239|255:264,1,161.999995056153,10|0,0:0|0:0,0:0:0:0:
308,345,92720,1,0,1:0:0:0:
308,345,92821,1,0,1:0:0:0:
331,272,92921,1,8,0:0:0:0:
308,18,93123,6,0,P|397:1|452:4,1,107.999996704102,2|0,1:2|0:0,0:0:0:0:
512,80,93425,2,0,P|423:97|368:94,1,107.999996704102,0|0,1:0|0:0,0:0:0:0:
304,90,93727,1,2,1:2:0:0:
493,309,93928,2,0,P|426:308|347:212,1,161.999995056153,10|0,0:0|0:0,0:0:0:0:
342,178,94331,1,0,1:0:0:0:
342,178,94532,1,8,0:0:0:0:
342,178,94633,1,0,1:0:0:0:
228,88,94734,6,0,P|261:190|277:297,1,215.999993408203,6|0,1:2|0:0,0:0:0:0:
83,384,95338,2,0,L|146:358,1,53.9999983520508,0|0,0:0|0:0,0:0:0:0:
188,306,95539,2,0,P|145:247|27:207,1,161.999995056153,10|0,0:0|0:0,0:0:0:0:
0,124,95942,1,0,1:0:0:0:
0,124,96042,1,0,1:0:0:0:
73,95,96143,1,8,0:0:0:0:
319,169,96344,6,0,P|289:83|259:37,1,107.999996704102,2|0,1:2|0:0,0:0:0:0:
181,0,96646,2,0,P|164:89|167:143,1,107.999996704102,0|0,1:0|0:0,0:0:0:0:
241,210,96948,1,2,1:2:0:0:
16,52,97150,6,0,L|-1:-10,2,53.9999983520508,8|0|0,0:0|0:0|0:0,0:0:0:0:
23,83,97452,1,8,0:0:0:0:
0,159,97552,1,0,1:0:0:0:
0,159,97653,1,0,1:0:0:0:
0,159,97754,1,10,0:0:0:0:
74,175,97854,1,0,1:0:0:0:
99,248,97955,6,0,P|201:281|308:297,1,215.999993408203,6|8,1:2|0:0,0:0:0:0:
512,227,98559,2,0,L|444:235,1,53.9999983520508,2|0,0:0|0:0,0:0:0:0:
372,252,98760,1,2,1:2:0:0:
427,319,98962,1,0,0:0:0:0:
427,319,99062,1,2,1:2:0:0:
490,376,99264,1,0,0:0:0:0:
490,376,99364,2,0,L|498:308,1,53.9999983520508,10|0,0:0|0:0,0:0:0:0:
380,165,99566,5,2,1:2:0:0:
340,83,99666,1,0,0:0:0:0:
297,1,99767,1,10,0:0:0:0:
301,209,99968,1,2,1:2:0:0:
268,277,100069,1,0,0:0:0:0:
238,346,100170,1,8,0:0:0:0:
217,171,100371,2,0,P|128:154|73:157,1,107.999996704102,2|0,1:2|0:0,0:0:0:0:
6,255,100673,1,0,1:0:0:0:
78,228,100774,5,0,0:0:0:0:
49,200,100874,1,0,0:0:0:0:
38,161,100975,1,8,0:0:0:0:
41,121,101076,1,8,0:0:0:0:
62,87,101176,6,0,P|11:12|-29:-24,2,107.999996704102,2|0|8,1:2|0:0|0:0,0:0:0:0:
61,345,101780,1,0,0:0:0:0:
61,345,101982,5,2,1:2:0:0:
94,303,102082,1,0,0:0:0:0:
145,289,102183,1,8,0:0:0:0:
196,307,102284,1,0,0:0:0:0:
170,259,102385,5,2,1:2:0:0:
238,293,102485,1,0,0:0:0:0:
312,275,102586,1,8,0:0:0:0:
349,209,102687,1,0,0:0:0:0:
334,312,102787,6,0,P|402:371|451:396,1,107.999996704102,2|0,1:2|0:0,0:0:0:0:
502,202,103190,1,0,1:0:0:0:
512,153,103291,1,0,1:0:0:0:
502,202,103391,1,10,0:0:0:0:
277,384,103593,5,10,0:0:0:0:
105,175,103895,1,8,0:0:0:0:
480,74,104197,1,8,0:0:0:0:
512,0,104297,1,8,0:0:0:0:
431,10,104398,6,0,P|372:99|329:199,1,215.999993408203,6|0,1:2|0:0,0:0:0:0:
139,72,105002,2,0,L|71:63,1,53.9999983520508,0|0,0:0|0:0,0:0:0:0:
22,170,105203,2,0,P|73:208|95:317,1,161.999995056153,10|0,0:0|0:0,0:0:0:0:
2,378,105606,1,0,1:0:0:0:
2,378,105707,1,0,1:0:0:0:
18,303,105807,1,8,0:0:0:0:
182,373,106009,6,0,P|235:362|313:373,1,107.999996704102,2|0,1:2|0:0,0:0:0:0:
391,283,106311,2,0,P|338:293|284:290,1,107.999996704102,0|0,1:0|0:0,0:0:0:0:
175,232,106613,1,2,1:2:0:0:
461,384,106814,2,0,P|500:329|515:273,1,107.999996704102,10|0,0:0|0:0,0:0:0:0:
454,243,107116,2,0,L|440:182,1,53.9999983520508,0|0,0:0|1:0,0:0:0:0:
274,0,107418,1,8,0:0:0:0:
274,0,107519,1,0,1:0:0:0:
231,144,107619,6,0,P|333:111|440:95,1,215.999993408203,6|0,1:2|0:0,0:0:0:0:
363,250,108223,2,0,L|349:311,1,53.9999983520508,0|0,0:0|0:0,0:0:0:0:
259,384,108425,2,0,P|209:344|98:351,1,161.999995056153,10|0,0:0|0:0,0:0:0:0:
0,384,108827,1,0,1:0:0:0:
0,384,108928,1,0,1:0:0:0:
34,312,109029,1,8,0:0:0:0:
221,241,109230,6,0,P|217:186|187:114,1,107.999996704102,2|0,1:2|0:0,0:0:0:0:
147,23,109532,2,0,P|136:75|112:123,1,107.999996704102,0|0,1:0|0:0,0:0:0:0:
27,226,109834,1,2,1:2:0:0:
250,54,110036,6,0,L|237:1,2,53.9999983520508,8|0|0,0:0|0:0|0:0,0:0:0:0:
241,75,110338,1,8,0:0:0:0:
327,75,110438,1,0,1:0:0:0:
327,75,110539,1,0,1:0:0:0:
327,75,110640,1,10,0:0:0:0:
307,144,110740,1,0,1:0:0:0:
336,212,110841,6,0,P|408:291|493:358,1,215.999993408203,6|8,1:2|0:0,0:0:0:0:
238,384,111445,2,0,L|256:324,1,53.9999983520508,2|0,0:0|0:0,0:0:0:0:
278,261,111646,1,2,1:2:0:0:
229,149,111848,1,0,0:0:0:0:
229,149,111948,1,2,1:2:0:0:
326,7,112150,1,0,0:0:0:0:
326,7,112250,1,10,0:0:0:0:
510,158,112452,5,2,1:2:0:0:
399,164,112552,1,0,0:0:0:0:
325,82,112653,1,10,0:0:0:0:
90,57,112854,1,2,1:2:0:0:
183,51,112954,1,0,0:0:0:0:
245,120,113055,1,8,0:0:0:0:
358,16,113257,2,0,P|414:-9|469:6,1,107.999996704102,2|0,1:2|0:0,0:0:0:0:
512,133,113559,1,0,1:0:0:0:
454,74,113660,5,0,0:0:0:0:
476,123,113760,1,0,0:0:0:0:
466,176,113861,1,8,0:0:0:0:
437,222,113962,1,8,0:0:0:0:
393,253,114062,6,0,P|407:326|428:346,1,53.9999983520508,2|0,1:2|0:0,0:0:0:0:
512,373,114264,2,0,P|437:378|413:363,1,53.9999983520508,0|0,0:0|0:0,0:0:0:0:
291,302,114465,2,0,P|248:333|238:399,1,107.999996704102,8|0,0:0|0:0,0:0:0:0:
5,172,114868,1,2,1:2:0:0:
73,129,114968,1,0,0:0:0:0:
43,58,115069,1,8,0:0:0:0:
113,27,115170,5,0,0:0:0:0:
84,59,115270,1,2,1:2:0:0:
84,103,115371,1,0,0:0:0:0:
111,137,115472,2,0,L|171:151,1,53.9999983520508,8|0,0:0|0:0,0:0:0:0:
236,118,115673,5,2,1:2:0:0:
223,44,115874,1,0,0:0:0:0:
223,44,115975,2,0,L|180:-1,1,53.9999983520508,0|0,0:0|1:0,0:0:0:0:
295,7,116277,1,10,0:0:0:0:
295,7,116378,1,0,0:0:0:0:
431,32,116478,5,10,0:0:0:0:
512,384,116780,1,8,0:0:0:0:
501,78,117082,1,8,0:0:0:0:
441,127,117183,1,8,0:0:0:0:
431,207,117284,6,0,P|366:176|252:167,1,157.500001502037,6|8,1:2|0:0,0:0:0:0:
146,219,117586,1,0,0:0:0:0:
212,176,117687,1,0,1:0:0:0:
223,208,117788,1,0,0:0:0:0:
221,241,117888,2,0,P|198:276|160:300,1,78.7500007510185,10|0,0:0|0:0,0:0:0:0:
61,310,118089,6,0,P|40:245|39:148,1,157.500001502037,2|8,1:2|0:0,0:0:0:0:
226,1,118492,1,0,1:0:0:0:
226,1,118593,1,0,1:0:0:0:
140,133,118693,1,8,0:0:0:0:
362,384,118895,6,0,P|457:347|484:291,1,157.500001502037,2|8,1:2|0:0,0:0:0:0:
440,171,119197,1,2,0:0:0:0:
482,231,119297,1,0,1:0:0:0:
443,241,119398,1,0,0:0:0:0:
403,232,119499,1,10,0:0:0:0:
495,218,119599,1,0,0:0:0:0:
509,124,119700,6,0,P|439:49|424:-45,1,157.500001502037,2|8,1:2|0:0,0:0:0:0:
66,79,120103,1,0,1:0:0:0:
66,79,120304,1,8,0:0:0:0:
156,40,120405,1,8,0:0:0:0:
249,0,120505,6,0,P|295:54|333:162,1,157.500001502037,6|8,1:2|0:0,0:0:0:0:
308,245,120807,1,0,0:0:0:0:
327,176,120908,1,0,1:0:0:0:
286,176,121008,1,0,0:0:0:0:
251,196,121109,2,0,P|232:233|230:278,1,78.7500007510185,10|0,0:0|0:0,0:0:0:0:
258,347,121311,6,0,P|179:348|104:370,1,157.500001502037,2|8,1:2|0:0,0:0:0:0:
18,194,121713,1,0,1:0:0:0:
18,194,121814,1,0,1:0:0:0:
0,361,121915,1,8,0:0:0:0:
194,226,122116,6,0,P|209:125|174:73,1,157.500001502037,2|8,1:2|0:0,0:0:0:0:
38,107,122418,1,2,0:0:0:0:
110,95,122519,1,0,1:0:0:0:
105,135,122619,1,0,0:0:0:0:
83,168,122720,1,10,0:0:0:0:
105,76,122821,1,0,0:0:0:0:
50,0,122921,6,0,P|143:41|202:20,1,157.500001502037,2|8,1:2|0:0,0:0:0:0:
501,26,123324,1,0,1:0:0:0:
501,26,123425,1,0,1:0:0:0:
501,26,123525,1,10,0:0:0:0:
410,0,123626,1,0,1:0:0:0:
432,92,123727,6,0,P|472:188|518:243,1,157.500001502037,2|8,1:2|0:0,0:0:0:0:
266,379,124129,1,0,1:0:0:0:
266,379,124230,1,0,0:0:0:0:
266,379,124331,2,0,P|307:376|347:356,1,78.7500007510185,10|0,0:0|0:0,0:0:0:0:
375,330,124532,2,0,P|298:290|164:332,1,157.500001502037,2|8,1:2|0:0,0:0:0:0:
167,384,124834,2,0,P|98:346|59:279,1,157.500001502037,2|0,0:0|0:0,0:0:0:0:
55,123,125136,2,0,P|52:81|32:41,1,78.7500007510185,10|0,0:0|0:0,0:0:0:0:
370,18,125338,5,2,1:2:0:0:
271,14,125438,1,0,0:0:0:0:
220,92,125539,1,10,0:0:0:0:
129,237,125740,5,2,1:2:0:0:
206,240,125840,1,0,0:0:0:0:
246,178,125941,1,8,0:0:0:0:
367,127,126143,2,0,P|433:180|535:180,1,157.500001502037,2|8,0:0|0:0,0:0:0:0:
508,63,126445,1,0,0:0:0:0:
451,108,126546,1,2,1:2:0:0:
451,108,126646,1,0,0:0:0:0:
451,108,126747,1,8,0:0:0:0:
451,108,126848,1,8,0:0:0:0:
479,264,126948,6,0,P|476:305|456:345,1,78.7500007510185,2|0,1:2|0:0,0:0:0:0:
353,362,127150,2,0,P|315:381|271:383,1,78.7500007510185,8|0,0:0|0:0,0:0:0:0:
205,266,127351,2,0,P|283:235|334:147,1,157.500001502037,0|8,1:0|0:0,0:0:0:0:
37,279,127754,5,2,1:2:0:0:
15,312,127854,1,0,0:0:0:0:
17,353,127955,1,8,0:0:0:0:
43,382,128056,1,0,0:0:0:0:
73,281,128156,5,2,1:2:0:0:
87,208,128257,1,0,1:0:0:0:
66,138,128358,1,8,0:0:0:0:
8,94,128458,1,0,1:0:0:0:
49,210,128559,6,0,P|126:175|224:202,1,157.500001502037,2|8,1:2|0:0,0:0:0:0:
403,279,128962,1,2,0:0:0:0:
381,326,129062,1,0,0:0:0:0:
403,279,129163,2,0,P|422:242|424:196,1,78.7500007510185,10|0,0:0|0:0,0:0:0:0:
408,0,129364,5,10,0:0:0:0:
359,26,129465,1,8,0:0:0:0:
310,52,129566,1,8,0:0:0:0:
264,81,129666,1,8,0:0:0:0:
260,27,129767,1,8,0:0:0:0:
310,52,129868,1,0,0:0:0:0:
358,79,129968,1,8,0:0:0:0:
424,120,130069,1,0,0:0:0:0:
492,162,130170,6,0,P|506:261|482:379,1,157.500001502037,6|8,1:2|0:0,0:0:0:0:
373,383,130472,1,0,0:0:0:0:
451,378,130572,1,0,1:0:0:0:
433,342,130673,1,0,0:0:0:0:
401,319,130774,2,0,P|364:300|318:298,1,78.7500007510185,10|0,0:0|0:0,0:0:0:0:
201,300,130975,6,0,P|122:361|8:399,1,157.500001502037,2|8,1:2|0:0,0:0:0:0:
2,131,131378,1,0,1:0:0:0:
2,131,131478,1,0,1:0:0:0:
159,162,131579,1,8,0:0:0:0:
512,100,131780,6,0,P|436:121|368:160,1,157.500001502037,2|8,1:2|0:0,0:0:0:0:
235,212,132082,1,2,0:0:0:0:
299,178,132183,1,0,1:0:0:0:
310,216,132284,1,0,0:0:0:0:
296,253,132385,1,10,0:0:0:0:
282,159,132485,1,0,0:0:0:0:
205,105,132586,6,0,P|137:64|82:8,1,157.500001502037,2|8,1:2|0:0,0:0:0:0:
176,287,132989,1,0,1:0:0:0:
176,287,133190,1,8,0:0:0:0:
87,320,133291,1,8,0:0:0:0:
0,353,133391,6,0,P|37:260|117:170,1,157.500001502037,6|8,1:2|0:0,0:0:0:0:
218,212,133693,1,0,0:0:0:0:
151,174,133794,1,0,1:0:0:0:
145,212,133895,1,0,0:0:0:0:
151,251,133995,2,0,P|173:285|212:310,1,78.7500007510185,10|0,0:0|0:0,0:0:0:0:
293,273,134197,6,0,P|392:259|510:283,1,157.500001502037,2|8,1:2|0:0,0:0:0:0:
512,18,134599,1,0,1:0:0:0:
512,18,134700,1,0,1:0:0:0:
357,66,134801,1,8,0:0:0:0:
0,14,135002,6,0,P|38:82|58:158,1,157.500001502037,2|8,1:2|0:0,0:0:0:0:
55,308,135304,1,2,0:0:0:0:
109,257,135405,1,0,1:0:0:0:
80,231,135505,1,0,0:0:0:0:
41,227,135606,1,10,0:0:0:0:
120,281,135707,1,0,0:0:0:0:
155,368,135807,6,0,P|56:382|-62:358,1,157.500001502037,2|8,1:2|0:0,0:0:0:0:
264,199,136210,1,0,1:0:0:0:
264,199,136311,1,0,1:0:0:0:
264,199,136411,1,10,0:0:0:0:
356,163,136512,1,0,1:0:0:0:
340,256,136613,6,0,P|431:294|551:302,1,157.500001502037,2|8,1:2|0:0,0:0:0:0:
488,115,137015,1,0,1:0:0:0:
488,115,137116,1,0,1:0:0:0:
488,115,137217,2,0,P|496:75|486:30,1,78.7500007510185,10|0,0:0|0:0,0:0:0:0:
478,0,137418,6,0,P|403:25|325:32,1,157.500001502037,2|8,1:2|0:0,0:0:0:0:
186,19,137720,2,0,P|245:70|290:134,1,157.500001502037,2|0,0:0|0:0,0:0:0:0:
314,308,138022,2,0,P|322:347|312:392,1,78.7500007510185,10|0,0:0|0:0,0:0:0:0:
2,259,138223,5,2,1:2:0:0:
110,292,138324,1,0,0:0:0:0:
173,202,138425,1,10,0:0:0:0:
416,175,138626,1,2,1:2:0:0:
322,146,138727,1,0,0:0:0:0:
267,224,138828,1,8,0:0:0:0:
70,166,139029,6,0,P|44:91|37:13,1,157.500001502037,2|8,1:2|0:0,0:0:0:0:
180,269,139431,1,2,1:2:0:0:
207,339,139532,1,0,0:0:0:0:
143,384,139633,1,10,0:0:0:0:
143,384,139734,1,8,0:0:0:0:
3,290,139834,6,0,P|39:271|85:269,1,78.7500007510185,2|0,1:2|0:0,0:0:0:0:
206,181,140036,2,0,P|237:158|258:125,1,78.7500007510185,10|0,0:0|0:0,0:0:0:0:
375,0,140237,2,0,P|434:51|479:115,1,157.500001502037,2|8,1:2|0:0,0:0:0:0:
432,382,140640,5,2,1:2:0:0:
463,313,140740,1,0,0:0:0:0:
411,257,140841,1,8,0:0:0:0:
465,201,140942,5,2,0:0:0:0:
477,238,141042,1,0,1:0:0:0:
464,275,141143,1,0,0:0:0:0:
426,285,141244,2,0,P|394:307|373:340,1,78.7500007510185,10|0,0:0|0:0,0:0:0:0:
144,344,141445,5,10,0:0:0:0:
200,353,141545,1,8,0:0:0:0:
253,365,141646,1,8,0:0:0:0:
304,376,141747,5,10,0:0:0:0:
225,360,141847,1,8,0:0:0:0:
144,344,141948,1,8,0:0:0:0:
66,327,142049,2,0,P|49:291|48:252,1,78.7500007510185,10|0,0:0|0:0,0:0:0:0:
0,0,142250,5,10,0:0:0:0:
9,72,142351,1,8,0:0:0:0:
71,24,142452,1,8,0:0:0:0:
81,100,142552,1,8,0:0:0:0:
81,100,142653,1,8,0:0:0:0:
134,236,142854,2,0,P|170:222|199:195,1,78.7500007510185,10|0,0:0|0:0,0:0:0:0:
256,0,143056,6,0,B|256:64|272:88|336:152|528:192|528:192|208:232|16:280|16:352|256:384|256:384|496:352|496:280|304:232|-16:192|-16:192|160:152|240:88|248:64|248:56,1,1957.5000746727,6|0,1:2|0:0,0:0:0:0:
408,54,155338,5,8,0:0:0:0:
424,49,155439,1,8,0:0:0:0:
440,44,155540,1,8,0:0:0:0:
456,38,155640,1,8,0:0:0:0:
472,33,155741,1,8,0:0:0:0:
488,28,155842,1,8,0:0:0:0:
505,23,155942,6,0,P|503:120|469:181,1,144,6|0,1:2|0:0,0:0:0:0:
320,190,156445,1,0,0:0:0:0:
320,190,156546,1,0,0:0:0:0:
392,200,156646,1,0,0:0:0:0:
438,260,156747,2,0,P|423:311|432:358,1,72,10|0,0:0|0:0,0:0:0:0:
267,327,157049,2,0,P|216:342|169:333,1,72,2|0,1:2|0:0,0:0:0:0:
36,326,157351,1,10,0:0:0:0:
0,63,157552,6,0,P|51:75|87:106,1,72,10|0,0:0|0:0,0:0:0:0:
188,207,157854,2,0,P|136:194|100:163,1,72,10|0,0:0|0:0,0:0:0:0:
149,46,158156,2,0,P|185:7|230:-8,1,72,10|0,0:0|1:0,0:0:0:0:
217,0,158559,1,2,0:0:0:0:
290,15,158660,2,0,L|391:34,1,72,0|0,1:0|0:0,0:0:0:0:
505,104,158962,1,0,1:0:0:0:
426,109,159062,1,0,1:0:0:0:
468,173,159163,6,0,P|483:224|474:271,1,72,6|0,1:2|0:0,0:0:0:0:
208,384,159767,1,0,0:0:0:0:
512,342,159968,2,0,P|476:340|442:327,1,72,10|0,0:0|0:0,0:0:0:0:
273,328,160270,2,0,P|248:301|233:269,1,72,2|0,1:2|0:0,0:0:0:0:
271,106,160572,1,10,0:0:0:0:
30,192,160774,6,0,P|13:223|7:259,1,72,10|0,0:0|0:0,0:0:0:0:
62,384,161076,2,0,P|78:352|84:316,1,72,10|0,0:0|0:0,0:0:0:0:
92,155,161378,1,10,0:0:0:0:
396,240,161579,5,10,0:0:0:0:
427,200,161680,1,0,0:0:0:0:
389,166,161780,1,0,0:0:0:0:
420,119,161881,1,8,0:0:0:0:
378,91,161982,1,8,0:0:0:0:
359,121,162082,1,8,0:0:0:0:
357,157,162183,1,8,0:0:0:0:
372,190,162284,1,8,0:0:0:0:
407,199,162385,6,0,P|468:203|504:298,1,144,2|8,1:2|0:0,0:0:0:0:
410,363,162888,1,0,0:0:0:0:
410,363,162988,1,0,1:0:0:0:
410,363,163089,1,0,1:0:0:0:
355,302,163190,5,10,0:0:0:0:
236,266,163391,1,0,1:0:0:0:
236,266,163492,1,8,0:0:0:0:
48,365,163693,1,0,1:0:0:0:
48,365,163794,1,10,0:0:0:0:
0,305,163895,1,8,0:0:0:0:
70,292,163995,6,0,P|78:257|74:221,1,72,10|0,0:0|0:0,0:0:0:0:
298,0,164398,2,0,P|294:35|302:70,1,72,10|0,0:0|0:0,0:0:0:0:
506,180,164801,2,0,P|514:214|510:250,1,72,10|0,0:0|0:0,0:0:0:0:
300,371,165203,1,10,0:0:0:0:
218,248,165405,1,10,0:0:0:0:
436,147,165606,6,0,P|495:120|404:48,1,216,6|0,1:2|0:0,0:0:0:0:
361,83,166411,1,0,0:0:0:0:
336,252,166814,1,2,0:0:0:0:
359,281,166915,1,0,0:0:0:0:
394,273,167015,1,10,0:0:0:0:
406,238,167116,1,0,0:0:0:0:
353,183,167217,5,10,0:0:0:0:
164,0,167518,1,8,0:0:0:0:
153,81,167619,1,10,0:0:0:0:
153,81,167719,1,8,0:0:0:0:
153,81,167820,1,8,0:0:0:0:
2,210,168022,5,10,0:0:0:0:
45,224,168123,1,8,0:0:0:0:
87,240,168223,1,8,0:0:0:0:
129,256,168324,1,8,0:0:0:0:
171,274,168425,1,10,0:0:0:0:
171,274,168525,1,8,0:0:0:0:
171,274,168626,1,8,0:0:0:0:
492,366,168827,5,6,1:2:0:0:
286,247,169029,1,8,0:0:0:0:
295,217,169230,1,0,1:0:0:0:
304,186,169431,1,8,0:0:0:0:
332,114,169633,5,2,1:2:0:0:
254,101,169734,1,0,0:0:0:0:
189,146,169834,1,8,0:0:0:0:
155,219,169935,1,0,0:0:0:0:
167,299,170036,2,0,P|190:359|191:404,1,90,2|8,1:2|0:0,0:0:0:0:
34,262,170438,5,2,1:2:0:0:
7,6,170640,1,8,0:0:0:0:
23,43,170841,1,0,1:0:0:0:
40,80,171042,1,8,0:0:0:0:
3,147,171244,5,2,1:2:0:0:
78,150,171344,1,0,0:0:0:0:
133,97,171445,1,8,0:0:0:0:
156,23,171546,1,0,0:0:0:0:
229,4,171646,1,2,1:2:0:0:
209,80,171848,1,10,0:0:0:0:
209,80,171948,1,8,0:0:0:0:
368,9,172049,5,2,1:2:0:0:
239,231,172250,1,8,0:0:0:0:
293,226,172452,1,0,1:2:0:0:
346,221,172653,1,8,0:0:0:0:
330,143,172854,5,2,1:2:0:0:
414,183,172955,1,0,0:0:0:0:
435,272,173055,1,8,0:0:0:0:
387,355,173156,1,0,0:0:0:0:
297,384,173257,2,0,P|306:320|328:280,1,90,2|8,1:2|0:0,0:0:0:0:
501,141,173660,5,0,1:2:0:0:
292,7,173861,1,8,0:0:0:0:
286,47,174063,1,0,1:0:0:0:
279,87,174263,1,8,0:0:0:0:
353,109,174465,5,2,1:2:0:0:
296,165,174566,1,0,0:0:0:0:
220,152,174666,1,8,0:0:0:0:
180,84,174767,1,0,0:0:0:0:
215,15,174868,1,10,1:2:0:0:
133,19,174968,1,8,0:0:0:0:
215,15,175069,1,10,0:0:0:0:
0,234,175270,5,6,1:2:0:0:
320,296,175472,1,8,0:0:0:0:
273,323,175673,1,0,1:2:0:0:
226,350,175874,1,8,0:0:0:0:
153,381,176076,5,2,1:2:0:0:
172,295,176176,1,0,0:0:0:0:
245,250,176277,1,8,0:0:0:0:
291,177,176378,1,0,0:0:0:0:
269,95,176478,2,0,P|261:31|273:-12,1,90,2|8,1:2|0:0,0:0:0:0:
512,285,176881,5,6,1:2:0:0:
421,61,177082,1,8,0:0:0:0:
470,0,177183,1,0,1:0:0:0:
421,61,177284,1,8,0:0:0:0:
421,61,177485,1,8,0:0:0:0:
494,106,177687,5,2,1:2:0:0:
416,142,177787,1,0,0:0:0:0:
368,213,177888,1,8,0:0:0:0:
364,299,177989,1,0,0:0:0:0:
414,368,178089,1,2,1:2:0:0:
454,288,178291,1,10,0:0:0:0:
454,288,178391,1,8,0:0:0:0:
319,375,178492,5,6,1:2:0:0:
141,115,178693,1,8,0:0:0:0:
70,96,178895,1,0,1:2:0:0:
0,74,179096,1,8,0:0:0:0:
17,161,179297,5,2,1:2:0:0:
105,197,179398,1,0,0:0:0:0:
197,173,179499,1,8,0:0:0:0:
229,84,179599,1,0,0:0:0:0:
313,40,179700,2,0,P|371:65|404:97,1,90,2|8,1:2|0:0,0:0:0:0:
296,377,180103,5,14,0:0:0:0:
247,372,180203,1,8,0:0:0:0:
198,365,180304,1,8,0:0:0:0:
149,361,180405,1,8,0:0:0:0:
100,355,180505,1,8,0:0:0:0:
51,349,180606,1,8,0:0:0:0:
2,340,180707,1,8,0:0:0:0:
2,340,180908,5,10,0:0:0:0:
37,247,181009,1,8,0:0:0:0:
109,180,181109,1,8,0:0:0:0:
206,160,181210,1,8,0:0:0:0:
302,185,181311,1,8,0:0:0:0:
132,273,181512,1,8,0:0:0:0:
16,7,181713,5,6,1:2:0:0:
