osu file format v14

[General]
AudioFilename: audio.mp3
AudioLeadIn: 0
PreviewTime: 39
Countdown: 0
SampleSet: Soft
StackLeniency: 0.7
Mode: 0
LetterboxInBreaks: 0
WidescreenStoryboard: 1

[Editor]
DistanceSpacing: 1.2
BeatDivisor: 4
GridSize: 4
TimelineZoom: 2.2

[Metadata]
Title:Tonight Stars an Easygoing Egoist (Live ver.) ~ Egoistic Flowers.
TitleUnicode:今宵は飄逸なエゴイスト(Live ver) ~ Egoistic Flowers.
Artist:ZUN
ArtistUnicode:ZUN
Creator:Dai
Version:Hard
Source:Touhou
Tags:lufi10 Yorigami Joon Shion Antinomy of Common Flowers
BeatmapID:1629102
BeatmapSetID:775223

[Difficulty]
HPDrainRate:8
CircleSize:4.5
OverallDifficulty:8
ApproachRate:8.5
SliderMultiplier:1.6
SliderTickRate:1

[Events]
//Background and Video events
0,0,"Bg.png",0,0
//Break Periods
//Storyboard Layer 0 (Background)
//Storyboard Layer 1 (Fail)
//Storyboard Layer 2 (Pass)
//Storyboard Layer 3 (Foreground)
//Storyboard Sound Samples

[TimingPoints]
-995,344.827586206897,4,2,0,80,1,0
17108,-100,4,1,0,40,0,0
23142,-100,4,2,0,80,0,0

[Colours]
Combo1 : 0,0,164
Combo2 : 145,145,0

[HitObjects]
320,148,39,6,0,B|364:145|387:110|387:110|410:74|454:72,2,160,2|2|2,0:3|0:0|0:0,0:0:0:0:
168,184,1073,2,0,B|84:212|44:276|52:356|52:356|228:356,1,400,4|2,0:0|0:3,0:0:0:0:
296,316,2108,1,2,0:0:0:0:
356,368,2280,1,0,0:0:0:0:
416,316,2453,6,0,B|500:288|540:224|532:144|532:144|356:144,1,400,4|2,0:0|0:3,0:0:0:0:
276,144,3487,1,2,0:0:0:0:
320,76,3660,1,0,0:0:0:0:
240,76,3832,2,0,B|192:100|196:152|196:152|160:160|128:152,1,160,4|2,0:0|0:0,0:0:0:0:
272,308,4522,2,0,B|320:284|316:232|316:232|352:224|381:231,1,160,2|2,0:0|0:0,0:0:0:0:
416,104,5211,2,0,B|368:160|272:152|272:152|240:232|240:232|144:224|96:280,1,400,4|2,0:0|0:3,0:0:0:0:
48,344,6246,5,2,0:0:0:0:
128,360,6418,1,0,0:0:0:0:
192,312,6591,2,0,B|264:304|308:328|308:328|368:332|424:300,1,240,4|2,0:0|0:0,0:0:0:0:
448,224,7280,2,0,B|400:224|356:260|328:256|328:256|288:248,1,160,2|0,0:0|0:0,0:0:0:0:
216,224,7798,1,0,0:0:0:0:
152,176,7970,2,0,P|192:96|256:72,1,160,2|2,0:0|0:0,0:0:0:0:
360,176,8660,2,0,P|320:96|256:72,1,160,2|2,0:0|0:0,0:0:0:0:
256,192,9177,12,2,10729,0:0:0:0:
184,112,11418,5,2,0:0:0:0:
216,36,11591,1,0,0:0:0:0:
296,36,11763,1,0,0:3:0:0:
324,112,11936,1,0,0:3:0:0:
256,160,12108,2,0,L|256:248,1,80,0|2,0:0|0:0,0:0:0:0:
200,296,12453,2,0,P|256:344|312:296,2,160,0|2|0,0:0|0:0|0:0,0:0:0:0:
192,216,13315,6,0,P|152:152|72:136,1,160,0|2,0:0|0:0,0:0:0:0:
104,224,13832,1,0,0:0:0:0:
216,104,14177,2,0,B|256:72|256:72|288:64|328:80,2,120,2|0|0,0:0|0:0|0:0,0:0:0:0:
143,162,14867,1,0,0:0:0:0:
370,162,15211,1,2,0:0:0:0:
195,37,15556,1,0,0:0:0:0:
257,243,15901,1,2,0:0:0:0:
319,37,16246,1,2,0:0:0:0:
256,328,17108,5,0,0:0:0:0:
216,256,17280,2,0,P|256:248|296:256,1,80,2|2,0:0|0:0,0:0:0:0:
344,320,17625,1,4,0:0:0:0:
380,248,17798,1,2,0:0:0:0:
320,188,17970,2,0,B|280:172|228:180|228:180|188:176|168:140,2,160,0|2|4,0:0|0:0|0:0,0:0:0:0:
400,172,18832,2,0,P|400:84|348:36,1,160,2|2,0:0|0:0,0:0:0:0:
336,116,19349,1,0,0:0:0:0:
272,68,19522,2,0,B|216:64|184:100|184:100|200:148|200:148|164:172|104:164,1,240,2|4,0:0|0:0,0:0:0:0:
4,288,20384,6,2,B|64:340|152:288|152:288|240:236|300:288,1,320,4|0,0:0|0:0,0:0:0:0:
508,96,21763,2,2,B|448:44|360:96|360:96|272:148|212:96,1,320,4|2,0:0|0:3,0:0:0:0:
0,156,23142,6,2,B|72:172|144:160|144:160|228:176|264:280,1,320,4|0,0:0|0:0,0:0:0:0:
184,300,24005,2,0,P|168:260|132:232,2,80,2|0|2,0:0|0:0|0:0,0:0:0:0:
104,304,24522,2,0,L|268:332,1,160,0|2,0:0|0:0,0:0:0:0:
168,384,25039,2,0,L|360:368,2,160
88,384,25901,6,0,L|52:304,1,80,2|0,0:0|0:0,0:0:0:0:
212,312,26418,2,0,L|190:226,1,80,2|0,0:0|0:3,0:3:0:0:
346,262,26936,2,0,L|339:174,1,80,2|0,0:0|0:3,0:3:0:0:
486,236,27453,2,0,L|494:148,1,80,2|0,0:0|0:3,0:3:0:0:
440,8,27970,6,0,L|360:8,1,80,2|0,0:0|0:0,0:0:0:0:
228,48,28315,2,0,L|308:48,1,80,2|0,0:0|0:0,0:0:0:0:
440,88,28660,2,2,B|320:88|276:112|276:112|240:168|172:228,1,320,4|0,0:0|0:0,0:0:0:0:
113,275,29522,2,0,P|74:291|36:279,2,80,2|0|0,0:0|0:0|0:0,0:0:0:0:
192,292,30039,2,0,B|228:313|262:278|262:278|295:239|333:264,2,160,2|2|0,0:0|0:0|0:0,2:3:0:0:
28,240,31073,2,0,L|4:132,1,80
88,0,31418,6,0,L|52:80,1,80,2|0,0:0|0:0,0:0:0:0:
212,72,31935,2,0,L|190:158,1,80,2|0,0:0|0:3,0:3:0:0:
346,122,32453,2,0,L|339:210,1,80,2|0,0:0|0:3,0:3:0:0:
486,148,32970,2,0,L|494:236,1,80,2|0,0:0|0:3,0:3:0:0:
440,376,33487,6,0,L|360:376,1,80,2|0,0:0|0:0,0:0:0:0:
228,336,33832,2,0,L|308:336,1,80,2|0,0:0|0:0,0:0:0:0:
440,296,34177,2,2,B|320:296|276:272|276:272|240:216|172:156,1,320,4|0,0:0|0:0,0:0:0:0:
108,128,35039,2,0,P|72:124|28:124,2,80,2|0|0,0:0|0:0|0:0,0:0:0:0:
112,200,35556,2,0,B|93:235|88:278|88:278|126:266|165:287,2,160,2|0|0,0:0|0:0|0:0,0:0:0:0:
202,44,36591,1,0,0:0:0:0:
335,143,36936,2,0,P|353:287|207:298,1,320
