osu file format v14

[General]
AudioFilename: audio.mp3
AudioLeadIn: 0
PreviewTime: 45440
Countdown: 0
SampleSet: Soft
StackLeniency: 0.7
Mode: 0
LetterboxInBreaks: 0
WidescreenStoryboard: 1

[Editor]
DistanceSpacing: 1.2
BeatDivisor: 4
GridSize: 4
TimelineZoom: 1.4

[Metadata]
Title:Tomboyish Girl in Love
TitleUnicode:おてんば恋娘
Artist:ZUN
ArtistUnicode:ZUN
Creator:HardNeper
Version:Normal
Source:東方紅魔郷 ~ the Embodiment of Scarlet Devil (MIDI)
Tags:Touhou EoSD Cirno MIDI SC-88Pro
BeatmapID:1436633
BeatmapSetID:678669

[Difficulty]
HPDrainRate:3
CircleSize:3.2
OverallDifficulty:3
ApproachRate:4.5
SliderMultiplier:1.3
SliderTickRate:1

[Events]
//Background and Video events
0,0,"background.jpg",0,0
//Break Periods
//Storyboard Layer 0 (Background)
//Storyboard Layer 1 (Fail)
//Storyboard Layer 2 (Pass)
//Storyboard Layer 3 (Foreground)
//Storyboard Sound Samples

[TimingPoints]
3278,405.405405405405,4,2,1,40,1,0
32467,-100,4,2,1,40,0,0
71386,-100,4,2,1,40,0,1
84359,-100,4,2,1,40,0,0
87602,419.58041958042,4,2,1,40,1,0
89280,405.405405405405,4,2,1,40,1,0

[Colours]
Combo1 : 57,159,193
Combo2 : 46,156,49
Combo3 : 66,104,206
Combo4 : 184,163,41

[HitObjects]
413,69,3278,6,0,P|418:111|278:264,1,260,2|2,0:0|0:0,0:0:0:0:
262,108,4494,1,8,0:0:0:0:
120,42,4899,2,0,L|61:84,1,65,2|2,0:0|0:0,0:0:0:0:
106,147,5305,2,0,L|47:189,1,65,10|2,0:0|0:0,0:0:0:0:
190,258,5913,1,2,0:0:0:0:
190,258,6115,2,0,L|240:315,1,65,10|2,0:0|0:0,0:0:0:0:
311,308,6521,2,0,B|377:308|377:308|431:365,1,130,2|10,0:0|0:0,0:0:0:0:
493,326,7129,1,2,0:0:0:0:
480,92,7737,1,8,0:0:0:0:
368,200,8142,6,0,L|338:264,2,65,2|2|10,0:0|0:0|0:0,0:0:0:0:
394,126,8750,2,0,P|386:57|278:71,1,195,2|6,0:0|0:3,0:0:0:0:
150,148,9764,2,0,L|217:178,1,65,2|2,0:0|0:0,0:0:0:0:
184,248,10169,2,0,L|251:278,1,65,10|2,0:0|0:0,0:0:0:0:
476,299,10980,1,8,0:0:0:0:
343,216,11386,5,2,0:0:0:0:
343,216,11588,2,0,L|411:191,1,65,2|10,0:0|0:0,0:0:0:0:
476,162,11994,1,2,0:0:0:0:
353,65,12399,2,0,L|410:29,2,65,2|10|2,0:0|0:0|0:0,0:0:0:0:
275,70,13007,2,0,L|218:34,2,65,2|2|10,0:0|0:0|0:0,0:0:0:0:
289,146,13615,1,2,0:0:0:0:
438,326,14223,1,8,0:0:0:0:
282,311,14629,6,0,L|213:336,1,65,2|2,0:0|0:0,0:0:0:0:
143,341,15034,1,10,0:0:0:0:
68,318,15237,1,2,0:0:0:0:
105,166,15642,2,0,L|174:191,1,65,8|6,0:3|0:3,0:0:0:0:
321,172,16250,6,0,L|404:113,2,97.5,2|2|2,0:0|0:0|0:0,0:0:0:0:
254,213,17061,2,0,P|205:219|137:171,1,130,2|8,0:0|0:0,0:0:0:0:
21,74,17872,2,0,L|99:51,1,65,2|2,0:0|0:0,0:0:0:0:
158,75,18277,2,0,L|236:52,1,65,10|2,0:0|0:0,0:0:0:0:
374,84,18886,2,0,L|452:61,2,65,2|10|2,0:0|0:0|0:0,0:0:0:0:
318,139,19494,2,0,L|255:157,2,65,2|2|10,0:0|0:0|0:0,0:0:0:0:
388,173,20102,2,0,P|417:237|332:319,1,195,2|8,0:0|0:0,0:0:0:0:
201,249,21115,6,0,L|247:193,2,65,2|2|10,0:0|0:0|0:0,0:0:0:0:
124,262,21723,2,0,P|75:210|147:121,1,195,2|10,0:0|0:0,0:0:0:0:
291,117,22737,6,0,L|249:167,2,65,2|2|10,0:0|0:0|0:0,0:0:0:0:
350,66,23345,2,0,P|384:55|494:156,1,195,2|8,0:0|0:0,0:0:0:0:
465,298,24359,1,2,0:0:0:0:
389,314,24561,1,2,0:0:0:0:
311,327,24764,2,0,L|253:291,1,65,10|2,0:0|0:0,0:0:0:0:
102,321,25372,2,0,L|31:340,2,65,2|10|2,0:0|0:0|0:0,0:0:0:0:
156,265,25980,2,0,L|218:248,2,65,2|2|10,0:0|0:0|0:0,0:0:0:0:
102,208,26588,2,0,P|108:118|197:106,1,195,2|8,0:0|0:0,0:0:0:0:
353,110,27602,5,2,0:0:0:0:
337,186,27805,1,2,0:0:0:0:
323,262,28007,1,10,0:0:0:0:
304,337,28210,2,0,P|256:345|176:319,1,130,2|8,0:0|0:3,0:0:0:0:
143,253,28818,6,0,P|124:191|168:141,1,130,12|6,0:3|0:3,0:0:0:0:
266,259,29629,2,0,L|315:201,1,65,2|6,0:0|0:0,0:0:0:0:
241,68,30237,2,0,B|261:43|261:43|303:34,1,65,2|2,0:0|0:0,0:0:0:0:
448,23,30845,1,6,0:0:0:0:
500,330,31656,6,0,L|429:294,1,65,2|10,0:0|0:3,0:0:0:0:
366,321,32061,2,0,L|295:285,1,65,6|6,0:3|0:3,0:0:0:0:
282,217,32467,1,2,0:0:0:0:
152,22,33075,5,10,0:0:0:0:
149,99,33277,2,0,L|91:157,1,65,2|2,0:0|0:0,0:0:0:0:
45,198,33683,2,0,B|34:230|34:230|46:268,1,65,2|10,0:0|0:0,0:0:0:0:
105,306,34088,1,2,0:0:0:0:
349,346,35102,5,2,0:0:0:0:
368,270,35305,2,0,L|387:195,1,65,2|10,0:0|0:0,0:0:0:0:
390,129,35710,2,0,P|367:78|248:118,1,195,2|10,0:0|0:0,0:0:0:0:
177,126,36521,2,0,P|110:138|73:261,1,195,2|10,0:0|0:0,0:0:0:0:
86,322,37332,1,2,0:0:0:0:
449,27,38548,5,2,0:0:0:0:
480,179,38953,1,6,0:0:0:0:
309,339,39561,2,0,L|264:277,1,65,10|2,0:0|0:0,0:0:0:0:
309,218,39967,2,0,L|264:156,1,65,2|2,0:0|0:0,0:0:0:0:
193,158,40372,1,10,0:0:0:0:
208,81,40575,2,0,L|163:19,2,65,2|2|2,0:0|0:0|0:0,0:0:0:0:
285,90,41183,2,0,L|337:51,2,65,10|2|2,0:0|0:0|0:0,0:0:0:0:
270,165,41791,1,2,0:0:0:0:
116,191,42196,6,0,L|80:267,2,65,2|2|2,0:0|0:0|0:0,0:0:0:0:
188,160,42805,2,0,L|215:101,2,65,10|2|2,0:0|0:0|0:0,0:0:0:0:
213,233,43413,2,0,L|185:291,2,65,2|10|2,0:0|0:0|0:0,0:0:0:0:
65,51,44426,1,10,0:0:0:0:
141,67,44629,1,2,0:0:0:0:
217,83,44832,6,0,L|241:23,2,65,2|2|10,0:0|0:0|0:0,0:0:0:0:
291,105,45440,2,0,P|354:142|328:251,1,195,6|10,0:0|0:0,0:0:0:0:
266,289,46250,2,0,L|219:238,1,65,2|2,0:0|0:0,0:0:0:0:
144,227,46656,2,0,B|120:203|120:203|114:163,1,65,2|10,0:0|0:0,0:0:0:0:
133,96,47061,1,2,0:0:0:0:
276,72,48075,5,2,0:0:0:0:
198,62,48277,2,0,L|114:53,1,65,2|10,0:0|0:0,0:0:0:0:
66,96,48683,2,0,P|59:148|175:151,1,195,2|10,0:0|0:0,0:0:0:0:
246,139,49494,1,2,0:0:0:0:
323,133,49696,1,2,0:0:0:0:
401,129,49899,2,0,B|426:150|426:150|436:189,1,65,2|10,0:0|0:0,0:0:0:0:
400,252,50305,1,2,0:0:0:0:
3,216,51521,5,2,0:0:0:0:
81,350,51926,1,6,0:0:0:0:
298,262,52534,2,0,L|280:337,2,65,10|2|2,0:0|0:0|0:0,0:0:0:0:
363,219,53142,2,0,L|378:155,2,65,2|10|2,0:0|0:0|0:0,0:0:0:0:
404,284,53750,2,0,L|386:359,2,65,2|2|10,0:0|0:0|0:0,0:0:0:0:
467,238,54359,2,0,L|482:174,1,65,2|2,0:0|0:0,0:0:0:0:
448,104,54764,1,2,0:0:0:0:
295,137,55169,5,2,0:0:0:0:
234,87,55372,2,0,L|251:25,2,65,2|2|10,0:0|0:0|0:0,0:0:0:0:
177,141,55980,2,0,L|160:203,2,65,2|2|2,0:0|0:0|0:0,0:0:0:0:
134,75,56588,1,10,0:0:0:0:
67,115,56791,1,2,0:0:0:0:
287,192,57399,1,10,0:0:0:0:
249,260,57602,1,2,0:0:0:0:
206,325,57805,6,0,L|124:326,2,65,2|2|10,0:0|0:0|0:0,0:0:0:0:
283,330,58413,2,0,P|346:360|398:265,1,195,6|10,0:0|0:0,0:0:0:0:
359,203,59223,2,0,L|283:160,1,65,2|2,0:0|0:0,0:0:0:0:
278,96,59629,2,0,B|252:73|252:73|213:69,1,65,2|10,0:0|0:0,0:0:0:0:
148,97,60034,1,2,0:0:0:0:
432,28,61048,5,2,0:0:0:0:
390,93,61250,2,0,L|406:167,1,65,2|10,0:0|0:0,0:0:0:0:
455,215,61656,2,0,P|444:275|323:275,1,195,2|10,0:0|0:0,0:0:0:0:
280,221,62467,1,2,0:0:0:0:
234,158,62669,1,2,0:0:0:0:
186,95,62872,2,0,B|152:92|152:92|118:112,1,65,2|10,0:0|0:0,0:0:0:0:
116,185,63277,1,2,0:0:0:0:
439,269,64494,5,2,0:0:0:0:
439,269,64899,2,0,P|356:287|246:257,1,195,6|10,0:0|0:0,0:0:0:0:
234,183,65710,2,0,L|270:128,2,65,2|2|2,0:0|0:0|0:0,0:0:0:0:
164,146,66318,1,10,0:0:0:0:
92,114,66521,2,0,L|56:169,2,65,2|2|2,0:0|0:0|0:0,0:0:0:0:
156,69,67129,2,0,L|192:14,2,65,10|2|2,0:0|0:0|0:0,0:0:0:0:
164,146,67737,1,2,0:0:0:0:
129,297,68142,6,0,L|67:349,2,65,2|2|2,0:0|0:0|0:0,0:0:0:0:
183,241,68750,2,0,L|131:179,2,65,10|2|2,0:0|0:0|0:0,0:0:0:0:
239,295,69359,2,0,L|288:253,1,65,2|10,0:0|0:0,0:0:0:0:
366,251,69764,1,2,0:0:0:0:
221,66,70372,1,10,0:0:0:0:
298,71,70575,1,2,0:0:0:0:
375,75,70777,6,0,L|443:17,2,65,2|2|10,0:0|0:0|0:0,0:0:0:0:
358,151,71386,2,0,P|279:165|219:264,1,195,6|10,0:0|0:0,0:0:0:0:
268,317,72196,2,0,L|334:303,1,65,2|2,0:0|0:0,0:0:0:0:
409,313,72602,2,0,B|438:296|438:296|451:268,1,65,2|10,0:0|0:0,0:0:0:0:
439,190,73007,2,0,P|426:123|366:90,1,130,2|0,0:0|0:0,0:0:0:0:
201,118,74021,6,0,P|169:115|140:102,2,65,2|2|10,0:0|0:0|0:0,0:0:0:0:
262,69,74629,2,0,P|347:52|383:146,1,195,2|10,0:0|0:0,0:0:0:0:
416,209,75440,2,0,P|446:290|358:340,1,195,2|10,0:0|0:0,0:0:0:0:
291,328,76250,1,2,0:0:0:0:
44,320,77467,6,0,L|123:198,1,130,2|6,0:0|0:0,0:0:0:0:
322,318,78480,1,10,0:0:0:0:
361,250,78683,2,0,L|312:193,1,65,2|2,0:0|0:0,0:0:0:0:
240,209,79088,2,0,L|191:152,1,65,2|10,0:0|0:0,0:0:0:0:
243,96,79494,2,0,L|194:39,2,65,2|2|2,0:0|0:0|0:0,0:0:0:0:
299,150,80102,2,0,L|341:199,2,65,10|2|2,0:0|0:0|0:0,0:0:0:0:
225,176,80710,1,2,0:0:0:0:
93,91,81115,6,0,L|23:127,2,65,2|2|2,0:0|0:0|0:0,0:0:0:0:
166,116,81723,2,0,L|223:86,2,65,10|2|2,0:0|0:0|0:0,0:0:0:0:
132,187,82332,2,0,L|161:244,1,65,2|10,0:0|0:0,0:0:0:0:
233,274,82737,1,2,0:0:0:0:
354,74,83345,2,0,P|419:97|459:232,1,195,10|10,0:0|0:3,0:0:0:0:
352,314,84359,6,0,B|297:349|297:349|225:339,1,130,6|2,0:0|0:0,0:0:0:0:
157,319,84967,1,2,0:0:0:0:
82,295,85169,2,0,B|47:240|47:240|57:168,1,130,10|2,0:0|0:0,0:0:0:0:
78,100,85777,1,2,0:0:0:0:
142,56,85980,2,0,L|280:55,1,130,10|2,0:0|0:0,0:0:0:0:
350,58,86588,1,2,0:0:0:0:
350,58,86791,1,10,0:0:0:0:
474,151,87196,2,0,P|439:186|351:208,1,130,0|14,0:0|0:0,0:0:0:0:
286,192,87811,5,2,0:0:0:0:
218,153,88021,2,0,L|145:185,1,65,2|2,0:0|0:0,0:0:0:0:
86,209,88441,2,0,B|30:171|30:171|8:109,2,130,10|6|4,0:0|0:3|0:3,0:0:0:0:
