osu file format v14

[General]
AudioFilename: audio.mp3
AudioLeadIn: 0
PreviewTime: 45440
Countdown: 0
SampleSet: Soft
StackLeniency: 0.4
Mode: 0
LetterboxInBreaks: 0
WidescreenStoryboard: 1

[Editor]
DistanceSpacing: 0.8
BeatDivisor: 4
GridSize: 4
TimelineZoom: 2

[Metadata]
Title:Tomboyish Girl in Love
TitleUnicode:おてんば恋娘
Artist:ZUN
ArtistUnicode:ZUN
Creator:HardNeper
Version:Insane
Source:東方紅魔郷 ~ the Embodiment of Scarlet Devil (MIDI)
Tags:Touhou EoSD Cirno MIDI SC-88Pro
BeatmapID:1438848
BeatmapSetID:678669

[Difficulty]
HPDrainRate:6
CircleSize:3.8
OverallDifficulty:7
ApproachRate:8
SliderMultiplier:1.8
SliderTickRate:1

[Events]
//Background and Video events
0,0,"background.jpg",0,0
//Break Periods
//Storyboard Layer 0 (Background)
//Storyboard Layer 1 (Fail)
//Storyboard Layer 2 (Pass)
//Storyboard Layer 3 (Foreground)
//Storyboard Sound Samples

[TimingPoints]
3278,405.405405405405,4,2,1,40,1,0
32467,-100,4,2,1,40,0,0
71386,-100,4,2,1,40,0,1
84359,-100,4,2,1,40,0,0
87602,419.58041958042,4,2,1,40,1,0
89280,405.405405405405,4,2,1,40,1,0

[Colours]
Combo1 : 57,159,193
Combo2 : 46,156,49
Combo3 : 66,104,206
Combo4 : 184,163,41

[HitObjects]
380,303,3278,6,0,P|342:295|278:223,1,135,6|2,0:0|0:0,0:0:0:0:
282,23,3886,1,2,0:0:0:0:
366,127,4088,2,0,P|373:190|261:214,1,180,2|8,0:0|0:0,0:0:0:0:
54,72,4899,5,2,0:0:0:0:
96,200,5102,1,2,0:0:0:0:
221,148,5305,1,10,0:0:0:0:
270,272,5507,2,0,P|315:242|348:115,1,180,2|2,0:0|0:0,0:0:0:0:
350,126,6115,1,10,0:0:0:0:
231,51,6318,5,10,0:0:0:0:
231,51,6419,1,8,0:0:0:0:
231,51,6521,2,0,P|175:58|131:89,1,90,2|2,0:0|0:0,0:0:0:0:
219,165,6926,1,10,0:0:0:0:
120,262,7129,2,0,P|104:339|189:329,1,180,2|0,0:0|0:0,0:0:0:0:
183,339,7737,1,8,0:0:0:0:
360,229,8142,5,2,0:0:0:0:
279,149,8345,1,2,0:0:0:0:
202,233,8548,1,10,0:0:0:0:
186,67,8750,2,0,P|234:38|359:56,1,180,2|8,0:0|0:0,0:0:0:0:
383,84,9257,1,8,0:0:0:0:
405,123,9359,1,10,0:3:0:0:
411,167,9460,1,8,0:3:0:0:
402,211,9561,1,4,0:3:0:0:
382,251,9663,1,4,0:3:0:0:
348,281,9764,6,0,P|339:233|319:183,1,90,6|2,0:0|0:0,0:0:0:0:
251,80,10169,1,10,0:0:0:0:
140,157,10372,2,0,P|126:239|201:277,1,180,2|0,0:0|0:0,0:0:0:0:
201,277,10980,1,8,0:0:0:0:
318,128,11386,5,2,0:0:0:0:
452,40,11588,1,2,0:0:0:0:
350,30,11791,1,10,0:0:0:0:
439,168,11994,2,0,L|491:248,2,90,2|0|2,0:0|0:0|0:0,0:0:0:0:
318,107,12602,5,10,0:0:0:0:
201,174,12805,1,10,0:0:0:0:
201,174,12906,1,8,0:0:0:0:
201,174,13007,1,10,0:0:0:0:
354,195,13210,1,2,0:0:0:0:
262,253,13413,1,10,0:0:0:0:
318,107,13615,2,0,P|272:68|146:113,1,180,2|0,0:0|0:0,0:0:0:0:
162,90,14223,1,8,0:0:0:0:
278,353,14629,5,2,0:0:0:0:
321,248,14832,1,2,0:0:0:0:
182,303,15034,1,10,0:0:0:0:
59,223,15237,2,0,P|48:167|127:71,1,180,10|10,0:0|0:0,0:0:0:0:
161,65,15744,1,8,0:0:0:0:
205,67,15845,1,10,0:3:0:0:
247,81,15946,1,8,0:3:0:0:
283,107,16048,1,6,0:3:0:0:
306,145,16149,1,4,0:3:0:0:
314,189,16250,6,0,P|309:239|250:316,1,135,6|2,0:0|0:0,0:0:0:0:
145,159,16859,1,2,0:0:0:0:
32,232,17061,2,0,P|72:273|193:283,1,180,2|8,0:0|0:0,0:0:0:0:
463,172,17872,5,2,0:0:0:0:
383,59,18075,1,2,0:0:0:0:
503,73,18277,1,10,0:0:0:0:
328,182,18480,2,0,P|313:109|225:42,1,180,2|2,0:0|0:0,0:0:0:0:
234,44,19088,1,10,0:0:0:0:
195,173,19291,5,10,0:0:0:0:
195,173,19392,1,8,0:0:0:0:
195,173,19494,1,10,0:0:0:0:
331,228,19696,1,2,0:0:0:0:
169,316,19899,1,10,0:0:0:0:
195,173,20102,2,0,P|178:85|273:48,1,180,2|0,0:0|0:0,0:0:0:0:
245,42,20710,1,8,0:0:0:0:
68,99,21115,5,2,0:0:0:0:
150,229,21318,1,2,0:0:0:0:
226,66,21521,1,10,0:0:0:0:
342,220,21723,2,0,P|426:199|450:116,1,180,2|8,0:0|0:0,0:0:0:0:
430,77,22230,1,8,0:0:0:0:
390,54,22332,1,10,0:3:0:0:
345,46,22433,1,8,0:3:0:0:
301,56,22534,1,6,0:3:0:0:
263,81,22636,1,4,0:3:0:0:
236,116,22737,5,6,0:0:0:0:
229,244,22940,1,2,0:0:0:0:
348,165,23142,1,10,0:0:0:0:
440,275,23345,2,0,P|373:275|309:370,1,180,2|0,0:0|0:0,0:0:0:0:
309,359,23953,1,8,0:0:0:0:
182,41,24359,5,2,0:0:0:0:
304,61,24561,1,2,0:0:0:0:
134,155,24764,1,10,0:0:0:0:
264,183,24967,2,0,P|302:196|337:230,1,90,2|0,0:0|0:0,0:0:0:0:
272,348,25372,5,2,0:0:0:0:
150,233,25575,1,10,0:0:0:0:
262,97,25777,1,10,0:0:0:0:
262,97,25879,1,8,0:0:0:0:
262,97,25980,1,10,0:0:0:0:
134,141,26183,1,2,0:0:0:0:
284,176,26386,1,10,0:0:0:0:
442,213,26588,2,0,P|401:303|309:331,1,180,2|0,0:0|0:0,0:0:0:0:
329,331,27196,1,8,0:0:0:0:
145,31,27602,5,2,0:0:0:0:
53,123,27805,1,2,0:0:0:0:
267,202,28007,1,10,0:0:0:0:
249,77,28210,2,0,P|185:108|144:223,1,180,2|8,0:0|0:0,0:0:0:0:
156,247,28717,1,8,0:0:0:0:
179,285,28818,1,10,0:3:0:0:
218,307,28919,1,8,0:3:0:0:
264,316,29021,1,6,0:3:0:0:
309,314,29122,1,4,0:3:0:0:
353,301,29223,5,6,0:0:0:0:
456,214,29426,1,2,0:0:0:0:
329,168,29629,1,2,0:0:0:0:
420,64,29832,1,6,0:0:0:0:
100,68,30237,1,2,0:0:0:0:
100,68,30338,1,2,0:0:0:0:
100,68,30440,1,2,0:0:0:0:
256,308,30845,1,6,0:0:0:0:
484,163,31656,5,2,0:0:0:0:
410,111,31859,1,10,0:0:0:0:
368,93,31960,1,8,0:0:0:0:
323,86,32061,1,10,0:3:0:0:
278,92,32163,1,8,0:3:0:0:
236,108,32264,1,6,0:3:0:0:
202,137,32365,1,4,0:3:0:0:
181,177,32467,6,0,P|210:235|398:240,1,270,6|2,0:0|0:0,0:0:0:0:
307,149,33277,1,2,0:0:0:0:
181,177,33480,1,10,0:0:0:0:
214,46,33683,2,0,L|221:77,3,30,2|2|2|10,0:0|0:0|0:0|0:0,0:0:0:0:
262,244,34088,2,0,P|371:236|412:153,1,180,2|0,0:0|0:0,0:0:0:0:
407,183,34696,1,8,0:0:0:0:
108,143,35102,5,2,0:0:0:0:
31,230,35305,1,2,0:0:0:0:
108,143,35507,1,10,0:0:0:0:
191,44,35710,2,0,P|264:22|367:75,1,180,2|0,0:0|0:0,0:0:0:0:
476,186,36318,5,10,0:0:0:0:
314,207,36521,1,2,0:0:0:0:
461,301,36723,1,2,0:0:0:0:
300,351,36926,2,0,L|308:293,3,30,2|2|2|10,0:0|0:0|0:0|0:0,0:0:0:0:
314,207,37332,2,0,P|229:231|163:308,1,180,2|0,0:0|0:0,0:0:0:0:
168,297,37940,1,8,0:0:0:0:
459,129,38548,5,2,0:0:0:0:
459,129,38953,2,0,P|398:83|296:93,1,180,6|0,0:0|0:0,0:0:0:0:
359,194,39561,1,10,0:0:0:0:
215,116,39764,1,2,0:0:0:0:
274,206,39967,1,2,0:0:0:0:
130,128,40170,1,2,0:0:0:0:
176,234,40372,1,10,0:0:0:0:
32,156,40575,6,0,P|61:201|93:221,1,90,2|2,0:0|0:0,0:0:0:0:
215,116,40980,2,0,P|251:141|274:180,1,90,2|10,0:0|0:0,0:0:0:0:
120,322,41386,1,2,0:0:0:0:
266,278,41588,1,2,0:0:0:0:
114,116,41791,2,0,P|63:156|58:294,1,180,2|2,0:0|0:0,0:0:0:0:
221,330,42399,5,2,0:0:0:0:
151,229,42602,1,2,0:0:0:0:
315,294,42805,1,10,0:0:0:0:
283,178,43007,2,0,P|346:194|377:226,1,90,2|2,0:0|0:0,0:0:0:0:
408,326,43413,1,2,0:0:0:0:
492,207,43615,1,10,0:0:0:0:
315,120,43818,1,2,0:0:0:0:
315,120,44426,5,10,0:0:0:0:
440,208,44629,1,2,0:0:0:0:
315,120,44832,1,2,0:0:0:0:
193,38,45034,1,2,0:0:0:0:
197,180,45237,1,10,0:0:0:0:
63,185,45440,6,0,P|73:240|179:317,1,180,6|0,0:0|0:0,0:0:0:0:
371,289,46048,1,10,0:0:0:0:
259,124,46250,1,2,0:0:0:0:
243,247,46453,1,2,0:0:0:0:
340,193,46656,2,0,L|373:172,3,30,2|2|2|10,0:0|0:0|0:0|0:0,0:0:0:0:
496,106,47061,2,0,P|448:46|325:37,1,180,2|0,0:0|0:0,0:0:0:0:
350,28,47669,1,8,0:0:0:0:
173,234,48075,5,2,0:0:0:0:
42,209,48277,1,2,0:0:0:0:
187,349,48480,1,10,0:0:0:0:
246,143,48683,2,0,P|312:132|400:217,1,180,2|0,0:0|0:0,0:0:0:0:
420,349,49291,5,10,0:0:0:0:
420,349,49494,1,2,0:0:0:0:
287,250,49696,1,2,0:0:0:0:
166,350,49899,2,0,L|138:303,3,30,2|2|2|10,0:0|0:0|0:0|0:0,0:0:0:0:
63,173,50305,2,0,P|88:90|174:35,1,180,2|0,0:0|0:0,0:0:0:0:
161,37,50913,1,8,0:0:0:0:
165,154,51521,5,2,0:0:0:0:
165,154,51926,2,0,P|202:91|307:100,1,180,6|0,0:0|0:0,0:0:0:0:
248,161,52534,1,10,0:0:0:0:
142,305,52737,2,0,P|170:320|229:326,1,90,2|2,0:0|0:0,0:0:0:0:
346,244,53142,1,2,0:0:0:0:
209,181,53345,1,10,0:0:0:0:
374,78,53548,6,0,P|346:63|287:57,1,90,2|2,0:0|0:0,0:0:0:0:
352,326,53953,2,0,P|378:309|413:261,1,90,2|10,0:0|0:0,0:0:0:0:
150,185,54359,2,0,P|151:216|175:270,1,90,2|2,0:0|0:0,0:0:0:0:
389,70,54764,2,0,P|326:39|197:93,1,180,2|2,0:0|0:0,0:0:0:0:
304,174,55372,5,2,0:0:0:0:
351,285,55575,1,2,0:0:0:0:
189,204,55777,1,10,0:0:0:0:
216,356,55980,2,0,P|246:307|251:253,1,90,2|2,0:0|0:0,0:0:0:0:
159,129,56386,1,2,0:0:0:0:
351,137,56588,1,10,0:0:0:0:
351,137,56791,1,2,0:0:0:0:
261,330,57399,5,10,0:0:0:0:
261,330,57602,1,2,0:0:0:0:
387,167,57805,1,2,0:0:0:0:
323,252,58007,1,2,0:0:0:0:
209,176,58210,1,10,0:0:0:0:
64,88,58413,6,0,P|30:130|54:248,1,180,6|0,0:0|0:0,0:0:0:0:
122,172,59021,1,10,0:0:0:0:
156,315,59223,1,2,0:0:0:0:
253,193,59426,1,2,0:0:0:0:
300,340,59629,2,0,L|323:302,3,30,2|2|2|10,0:0|0:0|0:0|0:0,0:0:0:0:
399,161,60034,2,0,P|353:116|245:153,1,180,2|0,0:0|0:0,0:0:0:0:
250,145,60642,1,8,0:0:0:0:
249,331,61048,5,2,0:0:0:0:
86,283,61250,1,2,0:0:0:0:
247,236,61453,1,10,0:0:0:0:
117,158,61656,2,0,P|115:109|243:109,1,180,2|0,0:0|0:0,0:0:0:0:
319,178,62264,5,10,0:0:0:0:
418,61,62467,1,2,0:0:0:0:
452,203,62669,1,2,0:0:0:0:
368,317,62872,2,0,L|336:307,3,30,2|2|2|10,0:0|0:0|0:0|0:0,0:0:0:0:
238,275,63277,2,0,P|246:213|158:139,1,180,2|0,0:0|0:0,0:0:0:0:
165,139,63886,1,8,0:0:0:0:
495,119,64494,5,2,0:0:0:0:
495,119,64899,2,0,P|430:148|314:125,1,180,6|0,0:0|0:0,0:0:0:0:
219,72,65507,1,10,0:0:0:0:
108,51,65710,2,0,P|41:79|11:113,1,90,2|2,0:0|0:0,0:0:0:0:
22,265,66115,1,2,0:0:0:0:
122,169,66318,1,10,0:0:0:0:
251,221,66521,6,0,L|338:274,1,90,2|2,0:0|0:0,0:0:0:0:
460,131,66926,2,0,L|351:183,1,90,2|10,0:0|0:0,0:0:0:0:
101,201,67332,2,0,L|188:254,1,90,2|2,0:0|0:0,0:0:0:0:
310,111,67737,2,0,L|201:163,1,90,2|10,0:0|0:0,0:0:0:0:
83,34,68142,6,0,P|119:63|179:76,1,90,2|2,0:0|0:0,0:0:0:0:
298,44,68548,1,2,0:0:0:0:
242,220,68750,1,10,0:0:0:0:
447,196,68953,2,0,P|421:144|376:120,1,90,2|2,0:0|0:0,0:0:0:0:
239,119,69359,1,2,0:0:0:0:
321,260,69561,1,10,0:0:0:0:
321,260,69764,1,2,0:0:0:0:
71,228,70372,5,10,0:0:0:0:
71,228,70575,1,2,0:0:0:0:
142,116,70777,1,2,0:0:0:0:
176,294,70980,1,2,0:0:0:0:
265,103,71183,1,10,0:0:0:0:
321,329,71386,2,0,P|384:283|402:174,1,180,6|0,0:0|0:0,0:0:0:0:
283,57,71994,5,10,0:0:0:0:
151,91,72196,1,2,0:0:0:0:
261,167,72399,1,2,0:0:0:0:
126,212,72602,2,10,L|153:240,3,30,2|2|2|10,0:0|0:0|0:0|0:0,0:0:0:0:
235,321,73007,2,0,P|315:338|410:299,1,180,2|0,0:0|0:0,0:0:0:0:
404,303,73615,1,8,0:0:0:0:
349,37,74021,5,2,0:0:0:0:
478,115,74223,1,2,0:0:0:0:
301,191,74426,1,10,0:0:0:0:
126,33,74629,2,0,P|53:82|41:185,1,180,2|0,0:0|0:0,0:0:0:0:
167,158,75237,5,10,0:0:0:0:
320,244,75440,1,2,0:0:0:0:
146,305,75642,1,2,0:0:0:0:
255,330,75845,2,0,L|237:281,3,30,2|2|2|10,0:0|0:0|0:0|0:0,0:0:0:0:
195,153,76250,2,0,P|248:85|352:69,1,180,2|0,0:0|0:0,0:0:0:0:
337,66,76859,1,8,0:0:0:0:
479,347,77467,5,2,0:0:0:0:
479,347,77872,2,0,P|472:291|375:221,1,180,6|0,0:0|0:0,0:0:0:0:
372,331,78480,1,10,0:0:0:0:
247,331,78683,2,0,P|186:304|161:271,1,90,2|2,0:0|0:0,0:0:0:0:
229,194,79088,1,2,0:0:0:0:
69,175,79291,1,10,0:0:0:0:
177,59,79494,6,0,L|272:74,1,90,2|2,0:0|0:0,0:0:0:0:
467,115,79899,2,0,L|378:129,1,90,2|10,0:0|0:0,0:0:0:0:
200,156,80305,2,0,L|295:171,1,90,2|2,0:0|0:0,0:0:0:0:
444,211,80710,2,0,L|355:225,1,90,2|10,0:0|0:0,0:0:0:0:
227,339,81115,6,0,P|279:304|309:261,1,90,2|2,0:0|0:0,0:0:0:0:
109,163,81521,2,0,P|143:215|186:245,1,90,2|10,0:0|0:0,0:0:0:0:
285,45,81926,2,0,P|232:79|202:122,1,90,2|2,0:0|0:0,0:0:0:0:
403,221,82332,2,0,P|368:168|325:138,1,90,2|10,0:0|0:0,0:0:0:0:
290,295,82737,2,0,P|243:253|216:120,1,180,2|10,0:0|0:0,0:0:0:0:
211,53,83345,2,0,P|163:68|128:99,1,90,10|8,0:0|0:3,0:0:0:0:
115,118,83649,1,8,0:3:0:0:
101,151,83750,1,8,0:3:0:0:
98,187,83852,1,8,0:3:0:0:
105,222,83953,1,6,0:3:0:0:
120,254,84055,1,4,0:3:0:0:
144,279,84156,1,4,0:3:0:0:
173,298,84257,1,4,0:3:0:0:
207,309,84359,5,14,0:0:0:0:
333,339,84561,1,2,0:0:0:0:
459,266,84764,1,2,0:0:0:0:
310,234,84967,1,2,0:0:0:0:
376,115,85169,1,10,0:0:0:0:
234,147,85372,1,2,0:0:0:0:
246,22,85575,1,2,0:0:0:0:
68,80,85777,1,2,0:0:0:0:
68,80,85980,6,0,P|98:169|178:209,1,180,10|0,0:0|0:0,0:0:0:0:
345,137,86588,1,2,0:0:0:0:
345,137,86791,1,10,0:0:0:0:
77,100,87196,2,0,L|91:217,1,90,0|0,0:0|0:0,0:0:0:0:
184,323,87602,6,0,P|196:273|227:237,1,90,14|2,0:0|0:0,0:0:0:0:
406,188,88021,2,0,P|356:202|310:194,1,90,2|2,0:0|0:0,0:0:0:0:
179,64,88441,2,0,P|216:99|231:144,1,90,10|2,0:0|0:0,0:0:0:0:
220,243,88860,1,10,0:3:0:0:
246,260,88964,1,8,0:3:0:0:
275,271,89069,1,10,0:3:0:0:
305,277,89174,1,4,0:3:0:0:
336,279,89279,1,6,0:3:0:0:
