osu file format v14

[General]
AudioFilename: audio.mp3
AudioLeadIn: 0
PreviewTime: 45440
Countdown: 0
SampleSet: Soft
StackLeniency: 0.7
Mode: 0
LetterboxInBreaks: 0
WidescreenStoryboard: 1

[Editor]
DistanceSpacing: 1.3
BeatDivisor: 4
GridSize: 4
TimelineZoom: 2

[Metadata]
Title:Tomboyish Girl in Love
TitleUnicode:おてんば恋娘
Artist:ZUN
ArtistUnicode:ZUN
Creator:HardNeper
Version:Hard
Source:東方紅魔郷 ~ the Embodiment of Scarlet Devil (MIDI)
Tags:Touhou EoSD Cirno MIDI SC-88Pro
BeatmapID:1438442
BeatmapSetID:678669

[Difficulty]
HPDrainRate:5
CircleSize:3.6
OverallDifficulty:5.5
ApproachRate:7
SliderMultiplier:1.4
SliderTickRate:1

[Events]
//Background and Video events
0,0,"background.jpg",0,0
//Break Periods
//Storyboard Layer 0 (Background)
//Storyboard Layer 1 (Fail)
//Storyboard Layer 2 (Pass)
//Storyboard Layer 3 (Foreground)
//Storyboard Sound Samples

[TimingPoints]
3278,405.405405405405,4,2,1,40,1,0
32467,-100,4,2,1,40,0,0
71386,-100,4,2,1,40,0,1
84359,-100,4,2,1,40,0,0
87602,419.58041958042,4,2,1,40,1,0
89280,405.405405405405,4,2,1,40,1,0

[Colours]
Combo1 : 57,159,193
Combo2 : 46,156,49
Combo3 : 66,104,206
Combo4 : 184,163,41

[HitObjects]
165,301,3278,6,0,P|125:275|109:191,1,105,2|2,0:0|0:0,0:0:0:0:
109,86,3886,1,2,0:0:0:0:
195,113,4088,2,0,P|255:166|336:202,1,140,2|8,0:0|0:0,0:0:0:0:
491,179,4899,1,2,0:0:0:0:
418,234,5102,1,2,0:0:0:0:
425,324,5305,1,10,0:0:0:0:
340,357,5507,2,0,P|280:304|199:268,1,140,2|2,0:0|0:0,0:0:0:0:
160,210,6115,2,0,P|202:200|232:162,1,70,10|2,0:0|0:0,0:0:0:0:
157,119,6521,5,2,0:0:0:0:
247,110,6723,1,2,0:0:0:0:
302,182,6926,1,10,0:0:0:0:
221,182,7129,2,0,P|143:242|139:302,1,140,2|0,0:0|0:0,0:0:0:0:
229,275,7737,1,8,0:0:0:0:
399,212,8142,5,2,0:0:0:0:
476,164,8345,1,2,0:0:0:0:
469,73,8548,1,10,0:0:0:0:
391,119,8750,1,2,0:0:0:0:
218,80,9156,1,8,0:0:0:0:
218,80,9257,1,8,0:3:0:0:
218,80,9359,2,0,B|245:42,2,35,10|4|6,0:3|0:3|0:3,0:0:0:0:
128,98,9764,6,0,P|102:48|107:18,2,70,2|2|10,0:0|0:0|0:0,0:0:0:0:
55,154,10372,2,0,P|123:181|194:174,1,140,2|0,0:0|0:0,0:0:0:0:
286,137,10980,1,8,0:0:0:0:
315,316,11386,5,2,0:0:0:0:
230,350,11588,1,2,0:0:0:0:
139,359,11791,1,10,0:0:0:0:
49,339,11994,2,0,P|33:287|114:247,1,140,2|2,0:0|0:0,0:0:0:0:
182,219,12602,2,0,P|213:183|220:160,1,70,10|2,0:0|0:0,0:0:0:0:
258,79,13007,5,2,0:0:0:0:
349,83,13210,1,2,0:0:0:0:
375,170,13413,1,10,0:0:0:0:
295,214,13615,2,0,P|281:166|207:241,1,210,2|8,0:0|0:0,0:0:0:0:
337,355,14629,5,2,0:0:0:0:
416,310,14832,1,2,0:0:0:0:
463,233,15034,1,10,0:0:0:0:
403,163,15237,2,0,P|392:207|326:285,1,140,2|8,0:0|0:0,0:0:0:0:
265,340,15845,2,0,L|300:368,2,35,8|4|4,0:3|0:3|0:3,0:0:0:0:
174,328,16250,6,0,P|139:277|140:224,2,105,2|2|2,0:0|0:0|0:0,0:0:0:0:
230,256,17061,2,0,P|252:205|341:202,1,140,2|8,0:0|0:0,0:0:0:0:
479,293,17872,5,2,0:0:0:0:
501,205,18075,1,2,0:0:0:0:
411,188,18277,1,10,0:0:0:0:
425,98,18480,2,0,P|410:66|384:43,1,70,2|0,0:0|0:0,0:0:0:0:
332,118,18886,2,0,P|300:85|290:43,2,70,2|10|2,0:0|0:0|0:0,0:0:0:0:
242,136,19494,5,2,0:0:0:0:
157,168,19696,1,2,0:0:0:0:
86,225,19899,1,10,0:0:0:0:
34,149,20102,2,0,P|94:132|165:257,1,210,2|8,0:0|0:0,0:0:0:0:
348,280,21115,6,0,P|383:250|397:217,1,70,2|2,0:0|0:0,0:0:0:0:
381,144,21521,1,10,0:0:0:0:
303,190,21723,2,0,P|252:187|238:104,1,140,2|0,0:0|0:0,0:0:0:0:
286,36,22332,2,0,L|241:11,2,35,8|8|8,0:0|0:0|0:0,0:0:0:0:
375,20,22737,6,0,P|403:53|405:86,1,70,2|2,0:0|0:0,0:0:0:0:
353,150,23142,1,10,0:0:0:0:
368,239,23345,2,0,P|408:221|402:75,1,210,2|8,0:0|0:0,0:0:0:0:
229,30,24359,5,2,0:0:0:0:
138,28,24561,1,2,0:0:0:0:
152,117,24764,1,10,0:0:0:0:
69,155,24967,2,0,P|31:176|14:230,1,70,2|0,0:0|0:0,0:0:0:0:
97,241,25372,2,0,P|77:269|45:283,2,70,2|10|2,0:0|0:0|0:0,0:0:0:0:
177,198,25980,5,2,0:0:0:0:
254,246,26183,1,2,0:0:0:0:
344,260,26386,1,10,0:0:0:0:
432,239,26588,2,0,P|472:209|376:165,1,210,2|8,0:0|0:0,0:0:0:0:
282,349,27602,5,2,0:0:0:0:
223,279,27805,1,2,0:0:0:0:
135,303,28007,1,10,0:0:0:0:
72,236,28210,2,0,P|54:205|53:171,1,70,2|0,0:0|0:0,0:0:0:0:
142,191,28615,1,8,0:0:0:0:
142,191,28717,1,8,0:3:0:0:
142,191,28818,2,0,L|198:184,2,35,8|4|4,0:3|0:3|0:3,0:0:0:0:
158,280,29223,6,0,P|178:323|207:345,2,70,6|2|6,0:0|0:0|0:0,0:0:0:0:
247,262,29832,1,6,0:0:0:0:
346,109,30237,2,0,L|375:66,2,35,2|2|2,0:0|0:0|0:0,0:0:0:0:
158,109,30845,1,6,0:0:0:0:
450,325,31656,6,0,P|469:282|473:250,2,70,2|2|2,0:0|0:0|0:0,0:0:0:0:
360,310,32264,1,10,0:0:0:0:
268,245,32467,1,2,0:0:0:0:
13,341,33075,5,10,0:0:0:0:
79,278,33277,1,2,0:0:0:0:
121,197,33480,1,2,0:0:0:0:
151,111,33683,2,0,L|174:125,3,23.3333333333333,2|2|2|10,0:0|0:0|0:0|0:0,0:0:0:0:
269,176,34088,1,2,0:0:0:0:
476,39,35102,5,2,0:0:0:0:
405,96,35305,1,2,0:0:0:0:
318,124,35507,1,10,0:0:0:0:
226,124,35710,2,0,P|201:178|272:247,1,140,2|0,0:0|0:0,0:0:0:0:
332,243,36318,6,0,P|325:278|293:316,2,70,10|2|2,0:0|0:0|0:0,0:0:0:0:
418,270,36926,2,0,L|426:245,3,23.3333333333333,2|2|2|10,0:0|0:0|0:0|0:0,0:0:0:0:
466,142,37332,1,2,0:0:0:0:
302,22,38548,5,2,0:0:0:0:
302,22,38953,2,0,L|232:64,1,70,6|0,0:0|0:0,0:0:0:0:
174,227,39561,1,10,0:0:0:0:
87,196,39764,2,0,P|49:178|23:144,1,70,2|2,0:0|0:0,0:0:0:0:
39,50,40169,2,0,P|76:67|102:101,1,70,2|10,0:0|0:0,0:0:0:0:
186,83,40575,5,2,0:0:0:0:
273,60,40777,1,2,0:0:0:0:
267,150,40980,1,2,0:0:0:0:
357,142,41183,1,10,0:0:0:0:
336,230,41386,1,2,0:0:0:0:
424,251,41588,1,2,0:0:0:0:
369,324,41791,1,2,0:0:0:0:
187,318,42196,6,0,P|153:311|98:278,1,70,2|2,0:0|0:0,0:0:0:0:
93,192,42602,2,0,P|127:199|182:232,1,70,2|10,0:0|0:0,0:0:0:0:
262,197,43007,2,0,P|241:169|222:107,1,70,2|2,0:0|0:0,0:0:0:0:
276,41,43413,2,0,P|296:68|315:130,1,70,2|10,0:0|0:0,0:0:0:0:
339,187,43818,1,2,0:0:0:0:
90,114,44426,1,10,0:0:0:0:
46,194,44629,1,2,0:0:0:0:
91,296,44832,6,0,P|49:309|7:302,2,70,2|2|10,0:0|0:0|0:0,0:0:0:0:
193,250,45440,1,6,0:0:0:0:
444,357,46048,5,10,0:0:0:0:
396,279,46250,2,0,P|431:266|478:272,1,70,2|2,0:0|0:0,0:0:0:0:
490,179,46656,2,0,L|460:181,3,23.3333333333333,2|2|2|2,0:0|0:0|0:0|0:0,0:0:0:0:
355,184,47061,1,2,0:0:0:0:
94,31,48075,5,2,0:0:0:0:
165,87,48277,2,0,P|136:111|90:121,1,70,2|10,0:0|0:0,0:0:0:0:
191,193,48683,1,2,0:0:0:0:
453,228,49291,6,0,P|460:259|493:305,2,70,10|2|2,0:0|0:0|0:0,0:0:0:0:
440,137,49899,2,0,L|409:132,3,23.3333333333333,2|2|2|10,0:0|0:0|0:0|0:0,0:0:0:0:
306,113,50305,1,2,0:0:0:0:
104,243,51521,5,2,0:0:0:0:
104,243,51926,2,0,P|136:270|175:286,1,70,6|0,0:0|0:0,0:0:0:0:
330,282,52534,1,10,0:0:0:0:
404,230,52737,1,2,0:0:0:0:
349,157,52940,1,2,0:0:0:0:
397,80,53142,2,0,L|300:56,1,70,2|10,0:0|0:0,0:0:0:0:
256,116,53548,5,2,0:0:0:0:
182,63,53750,2,0,L|115:80,1,70,2|2,0:0|0:0,0:0:0:0:
163,157,54156,1,10,0:0:0:0:
108,230,54359,1,2,0:0:0:0:
182,282,54560,1,2,0:0:0:0:
256,232,54764,1,2,0:0:0:0:
256,64,55169,5,2,0:0:0:0:
256,156,55372,1,2,0:0:0:0:
332,205,55575,2,0,P|345:156|337:115,1,70,2|10,0:0|0:0,0:0:0:0:
434,137,55980,2,0,P|447:186|439:227,1,70,2|2,0:0|0:0,0:0:0:0:
405,287,56386,1,2,0:0:0:0:
328,335,56588,1,10,0:0:0:0:
236,332,56791,1,2,0:0:0:0:
109,206,57399,1,10,0:0:0:0:
113,114,57602,1,2,0:0:0:0:
188,30,57805,6,0,P|234:18|271:25,2,70,2|2|10,0:0|0:0|0:0,0:0:0:0:
238,130,58413,1,2,0:0:0:0:
140,359,59021,5,10,0:0:0:0:
53,330,59223,2,0,P|71:298|117:270,1,70,2|2,0:0|0:0,0:0:0:0:
188,269,59629,2,0,L|215:292,3,23.3333333333333,2|2|2|10,0:0|0:0|0:0|0:0,0:0:0:0:
292,355,60034,1,2,0:0:0:0:
222,87,61048,6,0,P|192:112|181:146,1,70,2|2,0:0|0:0,0:0:0:0:
224,220,61453,1,10,0:0:0:0:
331,253,61656,1,2,0:0:0:0:
482,171,62264,5,10,0:0:0:0:
482,79,62467,2,0,P|434:93|405:123,1,70,2|2,0:0|0:0,0:0:0:0:
339,60,62872,2,0,L|338:99,3,23.3333333333333,2|2|2|10,0:0|0:0|0:0|0:0,0:0:0:0:
337,195,63277,1,2,0:0:0:0:
118,155,64494,5,2,0:0:0:0:
118,155,64899,2,0,P|164:138|214:46,1,140,6|0,0:0|0:0,0:0:0:0:
123,43,65507,1,10,0:0:0:0:
123,43,65710,2,0,P|76:59|26:151,1,140,2|2,0:0|0:0,0:0:0:0:
36,222,66318,1,10,0:0:0:0:
108,307,66521,6,0,P|143:322|184:328,1,70,2|2,0:0|0:0,0:0:0:0:
265,323,66926,1,2,0:0:0:0:
342,275,67129,1,10,0:0:0:0:
380,189,67332,1,2,0:0:0:0:
355,101,67534,1,2,0:0:0:0:
249,61,67737,2,0,P|213:75|180:99,1,70,2|8,0:0|0:0,0:0:0:0:
135,193,68142,6,0,P|135:262|119:342,1,140,2|0,0:0|0:0,0:0:0:0:
213,333,68750,1,10,0:0:0:0:
317,292,68953,2,0,P|329:223|329:153,1,140,2|0,0:0|0:0,0:0:0:0:
420,147,69561,1,10,0:0:0:0:
487,57,69764,1,2,0:0:0:0:
218,34,70372,5,10,0:0:0:0:
132,66,70575,1,2,0:0:0:0:
105,174,70777,2,0,P|70:174|40:191,2,70,2|2|10,0:0|0:0|0:0,0:0:0:0:
181,258,71386,2,0,P|294:302|397:261,1,210,6|10,0:0|0:0,0:0:0:0:
452,197,72196,2,0,P|418:161|410:126,1,70,2|2,0:0|0:0,0:0:0:0:
439,55,72602,2,0,L|411:57,3,23.3333333333333,2|2|2|10,0:0|0:0|0:0|0:0,0:0:0:0:
324,60,73007,1,2,0:0:0:0:
488,238,74021,5,2,0:0:0:0:
494,330,74223,1,2,0:0:0:0:
412,289,74426,1,10,0:0:0:0:
312,340,74629,2,0,P|255:324|327:239,1,210,2|10,0:0|0:0,0:0:0:0:
374,138,75440,2,0,P|419:167|431:191,1,70,2|2,0:0|0:0,0:0:0:0:
408,269,75845,2,0,L|394:290,3,23.3333333333333,2|2|2|10,0:0|0:0|0:0|0:0,0:0:0:0:
323,345,76250,2,0,P|233:333|132:230,1,210,2|8,0:0|0:0,0:0:0:0:
83,59,77467,5,2,0:0:0:0:
83,59,77872,2,0,P|67:89|159:224,1,210,6|10,0:0|0:0,0:0:0:0:
238,158,78683,2,0,P|231:123|239:89,1,70,2|2,0:0|0:0,0:0:0:0:
318,44,79088,1,2,0:0:0:0:
405,70,79291,1,10,0:0:0:0:
464,165,79494,6,0,P|433:180|412:208,1,70,2|2,0:0|0:0,0:0:0:0:
368,288,79899,1,2,0:0:0:0:
296,343,80102,1,10,0:0:0:0:
206,335,80305,1,2,0:0:0:0:
138,275,80507,1,2,0:0:0:0:
113,187,80710,2,0,P|154:165|174:133,1,70,2|8,0:0|0:0,0:0:0:0:
228,52,81115,6,0,P|275:34|320:117,1,140,2|0,0:0|0:0,0:0:0:0:
311,184,81723,1,10,0:0:0:0:
296,295,81926,2,0,P|321:344|398:326,1,140,2|0,0:0|0:0,0:0:0:0:
439,251,82534,1,10,0:0:0:0:
459,140,82737,2,0,P|431:78|322:121,1,210,2|2,0:0|0:0,0:0:0:0:
114,344,83953,5,2,0:0:0:0:
114,344,84359,2,0,P|90:309|79:283,1,70,6|2,0:0|0:0,0:0:0:0:
125,204,84764,1,2,0:0:0:0:
216,214,84967,1,2,0:0:0:0:
226,304,85169,2,0,P|268:288|295:255,1,70,10|2,0:0|0:0,0:0:0:0:
300,180,85575,1,2,0:0:0:0:
229,124,85777,1,2,0:0:0:0:
216,214,85980,6,0,P|167:227|205:130,1,210,10|2,0:0|0:0,0:0:0:0:
273,140,86791,1,10,0:0:0:0:
447,192,87196,2,0,P|414:219|400:263,1,70,0|2,0:0|0:0,0:0:0:0:
340,295,87602,6,0,L|270:312,1,70,14|2,0:0|0:0,0:0:0:0:
200,268,88021,2,0,L|239:209,1,70,2|2,0:0|0:0,0:0:0:0:
165,168,88441,2,0,L|95:185,1,70,10|2,0:0|0:0,0:0:0:0:
109,101,88860,2,0,P|174:81|249:144,1,140,4|0,0:3|0:0,0:0:0:0:
