osu file format v14

[General]
AudioFilename: audio.mp3
AudioLeadIn: 0
PreviewTime: 45440
Countdown: 0
SampleSet: Soft
StackLeniency: 0.7
Mode: 0
LetterboxInBreaks: 0
WidescreenStoryboard: 0

[Editor]
DistanceSpacing: 1
BeatDivisor: 2
GridSize: 4
TimelineZoom: 1

[Metadata]
Title:Tomboyish Girl in Love
TitleUnicode:おてんば恋娘
Artist:ZUN
ArtistUnicode:ZUN
Creator:HardNeper
Version:Easy
Source:東方紅魔郷 ~ the Embodiment of Scarlet Devil (MIDI)
Tags:Touhou EoSD Cirno MIDI SC-88Pro
BeatmapID:1435041
BeatmapSetID:678669

[Difficulty]
HPDrainRate:2
CircleSize:3
OverallDifficulty:2
ApproachRate:3
SliderMultiplier:0.8
SliderTickRate:1

[Events]
//Background and Video events
0,0,"background.jpg",0,0
//Break Periods
//Storyboard Layer 0 (Background)
//Storyboard Layer 1 (Fail)
//Storyboard Layer 2 (Pass)
//Storyboard Layer 3 (Foreground)
//Storyboard Sound Samples

[TimingPoints]
3278,405.405405405405,4,2,1,40,1,0
32467,-100,4,2,1,40,0,0
71386,-100,4,2,1,40,0,1
84359,-100,4,2,1,40,0,0
87602,419.58041958042,4,2,1,40,1,0
89280,405.405405405405,4,2,1,40,1,0

[Colours]
Combo1 : 57,159,193
Combo2 : 46,156,49
Combo3 : 66,104,206
Combo4 : 184,163,41

[HitObjects]
152,201,3278,6,0,P|121:194|72:141,1,80,2|2,0:0|0:0,0:0:0:0:
55,89,4088,1,2,0:0:0:0:
117,39,4494,1,8,0:0:0:0:
195,55,4899,2,0,P|235:96|293:96,1,120,2|2,0:0|0:0,0:0:0:0:
336,164,5913,6,0,P|336:222|294:262,1,120,2|2,0:0|0:0,0:0:0:0:
221,231,6926,1,2,0:0:0:0:
62,206,7737,1,8,0:0:0:0:
60,286,8142,6,0,P|130:316|144:359,1,120,2|2,0:0|0:0,0:0:0:0:
222,338,9156,2,0,B|257:317|257:317|260:290|273:261|305:245,1,120,10|6,0:3|0:3,0:0:0:0:
337,318,10169,1,2,0:0:0:0:
486,260,10980,1,8,0:0:0:0:
415,221,11386,6,0,P|362:166|366:120,1,120,2|2,0:0|0:0,0:0:0:0:
421,72,12399,2,0,P|474:127|470:173,1,120,2|2,0:0|0:0,0:0:0:0:
409,216,13413,1,2,0:0:0:0:
487,355,14223,1,8,0:0:0:0:
407,360,14629,5,2,0:0:0:0:
335,328,15034,2,0,P|295:264|339:179,1,160,2|0,0:0|0:0,0:0:0:0:
402,177,16250,2,0,P|437:148|459:105,1,80,2|2,0:0|0:0,0:0:0:0:
430,41,17061,1,2,0:0:0:0:
350,53,17467,1,8,0:0:0:0:
277,86,17872,6,0,P|226:70|161:106,1,120,2|2,0:0|0:0,0:0:0:0:
228,149,18886,2,0,P|236:202|297:243,1,120,2|2,0:0|0:0,0:0:0:0:
306,164,19899,1,2,0:0:0:0:
262,10,20710,1,8,0:0:0:0:
201,62,21115,6,0,P|151:40|83:69,1,120,2|2,0:0|0:0,0:0:0:0:
11,63,22129,2,0,P|27:108|92:141,1,120,0|2,0:0|0:0,0:0:0:0:
165,162,23142,1,2,0:0:0:0:
157,321,23953,1,8,0:0:0:0:
78,316,24359,6,0,P|36:281|31:207,1,120,2|2,0:0|0:0,0:0:0:0:
104,240,25372,2,0,P|162:233|201:188,1,120,2|2,0:0|0:0,0:0:0:0:
220,110,26386,1,2,0:0:0:0:
293,251,27196,1,8,0:0:0:0:
372,262,27602,6,0,P|421:274|488:253,1,120,2|2,0:0|0:0,0:0:0:0:
422,152,28818,2,0,P|427:100|418:62,1,80,6|6,0:3|0:0,0:0:0:0:
303,67,29832,1,6,0:0:0:0:
238,113,30237,2,0,B|226:129|226:129|228:162,1,40,2|2,0:0|0:0,0:0:0:0:
232,237,30845,1,6,0:0:0:0:
232,237,31656,6,0,P|266:257|305:265,1,80,2|2,0:0|0:0,0:0:0:0:
333,189,32467,2,0,P|333:119|363:86,2,80,2|0|2,0:0|0:0|0:0,0:0:0:0:
401,230,33683,2,0,P|444:244|483:278,1,80,2|2,0:0|0:0,0:0:0:0:
246,347,35305,5,2,0:0:0:0:
280,274,35710,2,0,P|315:255|341:225,1,80,2|0,0:0|0:0,0:0:0:0:
275,178,36521,2,0,P|303:150|340:134,1,80,2|2,0:0|0:0,0:0:0:0:
415,106,37332,2,0,P|426:67|427:28,1,80,2|0,0:0|0:0,0:0:0:0:
264,31,38548,5,2,0:0:0:0:
193,69,38953,1,6,0:0:0:0:
33,57,39764,2,0,P|21:94|28:141,1,80,2|2,0:0|0:0,0:0:0:0:
60,207,40575,2,0,P|99:213|132:235,1,80,2|2,0:0|0:0,0:0:0:0:
212,229,41386,1,2,0:0:0:0:
246,301,41791,1,2,0:0:0:0:
325,303,42196,6,0,P|364:297|403:269,1,80,2|0,0:0|0:0,0:0:0:0:
470,241,43007,2,0,P|464:201|437:162,1,80,2|0,0:0|0:0,0:0:0:0:
363,159,43818,1,2,0:0:0:0:
255,106,44426,2,0,P|210:102|173:175,1,120,2|2,0:0|0:0,0:0:0:0:
189,235,45440,1,6,0:0:0:0:
348,257,46250,6,0,B|369:290|369:290|369:348,2,80,2|2|2,0:0|0:0|0:0,0:0:0:0:
389,61,48075,6,0,P|444:46|481:89,1,120,2|2,0:0|0:0,0:0:0:0:
492,247,49494,2,0,P|478:284|451:313,1,80,2|2,0:0|0:0,0:0:0:0:
390,261,50305,1,2,0:0:0:0:
151,290,51521,5,2,0:0:0:0:
87,338,51926,1,6,0:0:0:0:
36,186,52737,2,0,P|36:146|52:110,1,80,2|2,0:0|0:0,0:0:0:0:
132,103,53548,2,0,P|164:126|210:134,2,80,2|2|2,0:0|0:0|0:0,0:0:0:0:
183,41,54764,6,0,P|222:36|258:51,1,80,2|2,0:0|0:0,0:0:0:0:
329,88,55575,1,2,0:0:0:0:
389,35,55980,1,2,0:0:0:0:
468,44,56386,2,0,P|475:82|462:120,1,80,2|2,0:0|0:0,0:0:0:0:
342,113,57399,2,0,P|296:95|242:142,1,120,2|0,0:0|0:0,0:0:0:0:
238,214,58413,1,6,0:0:0:0:
393,181,59223,6,0,P|407:217|401:256,1,80,2|2,0:0|0:0,0:0:0:0:
406,336,60034,2,0,P|445:335|480:354,2,80,2|0|0,0:0|0:0|0:0,0:0:0:0:
325,334,61250,2,0,B|287:349|230:338,1,80,2|2,0:0|0:0,0:0:0:0:
319,199,62467,2,0,P|338:161|340:118,1,80,2|2,0:0|0:0,0:0:0:0:
318,47,63277,1,2,0:0:0:0:
77,55,64494,5,2,0:0:0:0:
77,55,64899,2,0,P|125:39|162:41,1,80,6|0,0:0|0:0,0:0:0:0:
233,47,65710,2,0,P|269:76|223:166,2,160,2|2|0,0:0|0:0|0:0,0:0:0:0:
155,65,67737,1,2,0:0:0:0:
84,103,68142,2,0,P|47:163|79:254,2,160,2|2|2,0:0|0:0|0:0,0:0:0:0:
203,93,70372,2,0,P|236:151|295:183,1,120,2|2,0:0|0:0,0:0:0:0:
348,221,71386,6,0,P|352:266|256:298,2,160,2|2|2,0:0|0:0|0:0,0:0:0:0:
213,72,74021,6,0,P|157:57|120:100,1,120,2|2,0:0|0:0,0:0:0:0:
210,231,75440,2,0,P|256:216|285:191,1,80,2|2,0:0|0:0,0:0:0:0:
321,128,76250,1,2,0:0:0:0:
93,55,77467,6,0,P|56:69|32:101,1,80,2|6,0:0|0:0,0:0:0:0:
34,261,78683,2,0,P|58:292|94:307,2,80,2|0|2,0:0|0:0|0:0,0:0:0:0:
73,191,79899,2,0,P|112:186|148:201,1,80,2|2,0:0|0:0,0:0:0:0:
218,241,80710,1,2,0:0:0:0:
249,314,81115,2,0,P|316:334|396:279,2,160,2|2|2,0:0|0:0|0:0,0:0:0:0:
129,297,83345,6,0,P|109:322|22:345,1,120,2|10,0:0|0:3,0:0:0:0:
35,267,84359,2,0,P|42:235|112:179,2,120,6|2|2,0:3|0:0|0:0,0:0:0:0:
81,332,85980,6,0,P|120:336|156:321,1,80,2|0,0:0|0:0,0:0:0:0:
192,250,86791,2,0,P|231:245|267:260,1,80,2|0,0:0|0:0,0:0:0:0:
290,337,87602,6,0,P|329:341|365:326,1,80,6|2,0:0|0:0,0:0:0:0:
410,260,88441,2,0,P|425:220|364:125,1,160,10|4,0:3|0:3,0:0:0:0:
