osu file format v14

[General]
AudioFilename: audio.mp3
AudioLeadIn: 0
PreviewTime: 32340
Countdown: 0
SampleSet: Drum
StackLeniency: 0.3
Mode: 0
LetterboxInBreaks: 0
WidescreenStoryboard: 0

[Editor]
Bookmarks: 6791,8758,16627,32365,40219,44168,48103
DistanceSpacing: 1
BeatDivisor: 4
GridSize: 32
TimelineZoom: 1

[Metadata]
Title:The Flowers Remain in Fantasy
TitleUnicode:花は幻想のままに
Artist:ZUN
ArtistUnicode:ZUN
Creator:P_O
Version:Normal
Source:東方花映塚 ~ Phantasmagoria of Flower View.
Tags:touhou 東方project th09 ending theme video game vgm
BeatmapID:2133192
BeatmapSetID:1019250

[Difficulty]
HPDrainRate:4
CircleSize:3.5
OverallDifficulty:4
ApproachRate:4
SliderMultiplier:1.6
SliderTickRate:1

[Events]
//Background and Video events
0,0,"touhou-wallpaper-1920x1080-13.jpg",0,0
//Break Periods
//Storyboard Layer 0 (Background)
//Storyboard Layer 1 (Fail)
//Storyboard Layer 2 (Pass)
//Storyboard Layer 3 (Foreground)
//Storyboard Layer 4 (Overlay)
//Storyboard Sound Samples

[TimingPoints]
872,491.803278688525,4,2,0,40,1,0
8740,-100,4,2,0,50,0,0
12921,-100,4,1,0,50,0,0
13412,-100,4,2,0,50,0,0
15625,-100,4,3,0,40,0,0
15626,-100,4,3,0,40,0,0
16609,-100,4,2,0,60,0,0
20544,-100,4,2,0,50,0,0
24478,-100,4,2,0,60,0,0
28412,-100,4,2,0,50,0,0
32347,-100,4,3,0,50,0,1
36281,-100,4,3,0,60,0,1
40216,-100,4,3,0,75,0,1
44150,-100,4,3,0,60,0,1
47100,-100,4,3,0,15,0,1
47593,-100,4,3,0,20,0,1
48085,-100,4,3,0,20,0,0

[Colours]
Combo1 : 0,113,0
Combo2 : 196,64,64
Combo3 : 228,215,133
Combo4 : 5,216,216

[HitObjects]
66,332,872,5,8,0:2:0:0:
212,47,1855,2,0,B|307:46|363:135,1,160,8|0,0:2|0:2,0:2:0:0:
349,276,2839,1,8,0:2:0:0:
91,85,3822,2,0,B|158:17|262:40,1,160,8|0,0:2|0:2,0:2:0:0:
398,36,4806,5,8,0:2:0:0:
278,332,5790,2,0,B|184:332|126:242,1,160,8|0,0:2|0:2,0:2:0:0:
140,102,6773,1,8,0:2:0:0:
434,228,7757,2,0,B|376:290|376:290|280:322,1,160,8|12,0:2|2:2,0:0:0:0:
145,313,8740,1,8,0:2:0:0:
62,177,9232,6,0,P|101:118|192:91,1,160,0|8,0:2|0:2,0:0:0:0:
343,90,10216,1,0,0:2:0:0:
466,192,10708,1,8,0:2:0:0:
425,347,11199,6,0,P|354:348|279:289,1,160,0|8,0:2|0:2,0:0:0:0:
285,138,12183,1,0,0:2:0:0:
158,40,12675,1,8,0:2:0:0:
30,138,13167,6,0,P|30:216|79:278,1,160,0|8,0:2|0:2,0:0:0:0:
219,356,14150,1,0,0:2:0:0:
358,278,14642,1,8,0:2:0:0:
433,137,15134,6,0,P|393:69|320:40,2,160,0|4|8,0:2|0:3|0:3,0:0:0:0:
433,297,16609,5,8,0:2:0:0:
272,297,17101,2,0,P|202:257|171:178,1,160,0|8,0:2|0:2,0:0:0:0:
172,26,18085,1,0,0:2:0:0:
97,55,18331,1,0,0:2:0:0:
44,116,18576,2,0,P|12:189|22:267,2,160,8|8|8,0:2|0:2|0:2,0:2:0:0:
200,89,20052,1,8,0:2:0:0:
360,89,20544,6,0,P|427:145|465:228,1,160,8|8,0:2|0:2,0:2:0:0:
362,333,21527,2,0,P|274:342|189:310,1,160,8|8,0:2|0:2,0:2:0:0:
157,257,22265,1,0,0:2:0:0:
142,178,22511,1,8,0:2:0:0:
239,51,23003,1,8,0:2:0:0:
303,5,23249,1,0,0:2:0:0:
16,281,24478,5,8,0:2:0:0:
16,121,24970,2,0,P|78:87|186:99,1,160,0|8,0:2|0:2,0:0:0:0:
315,152,25953,1,0,0:2:0:0:
282,297,26445,2,0,P|201:325|93:306,2,160,8|8|8,0:2|0:2|0:2,0:2:0:0:
415,209,27921,1,8,0:2:0:0:
363,58,28412,6,0,P|275:49|189:80,1,160,0|8,0:2|0:2,0:2:0:0:
94,175,29396,2,0,P|130:255|199:314,1,160,0|8,0:2|0:2,0:2:0:0:
247,351,30134,1,4,0:2:0:0:
327,351,30380,1,8,0:2:0:0:
13,2,32347,5,8,0:3:0:0:
174,2,32839,2,0,P|240:43|278:119,1,160,8|8,0:3|0:3,0:0:0:0:
233,268,33823,1,8,0:3:0:0:
181,329,34068,1,0,0:3:0:0:
101,338,34314,2,8,P|29:286|-1:208,2,160,8|8|8,0:3|0:3|0:3,2:3:0:0:
261,338,35790,1,8,0:3:0:0:
406,273,36281,6,0,P|410:207|359:121,1,160,8|8,0:3|0:3,0:3:0:0:
214,76,37265,2,0,P|145:72|59:123,1,160,8|8,0:3|0:3,0:3:0:0:
30,186,38003,1,0,0:3:0:0:
8,264,38249,1,0,0:3:0:0:
142,350,38740,1,8,0:3:0:0:
219,370,38986,1,0,0:3:0:0:
473,113,40216,5,8,0:3:0:0:
473,274,40708,2,0,P|419:325|326:346,1,160,0|8,0:3|0:3,0:0:0:0:
183,303,41691,1,0,0:3:0:0:
46,220,42183,2,8,B|9:197|9:148|9:148|52:61,1,160,8|8,0:3|0:3,0:3:0:0:
189,16,43167,2,8,B|233:15|258:57|258:57|268:153,1,160,8|8,0:3|0:3,0:3:0:0:
278,291,44150,5,8,0:3:0:0:
127,347,44642,2,0,P|62:327|-1:250,1,160,8|8,0:3|0:3,0:3:0:0:
3,98,45626,2,0,P|37:39|129:0,1,160,8|8,0:3|0:3,0:3:0:0:
277,1,46609,2,0,L|399:116,1,160,8|4,0:3|0:3,0:3:0:0:
394,271,47593,2,0,L|271:157,1,160,0|4,0:3|0:3,3:3:0:0:
