osu file format v14

[General]
AudioFilename: audio.mp3
AudioLeadIn: 0
PreviewTime: 32340
Countdown: 0
SampleSet: Drum
StackLeniency: 0.3
Mode: 0
LetterboxInBreaks: 0
WidescreenStoryboard: 0

[Editor]
DistanceSpacing: 1.8
BeatDivisor: 4
GridSize: 4
TimelineZoom: 1

[Metadata]
Title:The Flowers Remain in Fantasy
TitleUnicode:花は幻想のままに
Artist:ZUN
ArtistUnicode:ZUN
Creator:P_O
Version:Extra Stage
Source:東方花映塚 ~ Phantasmagoria of Flower View.
Tags:touhou 東方project th09 ending theme video game vgm
BeatmapID:2132832
BeatmapSetID:1019250

[Difficulty]
HPDrainRate:7
CircleSize:5
OverallDifficulty:8
ApproachRate:8
SliderMultiplier:2
SliderTickRate:1

[Events]
//Background and Video events
0,0,"touhou-wallpaper-1920x1080-13.jpg",0,0
//Break Periods
//Storyboard Layer 0 (Background)
//Storyboard Layer 1 (Fail)
//Storyboard Layer 2 (Pass)
//Storyboard Layer 3 (Foreground)
//Storyboard Layer 4 (Overlay)
//Storyboard Sound Samples

[TimingPoints]
872,491.803278688525,4,2,0,40,1,0
872,-166.666666666667,4,2,0,40,0,0
8249,-333.333333333333,4,2,0,40,0,0
8740,-125,4,2,0,50,0,0
12921,-100,4,1,0,50,0,0
13290,-125,4,2,0,50,0,0
15626,-125,4,3,0,40,0,0
16609,-100,4,2,0,60,0,0
20544,-100,4,2,0,50,0,0
24478,-100,4,2,0,60,0,0
28412,-100,4,2,0,50,0,0
32347,-66.6666666666667,4,3,0,50,0,1
36281,-66.6666666666667,4,3,0,60,0,1
40216,-66.6666666666667,4,3,0,75,0,1
44150,-66.6666666666667,4,3,0,60,0,1
47101,-66.6666666666667,4,3,0,15,0,1
47593,-66.6666666666667,4,3,0,20,0,1
48085,-66.6666666666667,4,3,0,20,0,0

[Colours]
Combo1 : 0,113,0
Combo2 : 196,64,64
Combo3 : 228,215,133
Combo4 : 5,216,216

[HitObjects]
92,181,872,5,8,0:2:0:0:
133,261,1117,1,0,0:2:0:0:
238,315,1363,2,0,L|210:257,1,59.9999981689454,0|0,0:2|0:2,0:2:0:0:
145,93,1855,5,8,0:2:0:0:
234,88,2100,1,0,0:2:0:0:
334,152,2347,2,0,L|269:156,1,59.9999981689454
309,290,2839,5,8,0:2:0:0:
398,285,3084,1,0,0:2:0:0:
498,349,3331,2,0,L|433:353,1,59.9999981689454,0|0,0:2|0:2,0:2:0:0:
498,183,3822,5,8,0:2:0:0:
479,95,4067,1,0,0:2:0:0:
392,16,4314,2,0,L|404:79,1,59.9999981689454
392,183,4806,5,8,0:2:0:0:
306,210,5051,1,0,0:2:0:0:
194,174,5298,2,0,L|254:152,1,59.9999981689454,0|0,0:2|0:2,0:2:0:0:
194,258,5790,5,8,0:2:0:0:
139,329,6035,1,0,0:2:0:0:
27,364,6281,2,0,L|64:311,1,59.9999981689454,0|0,0:2|0:2,0:2:0:0:
62,98,6773,5,8,0:2:0:0:
62,8,7019,1,0,0:2:0:0:
152,8,7265,2,0,P|190:11|216:21,1,59.9999981689454,0|0,0:2|0:2,0:2:0:0:
152,160,7757,1,0,0:0:0:0:
5,159,8249,2,0,L|66:159,1,59.9999981689454,0|8,0:0|0:2,0:0:0:0:
5,62,8986,5,0,0:2:0:0:
142,18,9232,1,0,0:2:0:0:
380,62,9479,2,0,P|348:84|308:90,1,80,4|0,0:2|0:2,0:2:0:0:
164,91,9970,5,0,0:2:0:0:
260,197,10216,1,0,0:2:0:0:
488,278,10463,2,0,P|471:242|440:217,1,80,4|8,0:2|0:2,0:2:0:0:
441,360,10953,5,0,0:2:0:0:
335,263,11199,1,0,0:2:0:0:
254,35,11446,2,0,L|350:62,1,80,4|8,0:2|0:2,0:2:0:0:
414,174,11937,5,0,0:2:0:0:
275,134,12183,1,0,0:2:0:0:
39,187,12430,2,0,P|71:208|111:213,1,80,4|8,0:2|0:2,0:2:0:0:
166,0,12921,5,0,0:0:0:0:
166,270,13167,1,0,0:0:0:0:
275,134,13412,2,0,L|329:68,1,80,4|8,0:2|0:2,0:2:0:0:
442,143,13904,5,0,0:2:0:0:
346,249,14150,1,0,0:2:0:0:
118,330,14397,2,0,P|134:294|165:269,1,80,8|4,0:2|0:2,0:2:0:0:
248,361,14888,5,0,0:2:0:0:
346,249,15134,1,0,0:2:0:0:
248,83,15380,1,0,0:2:0:0:
168,82,15626,5,4,0:3:0:0:
117,82,15749,1,4,0:3:0:0:
66,82,15872,1,4,0:3:0:0:
328,83,16117,2,0,L|228:83,1,80,8|4,0:3|0:3,0:3:0:0:
66,233,16609,6,0,P|115:277|155:277,1,100,8|0,0:2|0:2,0:2:0:0:
265,258,17101,1,0,0:2:0:0:
356,180,17347,1,0,0:2:0:0:
332,62,17593,2,0,P|283:18|243:18,1,100,8|0,0:2|0:2,0:2:0:0:
251,151,18085,1,0,0:2:0:0:
251,273,18331,1,0,0:2:0:0:
124,273,18576,5,8,0:2:0:0:
378,273,18822,1,0,0:2:0:0:
98,273,19068,1,8,0:2:0:0:
402,273,19314,1,0,0:2:0:0:
251,152,19560,2,0,L|251:49,1,100,8|0,0:2|0:2,0:2:0:0:
251,332,20052,1,8,0:2:0:0:
251,232,20298,1,0,0:2:0:0:
336,379,20544,5,8,0:2:0:0:
395,298,20790,1,0,0:2:0:0:
395,200,21036,1,8,0:2:0:0:
336,120,21282,1,0,0:2:0:0:
170,379,21527,5,8,0:2:0:0:
111,298,21773,1,0,0:2:0:0:
111,200,22019,1,8,0:2:0:0:
170,120,22265,1,0,0:2:0:0:
251,62,22511,6,0,L|251:171,1,100,8|0,0:2|0:2,0:2:0:0:
250,363,23003,1,8,0:2:0:0:
200,224,23249,2,0,L|300:224,1,100,0|0,0:2|0:2,0:2:0:0:
170,120,23740,2,0,L|54:120,1,100,0|0,0:2|0:2,0:0:0:0:
4,196,24232,1,0,0:2:0:0:
30,292,24478,6,0,B|64:335|64:335|120:352,1,100,8|0,0:2|0:2,0:2:0:0:
238,380,24970,1,0,0:2:0:0:
248,260,25216,1,0,0:2:0:0:
257,141,25462,2,0,L|265:41,1,100,8|0,0:2|0:2,0:2:0:0:
125,113,25953,1,0,0:2:0:0:
354,79,26199,1,0,0:2:0:0:
387,288,26445,5,8,0:2:0:0:
455,121,26691,1,0,0:2:0:0:
276,145,26937,1,8,0:2:0:0:
385,274,27183,5,0,0:2:0:0:
442,132,27429,1,8,0:2:0:0:
290,152,27675,1,0,0:2:0:0:
370,262,27921,5,8,0:2:0:0:
418,141,28167,1,4,0:2:0:0:
283,236,28412,5,0,0:2:0:0:
148,331,28658,1,0,0:2:0:0:
176,168,28904,1,8,0:2:0:0:
204,5,29150,1,4,0:2:0:0:
251,124,29396,5,0,0:2:0:0:
369,9,29642,1,0,0:2:0:0:
204,5,29888,1,8,0:2:0:0:
38,1,30134,1,4,0:2:0:0:
51,145,30380,1,8,0:2:0:0:
74,344,30626,2,0,L|61:237,1,100,0|8,0:2|0:2,0:0:0:0:
143,344,31117,1,0,0:2:0:0:
319,145,31363,5,8,0:2:0:0:
296,344,31609,2,0,L|309:237,1,100,0|8,0:2|0:2,0:0:0:0:
227,344,32100,1,4,0:2:0:0:
425,295,32347,6,0,B|380:344|380:344|293:344,1,150.000005722046,8|0,0:3|0:3,0:3:0:0:
95,344,32839,1,8,0:3:0:0:
222,266,33085,1,0,0:3:0:0:
22,384,33331,6,0,B|5:306|5:306|22:219,1,150.000005722046,8|0,0:3|0:3,0:3:0:0:
59,92,33822,1,8,0:3:0:0:
209,92,34068,1,0,0:3:0:0:
447,92,34314,5,8,0:3:0:0:
186,21,34560,1,0,0:3:0:0:
324,136,34806,1,8,0:3:0:0:
65,212,35052,1,0,0:3:0:0:
368,292,35298,5,8,0:3:0:0:
101,339,35544,1,0,0:3:0:0:
211,171,35790,1,8,0:3:0:0:
461,272,36036,1,0,0:3:0:0:
461,98,36281,5,8,0:3:0:0:
311,9,36527,1,0,0:3:0:0:
160,98,36772,1,8,0:3:0:0:
311,183,37019,1,0,0:3:0:0:
461,272,37265,5,8,0:3:0:0:
311,358,37510,1,0,0:3:0:0:
160,273,37756,1,8,0:3:0:0:
311,183,38003,1,0,0:3:0:0:
236,358,38249,6,0,L|236:208,1,150.000005722046,0|0,0:3|0:3,0:3:0:0:
236,33,38740,1,8,0:3:0:0:
311,183,38986,2,0,L|311:33,1,150.000005722046,0|0,0:3|0:3,0:3:0:0:
236,128,39478,1,0,0:3:0:0:
161,183,39724,1,0,0:3:0:0:
68,183,39970,1,0,0:3:0:0:
68,33,40216,6,0,B|141:3|141:3|213:3,1,150.000005722046,8|0,0:3|0:3,0:3:0:0:
365,3,40708,1,0,0:3:0:0:
68,104,40953,1,0,0:3:0:0:
220,104,41199,2,0,L|370:104,1,150.000005722046,8|0,0:3|0:3,0:3:0:0:
507,104,41691,1,0,0:3:0:0:
294,288,41936,1,0,0:3:0:0:
399,104,42183,5,8,0:3:0:0:
190,103,42429,1,0,0:3:0:0:
294,288,42676,1,8,0:3:0:0:
384,104,42921,5,0,0:3:0:0:
206,104,43167,1,8,0:3:0:0:
294,288,43412,1,0,0:3:0:0:
370,104,43658,5,8,0:3:0:0:
219,104,43904,1,0,0:3:0:0:
219,290,44150,5,8,0:3:0:0:
52,145,44396,1,0,0:3:0:0:
264,182,44642,1,8,0:3:0:0:
476,218,44888,1,0,0:3:0:0:
435,49,45134,5,8,0:3:0:0:
264,182,45380,1,0,0:3:0:0:
93,315,45626,1,8,0:3:0:0:
151,161,45872,1,0,0:3:0:0:
219,259,46117,5,8,0:3:0:0:
265,181,46363,1,0,0:3:0:0:
311,103,46609,1,8,0:3:0:0:
355,181,46855,1,0,0:3:0:0:
421,4,47101,5,4,0:3:0:0:
466,4,47224,1,4,0:3:0:0:
511,4,47347,1,4,0:3:0:0:
511,125,47593,1,0,0:3:0:0:
511,125,48085,5,4,0:3:0:0:
