osu file format v14

[General]
AudioFilename: [06] Bucuresti no Ningyoushi.mp3
AudioLeadIn: 0
PreviewTime: 50601
Countdown: 0
SampleSet: None
StackLeniency: 0.7
Mode: 0
LetterboxInBreaks: 0
WidescreenStoryboard: 0

[Editor]
DistanceSpacing: 1.11
BeatDivisor: 4
GridSize: 4
TimelineZoom: 1.7

[Metadata]
Title:The Doll Maker of Bucuresti
TitleUnicode:ブクレシュティの人形師
Artist:ZUN
ArtistUnicode:ZUN
Creator:wa_
Version:Lunatic
Source:東方Project
Tags:ColdTooth darkdunskin orza6006 Touhou Perfect Cherry Blossom PCB Alice Margatroid Stage 3 Bukureshuti no Ningyoushi 東方妖々夢 Youyoumu Suimusou Immaterial and Missing Power 東方萃夢想 Hisouten Scarlet Weather Rhapsody 東方緋想天
BeatmapID:387109
BeatmapSetID:158230

[Difficulty]
HPDrainRate:7
CircleSize:4
OverallDifficulty:8
ApproachRate:8.8
SliderMultiplier:1.7
SliderTickRate:2

[Events]
//Background and Video events
0,0,"Touhou.full.1534285.jpg",0,0
//Break Periods
2,38169,48393
//Storyboard Layer 0 (Background)
//Storyboard Layer 1 (Fail)
//Storyboard Layer 2 (Pass)
//Storyboard Layer 3 (Foreground)
//Storyboard Sound Samples

[TimingPoints]
75,394.736842105263,4,2,0,35,1,0
75,-125,4,2,0,35,0,0
6390,-125,4,2,0,45,0,0
9548,-111.111111111111,4,2,0,45,0,0
11127,-111.111111111111,4,3,0,8,0,0
11324,-111.111111111111,4,3,0,16,0,0
11522,-111.111111111111,4,3,0,24,0,0
11719,-111.111111111111,4,3,0,32,0,0
11917,-111.111111111111,4,3,0,40,0,0
12114,-111.111111111111,4,3,0,48,0,0
12311,-111.111111111111,4,3,0,56,0,0
12509,-111.111111111111,4,3,0,64,0,0
12706,-100,4,3,0,70,0,0
15765,-100,4,3,0,15,0,0
15864,-100,4,3,0,70,0,0
21390,-76.9230769230769,4,3,0,70,0,0
22180,-100,4,3,0,70,0,0
33627,-76.9230769230769,4,3,0,70,0,0
34811,-100,4,3,0,70,0,0
37574,-100,4,3,0,55,0,0
37969,-100,4,2,0,65,0,0
49417,-66.6666666666667,4,2,0,65,0,0
49466,-66.6666666666667,4,2,0,35,0,0
49811,-66.6666666666667,4,2,0,65,0,0
49861,-66.6666666666667,4,2,0,50,0,0
50206,-66.6666666666667,4,2,0,65,0,0
50601,-90.9090909090909,4,3,0,65,0,0
65601,-90.9090909090909,4,3,0,55,0,0
65996,-90.9090909090909,4,3,0,45,0,0
66390,-90.9090909090909,4,3,0,75,0,0
86917,-66.6666666666667,4,3,0,75,0,0
87706,-90.9090909090909,4,3,0,75,0,0
91653,-100,4,3,0,75,0,0
104285,-90.9090909090909,4,3,0,75,0,1
110206,-90.9090909090909,4,3,0,75,0,0
110601,-90.9090909090909,4,3,0,75,0,1
116127,-76.9230769230769,4,3,0,75,0,1
116917,-111.111111111111,4,2,0,40,0,0
123245,394.736842105263,4,2,0,40,1,0
127981,-83.3333333333333,4,3,0,30,0,0
128376,-71.4285714285714,4,3,0,35,0,0
128771,-62.5,4,3,0,40,0,0
129166,-55.5555555555556,4,3,0,45,0,0

[Colours]
Combo1 : 173,172,171
Combo2 : 220,205,220
Combo3 : 188,222,224
Combo4 : 130,148,189
Combo5 : 169,216,141
Combo6 : 232,215,183

[HitObjects]
64,84,75,6,0,P|96:78|148:84,1,68,4|0,0:0|0:0,0:0:0:0:
224,100,469,2,0,P|257:101|291:95,1,68,2|0,0:0|0:0,0:0:0:0:
164,168,864,1,0,0:0:0:0:
212,252,1061,1,2,0:0:0:0:
308,264,1259,1,2,0:0:0:0:
376,196,1456,1,2,0:0:0:0:
336,108,1653,6,0,P|328:68|332:36,1,68
472,164,2048,2,0,P|476:204|469:236,1,68,2|0,0:0|0:0,0:0:0:0:
396,288,2443,1,0,0:0:0:0:
308,264,2640,1,0,0:0:0:0:
220,300,2838,1,2,0:0:0:0:
168,376,3035,1,2,0:0:0:0:
52,116,3232,6,0,P|100:116|132:108,1,68,0|0,0:0|0:0,0:0:0:0:
208,80,3627,2,0,P|241:74|275:75,1,68,2|0,0:0|0:0,0:0:0:0:
232,288,4022,2,2,P|196:248|204:164,1,136,2|0,0:0|0:0,0:0:0:0:
288,132,4614,1,0,0:0:0:0:
380,156,4811,6,0,L|460:152,1,68,0|2,0:0|0:0,0:0:0:0:
312,224,5206,2,0,L|236:228,1,68,2|0,0:0|0:0,0:0:0:0:
404,244,5601,2,2,P|432:296|412:376,1,136,2|0,0:0|0:0,0:0:0:0:
328,340,6193,1,2,0:0:0:0:
236,364,6390,6,0,L|152:360,1,68,4|2,0:0|0:0,0:0:0:0:
12,320,6785,2,0,L|80:324,1,68,0|2,0:0|0:0,0:0:0:0:
252,272,7180,1,0,0:0:0:0:
314,199,7377,1,2,0:0:0:0:
298,107,7574,1,0,0:0:0:0:
215,60,7772,1,2,0:0:0:0:
80,172,7969,5,0,0:0:0:0:
64,260,8167,1,0,0:0:0:0:
120,328,8364,2,0,P|156:320|200:320,1,68,2|0,0:0|0:0,0:0:0:0:
272,200,8759,2,0,P|235:204|191:200,1,68,0|2,0:0|0:0,0:0:0:0:
148,63,9153,2,0,P|184:58|228:62,1,68,2|0,0:0|0:0,0:0:0:0:
344,128,9548,6,0,P|360:168|348:224,1,76.4999976654053,0|2,0:0|0:0,0:0:0:0:
160,312,9943,2,0,P|147:270|164:216,1,76.4999976654053,2|2,0:0|0:0,0:0:0:0:
392,256,10338,2,2,L|224:268,1,152.999995330811
184,192,10930,1,2,0:0:0:0:
228,112,11127,6,0,L|232:84,30,19.1249994163513,0|0|0|0|0|0|0|0|0|0|0|0|0|0|0|0|2|0|0|0|0|0|0|0|2|0|0|0|0|0|0,0:0|0:0|0:0|0:0|0:0|0:0|0:0|0:0|0:0|0:0|0:0|0:0|0:0|0:0|0:0|0:0|0:0|0:0|0:0|0:0|0:0|0:0|0:0|0:0|0:0|0:0|0:0|0:0|0:0|0:0|0:0,2:0:0:0:
300,168,12706,6,0,P|344:156|396:164,1,85,4|2,1:1|0:2,0:0:0:0:
384,328,13101,2,0,P|344:340|299:334,1,85,10|0,1:3|0:0,0:0:0:0:
224,280,13496,1,0,1:0:0:0:
368,176,13693,1,8,0:0:0:0:
276,156,13890,1,2,1:3:0:0:
344,92,14088,1,0,0:0:0:0:
328,332,14285,5,4,1:3:0:0:
232,352,14482,2,0,B|208:340|208:340|136:336,2,85,2|8|0,0:0|1:3|0:0,0:0:0:0:
328,308,15074,1,8,1:3:0:0:
208,120,15272,1,2,0:0:0:0:
40,212,15469,6,0,B|124:220|124:220|180:208,1,127.5,4|0,1:0|0:0,0:0:0:0:
228,272,15864,6,0,P|240:316|232:360,1,85,4|2,1:3|0:2,0:0:0:0:
272,184,16259,1,2,1:3:0:0:
324,264,16456,1,2,0:0:0:0:
136,152,16653,1,4,1:3:0:0:
136,152,16752,1,0,0:0:0:0:
136,152,16851,2,0,L|138:65,2,85,2|8|2,0:0|1:3|0:0,0:0:0:0:
84,232,17443,6,0,P|32:248|0:244,1,85,4|2,1:3|0:2,0:0:0:0:
196,112,17838,2,0,P|244:108|292:128,1,85,10|0,1:3|0:0,0:0:0:0:
385,345,18232,1,4,1:3:0:0:
350,184,18430,1,2,1:3:0:0:
284,335,18627,1,8,1:3:0:0:
426,252,18824,1,2,0:0:0:0:
263,235,19022,6,0,L|177:239,1,85,4|0,1:1|0:0,0:0:0:0:
28,64,19417,2,0,L|118:63,1,85,10|0,1:3|0:0,0:0:0:0:
268,132,19811,1,4,1:3:0:0:
268,132,19910,1,0,0:0:0:0:
268,132,20009,1,0,0:0:0:0:
456,280,20206,1,8,1:3:0:0:
364,276,20403,1,2,0:2:0:0:
412,196,20601,5,4,1:3:0:0:
208,252,20798,1,2,0:0:0:0:
276,120,20996,2,0,P|292:168|284:220,1,85,8|0,1:3|0:0,0:0:0:0:
204,344,21390,6,0,B|128:336|128:336|88:340,1,110.499994941712,4|0,1:0|0:0,0:0:0:0:
284,124,21785,2,0,B|356:120|356:120|408:128,1,110.499994941712,4|0,1:0|0:0,0:0:0:0:
236,204,22180,5,4,1:3:0:0:
192,116,22377,1,2,0:0:0:0:
132,196,22574,2,0,P|88:208|44:208,1,85,10|0,1:3|0:0,0:0:0:0:
220,320,22969,1,4,1:3:0:0:
220,320,23068,1,0,0:0:0:0:
220,320,23167,2,0,P|272:312|316:320,2,85,2|4|2,0:0|1:3|1:3,0:0:0:0:
372,152,23759,5,4,1:3:0:0:
192,68,23956,1,2,0:0:0:0:
280,15,24153,1,10,1:3:0:0:
284,108,24351,1,2,3:0:0:0:
291,201,24548,1,4,1:3:0:0:
468,216,24746,5,2,0:0:0:0:
328,100,24943,1,8,1:3:0:0:
290,95,25041,1,8,0:0:0:0:
253,104,25140,1,4,0:0:0:0:
220,124,25239,1,4,0:0:0:0:
196,153,25338,6,0,L|188:64,1,85,4|0,1:3|0:0,0:0:0:0:
291,201,25732,2,0,L|300:304,1,85,10|0,1:3|0:0,0:0:0:0:
208,332,26127,1,8,1:3:0:0:
208,332,26226,1,0,0:0:0:0:
208,332,26324,1,2,0:0:0:0:
80,224,26522,1,8,1:3:0:0:
64,316,26719,1,2,0:0:0:0:
208,196,26917,6,0,P|252:191|300:204,1,85,4|0,1:3|0:0,0:0:0:0:
512,240,27311,2,0,P|434:222|346:270,1,170,6|4,1:3|1:3,0:0:0:0:
276,160,27903,1,2,0:0:0:0:
404,324,28101,5,4,1:0:0:0:
396,232,28298,1,0,0:0:0:0:
320,288,28496,6,0,L|228:284,1,85,4|0,1:3|0:0,0:0:0:0:
448,100,28890,2,0,L|452:8,1,85,2|0,1:3|0:0,0:0:0:0:
368,152,29285,1,4,1:3:0:0:
368,152,29384,1,0,0:0:0:0:
368,152,29482,1,2,0:0:0:0:
280,180,29680,1,8,1:3:0:0:
200,136,29877,1,2,0:3:0:0:
136,312,30074,6,0,P|92:320|52:316,1,85,4|2,1:3|0:0,0:0:0:0:
20,115,30469,2,0,P|62:112|104:120,1,85,8|2,1:3|0:0,0:0:0:0:
236,304,30864,1,4,1:3:0:0:
212,104,31061,5,2,0:0:0:0:
268,188,31258,1,2,1:3:0:0:
320,100,31456,1,2,1:3:0:0:
327,311,31653,6,0,P|372:300|416:304,1,85,4|2,1:3|0:0,0:0:0:0:
244,268,32048,2,0,P|224:188|268:100,1,170,8|4,1:3|1:3,0:0:0:0:
342,101,32640,1,2,0:0:0:0:
244,268,32838,1,4,1:3:0:0:
146,99,33035,1,2,0:2:0:0:
196,180,33232,5,4,1:3:0:0:
104,188,33430,1,2,0:0:0:0:
320,328,33627,2,0,P|372:336|432:322,1,110.499994941712,8|0,1:3|0:0,0:0:0:0:
264,193,34022,2,0,P|313:173|357:131,1,110.499994941712,4|0,1:2|0:0,0:0:0:0:
146,99,34417,2,0,P|178:57|194:1,1,110.499994941712,6|2,1:3|0:2,0:0:0:0:
176,196,34811,6,0,P|212:224|340:208,1,170,4|10,1:3|1:3,0:0:0:0:
368,96,35403,1,0,0:0:0:0:
256,56,35601,2,0,P|252:108|264:148,1,85,4|2,1:3|0:0,0:0:0:0:
460,260,35996,2,0,P|464:208|452:168,1,85,6|2,1:3|0:0,0:0:0:0:
208,240,36390,5,4,1:3:0:0:
372,292,36588,1,2,0:0:0:0:
112,280,36785,2,0,P|104:324|116:376,1,85,8|0,1:3|0:0,0:0:0:0:
288,168,37180,1,4,1:3:0:0:
128,188,37377,1,10,1:3:0:0:
343,253,37574,5,8,0:3:0:0:
370,226,37673,1,8,0:3:0:0:
386,192,37772,1,8,0:3:0:0:
387,154,37870,1,4,0:3:0:0:
376,118,37969,1,4,1:1:0:0:
60,164,49022,6,0,B|148:156|148:156|192:172,1,127.5,0|0,1:0|0:0,0:0:0:0:
260,208,49417,2,0,L|304:212,7,31.8750012159348,2|0|0|0|0|0|0|0,1:3|0:0|0:0|0:0|0:0|0:0|0:0|0:0,0:0:0:0:
372,172,49811,2,0,L|403:169,7,31.8750012159348,2|0|0|0|0|0|0|0,1:3|0:0|0:0|0:0|0:0|0:0|0:0|0:0,0:0:0:0:
476,212,50206,2,0,L|520:216,6,31.8750012159348,2|0|0|0|0|0|0,1:3|0:0|0:0|0:0|0:0|0:0|0:0,0:0:0:0:
396,260,50601,6,0,P|352:275|296:268,1,93.5000028533936,4|0,1:1|0:0,0:0:0:0:
332,76,50996,2,0,P|378:69|424:80,1,93.5000028533936,8|0,1:3|0:0,0:0:0:0:
216,196,51390,1,4,1:3:0:0:
216,196,51489,1,2,0:2:0:0:
216,196,51588,1,2,0:0:0:0:
40,204,51785,5,4,1:3:0:0:
168,121,51982,1,2,0:0:0:0:
87,278,52179,1,4,1:3:0:0:
80,125,52574,1,6,1:3:0:0:
175,274,52969,1,4,1:3:0:0:
256,112,53167,1,2,0:0:0:0:
352,264,53364,1,4,1:0:0:0:
276,212,53561,6,0,B|64:220,1,187.000005706787,2|0,1:3|0:0,0:0:0:0:
356,156,54153,2,0,P|372:201|368:245,1,93.5000028533936,10|0,1:3|0:0,0:0:0:0:
190,257,54548,2,0,P|177:209|184:166,1,93.5000028533936,4|0,1:3|0:0,0:0:0:0:
288,312,54943,1,8,1:3:0:0:
272,120,55140,1,10,0:0:0:0:
288,312,55338,6,0,L|381:308,1,93.5000028533936,4|2,1:3|0:0,0:0:0:0:
128,252,55732,2,0,L|12:256,1,93.5000028533936,8|2,1:3|0:0,0:0:0:0:
204,180,56127,1,4,1:3:0:0:
188,328,56324,1,4,0:0:0:0:
168,332,56423,1,4,0:0:0:0:
148,336,56522,1,8,1:3:0:0:
300,184,56719,5,4,0:0:0:0:
320,188,56818,1,4,0:0:0:0:
340,192,56917,1,4,1:1:0:0:
260,96,57114,1,2,0:0:0:0:
352,296,57311,2,0,L|456:292,1,93.5000028533936,10|2,1:3|0:0,0:0:0:0:
399,102,57706,2,0,L|340:104,1,46.7500014266968,4|0,1:3|0:0,0:0:0:0:
264,144,57903,2,0,L|168:148,2,93.5000028533936,2|4|2,0:2|1:3|0:0,0:0:0:0:
355,177,58496,6,0,P|391:221|359:349,2,187.000005706787,12|2|4,1:3|1:2|1:3,0:0:0:0:
192,160,59482,1,2,0:0:0:0:
408,32,59680,1,4,1:2:0:0:
328,92,59877,6,0,B|252:112|228:56|140:80,1,187.000005706787,2|2,1:3|0:0,0:0:0:0:
2,211,60469,1,8,1:3:0:0:
40,228,60567,1,0,0:0:0:0:
81,228,60666,1,0,1:0:0:0:
119,209,60765,1,0,1:2:0:0:
144,176,60864,2,0,L|156:288,1,93.5000028533936,4|0,1:3|0:0,0:0:0:0:
104,348,61259,1,4,1:3:0:0:
308,328,61456,6,0,L|360:332,1,46.7500014266968,8|0,1:3|0:0,0:0:0:0:
246,273,61653,2,0,P|194:281|146:265,1,93.5000028533936,4|2,1:3|0:0,0:0:0:0:
336,236,62048,1,6,1:3:0:0:
337,193,62147,1,0,0:0:0:0:
339,151,62245,1,2,1:3:0:0:
341,109,62344,1,0,0:0:0:0:
342,67,62443,2,0,P|284:40|208:60,1,140.25000428009,6|0,1:2|0:0,0:0:0:0:
148,128,62838,6,0,L|80:125,1,46.7500014266968,2|0,1:2|0:0,0:0:0:0:
184,212,63035,2,0,L|252:209,1,46.7500014266968,2|0,1:2|0:0,0:0:0:0:
136,288,63232,6,0,B|88:292|88:292|44:284|44:284|-4:288,1,140.25000428009,4|0,1:3|0:0,0:0:0:0:
48,208,63627,2,0,P|60:160|48:112,1,93.5000028533936,10|0,1:3|0:0,0:0:0:0:
184,212,64022,1,4,1:3:0:0:
148,128,64219,1,0,0:0:0:0:
128,124,64318,1,0,0:0:0:0:
108,120,64417,1,6,1:3:0:0:
272,240,64614,5,2,0:0:0:0:
292,238,64713,1,2,0:0:0:0:
312,237,64812,1,4,1:3:0:0:
376,168,65009,1,10,1:3:0:0:
204,300,65206,5,8,1:3:0:0:
187,261,65304,1,8,0:0:0:0:
181,220,65403,1,4,0:0:0:0:
188,178,65502,1,4,0:0:0:0:
206,140,65601,1,0,1:3:0:0:
228,132,65699,1,0,0:0:0:0:
251,128,65798,1,2,0:2:0:0:
275,128,65897,1,0,0:0:0:0:
298,128,65996,1,2,1:3:0:0:
321,131,66094,1,0,0:0:0:0:
344,131,66193,1,2,1:2:0:0:
367,127,66292,1,2,0:0:0:0:
389,118,66390,6,0,P|456:116|492:128,1,93.5000028533936,4|2,1:3|0:0,0:0:0:0:
512,212,66785,2,0,B|530:248|506:300|506:300|410:304,1,187.000005706787,8|4,1:3|1:3,0:0:0:0:
328,256,67377,1,2,0:0:0:0:
328,256,67476,1,8,0:0:0:0:
328,256,67574,1,6,1:3:0:0:
240,288,67772,5,0,0:0:0:0:
240,288,67871,1,0,0:0:0:0:
240,288,67969,2,0,L|176:292,1,46.7500014266968,4|0,1:3|0:0,0:0:0:0:
112,252,68167,2,0,L|48:256,1,46.7500014266968,4|0,1:3|0:0,0:0:0:0:
192,208,68364,5,8,1:3:0:0:
206,168,68462,1,8,0:0:0:0:
210,126,68561,1,4,0:0:0:0:
203,85,68660,1,0,0:0:0:0:
185,47,68759,6,0,L|130:50,1,46.7500014266968,4|0,1:3|0:0,0:0:0:0:
304,104,68956,2,0,L|359:106,1,46.7500014266968,2|0,0:3|0:0,0:0:0:0:
120,140,69153,2,0,L|64:142,1,46.7500014266968,6|0,1:3|0:0,0:0:0:0:
328,212,69351,2,0,L|383:214,1,46.7500014266968,2|0,1:3|0:0,0:0:0:0:
240,264,69548,6,0,L|140:264,1,93.5000028533936,4|2,1:3|0:0,0:0:0:0:
327,318,69943,2,0,B|379:326|419:311|419:311|465:295|511:312,1,187.000005706787,6|4,1:3|1:3,0:0:0:0:
240,356,70535,1,10,0:0:0:0:
220,360,70634,1,8,0:0:0:0:
200,364,70732,1,4,1:3:0:0:
332,228,70930,5,8,0:0:0:0:
352,232,71029,1,8,0:0:0:0:
372,236,71127,1,4,1:3:0:0:
456,192,71324,1,8,1:3:0:0:
240,268,71522,5,8,1:3:0:0:
209,239,71620,1,8,0:0:0:0:
171,222,71719,1,4,1:3:0:0:
129,217,71818,1,0,0:0:0:0:
88,224,71917,6,0,L|84:156,1,46.7500014266968,0|0,1:0|0:0,0:0:0:0:
180,84,72114,2,0,L|182:130,1,46.7500014266968,10|0,1:3|0:0,0:0:0:0:
272,224,72311,2,0,L|268:156,1,46.7500014266968,4|0,1:3|0:0,0:0:0:0:
360,88,72509,2,0,L|363:138,1,46.7500014266968,10|0,1:3|1:3,0:0:0:0:
272,224,72706,6,0,L|176:232,1,93.5000028533936,4|2,1:3|0:0,0:0:0:0:
140,220,73002,1,0,0:2:0:0:
140,176,73101,2,0,P|152:128|136:76,1,93.5000028533936,4|2,1:3|0:2,0:0:0:0:
32,244,73496,1,4,1:3:0:0:
160,320,73693,1,6,0:0:0:0:
160,320,73792,1,2,0:2:0:0:
160,320,73890,1,8,1:3:0:0:
248,208,74088,5,2,0:0:0:0:
248,208,74186,1,2,0:2:0:0:
248,208,74285,2,0,L|244:156,1,46.7500014266968,4|0,1:3|0:0,0:0:0:0:
340,192,74482,2,0,L|386:188,1,46.7500014266968,8|0,0:0|0:0,0:0:0:0:
309,278,74680,5,4,1:3:0:0:
272,296,74778,1,2,0:2:0:0:
230,296,74877,1,2,0:2:0:0:
191,278,74976,1,0,0:0:0:0:
154,257,75074,1,4,1:3:0:0:
160,234,75172,1,0,0:0:0:0:
163,211,75271,1,2,0:2:0:0:
164,188,75370,1,0,0:0:0:0:
196,160,75469,1,10,1:3:0:0:
191,138,75567,1,0,0:0:0:0:
189,115,75666,1,10,1:3:0:0:
190,92,75765,1,0,1:0:0:0:
194,69,75864,6,0,B|256:60|256:60|300:64,1,93.5000028533936,4|2,1:3|0:3,0:0:0:0:
260,216,76259,2,0,B|316:220|316:220|360:216,1,93.5000028533936,8|2,1:3|0:0,0:0:0:0:
372,203,76555,1,2,0:2:0:0:
391,191,76653,2,0,P|440:181|500:193,1,93.5000028533936,4|2,1:3|0:0,0:0:0:0:
500,200,76949,2,0,L|496:256,1,46.7500014266968,0|8,0:0|1:3,0:0:0:0:
308,132,77246,5,2,0:0:0:0:
308,132,77344,1,2,0:2:0:0:
308,132,77443,2,0,B|192:128,1,93.5000028533936,4|10,1:3|0:0,0:0:0:0:
396,88,77838,1,8,1:3:0:0:
437,89,77936,1,0,0:0:0:0:
471,112,78035,1,2,0:2:0:0:
486,151,78134,1,0,0:0:0:0:
478,192,78232,1,8,1:3:0:0:
475,215,78330,1,0,0:0:0:0:
475,238,78429,1,0,0:0:0:0:
479,261,78528,1,0,0:0:0:0:
486,283,78627,6,0,L|481:346,1,46.7500014266968,10|0,1:3|0:0,0:0:0:0:
380,384,78824,2,0,L|384:332,1,46.7500014266968,6|0,1:3|0:0,0:0:0:0:
368,248,79022,6,0,P|328:228|276:236,1,93.5000028533936,4|0,1:3|0:0,0:0:0:0:
168,280,79417,2,0,P|116:295|66:281,1,93.5000028533936,10|0,3:3|3:0,3:0:0:0:
24,116,79811,1,4,1:3:0:0:
103,143,80009,5,2,0:3:0:0:
116,164,80107,1,2,0:2:0:0:
128,185,80206,2,0,L|140:289,1,93.5000028533936,10|2,1:3|0:0,0:0:0:0:
128,300,80502,1,2,0:2:0:0:
116,320,80601,2,0,L|121:376,1,46.7500014266968,6|0,1:3|0:0,0:0:0:0:
224,240,80798,2,0,L|217:178,1,46.7500014266968,2|0,0:0|0:0,0:0:0:0:
216,328,80996,5,8,1:3:0:0:
253,346,81094,1,0,0:0:0:0:
294,354,81193,1,2,0:0:0:0:
336,351,81292,1,0,0:0:0:0:
376,338,81390,2,0,B|440:320|440:320|480:324,1,93.5000028533936,4|0,1:3|0:0,0:0:0:0:
456,296,81686,1,2,0:2:0:0:
456,268,81785,2,0,B|465:222|465:222|460:172,1,93.5000028533936,10|0,1:3|0:0,0:0:0:0:
264,52,82180,6,0,P|252:104|260:148,1,93.5000028533936,4|2,1:3|0:0,0:0:0:0:
316,212,82476,2,0,L|380:216,1,46.7500014266968,0|10,0:0|1:3,0:0:0:0:
132,272,82772,1,2,0:2:0:0:
304,300,82969,1,4,1:3:0:0:
228,256,83167,1,2,1:2:0:0:
224,236,83265,1,2,0:0:0:0:
220,216,83364,1,10,1:3:0:0:
112,352,83561,5,2,1:2:0:0:
92,348,83659,1,0,0:0:0:0:
72,344,83759,2,0,P|56:308|64:248,1,93.5000028533936,4|2,1:3|0:0,0:0:0:0:
232,124,84153,6,0,L|288:128,1,46.7500014266968,8|0,1:3|0:0,0:0:0:0:
348,240,84351,2,0,L|301:243,1,46.7500014266968,2|0,1:2|0:0,0:0:0:0:
392,136,84548,2,0,L|448:140,1,46.7500014266968,6|0,1:3|0:0,0:0:0:0:
508,252,84746,2,0,L|461:255,1,46.7500014266968,2|0,1:2|0:0,0:0:0:0:
400,320,84943,5,6,1:3:0:0:
357,318,85041,1,0,0:0:0:0:
315,316,85140,1,2,1:2:0:0:
273,314,85239,1,0,0:0:0:0:
231,312,85338,6,0,L|136:320,1,93.5000028533936,6|2,1:3|0:0,0:0:0:0:
72,192,85732,2,0,L|168:196,1,93.5000028533936,8|2,1:3|0:0,0:0:0:0:
236,60,86127,2,0,L|140:64,1,93.5000028533936,4|0,1:3|0:0,0:0:0:0:
131,43,86423,1,2,0:2:0:0:
124,20,86522,1,10,1:3:0:0:
176,144,86719,5,2,0:0:0:0:
180,168,86818,1,2,0:2:0:0:
184,192,86917,2,0,L|224:200,6,31.8750012159348,4|0|0|0|2|0|0,1:3|0:0|0:0|0:0|0:3|0:0|0:0,0:0:0:0:
72,248,87311,2,0,L|40:249,6,31.8750012159348,8|0|0|0|2|0|0,1:3|0:0|0:0|0:0|0:0|0:0|0:0,0:0:0:0:
158,326,87706,6,0,L|160:280,1,46.7500014266968,2|0,1:3|0:0,0:0:0:0:
258,209,87903,2,0,L|260:256,1,46.7500014266968,2|0,1:2|0:0,0:0:0:0:
370,334,88101,2,0,L|364:288,1,46.7500014266968,2|0,1:2|0:0,0:0:0:0:
452,193,88298,2,0,L|456:240,1,46.7500014266968,0|0,1:2|0:0,0:0:0:0:
512,116,88496,5,4,1:3:0:0:
474,97,88594,1,0,0:0:0:0:
432,96,88693,1,2,0:2:0:0:
394,112,88792,1,0,0:2:0:0:
366,143,88890,2,0,L|304:152,1,46.7500014266968,2|0,0:0|0:0,0:0:0:0:
232,120,89088,2,0,L|169:128,1,46.7500014266968,2|0,0:0|0:0,0:0:0:0:
112,192,89285,5,6,0:0:0:0:
101,232,89383,1,0,0:0:0:0:
100,274,89482,1,2,0:2:0:0:
110,315,89581,1,0,0:0:0:0:
129,352,89680,2,0,L|196:356,1,46.7500014266968,2|0,0:0|0:0,0:0:0:0:
364,384,89877,2,0,L|317:381,1,46.7500014266968,2|0,0:0|0:0,0:0:0:0:
268,300,90074,5,8,0:0:0:0:
292,265,90172,1,0,0:0:0:0:
327,242,90271,1,2,0:2:0:0:
367,233,90370,1,0,0:0:0:0:
409,239,90469,1,2,0:0:0:0:
418,217,90567,1,0,0:0:0:0:
423,195,90666,1,2,0:0:0:0:
423,171,90765,1,0,0:0:0:0:
417,149,90864,6,0,L|424:92,1,46.7500014266968,8|0,0:0|0:0,0:0:0:0:
311,63,91061,2,0,L|312:110,1,46.7500014266968,2|0,0:2|0:0,0:0:0:0:
204,152,91259,2,0,L|210:94,1,46.7500014266968,2|0,0:0|0:0,0:0:0:0:
97,65,91456,2,0,L|98:112,1,46.7500014266968,2|0,0:0|0:0,0:0:0:0:
124,200,91653,6,0,L|312:208,1,170,4|2,1:3|1:3,0:0:0:0:
356,276,92246,1,2,0:0:0:0:
316,360,92443,5,4,1:3:0:0:
140,348,92640,1,2,0:0:0:0:
228,355,92838,1,4,1:3:0:0:
52,343,93035,1,0,0:0:0:0:
140,348,93232,6,0,P|160:304|132:184,1,170,4|10,1:3|1:3,0:0:0:0:
48,160,93824,1,2,0:0:0:0:
272,188,94022,2,0,L|360:180,1,85,4|0,1:3|0:0,0:0:0:0:
408,44,94417,2,0,L|323:51,1,85,4|0,1:0|0:0,0:0:0:0:
192,112,94811,6,0,P|162:179|208:277,1,170,4|8,1:3|1:3,0:0:0:0:
284,284,95403,1,2,0:0:0:0:
368,244,95601,1,2,0:2:0:0:
368,244,95699,1,2,0:2:0:0:
368,244,95798,1,0,1:0:0:0:
448,292,95996,1,4,1:3:0:0:
364,332,96193,6,0,L|372:144,1,170,2|2,1:3|1:3,0:0:0:0:
248,52,96785,1,10,1:3:0:0:
252,144,96982,1,2,0:0:0:0:
256,236,97180,1,4,1:3:0:0:
46,286,97377,5,2,0:0:0:0:
111,217,97574,1,10,1:3:0:0:
136,308,97772,1,2,0:0:0:0:
46,286,97969,6,0,P|16:224|59:136,1,170,4|10,1:0|1:3,0:0:0:0:
216,144,98561,1,2,0:0:0:0:
136,92,98759,1,10,1:3:0:0:
136,92,98857,1,0,0:0:0:0:
136,92,98956,1,2,0:0:0:0:
296,196,99153,1,10,1:3:0:0:
136,92,99351,1,2,0:0:0:0:
296,196,99548,6,0,L|480:184,1,170,4|8,1:3|1:3,0:0:0:0:
368,324,100140,2,0,L|184:312,1,170,10|2,1:3|0:0,0:0:0:0:
140,240,100732,1,4,1:0:0:0:
100,324,100930,1,2,0:2:0:0:
84,168,101127,6,0,P|44:152|-4:160,1,85,4|0,1:3|0:0,0:0:0:0:
188,148,101522,2,0,P|181:105|150:67,1,85,8|0,1:3|0:0,3:0:0:0:
240,232,101917,2,0,P|273:205|290:159,2,85,4|2|8,1:3|0:0|1:3,3:0:0:0:
140,240,102509,1,2,0:0:0:0:
256,192,102706,12,10,103890,0:0:0:0:
152,96,104285,5,4,0:1:0:0:
152,96,104384,1,0,0:0:0:0:
152,96,104482,1,8,0:0:0:0:
244,116,104680,1,10,1:3:0:0:
332,84,104877,2,0,P|416:80|464:116,1,140.25000428009,4|0,0:0|0:0,0:0:0:0:
471,151,105272,5,2,0:2:0:0:
474,192,105370,1,2,0:2:0:0:
460,231,105469,1,4,1:3:0:0:
431,261,105568,1,0,0:0:0:0:
392,276,105666,1,2,0:2:0:0:
351,272,105765,1,2,0:2:0:0:
314,252,105864,6,0,P|324:308|315:351,1,93.5000028533936,4|2,1:3|0:0,0:0:0:0:
152,212,106259,1,10,1:3:0:0:
242,188,106456,2,0,P|270:140|230:20,1,187.000005706787,6|2,1:3|0:2,0:0:0:0:
70,112,107048,2,0,L|164:109,1,93.5000028533936,4|0,1:0|0:0,0:0:0:0:
440,208,107443,6,0,L|346:204,1,93.5000028533936,4|2,1:3|0:0,0:0:0:0:
180,287,107838,1,10,1:3:0:0:
262,146,108035,1,2,0:2:0:0:
262,334,108233,1,4,1:3:0:0:
181,193,108430,1,6,1:3:0:0:
344,288,108628,1,8,1:3:0:0:
180,287,108824,1,2,0:2:0:0:
264,240,109022,6,0,L|262:140,1,93.5000028533936,4|2,1:3|0:2,0:0:0:0:
230,117,109318,1,0,0:0:0:0:
199,86,109417,2,0,L|196:28,1,46.7500014266968,10|0,1:3|0:0,0:0:0:0:
76,132,109614,2,0,L|73:178,1,46.7500014266968,2|0,0:0|0:0,0:0:0:0:
216,216,109811,2,0,L|213:158,1,46.7500014266968,4|0,1:3|0:0,0:0:0:0:
93,262,110009,2,0,L|90:308,1,46.7500014266968,8|0,1:3|0:0,0:0:0:0:
180,287,110206,5,8,1:3:0:0:
221,279,110305,1,0,0:0:0:0:
262,286,110403,1,6,1:3:0:0:
298,306,110502,1,0,0:0:0:0:
326,338,110601,6,0,P|364:356|420:352,2,93.5000028533936,4|2|10,1:0|0:0|1:3,0:0:0:0:
264,248,111193,2,0,B|258:153|258:153|288:116,1,140.25000428009,8|0,0:0|0:0,0:0:0:0:
328,112,111588,1,2,1:3:0:0:
364,88,111686,1,0,0:0:0:0:
372,48,111785,1,4,1:3:0:0:
344,200,111982,5,2,0:2:0:0:
387,202,112081,1,2,0:2:0:0:
427,189,112180,1,4,1:3:0:0:
476,96,112377,1,6,1:3:0:0:
288,288,112574,1,10,1:3:0:0:
192,232,112772,2,0,P|128:220|24:280,1,187.000005706787,4|10,0:0|0:0,0:0:0:0:
288,288,113364,1,4,1:0:0:0:
196,124,113561,1,2,0:2:0:0:
276,172,113759,6,0,P|328:176|376:160,1,93.5000028533936,4|2,1:3|0:0,0:0:0:0:
460,16,114153,1,10,1:3:0:0:
456,108,114351,2,0,L|464:216,1,93.5000028533936,2|4,1:2|1:3,0:0:0:0:
482,238,114647,1,0,0:0:0:0:
472,279,114746,1,10,1:3:0:0:
368,100,114943,5,10,1:3:0:0:
328,108,115042,1,0,0:0:0:0:
292,92,115140,2,0,L|232:96,1,46.7500014266968,2|0,0:2|0:0,0:0:0:0:
152,96,115338,5,4,1:3:0:0:
139,136,115436,1,0,0:0:0:0:
137,178,115535,1,0,0:0:0:0:
143,219,115634,1,0,0:0:0:0:
159,258,115732,1,8,1:3:0:0:
206,260,115831,1,0,0:0:0:0:
252,262,115930,1,0,0:0:0:0:
299,264,116028,1,0,0:0:0:0:
345,265,116127,6,0,L|374:264,8,27.6249987354279,2|0|0|0|0|0|0|0|4,0:0|0:0|0:0|0:0|0:0|0:0|0:0|0:0|0:2,0:0:0:0:
345,265,116917,5,0,0:0:0:0:
400,192,117114,1,2,0:0:0:0:
440,276,117311,2,0,P|459:308|488:333,1,76.4999976654053,2|0,0:0|0:0,3:0:0:0:
264,300,117706,2,0,P|255:337|257:375,1,76.4999976654053,2|0,0:0|0:0,0:0:0:0:
152,180,118101,2,8,P|119:199|94:228,1,76.4999976654053,2|0,0:0|0:0,3:3:0:0:
136,320,118496,5,0,0:0:0:0:
244,252,118693,1,2,0:0:0:0:
348,336,118890,2,0,P|404:340|436:332,1,76.4999976654053,2|0,0:0|0:0,0:0:0:0:
400,84,119285,5,2,0:0:0:0:
356,192,119482,1,0,0:0:0:0:
469,174,119680,1,2,0:0:0:0:
400,84,119877,1,0,0:0:0:0:
312,160,120074,6,0,L|276:244,1,76.4999976654053,0|2,0:0|0:0,0:0:0:0:
168,104,120469,2,0,L|164:196,1,76.4999976654053,2|0,0:0|0:0,0:0:0:0:
20,104,120864,2,2,L|60:276,1,152.999995330811,2|0,0:0|0:0,0:0:0:0:
188,376,121456,5,2,0:0:0:0:
100,340,121653,2,0,P|62:337|26:350,1,76.4999976654053,0|2,0:0|0:0,0:0:0:0:
176,284,122048,2,0,P|212:292|250:286,1,76.4999976654053,2|0,0:0|0:0,0:0:0:0:
212,208,122443,2,2,P|194:135|222:65,1,152.999995330811,2|0,0:0|0:0,0:0:0:0:
290,13,123035,1,2,0:0:0:0:
60,144,123232,5,4,0:0:0:0:
80,48,123442,1,2,0:0:0:0:
148,112,123639,2,0,P|188:124|230:120,1,85,2|0,0:0|0:0,0:0:0:0:
408,88,124034,5,0,0:0:0:0:
444,176,124231,1,2,0:0:0:0:
440,268,124429,1,0,0:0:0:0:
408,356,124626,1,2,0:0:0:0:
316,348,124823,6,0,L|220:356,1,85,0|2,0:0|0:0,0:0:0:0:
56,256,125218,2,0,L|140:259,1,85,2|0,0:0|0:0,0:0:0:0:
280,248,125613,2,0,P|298:209|305:168,1,85,0|2,0:0|0:0,0:0:0:0:
152,168,126008,2,0,P|147:119|130:86,1,85,2|2,0:0|0:0,0:0:0:0:
104,256,126402,5,0,0:0:0:0:
192,288,126600,1,2,0:0:0:0:
284,284,126797,1,2,0:0:0:0:
372,252,126995,1,2,0:0:0:0:
452,204,127192,2,0,P|462:162|453:117,1,85,0|2,0:0|0:0,0:0:0:0:
224,36,127587,1,2,0:0:0:0:
288,104,127784,1,0,0:0:0:0:
198,126,127981,6,0,L|160:128,6,25.4999992218018,2|0|0|0|0|0|0,1:3|0:0|0:0|0:0|0:0|0:0|0:0,0:0:0:0:
280,200,128376,2,0,L|309:202,6,29.7499990921021,2|0|0|0|0|0|0,1:3|0:0|0:0|0:0|0:0|0:0|0:0,0:0:0:0:
192,272,128771,2,0,L|152:276,6,34,2|0|0|0|0|0|0,1:3|0:0|0:0|0:0|0:0|0:0|0:0,0:0:0:0:
296,328,129166,2,0,L|340:332,8,38.2499988327027,2|0|0|0|0|0|0|0|4,1:3|0:0|0:0|0:0|0:0|0:0|0:0|0:0|0:1,0:0:0:0:
