osu file format v14

[General]
AudioFilename: [06] Bucuresti no Ningyoushi.mp3
AudioLeadIn: 0
PreviewTime: 50601
Countdown: 0
SampleSet: None
StackLeniency: 0.7
Mode: 0
LetterboxInBreaks: 0
WidescreenStoryboard: 0

[Editor]
DistanceSpacing: 1.11
BeatDivisor: 4
GridSize: 4
TimelineZoom: 2.5

[Metadata]
Title:The Doll Maker of Bucuresti
TitleUnicode:ブクレシュティの人形師
Artist:ZUN
ArtistUnicode:ZUN
Creator:wa_
Version:Hard
Source:東方Project
Tags:ColdTooth darkdunskin orza6006 Touhou Perfect Cherry Blossom PCB Alice Margatroid Stage 3 Bukureshuti no Ningyoushi 東方妖々夢 Youyoumu Suimusou Immaterial and Missing Power 東方萃夢想 Hisouten Scarlet Weather Rhapsody 東方緋想天
BeatmapID:387397
BeatmapSetID:158230

[Difficulty]
HPDrainRate:5
CircleSize:4
OverallDifficulty:6
ApproachRate:7
SliderMultiplier:1.5
SliderTickRate:2

[Events]
//Background and Video events
0,0,"Touhou.full.1534285.jpg",0,0
//Break Periods
2,38168,48122
//Storyboard Layer 0 (Background)
//Storyboard Layer 1 (Fail)
//Storyboard Layer 2 (Pass)
//Storyboard Layer 3 (Foreground)
//Storyboard Sound Samples

[TimingPoints]
75,394.736842105263,4,2,0,35,1,0
75,-111.111111111111,4,2,0,35,0,0
6390,-111.111111111111,4,2,0,45,0,0
9548,-111.111111111111,4,2,0,45,0,0
11127,-111.111111111111,4,3,0,56,0,0
12706,-100,4,3,0,70,0,0
37574,-100,4,3,0,55,0,0
37969,-100,4,2,0,65,0,0
49022,-100,4,2,0,20,0,0
49417,-100,4,2,0,35,0,0
49811,-100,4,2,0,50,0,0
50206,-100,4,2,0,65,0,0
50601,-90.9090909090909,4,3,0,65,0,0
65601,-90.9090909090909,4,3,0,55,0,0
65996,-90.9090909090909,4,3,0,45,0,0
66390,-90.9090909090909,4,3,0,75,0,0
87706,-90.9090909090909,4,3,0,75,0,0
88496,-125,4,3,0,75,0,0
91653,-100,4,3,0,75,0,0
104285,-90.9090909090909,4,3,0,75,0,1
110206,-90.9090909090909,4,3,0,75,0,0
110601,-90.9090909090909,4,3,0,75,0,1
116127,-90.9090909090909,4,3,0,75,0,1
116917,-111.111111111111,4,2,0,40,0,0
123245,394.736842105263,4,2,0,40,1,0
127981,-100,4,3,0,30,0,0
128376,-100,4,3,0,35,0,0
128771,-100,4,3,0,40,0,0
129166,-100,4,3,0,45,0,0

[Colours]
Combo1 : 173,172,171
Combo2 : 220,205,220
Combo3 : 188,222,224
Combo4 : 130,148,189
Combo5 : 169,216,141
Combo6 : 232,215,183

[HitObjects]
56,232,75,6,0,L|136:228,1,67.4999979400635,4|0,0:0|0:0,0:0:0:0:
200,268,469,2,0,L|280:264,1,67.4999979400635,2|0,0:0|0:0,0:0:0:0:
348,296,864,2,0,P|396:300|468:244,1,134.999995880127,0|2,0:0|0:0,0:0:0:0:
436,168,1456,1,0,0:0:0:0:
460,84,1653,6,0,L|464:8,1,67.4999979400635,0|0,0:0|0:0,0:0:0:0:
367,36,2048,2,0,L|364:104,1,67.4999979400635,2|0,0:0|0:0,0:0:0:0:
308,172,2443,1,0,0:0:0:0:
224,148,2640,1,0,0:0:0:0:
140,180,2838,1,2,0:0:0:0:
56,156,3035,1,0,0:0:0:0:
76,240,3232,6,0,P|44:248|-4:236,1,67.4999979400635,0|0,0:0|0:0,0:0:0:0:
160,264,3627,2,0,P|200:256|240:264,1,67.4999979400635,2|0,0:0|0:0,0:0:0:0:
140,180,4022,2,0,L|148:44,2,134.999995880127,2|0|0,0:0|0:0|0:0,0:0:0:0:
116,264,5009,1,2,0:0:0:0:
176,328,5206,5,2,0:0:0:0:
264,316,5403,1,0,0:0:0:0:
312,240,5601,2,0,L|452:252,1,134.999995880127,2|0,0:0|0:0,0:0:0:0:
496,180,6193,1,0,0:0:0:0:
408,100,6390,6,0,P|402:133|407:166,1,67.4999979400635,4|2,0:0|0:0,0:0:0:0:
312,128,6785,2,0,P|285:106|254:93,1,67.4999979400635,0|2,0:0|0:0,0:0:0:0:
336,32,7180,2,0,P|411:39|465:-2,1,134.999995880127,0|0,0:0|0:0,0:0:0:0:
256,60,7969,6,0,L|181:63,1,67.4999979400635,0|0,0:0|0:0,0:0:0:0:
144,156,8364,2,0,L|219:159,1,67.4999979400635,2|0,0:0|0:0,0:0:0:0:
276,220,8759,1,0,0:0:0:0:
360,188,8956,1,2,0:0:0:0:
448,204,9153,1,2,0:0:0:0:
484,284,9351,1,0,0:0:0:0:
468,372,9548,6,0,P|420:384|396:380,1,67.4999979400635,0|2,0:0|0:0,0:0:0:0:
320,356,9943,2,0,P|286:351|254:360,1,67.4999979400635,2|2,0:0|0:0,0:0:0:0:
388,300,10338,2,0,L|392:164,1,134.999995880127,2|2,0:0|0:0,0:0:0:0:
332,100,10930,1,2,0:0:0:0:
256,192,11127,12,2,12311,0:0:0:0:
24,116,12706,6,0,P|60:125|108:120,1,75,4|2,1:1|0:2,0:0:0:0:
176,100,13101,2,0,P|213:97|249:107,1,75,10|0,1:3|0:0,0:0:0:0:
288,180,13496,1,0,1:0:0:0:
340,116,13693,1,0,0:0:0:0:
368,192,13890,1,2,1:3:0:0:
420,128,14088,1,0,0:0:0:0:
448,204,14285,6,0,P|452:264|444:284,1,75,4|2,1:3|0:0,0:0:0:0:
376,320,14680,2,0,P|300:328|236:288,2,150,8|8|4,1:3|1:3|1:2,0:0:0:0:
480,172,15864,5,4,1:3:0:0:
440,92,16061,1,2,0:2:0:0:
352,88,16258,1,2,1:3:0:0:
296,160,16456,1,2,0:0:0:0:
360,224,16653,2,0,P|372:256|368:300,1,75,4|2,1:3|0:0,0:0:0:0:
312,364,17048,2,0,P|279:376|236:372,1,75,8|2,1:3|0:0,0:0:0:0:
160,332,17443,5,4,1:3:0:0:
72,356,17640,1,2,0:2:0:0:
4,300,17838,2,0,L|8:216,1,75,10|0,1:3|0:0,0:0:0:0:
88,188,18232,2,0,B|83:111|83:111|116:44,1,150,4|8,1:3|1:3,0:0:0:0:
204,36,18824,1,2,0:0:0:0:
272,96,19022,6,0,P|316:100|352:88,1,75,4|0,1:1|0:0,0:0:0:0:
420,44,19417,2,0,P|456:34|493:39,1,75,10|0,1:3|0:0,0:0:0:0:
424,128,19811,2,0,P|412:193|470:260,1,150,4|8,1:3|1:3,0:0:0:0:
500,176,20403,5,2,0:2:0:0:
420,44,20601,2,0,P|372:36|332:44,1,75,4|2,1:3|0:0,0:0:0:0:
257,56,20996,2,0,P|219:59|183:51,1,75,8|0,1:3|0:0,0:0:0:0:
324,120,21390,5,4,1:0:0:0:
288,208,21785,1,4,1:0:0:0:
352,272,22180,6,0,L|432:276,1,75,4|2,1:3|0:0,0:0:0:0:
456,360,22574,2,0,L|381:356,1,75,10|0,1:3|0:0,0:0:0:0:
292,344,22969,2,0,P|236:328|144:368,1,150,4|4,1:3|1:3,0:0:0:0:
64,227,23759,6,0,P|60:190|68:154,1,75,4|2,1:3|0:0,0:0:0:0:
152,200,24153,2,0,P|160:236|156:274,1,75,10|2,1:3|3:0,0:0:0:0:
148,120,24548,1,4,1:3:0:0:
228,76,24746,1,2,0:0:0:0:
316,100,24943,1,8,1:3:0:0:
352,184,25140,1,4,0:0:0:0:
368,272,25338,6,0,P|400:316|504:320,2,150,4|10|8,1:3|1:3|1:3,0:0:0:0:
352,184,26324,1,2,0:0:0:0:
368,96,26522,2,0,L|372:12,1,75,8|2,1:3|0:0,0:0:0:0:
436,160,26917,6,0,L|510:163,1,75,4|0,1:3|0:0,0:0:0:0:
472,244,27311,2,0,L|316:240,2,150,6|4|4,1:3|1:3|1:2,0:0:0:0:
292,160,28496,6,0,P|256:144|156:192,1,150,4|2,1:3|1:3,0:0:0:0:
84,232,29088,2,0,L|4:228,1,75,0|4,0:0|1:3,0:0:0:0:
168,268,29482,1,2,0:0:0:0:
256,260,29680,1,8,1:3:0:0:
344,252,29877,1,2,0:3:0:0:
412,192,30074,6,0,P|424:144|412:108,1,75,4|2,1:3|0:0,0:0:0:0:
340,76,30469,2,0,P|292:89|267:118,1,75,8|2,1:3|0:0,0:0:0:0:
268,196,30864,2,0,P|303:230|340:238,1,75,4|2,1:3|0:0,0:0:0:0:
192,148,31259,2,0,P|154:143|118:151,1,75,2|2,1:3|1:3,0:0:0:0:
84,236,31653,5,4,1:3:0:0:
112,320,31851,1,2,0:0:0:0:
200,324,32048,2,0,B|276:320|276:320|312:328|312:328|356:324,1,150,8|4,1:3|1:3,0:0:0:0:
384,240,32640,1,2,0:0:0:0:
340,160,32838,1,4,1:3:0:0:
384,80,33035,1,2,0:2:0:0:
296,80,33232,6,0,L|212:76,1,75,4|2,1:3|0:0,0:0:0:0:
136,100,33627,2,0,P|112:156|160:244,2,150,8|4|6,1:3|1:2|1:3,0:0:0:0:
268,316,34811,6,0,B|228:308|192:316|192:316|156:324|119:316,1,150,4|10,1:3|1:3,0:0:0:0:
44,268,35403,2,0,P|24:232|48:128,1,150,0|2,0:0|0:0,0:0:0:0:
132,104,35996,1,6,1:3:0:0:
216,136,36193,1,2,0:0:0:0:
300,108,36390,6,0,P|340:100|384:108,1,75,4|2,1:3|0:0,0:0:0:0:
284,196,36785,2,0,P|248:272|280:344,1,150,8|4,1:3|1:3,0:0:0:0:
356,352,37377,1,10,1:3:0:0:
436,308,37574,6,0,L|440:260,4,37.5,8|8|8|4|4,0:3|0:3|0:3|0:3|1:1,0:0:0:0:
256,192,49022,12,2,50206,1:3:0:0:
92,72,50601,6,0,P|132:69|179:80,1,82.5000025177003,4|0,1:1|0:0,0:0:0:0:
256,120,50996,2,0,P|296:128|337:125,1,82.5000025177003,8|0,1:3|0:0,0:0:0:0:
428,88,51390,1,4,1:3:0:0:
412,180,51588,1,2,0:0:0:0:
440,268,51785,1,4,1:3:0:0:
512,324,51982,1,2,0:0:0:0:
428,356,52180,6,0,P|368:372|264:336,2,165.000005035401,4|6|4,1:3|1:3|1:3,0:0:0:0:
492,292,53167,2,0,P|504:244|496:208,1,82.5000025177003,2|4,0:0|1:0,0:0:0:0:
436,144,53561,6,0,P|352:132|296:192,1,165.000005035401,2|0,1:3|0:0,0:0:0:0:
208,232,54153,1,10,1:3:0:0:
120,208,54351,1,0,0:0:0:0:
140,300,54548,6,0,P|165:336|171:377,1,82.5000025177003,4|0,1:3|0:0,0:0:0:0:
208,232,54943,2,0,P|226:191|258:165,1,82.5000025177003,8|10,1:3|0:0,0:0:0:0:
120,208,55338,2,0,P|74:211|36:196,1,82.5000025177003,4|2,1:3|0:0,0:0:0:0:
44,88,55732,2,0,P|89:80|128:92,1,82.5000025177003,8|2,1:3|0:0,0:0:0:0:
208,128,56127,5,4,1:3:0:0:
296,104,56324,1,4,0:0:0:0:
384,132,56522,1,8,1:3:0:0:
472,108,56719,1,4,0:0:0:0:
452,196,56917,6,0,L|456:292,1,82.5000025177003,4|2,1:1|0:0,0:0:0:0:
392,344,57311,2,0,L|309:347,1,82.5000025177003,10|2,1:3|0:0,0:0:0:0:
228,304,57706,1,4,1:3:0:0:
260,220,57903,1,2,0:2:0:0:
168,232,58101,2,0,P|96:232|68:220,1,82.5000025177003,4|2,1:3|0:0,0:0:0:0:
56,144,58496,6,0,P|141:108|211:152,2,165.000005035401,12|2|4,1:3|1:2|1:3,0:0:0:0:
312,298,59680,1,4,1:2:0:0:
400,264,59877,6,0,P|341:209|261:219,1,165.000005035401,2|2,1:3|0:0,0:0:0:0:
176,252,60469,2,0,P|132:264|86:261,1,82.5000025177003,8|0,1:3|1:0,0:0:0:0:
16,220,60864,2,0,P|4:176|7:130,1,82.5000025177003,4|0,1:3|0:0,0:0:0:0:
84,92,61259,1,4,1:3:0:0:
168,128,61456,1,8,1:3:0:0:
248,84,61653,6,0,L|344:80,1,82.5000025177003,4|2,1:3|0:0,0:0:0:0:
364,164,62048,2,0,L|281:167,1,82.5000025177003,6|2,1:3|1:3,0:0:0:0:
260,256,62443,2,0,B|341:252|341:252|364:296,1,123.75000377655,6|0,1:2|0:0,0:0:0:0:
372,308,62838,2,0,P|416:316|464:300,1,82.5000025177003,2|2,1:2|1:2,0:0:0:0:
504,232,63232,6,0,P|508:168|436:80,2,165.000005035401,4|10|4,1:3|1:3|1:3,0:0:0:0:
424,276,64219,2,0,L|428:328,2,41.2500012588501,0|0|6,0:0|0:0|1:3,0:0:0:0:
344,236,64614,6,0,L|347:194,2,41.2500012588501,2|2|4,0:0|0:0|1:3,0:0:0:0:
264,280,65009,1,10,1:3:0:0:
180,244,65206,2,0,B|96:240|96:240|80:200|84:180,1,123.75000377655,8|4,1:3|0:0,0:0:0:0:
96,176,65601,2,0,P|104:128|96:88,1,82.5000025177003,0|2,1:3|0:2,0:0:0:0:
20,48,65996,1,2,1:3:0:0:
180,244,66390,6,0,P|236:248|332:168,2,165.000005035401,4|8|4,1:3|1:3|1:3,0:0:0:0:
96,208,67377,1,2,0:0:0:0:
102,298,67574,1,6,1:3:0:0:
184,336,67772,6,0,L|188:380,2,41.2500012588501,0|0|4,0:0|0:0|1:3,0:0:0:0:
248,272,68167,1,4,1:3:0:0:
328,316,68364,2,0,P|376:328|456:300,1,123.75000377655,8|0,1:3|0:0,0:0:0:0:
465,286,68759,2,0,L|461:198,1,82.5000025177003,4|2,1:3|0:3,0:0:0:0:
412,128,69153,2,0,L|408:40,1,82.5000025177003,6|2,1:3|1:3,0:0:0:0:
368,208,69548,6,0,P|324:236|200:208,2,165.000005035401,4|6|4,1:3|1:3|1:3,0:0:0:0:
412,128,70535,1,10,0:0:0:0:
368,48,70732,2,0,B|324:44|324:44|284:52|284:52|240:48,1,123.75000377655,4|8,1:3|0:0,0:0:0:0:
224,48,71127,2,0,P|216:92|228:132,1,82.5000025177003,4|8,1:3|1:3,0:0:0:0:
284,200,71522,6,0,L|276:248,3,41.2500012588501,8|8|4|0,1:3|0:0|1:3|0:0,0:0:0:0:
304,268,71917,2,0,L|308:316,3,41.2500012588501,0|0|10|0,1:0|0:0|1:3|0:0,0:0:0:0:
280,336,72311,2,0,L|276:380,3,41.2500012588501,4|0|10|0,1:3|0:0|1:3|1:3,0:0:0:0:
232,364,72706,6,0,P|180:348|76:384,2,165.000005035401,4|4|4,1:3|1:3|1:3,0:0:0:0:
316,328,73693,1,6,0:0:0:0:
404,352,73890,1,8,1:3:0:0:
480,300,74088,1,2,0:0:0:0:
452,216,74285,6,0,P|448:172|460:128,1,82.5000025177003,4|8,1:3|0:0,0:0:0:0:
388,72,74680,2,0,L|336:76,3,41.2500012588501,4|2|2|0,1:3|0:2|0:2|0:0,0:0:0:0:
316,100,75074,2,0,P|268:108|228:100,1,82.5000025177003,4|2,1:3|0:2,0:0:0:0:
148,80,75469,2,0,P|107:74|67:82,1,82.5000025177003,10|10,1:3|1:3,0:0:0:0:
32,168,75864,5,4,1:3:0:0:
208,212,76259,1,8,1:3:0:0:
80,340,76653,1,4,1:3:0:0:
160,300,76851,1,2,0:0:0:0:
236,348,77048,1,8,1:3:0:0:
308,292,77246,6,0,L|312:240,2,41.2500012588501,2|2|4,0:0|0:2|1:3,0:0:0:0:
376,352,77640,1,10,0:0:0:0:
440,288,77838,2,0,B|444:204|444:204|420:160,1,123.75000377655,8|0,1:3|0:0,0:0:0:0:
412,144,78232,2,0,P|400:104|408:60,1,82.5000025177003,8|0,1:3|0:0,0:0:0:0:
488,100,78627,1,10,1:3:0:0:
348,232,79022,6,0,P|280:252|196:212,1,165.000005035401,4|10,1:3|1:3,0:0:0:0:
116,180,79614,1,0,0:0:0:0:
36,220,79811,2,0,B|40:304|40:304|20:340|20:340|48:376,1,165.000005035401,4|10,1:3|1:3,0:0:0:0:
124,324,80403,1,2,0:0:0:0:
208,356,80601,6,0,L|312:348,1,82.5000025177003,6|2,1:3|0:0,0:0:0:0:
356,288,80996,2,0,B|392:264|436:276|436:276|441:223,1,123.75000377655,8|0,1:3|0:0,0:0:0:0:
436,216,81390,2,0,P|432:168|443:127,1,82.5000025177003,4|0,1:3|0:0,0:0:0:0:
380,64,81785,1,10,1:3:0:0:
292,80,81982,1,0,0:0:0:0:
204,52,82180,6,0,L|24:56,2,165.000005035401,4|10|4,1:3|1:3|1:3,0:0:0:0:
260,124,83167,1,2,1:2:0:0:
216,204,83364,1,10,1:3:0:0:
272,276,83561,6,0,L|324:280,2,41.2500012588501,2|0|4,1:2|0:0|1:3,0:0:0:0:
180,284,83956,2,0,P|136:292|88:328,2,82.5000025177003,2|8|2,0:0|1:3|1:2,0:0:0:0:
236,356,84548,2,0,P|306:356|361:278,1,165.000005035401,6|6,1:3|1:3,0:0:0:0:
368,192,85140,1,2,1:2:0:0:
412,108,85338,6,0,P|424:60|412:20,1,82.5000025177003,6|2,1:3|0:0,0:0:0:0:
332,0,85732,2,0,P|284:13|255:44,1,82.5000025177003,8|2,1:3|0:0,0:0:0:0:
204,108,86127,2,0,P|144:144|48:136,1,165.000005035401,4|10,1:3|1:3,0:0:0:0:
20,52,86719,1,2,0:0:0:0:
112,44,86917,6,0,L|176:48,3,41.2500012588501,4|0|2|0,1:3|0:0|0:3|0:0,0:0:0:0:
184,72,87311,2,0,L|248:76,3,41.2500012588501,8|0|2|0,1:3|0:0|0:0|0:0,0:0:0:0:
256,100,87706,2,0,L|320:104,3,41.2500012588501,2|0|2|0,1:3|0:0|1:2|0:0,0:0:0:0:
328,128,88101,2,0,L|392:132,3,41.2500012588501,2|0|0|0,1:2|0:0|1:2|0:0,0:0:0:0:
400,164,88496,6,0,P|420:224|404:276,1,120,4|2,1:3|0:0,0:0:0:0:
328,312,89088,1,2,0:0:0:0:
248,288,89285,2,0,B|188:272|184:308|124:288,1,120,6|2,0:0|0:0,0:0:0:0:
64,236,89877,1,2,0:0:0:0:
68,152,90074,6,0,P|112:104|232:112,1,180,8|2,0:0|0:0,0:0:0:0:
292,148,90864,2,0,B|384:168|388:128|472:148,1,180,8|2,0:0|0:0,0:0:0:0:
504,224,91653,5,4,1:3:0:0:
348,312,92048,1,8,1:3:0:0:
264,276,92246,2,0,P|220:268|120:316,1,150,2|2,1:3|0:0,0:0:0:0:
44,276,92838,2,0,P|32:228|44:200,1,75,8|0,1:3|0:0,0:0:0:0:
80,124,93232,6,0,P|140:100|224:124,1,150,4|8,1:3|1:3,0:0:0:0:
284,184,93824,2,0,P|354:205|424:181,1,150,4|2,1:3|0:0,0:0:0:0:
448,102,94417,1,4,1:0:0:0:
448,102,94811,6,0,L|460:266,1,150,4|8,1:3|1:3,0:0:0:0:
412,328,95403,1,2,0:0:0:0:
328,296,95601,2,0,P|288:288|248:296,1,75,10|2,1:3|0:0,0:0:0:0:
172,336,95996,1,10,1:3:0:0:
100,280,96193,6,0,L|108:124,1,150,2|2,1:3|1:3,0:0:0:0:
188,88,96785,1,8,1:3:0:0:
188,88,96982,1,0,0:0:0:0:
268,132,97180,1,4,1:3:0:0:
268,132,97377,1,2,0:0:0:0:
192,180,97574,1,10,1:3:0:0:
192,180,97771,1,2,0:0:0:0:
112,136,97969,6,0,P|72:128|32:136,2,75,4|2|8,1:0|0:0|1:3,0:0:0:0:
192,180,98561,2,0,L|200:348,1,150,4|2,1:3|1:3,0:0:0:0:
284,356,99153,1,6,1:3:0:0:
372,344,99351,1,2,0:0:0:0:
440,284,99548,6,0,P|457:230|432:136,1,150,4|8,1:3|1:3,0:0:0:0:
340,120,100140,2,0,L|180:108,1,150,4|2,1:3|1:3,0:0:0:0:
100,104,100732,1,4,1:0:0:0:
140,184,100930,1,2,0:0:0:0:
92,260,101127,6,0,P|84:296|92:344,1,75,4|2,1:3|0:0,0:0:0:0:
164,380,101522,2,0,P|172:344|164:296,1,75,2|2,1:3|0:0,0:0:0:0:
220,236,101917,2,0,P|272:220|376:256,1,150,4|8,1:3|1:3,0:0:0:0:
256,192,102410,12,10,103890,0:0:0:0:
96,252,104285,5,4,0:1:0:0:
96,252,104482,2,0,P|136:244|192:256,1,82.5000025177003,8|10,0:0|1:3,0:0:0:0:
256,296,104877,2,0,P|296:316|412:284,1,165.000005035401,4|2,0:0|0:2,0:0:0:0:
428,200,105469,1,4,1:3:0:0:
400,112,105667,1,2,0:2:0:0:
420,24,105864,6,0,B|296:32|296:32|244:24,1,165.000005035401,4|10,1:3|1:3,0:0:0:0:
164,32,106456,2,0,P|140:88|176:184,1,165.000005035401,6|2,1:3|0:2,0:0:0:0:
264,196,107048,1,4,1:0:0:0:
264,196,107443,5,4,1:3:0:0:
352,176,107640,1,2,0:0:0:0:
432,220,107838,1,10,1:3:0:0:
456,308,108035,1,2,0:2:0:0:
456,308,108232,2,0,P|404:320|368:316,1,82.5000025177003,4|6,1:3|1:3,0:0:0:0:
282,296,108627,1,8,1:3:0:0:
188,312,108824,6,0,B|104:340|92:296|16:328,1,165.000005035401,2|2,0:2|0:2,0:0:0:0:
136,232,109417,2,0,P|140:188|128:144,1,82.5000025177003,10|2,1:3|0:0,0:0:0:0:
86,72,109811,1,4,1:3:0:0:
150,7,110009,1,8,1:3:0:0:
234,39,110206,1,8,1:3:0:0:
222,128,110403,1,6,1:3:0:0:
132,152,110601,6,0,P|92:200|112:304,1,165.000005035401,4|10,1:0|1:3,0:0:0:0:
196,304,111193,1,8,0:0:0:0:
276,348,111390,2,0,P|316:340|364:344,1,82.5000025177003,4|2,1:3|1:3,0:0:0:0:
424,280,111785,2,0,P|464:284|512:276,1,82.5000025177003,4|2,1:3|0:2,0:0:0:0:
336,256,112180,6,0,P|304:176|340:88,1,165.000005035401,4|10,1:3|1:3,0:0:0:0:
416,80,112772,1,4,0:0:0:0:
500,108,112969,2,0,P|512:152|500:192,1,82.5000025177003,4|10,1:3|0:0,0:0:0:0:
468,272,113364,2,0,P|456:316|468:356,2,82.5000025177003,4|2|4,1:0|0:2|1:3,0:0:0:0:
468,272,114153,5,10,1:3:0:0:
384,232,114351,1,2,1:2:0:0:
300,264,114548,2,0,P|252:272|216:264,1,82.5000025177003,4|10,1:3|1:3,0:0:0:0:
128,232,114943,2,0,P|87:225|47:233,1,82.5000025177003,10|2,1:3|0:2,0:0:0:0:
196,176,115338,6,0,L|200:128,7,41.2500012588501,4|0|0|0|8|0|0|0,1:3|0:0|0:0|0:0|1:3|0:0|0:0|0:0,0:0:0:0:
212,108,116127,2,0,L|212:68,8,20.6250006294251,2|0|0|0|0|0|0|0|4,0:0|0:0|0:0|0:0|0:0|0:0|0:0|0:0|0:2,0:0:0:0:
392,132,116917,5,0,0:0:0:0:
424,212,117114,1,2,0:0:0:0:
388,292,117311,2,0,P|384:328|392:368,1,67.4999979400635,2|0,0:0|0:0,0:0:0:0:
424,212,117706,2,0,P|352:212|304:256,1,134.999995880127,2|2,0:0|0:0,0:0:0:0:
224,284,118298,1,0,0:0:0:0:
144,248,118496,6,0,P|132:208|136:180,1,67.4999979400635,0|2,0:0|0:0,0:0:0:0:
176,104,118890,2,0,P|183:62|176:35,1,67.4999979400635,2|0,0:0|0:0,0:0:0:0:
224,180,119285,2,0,P|268:200|368:168,1,134.999995880127,2|2,0:0|0:0,0:0:0:0:
392,104,119877,1,0,0:0:0:0:
436,180,120074,6,0,L|440:256,1,67.4999979400635,0|2,0:0|0:0,0:0:0:0:
376,372,120469,2,0,L|372:304,1,67.4999979400635,2|0,0:0|0:0,0:0:0:0:
328,228,120864,1,2,0:0:0:0:
240,208,121259,1,0,0:0:0:0:
164,256,121653,6,0,P|120:264|92:260,1,67.4999979400635,0|2,0:0|0:0,0:0:0:0:
56,184,122048,2,0,P|100:176|128:180,1,67.4999979400635,2|0,0:0|0:0,0:0:0:0:
211,175,122443,2,0,P|277:166|324:119,1,134.999995880127,2|0,0:0|0:0,0:0:0:0:
324,119,123230,5,0,0:0:0:0:
292,200,123442,1,2,0:0:0:0:
320,284,123639,1,2,0:0:0:0:
400,320,123837,1,0,0:0:0:0:
484,296,124034,2,0,P|500:260|496:212,1,75,0|2,0:0|0:0,0:0:0:0:
464,144,124429,2,0,P|455:107|459:70,1,75,0|2,0:0|0:0,0:0:0:0:
416,224,124823,6,0,P|352:240|276:204,1,150,0|2,0:0|0:0,0:0:0:0:
244,124,125416,1,0,0:0:0:0:
160,112,125613,2,0,L|84:116,1,75,2|0,0:0|0:0,0:0:0:0:
117,203,126008,2,0,L|192:200,1,75,2|0,0:0|0:0,0:0:0:0:
244,124,126402,5,0,0:0:0:0:
328,92,126600,1,2,0:0:0:0:
408,124,126797,1,2,0:0:0:0:
440,208,126995,1,0,0:0:0:0:
404,288,127192,2,0,B|300:296|300:296|252:288,1,150,2|2,0:0|0:0,0:0:0:0:
192,352,127784,1,0,0:0:0:0:
256,192,127981,12,4,129560,0:1:0:0:
