osu file format v14

[General]
AudioFilename: audio.mp3
AudioLeadIn: 0
PreviewTime: 28410
Countdown: 0
SampleSet: Normal
StackLeniency: 0.7
Mode: 1
LetterboxInBreaks: 0
WidescreenStoryboard: 1

[Editor]
DistanceSpacing: 0.8
BeatDivisor: 4
GridSize: 8
TimelineZoom: 1.7

[Metadata]
Title:Taketori Hishou ~ Lunatic Princess
TitleUnicode:竹取飛翔 ~ Lunatic Princess
Artist:ZUN
ArtistUnicode:ZUN
Creator:Prominent
Version:Muzukashii
Source:東方永夜抄 ~ Imperishable Night.
Tags:Touhou Eiyashou th08 IN C66 Flight of the Bamboo Cutter Kaguya Houraisan とうほうえいやしょう video game instrumental 東方Project project toho tōhō 蓬莱山輝夜 卯酉東海道 ~ Retrospective 53 Minutes Team Shanghai Alice 上海アリス幻樂団 Nanatsu Electronic
BeatmapID:2833231
BeatmapSetID:1266086

[Difficulty]
HPDrainRate:6
CircleSize:5
OverallDifficulty:5
ApproachRate:5
SliderMultiplier:1.4
SliderTickRate:1

[Events]
//Background and Video events
0,0,"Houraisan.Kaguya.full.jpg",0,100
//Break Periods
//Storyboard Layer 0 (Background)
//Storyboard Layer 1 (Fail)
//Storyboard Layer 2 (Pass)
//Storyboard Layer 3 (Foreground)
//Storyboard Layer 4 (Overlay)
//Storyboard Sound Samples

[TimingPoints]
1959,468.75,4,1,0,60,1,0
6881,-99.009900990099,4,1,0,60,0,0
7115,-98.0392156862745,4,1,0,60,0,0
7349,-97.0873786407767,4,1,0,60,0,0
7585,454.545454545455,4,1,0,60,1,0
9175,-99.009900990099,4,1,0,60,0,0
9403,444.444444444444,4,1,0,60,1,0
10291,-99.009900990099,4,1,0,60,0,0
10736,-98.0392156862745,4,1,0,60,0,0
11180,434.782608695652,4,1,0,60,1,0
11831,-99.009900990099,4,1,0,60,0,0
12919,-97.8723529198748,4,1,0,60,0,8
12920,425.531914893617,4,1,0,60,1,0
14196,-99.009900990099,4,1,0,60,0,8
14409,-98.0392156862745,4,1,0,60,0,8
14622,413.793103448276,4,1,0,60,1,0
15553,-99.009900990099,4,1,0,60,0,8
15863,-98.0392156862745,4,1,0,60,0,8
16277,394.736842105263,4,1,0,65,1,0
16277,-100,4,1,0,65,0,0
22000,-99.009900990099,4,1,0,65,0,0
22593,389.61038961039,4,1,0,65,1,0
22593,-100,4,1,0,65,0,0
28437,-100,4,1,0,65,0,0
28826,-100,4,1,0,65,0,0
56878,389.61038961039,4,1,0,65,1,0
57073,-100,4,1,0,65,0,0
61651,-100,4,1,0,65,0,0
63111,-99.009900990099,4,1,0,65,0,0
81813,400,4,1,0,65,1,0
82613,402.684563758389,4,1,0,80,1,0
82713,-100,4,1,0,80,0,0
84222,-100,4,1,0,80,0,0
88250,-99.009900990099,4,1,0,80,0,0
89055,-98.0392156862745,4,1,0,80,0,0
92270,-97.0873786407767,4,1,0,80,0,0
93888,-96.4401063541493,4,1,0,80,0,8
93889,400,4,1,0,80,1,0
93889,-97.0873786407767,4,1,0,80,0,0
95489,394.736842105263,4,1,0,80,1,1
113646,-99.009900990099,4,1,0,80,0,1
120554,-100,4,1,0,65,0,0
123910,-100,4,1,0,50,0,0
127067,-100,4,1,0,65,0,0
130225,-100,4,1,0,50,0,0
131804,-95.2380952380952,4,1,0,80,0,0
133383,-99.009900990099,4,1,0,80,0,1
146015,389.61038961039,4,1,0,80,1,0

[HitObjects]
226,98,1021,5,0,0:0:0:0:
229,185,1490,1,8,0:0:0:0:
232,97,1959,1,4,0:0:0:0:
330,242,2896,1,8,0:0:0:0:
330,242,3834,1,0,0:0:0:0:
330,242,4537,1,8,0:0:0:0:
256,296,4771,1,2,0:0:0:0:
216,114,5240,1,8,0:0:0:0:
216,114,5474,1,0,0:0:0:0:
216,114,5709,1,8,0:0:0:0:
447,234,6177,1,0,0:0:0:0:
447,234,6412,1,8,0:0:0:0:
217,146,6646,1,8,0:0:0:0:
289,231,7115,1,0,0:0:0:0:
243,195,7349,1,8,0:0:0:0:
288,168,7585,1,0,0:0:0:0:
376,168,8039,1,2,0:0:0:0:
464,168,8494,1,0,0:0:0:0:
419,243,8948,5,0,0:0:0:0:
364,231,9175,1,8,0:0:0:0:
345,191,9403,1,4,0:0:0:0:
169,202,10291,5,8,0:0:0:0:
273,160,10736,1,0,0:0:0:0:
346,169,11180,1,8,0:0:0:0:
335,111,11832,1,0,0:0:0:0:
335,111,12049,1,0,0:0:0:0:
232,156,12484,1,0,0:0:0:0:
284,136,12701,1,8,0:0:0:0:
213,73,12920,1,0,0:0:0:0:
160,112,13345,5,0,0:0:0:0:
160,112,13558,1,8,0:0:0:0:
112,40,13771,1,8,0:0:0:0:
154,76,13983,1,0,0:0:0:0:
64,112,14196,1,2,0:0:0:0:
117,128,14409,1,0,0:0:0:0:
308,202,14622,1,8,0:0:0:0:
296,256,15035,1,8,0:0:0:0:
2,180,15449,1,8,0:0:0:0:
256,240,15553,1,0,0:0:0:0:
213,238,15863,1,8,0:0:0:0:
246,131,16277,5,4,0:0:0:0:
246,131,16671,1,8,0:0:0:0:
178,157,17263,1,0,0:0:0:0:
197,300,17461,1,8,0:0:0:0:
200,212,17855,1,0,0:0:0:0:
215,157,18053,1,0,0:0:0:0:
207,124,18250,1,8,0:0:0:0:
241,168,18448,1,0,0:0:0:0:
232,56,18842,1,0,0:0:0:0:
379,87,19040,1,8,0:0:0:0:
291,80,19434,1,0,0:0:0:0:
202,78,19829,1,8,0:0:0:0:
245,112,20421,1,0,0:0:0:0:
197,254,20619,1,8,0:0:0:0:
193,166,21013,1,0,0:0:0:0:
245,112,21211,1,0,0:0:0:0:
193,166,21408,1,8,0:0:0:0:
243,189,21605,1,0,0:0:0:0:
245,112,22000,1,0,0:0:0:0:
265,7,22198,1,0,0:0:0:0:
242,22,22296,1,0,0:0:0:0:
224,44,22395,1,0,0:0:0:0:
214,79,22592,1,12,0:0:0:0:
185,112,22982,1,8,0:0:0:0:
214,79,23177,1,0,0:0:0:0:
256,248,23372,1,0,0:0:0:0:
169,176,23761,1,0,0:0:0:0:
187,196,23859,1,0,0:0:0:0:
212,211,23956,1,0,0:0:0:0:
210,170,24151,1,8,0:0:0:0:
210,170,24541,1,8,0:0:0:0:
210,170,24735,1,0,0:0:0:0:
80,160,24930,1,8,0:0:0:0:
192,155,25320,1,0,0:0:0:0:
216,168,25417,1,0,0:0:0:0:
240,181,25515,1,0,0:0:0:0:
158,317,25709,1,8,0:0:0:0:
132,232,26099,1,8,0:0:0:0:
145,274,26294,1,0,0:0:0:0:
200,176,26489,1,0,0:0:0:0:
380,72,26878,1,0,0:0:0:0:
354,122,27073,1,0,0:0:0:0:
268,81,27268,1,8,0:0:0:0:
256,192,27657,1,8,0:0:0:0:
220,148,27852,1,0,0:0:0:0:
275,143,28047,1,0,0:0:0:0:
275,143,28144,1,0,0:0:0:0:
275,143,28242,1,0,0:0:0:0:
275,143,28437,1,8,0:0:0:0:
219,145,28631,1,8,0:0:0:0:
294,114,28826,5,4,0:0:0:0:
294,114,29605,1,8,0:0:0:0:
280,225,29995,1,0,0:0:0:0:
125,164,30385,1,0,0:0:0:0:
236,161,30774,1,0,0:0:0:0:
328,120,30969,1,8,0:0:0:0:
236,161,31164,1,8,0:0:0:0:
259,51,31554,1,0,0:0:0:0:
223,93,31748,1,8,0:0:0:0:
158,77,31943,1,0,0:0:0:0:
217,172,32333,1,0,0:0:0:0:
187,124,32528,1,0,0:0:0:0:
181,118,32722,1,8,0:0:0:0:
179,61,32917,1,8,0:0:0:0:
151,200,33112,1,0,0:0:0:0:
173,185,33307,1,8,0:0:0:0:
204,129,33502,5,0,0:0:0:0:
137,71,33891,1,8,0:0:0:0:
201,131,34281,1,0,0:0:0:0:
303,175,34670,1,0,0:0:0:0:
353,198,34865,1,8,0:0:0:0:
57,232,35060,1,0,0:0:0:0:
222,171,35839,1,8,0:0:0:0:
154,176,36229,1,0,0:0:0:0:
209,88,36618,1,0,0:0:0:0:
242,118,37008,1,0,0:0:0:0:
186,128,37203,1,8,0:0:0:0:
119,69,37398,1,2,0:0:0:0:
221,112,37787,1,8,0:0:0:0:
250,159,37982,1,0,0:0:0:0:
273,149,38177,1,8,0:0:0:0:
202,61,38567,1,0,0:0:0:0:
124,189,38761,1,8,0:0:0:0:
184,128,38956,1,8,0:0:0:0:
229,109,39151,1,0,0:0:0:0:
248,192,39346,1,0,0:0:0:0:
240,127,39541,1,8,0:0:0:0:
256,192,39735,12,0,40904,0:0:0:0:
207,135,41294,5,4,0:0:0:0:
220,47,42073,1,0,0:0:0:0:
215,134,42463,1,8,0:0:0:0:
298,106,42852,1,0,0:0:0:0:
212,126,43242,1,0,0:0:0:0:
170,139,43437,1,8,0:0:0:0:
51,182,43631,1,2,0:0:0:0:
225,95,44021,1,0,0:0:0:0:
189,121,44216,1,8,0:0:0:0:
189,121,44411,1,0,0:0:0:0:
242,51,44800,1,0,0:0:0:0:
224,104,44995,1,0,0:0:0:0:
191,123,45190,1,8,0:0:0:0:
228,164,45385,1,0,0:0:0:0:
402,94,45482,1,0,0:0:0:0:
387,117,45580,1,0,0:0:0:0:
372,141,45774,1,8,0:0:0:0:
159,153,45969,1,0,0:0:0:0:
238,191,46359,1,8,0:0:0:0:
156,157,46748,1,0,0:0:0:0:
461,224,47138,1,0,0:0:0:0:
433,227,47235,1,0,0:0:0:0:
413,193,47333,1,0,0:0:0:0:
383,181,47528,1,8,0:0:0:0:
224,161,48307,1,0,0:0:0:0:
115,300,48696,1,2,0:0:0:0:
151,219,49086,1,8,0:0:0:0:
230,180,49476,1,0,0:0:0:0:
230,180,49670,1,8,0:0:0:0:
192,60,49865,1,2,0:0:0:0:
192,60,50255,1,0,0:0:0:0:
230,100,50450,1,8,0:0:0:0:
192,60,50644,1,0,0:0:0:0:
159,142,51034,1,0,0:0:0:0:
220,155,51229,1,0,0:0:0:0:
208,69,51424,1,8,0:0:0:0:
220,155,51618,1,0,0:0:0:0:
220,155,51716,1,0,0:0:0:0:
244,168,51813,1,0,0:0:0:0:
268,180,52008,1,8,0:0:0:0:
192,158,52203,1,0,0:0:0:0:
247,168,52593,1,8,0:0:0:0:
267,122,52982,1,8,0:0:0:0:
238,170,53177,1,0,0:0:0:0:
218,135,53372,1,8,0:0:0:0:
234,157,53469,1,8,0:0:0:0:
241,186,53567,1,8,0:0:0:0:
256,192,53761,12,0,56489,0:0:0:0:
206,178,56878,5,0,0:0:0:0:
318,180,57267,1,0,0:0:0:0:
285,225,57462,1,0,0:0:0:0:
206,178,57657,1,8,0:0:0:0:
318,179,58046,1,0,0:0:0:0:
206,178,58436,5,0,0:0:0:0:
206,178,58826,1,0,0:0:0:0:
315,202,59020,1,0,0:0:0:0:
206,178,59215,1,8,0:0:0:0:
261,168,59410,1,0,0:0:0:0:
315,202,59605,1,8,0:0:0:0:
206,178,59994,5,0,0:0:0:0:
318,175,60384,1,0,0:0:0:0:
368,150,60579,5,0,0:0:0:0:
206,178,60774,1,8,0:0:0:0:
261,182,60968,1,0,0:0:0:0:
282,260,61163,1,8,0:0:0:0:
206,176,61358,1,8,0:0:0:0:
250,130,61942,1,0,0:0:0:0:
206,178,62332,1,8,0:0:0:0:
214,187,62722,1,0,0:0:0:0:
211,164,63111,1,12,0:0:0:0:
265,149,63501,1,0,0:0:0:0:
211,164,63890,1,8,0:0:0:0:
211,164,64085,5,0,0:0:0:0:
319,134,64280,1,0,0:0:0:0:
168,175,64670,1,0,0:0:0:0:
265,149,65059,1,0,0:0:0:0:
302,190,65254,1,0,0:0:0:0:
340,212,65449,1,8,0:0:0:0:
285,198,65644,1,0,0:0:0:0:
246,150,65839,1,0,0:0:0:0:
170,163,66228,1,8,0:0:0:0:
246,150,66618,1,0,0:0:0:0:
337,216,67007,1,8,0:0:0:0:
285,160,67202,1,0,0:0:0:0:
252,191,67397,1,8,0:0:0:0:
268,68,67592,1,0,0:0:0:0:
84,223,68176,5,8,0:0:0:0:
303,173,68566,1,8,0:0:0:0:
257,168,68761,1,0,0:0:0:0:
329,172,68858,1,0,0:0:0:0:
277,144,68955,1,0,0:0:0:0:
222,167,69345,5,12,0:0:0:0:
135,152,69735,1,0,0:0:0:0:
233,181,69929,1,0,0:0:0:0:
176,264,70124,1,8,0:0:0:0:
172,220,70319,1,0,0:0:0:0:
270,236,70416,1,0,0:0:0:0:
264,264,70514,1,0,0:0:0:0:
261,208,70709,1,0,0:0:0:0:
233,181,70903,1,8,0:0:0:0:
233,181,71293,1,0,0:0:0:0:
233,153,71488,1,0,0:0:0:0:
352,152,71683,1,8,0:0:0:0:
309,162,71878,1,0,0:0:0:0:
440,152,72072,1,8,0:0:0:0:
274,91,72170,1,8,0:0:0:0:
384,143,72267,1,8,0:0:0:0:
355,127,72462,1,0,0:0:0:0:
274,91,72851,1,0,0:0:0:0:
225,118,73046,1,0,0:0:0:0:
190,61,73241,1,8,0:0:0:0:
212,112,73436,1,8,0:0:0:0:
190,61,73533,1,8,0:0:0:0:
208,82,73630,1,8,0:0:0:0:
78,270,73825,1,8,0:0:0:0:
68,182,74215,5,0,0:0:0:0:
94,146,74410,1,8,0:0:0:0:
147,162,74604,1,0,0:0:0:0:
177,171,74799,1,8,0:0:0:0:
274,162,74994,1,8,0:0:0:0:
263,188,75189,1,0,0:0:0:0:
274,162,75286,1,0,0:0:0:0:
286,136,75384,1,0,0:0:0:0:
346,42,75579,5,4,0:0:0:0:
495,211,76358,1,0,0:0:0:0:
186,271,76553,1,0,0:0:0:0:
164,324,76747,1,8,0:0:0:0:
179,300,76845,1,8,0:0:0:0:
194,276,76942,1,8,0:0:0:0:
221,170,77137,5,4,0:0:0:0:
2,120,77916,1,8,0:0:0:0:
57,129,78111,1,8,0:0:0:0:
292,140,78306,1,8,0:0:0:0:
292,140,78403,1,8,0:0:0:0:
292,140,78501,1,8,0:0:0:0:
256,192,78695,12,0,81812,0:0:0:0:
56,96,82613,5,12,0:0:0:0:
164,122,83015,1,0,0:0:0:0:
231,98,83418,1,8,0:0:0:0:
332,145,83821,1,0,0:0:0:0:
65,157,84223,1,0,0:0:0:0:
76,214,84425,1,8,0:0:0:0:
176,163,84626,1,8,0:0:0:0:
284,198,85029,1,8,0:0:0:0:
130,202,85230,1,0,0:0:0:0:
185,192,85431,1,0,0:0:0:0:
335,194,85834,5,8,0:0:0:0:
235,142,86237,1,0,0:0:0:0:
159,194,86639,1,8,0:0:0:0:
260,146,87042,1,0,0:0:0:0:
281,188,87243,1,8,0:0:0:0:
225,31,87445,1,8,0:0:0:0:
205,141,87847,1,0,0:0:0:0:
281,188,88250,1,0,0:0:0:0:
261,135,88451,1,0,0:0:0:0:
190,111,88653,1,8,0:0:0:0:
217,113,88753,1,8,0:0:0:0:
261,135,88854,1,8,0:0:0:0:
110,147,89055,1,8,0:0:0:0:
219,171,89458,1,0,0:0:0:0:
239,27,89861,1,8,0:0:0:0:
291,125,90264,1,0,0:0:0:0:
399,322,90666,1,0,0:0:0:0:
350,293,90868,1,8,0:0:0:0:
340,225,91069,1,8,0:0:0:0:
235,184,91472,1,8,0:0:0:0:
289,190,91673,1,0,0:0:0:0:
323,233,91874,1,0,0:0:0:0:
185,41,92277,1,8,0:0:0:0:
218,147,92680,1,0,0:0:0:0:
341,122,93082,1,8,0:0:0:0:
245,180,93485,1,0,0:0:0:0:
189,173,93686,1,8,0:0:0:0:
256,192,93889,12,0,95089,0:0:0:0:
221,81,95489,5,12,0:0:0:0:
221,81,95883,1,0,0:0:0:0:
267,113,96081,1,0,0:0:0:0:
150,133,96278,1,8,0:0:0:0:
72,174,96673,1,0,0:0:0:0:
140,118,97067,1,0,0:0:0:0:
167,83,97265,1,8,0:0:0:0:
167,83,97462,1,8,0:0:0:0:
184,136,97660,1,0,0:0:0:0:
221,99,97857,5,8,0:0:0:0:
270,125,98054,1,0,0:0:0:0:
199,155,98153,1,0,0:0:0:0:
189,130,98252,1,0,0:0:0:0:
219,47,98646,1,8,0:0:0:0:
189,130,99041,1,0,0:0:0:0:
228,169,99239,1,0,0:0:0:0:
233,205,99436,1,8,0:0:0:0:
205,121,99831,1,0,0:0:0:0:
205,121,100028,1,8,0:0:0:0:
165,139,100225,1,0,0:0:0:0:
168,168,100620,1,8,0:0:0:0:
168,168,101015,1,0,0:0:0:0:
221,153,101212,1,0,0:0:0:0:
275,167,101410,1,8,0:0:0:0:
275,167,101508,1,8,0:0:0:0:
275,167,101607,1,8,0:0:0:0:
200,60,101804,5,8,0:0:0:0:
171,143,102199,1,0,0:0:0:0:
220,169,102396,1,0,0:0:0:0:
232,80,102594,1,8,0:0:0:0:
186,155,102989,1,0,0:0:0:0:
216,72,103383,1,0,0:0:0:0:
232,80,103581,1,0,0:0:0:0:
226,101,103778,1,8,0:0:0:0:
261,144,103975,1,0,0:0:0:0:
157,46,104173,1,8,0:0:0:0:
197,84,104370,1,0,0:0:0:0:
324,204,104469,1,0,0:0:0:0:
226,101,104567,1,0,0:0:0:0:
272,112,104962,5,8,0:0:0:0:
216,176,105357,1,0,0:0:0:0:
271,170,105554,1,0,0:0:0:0:
208,88,105752,1,8,0:0:0:0:
138,141,106146,1,0,0:0:0:0:
133,184,106344,1,8,0:0:0:0:
256,192,106541,12,0,107725,0:0:0:0:
240,256,108120,5,8,0:0:0:0:
243,200,108317,1,0,0:0:0:0:
245,172,108416,1,0,0:0:0:0:
228,168,108515,1,0,0:0:0:0:
245,172,108910,1,8,0:0:0:0:
245,172,109107,1,0,0:0:0:0:
245,172,109206,1,0,0:0:0:0:
228,168,109304,1,0,0:0:0:0:
145,198,109699,1,8,0:0:0:0:
204,132,109995,1,8,0:0:0:0:
144,160,110291,1,0,0:0:0:0:
172,126,110489,1,8,0:0:0:0:
202,94,110686,1,0,0:0:0:0:
202,94,110883,1,8,0:0:0:0:
241,172,111278,1,0,0:0:0:0:
184,175,111475,1,0,0:0:0:0:
299,237,111673,1,8,0:0:0:0:
282,183,111870,1,0,0:0:0:0:
183,104,112462,1,8,0:0:0:0:
209,326,112857,1,0,0:0:0:0:
238,278,113054,1,0,0:0:0:0:
288,287,113252,1,2,0:0:0:0:
309,235,113449,1,0,0:0:0:0:
346,221,113646,1,0,0:0:0:0:
327,199,113745,1,0,0:0:0:0:
346,221,113844,1,0,0:0:0:0:
300,187,114041,1,0,0:0:0:0:
380,139,114436,5,8,0:0:0:0:
324,148,114633,1,0,0:0:0:0:
296,152,114732,1,0,0:0:0:0:
294,137,114831,1,0,0:0:0:0:
236,37,115225,1,8,0:0:0:0:
243,92,115423,1,0,0:0:0:0:
246,119,115521,1,0,0:0:0:0:
250,123,115620,1,0,0:0:0:0:
207,45,116015,1,0,0:0:0:0:
207,45,116212,1,8,0:0:0:0:
189,85,116410,1,8,0:0:0:0:
226,126,116607,1,0,0:0:0:0:
225,165,116804,1,8,0:0:0:0:
225,165,117002,1,0,0:0:0:0:
210,148,117199,1,8,0:0:0:0:
234,161,117298,1,8,0:0:0:0:
258,174,117396,1,8,0:0:0:0:
211,59,117594,1,0,0:0:0:0:
240,106,117791,1,0,0:0:0:0:
237,142,117989,1,8,0:0:0:0:
292,145,118186,1,0,0:0:0:0:
394,190,118581,1,0,0:0:0:0:
72,203,118778,1,8,0:0:0:0:
256,192,119173,12,0,120357,0:0:0:0:
283,117,120752,5,12,0:0:0:0:
366,190,121146,1,0,0:0:0:0:
283,117,121541,1,8,0:0:0:0:
190,179,121936,1,0,0:0:0:0:
107,104,122331,1,8,0:0:0:0:
256,192,122627,1,8,0:0:0:0:
173,178,122923,1,0,0:0:0:0:
256,192,123120,1,8,0:0:0:0:
305,234,123317,1,0,0:0:0:0:
144,182,123515,1,8,0:0:0:0:
256,192,123910,12,0,126278,0:0:0:0:
403,187,127067,5,8,0:0:0:0:
298,228,127462,1,0,0:0:0:0:
256,288,127857,1,8,0:0:0:0:
345,221,128252,1,0,0:0:0:0:
112,192,128646,1,0,0:0:0:0:
136,141,128844,1,8,0:0:0:0:
179,105,129041,1,8,0:0:0:0:
259,163,129436,1,8,0:0:0:0:
311,181,129633,1,0,0:0:0:0:
365,196,129831,1,0,0:0:0:0:
256,192,130225,12,0,131410,0:0:0:0:
133,227,131804,6,0,L|308:214,3,146.999995513916
178,36,133383,1,12,0:0:0:0:
221,112,133778,1,0,0:0:0:0:
214,78,133975,1,0,0:0:0:0:
146,64,134173,1,8,0:0:0:0:
205,128,134567,1,0,0:0:0:0:
194,195,134765,1,0,0:0:0:0:
195,40,134962,1,8,0:0:0:0:
208,104,135258,1,8,0:0:0:0:
195,39,135554,1,0,0:0:0:0:
215,78,135752,1,8,0:0:0:0:
263,105,135949,1,0,0:0:0:0:
212,177,136048,1,0,0:0:0:0:
177,100,136146,1,0,0:0:0:0:
104,149,136541,1,8,0:0:0:0:
191,143,136936,1,0,0:0:0:0:
245,155,137133,1,0,0:0:0:0:
212,57,137331,1,8,0:0:0:0:
146,197,137528,1,0,0:0:0:0:
237,141,137725,1,0,0:0:0:0:
247,183,137923,1,8,0:0:0:0:
65,237,138120,1,8,0:0:0:0:
119,225,138317,1,0,0:0:0:0:
63,148,138515,1,8,0:0:0:0:
134,97,138910,1,8,0:0:0:0:
174,80,139107,1,0,0:0:0:0:
202,46,139304,1,8,0:0:0:0:
223,64,139403,1,8,0:0:0:0:
243,83,139502,1,8,0:0:0:0:
162,124,139699,1,8,0:0:0:0:
248,142,140094,1,0,0:0:0:0:
303,149,140291,1,0,0:0:0:0:
335,155,140489,1,8,0:0:0:0:
335,155,140883,1,0,0:0:0:0:
253,122,141278,1,0,0:0:0:0:
211,109,141475,1,0,0:0:0:0:
211,109,141673,1,8,0:0:0:0:
264,124,141870,1,0,0:0:0:0:
293,140,142067,1,8,0:0:0:0:
237,134,142265,1,0,0:0:0:0:
281,283,142364,1,0,0:0:0:0:
304,298,142462,1,0,0:0:0:0:
257,268,142660,1,0,0:0:0:0:
278,214,142857,1,8,0:0:0:0:
251,129,143252,1,0,0:0:0:0:
300,155,143449,1,0,0:0:0:0:
251,129,143646,1,8,0:0:0:0:
167,155,144041,1,0,0:0:0:0:
167,155,144238,1,8,0:0:0:0:
214,125,144436,1,0,0:0:0:0:
279,178,144633,1,0,0:0:0:0:
318,164,144831,1,8,0:0:0:0:
389,207,145028,1,0,0:0:0:0:
335,189,145225,1,0,0:0:0:0:
308,180,145324,1,0,0:0:0:0:
279,178,145423,1,0,0:0:0:0:
318,164,145620,1,8,0:0:0:0:
335,189,145817,1,0,0:0:0:0:
279,180,146015,1,12,0:0:0:0:
