osu file format v14

[General]
AudioFilename: audio.mp3
AudioLeadIn: 0
PreviewTime: 29971
Countdown: 0
SampleSet: None
StackLeniency: 0.7
Mode: 0
LetterboxInBreaks: 0
WidescreenStoryboard: 1

[Editor]
Bookmarks: 5142
DistanceSpacing: 1.5
BeatDivisor: 12
GridSize: 4
TimelineZoom: 3.299999

[Metadata]
Title:Swordsman of a Distant Star
TitleUnicode:Swordsman of a Distant Star
Artist:ZUN
ArtistUnicode:ZUN
Creator:BlackDrake
Version:Normal
Source:東方靈異伝 ~ Highly Responsive to Prayers
Tags:
BeatmapID:1675472
BeatmapSetID:797830

[Difficulty]
HPDrainRate:4
CircleSize:3
OverallDifficulty:4
ApproachRate:4.5
SliderMultiplier:0.999999999999999
SliderTickRate:3

[Events]
//Background and Video events
0,0,"Konngara Resized.jpg",0,0
//Break Periods
//Storyboard Layer 0 (Background)
//Storyboard Layer 1 (Fail)
//Storyboard Layer 2 (Pass)
//Storyboard Layer 3 (Foreground)
//Storyboard Sound Samples

[TimingPoints]
0,454.543906597481,4,1,0,100,1,0
29500,-80,4,1,0,100,0,0
43721,-100,4,1,0,100,0,0

[HitObjects]
108,262,767,6,0,P|167:212|208:152,1,150
232,76,1676,2,0,P|305:80|360:140,1,156.25
372,208,2585,2,0,P|364:281|299:317,1,150
220,318,3494,1,0,0:0:0:0:
60,204,4090,5,0,0:0:0:0:
76,132,4318,2,0,P|132:70|228:48,1,181.25
292,48,5340,2,0,P|366:65|422:124,1,156.25
444,184,6249,2,0,P|448:258|420:330,1,150
320,332,7244,1,0,0:0:0:0:
54,185,8153,6,0,P|85:114|141:63,1,150
184,124,9062,2,0,P|170:199|188:273,1,150
260,248,9971,2,0,P|241:325|177:354,1,150
108,348,10881,1,0,0:0:0:0:
52,208,11335,5,0,0:0:0:0:
36,136,11562,2,0,P|148:128|224:84,1,200
292,56,12698,2,0,P|372:44|432:72,1,150
472,136,13607,2,0,P|416:193|352:209,1,150
276,196,14516,1,0,0:0:0:0:
152,300,15426,6,0,P|95:259|54:191,1,150
88,124,16335,2,0,P|154:89|232:82,1,150
304,92,17244,2,0,P|312:165|279:231,1,150
204,240,18153,1,0,0:0:0:0:
348,280,18607,6,0,B|312:320|262:350|176:352|128:272,1,256.25
168,220,19971,2,0,P|240:232|308:201,1,150
268,136,20880,2,0,P|194:129|142:77,1,150
72,108,21789,1,0,0:0:0:0:
52,268,22698,6,0,P|76:323|162:342,1,150
144,268,23607,2,0,P|184:235|204:140,1,150
280,136,24516,2,0,P|253:68|184:42,1,150
124,84,25425,1,0,0:0:0:0:
246,184,25994,6,0,B|234:204|230:228|234:256,1,74.9999999999999
300,292,26562,2,0,B|296:295|300:291|350:333|434:337,1,143.75
444,252,27471,2,0,P|396:248|348:224,1,99.9999999999999
396,168,28153,2,0,P|445:121|451:43,1,150
376,48,29061,1,0,0:0:0:0:
210,66,29971,6,0,B|129:98|169:186|90:206,1,187.5
68,292,30880,2,0,P|128:316|156:308,1,93.7499999999999
216,184,31562,6,0,P|263:296|380:345,1,250
372,252,32698,1,0,0:0:0:0:
336,160,33011,2,0,P|280:104|196:76,1,164.0625
172,168,33835,5,0,0:0:0:0:
252,184,34062,2,0,P|231:267|125:345,1,218.75
87,279,35085,6,0,P|122:243|138:201,1,93.7499999999999
81,144,35653,1,0,0:0:0:0:
172,120,35880,2,0,P|196:101|209:73,1,62.4999999999999
304,56,36335,1,0,0:0:0:0:
359,159,37244,5,0,0:0:0:0:
280,121,37471,1,0,0:0:0:0:
195,127,37698,2,0,P|123:155|99:286,1,218.75
175,305,38721,6,0,P|213:269|237:229,1,93.7499999999999
225,153,39289,1,0,0:0:0:0:
244,72,39488,2,0,P|273:74|301:95,1,62.4999999999999
384,140,39942,1,0,0:0:0:0:
440,184,40113,2,0,P|412:256|344:272,1,148.4375
300,204,40880,6,0,P|229:223|146:294,1,179.6875
216,344,41761,2,0,P|265:349|308:338,1,93.7499999999999
357,324,42329,5,0,0:0:0:0:
440,280,42556,2,0,P|462:233|456:193,1,93.7499999999999
376,216,43124,2,0,P|356:244|324:252,1,62.4999999999999
240,272,43579,1,0,0:0:0:0:
40,148,44289,5,0,0:0:0:0:
64,129,44516,1,0,0:0:0:0:
87,108,44744,1,0,0:0:0:0:
110,88,44971,1,0,0:0:0:0:
216,48,45312,2,0,L|314:63,1,99.9999999999999
452,192,46335,5,0,0:0:0:0:
380,212,46562,1,0,0:0:0:0:
308,240,46789,2,0,P|241:254|136:241,1,175
288,128,48153,6,0,P|306:81|344:50,1,99.9999999999999
408,144,48948,2,0,L|388:190,1,50
340,248,49403,1,0,0:0:0:0:
300,80,49971,6,0,B|247:49|180:51,1,125
112,64,50757,2,0,P|83:175|123:282,1,231.25
180,232,52016,2,0,P|219:228|253:238,1,74.9999999999999
300,296,52585,2,0,P|342:202|334:89,1,218.75
260,72,53806,6,0,P|237:109|203:132,1,81.2499999999999
156,92,54374,2,0,P|105:160|144:240,1,181.25
204,290,55416,2,0,P|255:244|279:189,1,125
352,200,56211,2,0,P|339:103|254:59,1,200
208,56,57234,6,0,P|157:102|134:155,1,125
148,220,58030,2,0,P|193:274|293:297,1,175
448,320,59289,5,0,0:0:0:0:
396,68,60113,2,0,P|336:56|280:56,1,112.5
390,152,61107,1,0,0:0:0:0:
232,120,61590,1,0,0:0:0:0:
272,224,61931,1,0,0:0:0:0:
175,257,62755,6,0,P|148:207|133:152,1,112.5
268,68,63749,1,0,0:0:0:0:
380,60,64090,2,0,P|420:103|439:147,1,106.25
206,292,65425,5,0,0:0:0:0:
455,192,66363,1,0,0:0:0:0:
357,133,66761,2,0,P|312:155|262:152,1,99.9999999999999
141,71,67727,5,0,0:0:0:0:
117,182,68124,2,0,P|170:186|214:162,1,99.9999999999999
326,89,69062,1,0,0:0:0:0:
444,180,69516,1,0,0:0:0:0:
368,264,69857,1,0,0:0:0:0:
96,272,70681,5,0,0:0:0:0:
248,200,71192,1,0,0:0:0:0:
148,76,71675,1,0,0:0:0:0:
312,44,72187,1,0,0:0:0:0:
380,132,72528,1,0,0:0:0:0:
348,288,73011,1,0,0:0:0:0:
180,304,73522,1,0,0:0:0:0:
188,334,75141,6,0,B|239:239|66:207|118:145,1,225
207,147,76477,1,0,0:0:0:0:
300,258,76988,1,0,0:0:0:0:
436,237,77471,1,0,0:0:0:0:
412,150,77783,6,0,B|392:212|265:131|222:239,1,225
164,305,79119,1,0,0:0:0:0:
310,300,79630,1,0,0:0:0:0:
372,176,80113,1,0,0:0:0:0:
390,80,80454,6,0,P|332:100|290:76,1,108.333333333333
260,75,81060,2,0,P|172:79|106:108,1,158.333333333333
210,194,82272,1,0,0:0:0:0:
100,277,82755,1,0,0:0:0:0:
185,329,83105,6,0,P|237:337|285:333,1,99.9999999999999
324,318,83711,2,0,P|389:258|388:192,1,158.333333333333
308,88,84923,1,0,0:0:0:0:
152,48,85416,1,0,0:0:0:0:
220,106,85709,6,0,P|144:184|222:294,1,262.5
291,297,87073,6,0,P|375:209|305:109,1,262.5
260,104,88408,6,0,L|192:132,1,68.7499999999999
304,192,89090,2,0,L|236:220,1,68.7499999999999
332,300,89772,2,0,P|382:277|413:231,1,112.5
249,69,91211,6,0,P|218:81|194:103,1,66.6666666666666
273,174,91893,2,0,P|246:191|224:224,1,66.6666666666666
377,216,92575,2,0,P|355:241|329:260,1,66.6666666666666
260,300,93124,2,0,B|208:280|167:328|108:307,1,150
96,240,94014,6,0,P|119:216|149:201,1,66.6666666666666
256,204,94696,2,0,P|279:181|288:149,1,66.6666666666666
424,148,95416,2,0,L|424:252,1,99.9999999999999
256,192,96363,12,0,98181,0:0:0:0:
