osu file format v14

[General]
AudioFilename: audio.mp3
AudioLeadIn: 0
PreviewTime: 29971
Countdown: 0
SampleSet: None
StackLeniency: 0.7
Mode: 0
LetterboxInBreaks: 0
WidescreenStoryboard: 1

[Editor]
DistanceSpacing: 1.2
BeatDivisor: 16
GridSize: 4
TimelineZoom: 3.299999

[Metadata]
Title:Swordsman of a Distant Star
TitleUnicode:Swordsman of a Distant Star
Artist:ZUN
ArtistUnicode:ZUN
Creator:BlackDrake
Version:Lunatic
Source:東方靈異伝 ~ Highly Responsive to Prayers
Tags:
BeatmapID:1675471
BeatmapSetID:797830

[Difficulty]
HPDrainRate:5
CircleSize:3.8
OverallDifficulty:7
ApproachRate:9
SliderMultiplier:1.7
SliderTickRate:1

[Events]
//Background and Video events
0,0,"Konngara Resized.jpg",0,0
//Break Periods
//Storyboard Layer 0 (Background)
//Storyboard Layer 1 (Fail)
//Storyboard Layer 2 (Pass)
//Storyboard Layer 3 (Foreground)
//Storyboard Sound Samples

[TimingPoints]
0,454.543906597481,4,1,0,100,1,0
29500,-76.9230769230769,4,1,0,100,0,0
43721,-100,4,1,0,100,0,0
50681,-66.6666666666667,4,1,0,100,0,0
51732,-100,4,1,0,100,0,0

[HitObjects]
132,144,767,6,0,B|152:84|188:72,1,85
255,143,1221,1,0,0:0:0:0:
234,189,1335,1,0,0:0:0:0:
266,228,1449,1,0,0:0:0:0:
472,168,1676,6,0,L|416:92,1,85
257,143,2130,1,0,0:0:0:0:
278,189,2244,1,0,0:0:0:0:
246,228,2358,1,0,0:0:0:0:
20,236,2585,6,0,L|76:164,1,85
196,264,3039,1,0,0:0:0:0:
132,308,3153,1,0,0:0:0:0:
200,344,3267,1,0,0:0:0:0:
360,252,3494,5,0,0:0:0:0:
180,79,4090,6,0,L|212:163,1,85
272,52,4431,2,0,B|296:112|312:156,1,106.25
222,197,4914,5,0,0:0:0:0:
280,144,5028,1,0,0:0:0:0:
332,92,5141,1,0,0:0:0:0:
434,173,5340,6,0,L|372:240,1,85
187,257,5823,1,0,0:0:0:0:
244,204,5936,1,0,0:0:0:0:
300,152,6050,1,0,0:0:0:0:
376,252,6249,6,0,L|368:168,1,85
275,65,6704,1,0,0:0:0:0:
200,56,6818,1,0,0:0:0:0:
124,48,6931,1,0,0:0:0:0:
276,188,7244,5,0,0:0:0:0:
216,319,8153,6,0,B|166:282|140:260,1,85
231,181,8607,1,0,0:0:0:0:
280,240,8721,1,0,0:0:0:0:
304,168,8835,1,0,0:0:0:0:
300,324,9062,6,0,L|368:259,1,85
304,172,9517,1,0,0:0:0:0:
204,144,9630,1,0,0:0:0:0:
218,245,9744,1,0,0:0:0:0:
188,48,9971,6,0,L|276:68,1,85
321,188,10426,1,0,0:0:0:0:
188,168,10540,1,0,0:0:0:0:
233,283,10654,1,0,0:0:0:0:
416,248,10881,5,0,0:0:0:0:
144,88,11335,6,0,L|176:172,1,85
272,52,11789,2,0,B|296:112|312:152,1,85
223,191,12243,5,0,0:0:0:0:
288,152,12357,1,0,0:0:0:0:
356,116,12470,1,0,0:0:0:0:
464,152,12698,6,0,L|408:224,1,85
195,256,13152,1,0,0:0:0:0:
240,196,13266,1,0,0:0:0:0:
280,132,13380,1,0,0:0:0:0:
376,252,13607,6,0,L|344:168,1,85
281,66,14062,1,0,0:0:0:0:
208,92,14176,1,0,0:0:0:0:
264,144,14289,1,0,0:0:0:0:
256,296,14516,5,0,0:0:0:0:
132,144,15426,6,0,B|148:92|192:76,1,85
288,180,15880,1,0,0:0:0:0:
208,224,15993,1,0,0:0:0:0:
124,264,16107,1,0,0:0:0:0:
472,168,16334,6,0,L|416:92,1,85
280,160,16789,1,0,0:0:0:0:
276,236,16903,1,0,0:0:0:0:
212,196,17016,1,0,0:0:0:0:
20,236,17244,6,0,L|80:168,1,85
200,264,17698,1,0,0:0:0:0:
136,308,17812,1,0,0:0:0:0:
208,336,17926,1,0,0:0:0:0:
360,252,18153,5,0,0:0:0:0:
144,88,18607,6,0,L|176:172,1,85
272,52,19062,2,0,B|296:112|312:152,1,85
217,191,19516,5,0,0:0:0:0:
288,160,19630,1,0,0:0:0:0:
360,188,19744,1,0,0:0:0:0:
436,290,19971,6,0,B|395:334|365:335|359:319,1,85
218,278,20426,1,0,0:0:0:0:
158,228,20540,1,0,0:0:0:0:
169,152,20654,1,0,0:0:0:0:
314,199,20880,6,0,B|351:169|361:127|355:125,1,85
224,40,21335,1,0,0:0:0:0:
148,60,21449,1,0,0:0:0:0:
124,132,21562,1,0,0:0:0:0:
276,188,21789,5,0,0:0:0:0:
171,95,22698,2,0,L|256:114,1,85
336,128,23152,1,0,0:0:0:0:
396,180,23266,1,0,0:0:0:0:
372,252,23380,1,0,0:0:0:0:
265,204,23607,6,0,L|162:183,1,85
152,102,24061,1,0,0:0:0:0:
228,84,24175,1,0,0:0:0:0:
288,132,24289,1,0,0:0:0:0:
344,272,24516,6,0,L|308:349,1,85
164,296,24970,1,0,0:0:0:0:
96,256,25084,1,0,0:0:0:0:
92,180,25198,1,0,0:0:0:0:
188,60,25425,1,0,0:0:0:0:
223,111,25993,5,0,0:0:0:0:
300,116,26107,1,0,0:0:0:0:
344,180,26220,1,0,0:0:0:0:
296,240,26334,2,0,L|220:311,1,85
112,204,26789,1,0,0:0:0:0:
48,164,26902,1,0,0:0:0:0:
52,88,27016,1,0,0:0:0:0:
204,100,27243,6,0,L|277:55,1,85
420,108,27698,1,0,0:0:0:0:
456,176,27811,1,0,0:0:0:0:
380,172,27925,1,0,0:0:0:0:
336,316,28152,6,0,L|243:356,1,85
108,308,28607,1,0,0:0:0:0:
40,272,28720,1,0,0:0:0:0:
104,228,28834,1,0,0:0:0:0:
192,104,29061,1,0,0:0:0:0:
126,63,29971,6,0,L|236:66,1,110.499994941712
152,176,30426,1,0,0:0:0:0:
100,232,30540,1,0,0:0:0:0:
52,292,30653,1,0,0:0:0:0:
200,332,30880,1,0,0:0:0:0:
352,332,31108,2,0,L|415:329,1,55.2499974708558
384,100,31533,5,0,0:0:0:0:
308,92,31647,1,0,0:0:0:0:
232,88,31761,1,0,0:0:0:0:
128,200,31988,1,0,0:0:0:0:
276,168,32243,1,0,0:0:0:0:
348,144,32357,1,0,0:0:0:0:
420,116,32470,1,0,0:0:0:0:
392,248,32698,1,0,0:0:0:0:
176,168,33011,5,0,0:0:0:0:
288,64,33153,2,0,L|342:46,2,55.2499974708558
448,140,33494,2,0,L|442:167,2,27.6249987354279
340,244,33835,5,0,0:0:0:0:
192,328,34062,1,0,0:0:0:0:
192,328,34176,1,0,0:0:0:0:
192,328,34289,1,0,0:0:0:0:
52,236,34517,1,0,0:0:0:0:
136,108,34744,1,0,0:0:0:0:
136,108,34858,1,0,0:0:0:0:
284,192,35085,6,0,L|288:137,1,55.2499974708558
344,88,35312,2,0,L|392:115,1,55.2499974708558
464,256,35653,1,0,0:0:0:0:
320,320,35880,1,0,0:0:0:0:
236,296,35994,1,0,0:0:0:0:
200,220,36107,1,0,0:0:0:0:
300,84,36335,1,0,0:0:0:0:
270,114,37244,6,0,L|377:155,1,110.499994941712
448,240,37699,1,0,0:0:0:0:
384,256,37812,1,0,0:0:0:0:
316,260,37926,1,0,0:0:0:0:
184,216,38153,1,0,0:0:0:0:
120,96,38380,2,0,L|173:69,1,55.2499974708558
311,80,38721,5,0,0:0:0:0:
377,118,38835,1,0,0:0:0:0:
407,188,38949,1,0,0:0:0:0:
408,264,39062,2,0,L|325:338,1,110.499994941712
211,337,39488,1,0,0:0:0:0:
146,297,39601,1,0,0:0:0:0:
81,254,39715,1,0,0:0:0:0:
280,240,39942,1,0,0:0:0:0:
194,97,40113,6,0,L|240:56,1,55.2499974708558
419,119,40425,2,0,L|384:73,2,55.2499974708558
208,48,40880,2,0,L|202:163,1,110.499994941712
232,300,41306,5,0,0:0:0:0:
164,336,41420,1,0,0:0:0:0:
88,332,41534,1,0,0:0:0:0:
232,284,41762,1,0,0:0:0:0:
276,120,41988,2,0,L|315:77,1,55.2499974708558
412,164,42329,6,0,L|407:231,1,55.2499974708558
403,280,42556,2,0,L|395:351,1,69.0624968385698
212,244,42897,1,0,0:0:0:0:
108,109,43124,1,0,0:0:0:0:
172,68,43238,1,0,0:0:0:0:
248,60,43351,1,0,0:0:0:0:
344,180,43579,1,0,0:0:0:0:
256,176,44289,5,0,0:0:0:0:
332,176,44516,1,0,0:0:0:0:
408,176,44744,1,0,0:0:0:0:
488,176,44971,1,0,0:0:0:0:
437,295,45312,2,0,L|392:288,1,42.5
312,268,45539,1,0,0:0:0:0:
312,268,45653,1,0,0:0:0:0:
312,268,45766,1,0,0:0:0:0:
95,74,46335,5,0,0:0:0:0:
219,74,46562,1,0,0:0:0:0:
318,90,46790,2,0,L|367:96,1,42.5
445,113,47130,5,0,0:0:0:0:
364,196,47358,1,0,0:0:0:0:
356,229,47471,1,0,0:0:0:0:
348,257,47585,1,0,0:0:0:0:
16,64,48152,5,0,0:0:0:0:
168,76,48379,1,0,0:0:0:0:
320,88,48607,1,0,0:0:0:0:
368,288,48948,2,0,L|324:274,1,42.5
243,257,49175,1,0,0:0:0:0:
243,257,49289,1,0,0:0:0:0:
243,257,49402,1,0,0:0:0:0:
44,80,49970,5,0,0:0:0:0:
192,40,50198,1,0,0:0:0:0:
340,84,50425,2,0,L|360:128,1,42.5
439,208,50757,2,0,P|418:244|291:315,1,191.250007295609
172,312,51221,2,0,B|97:298|85:221|40:163|68:95,1,255.000009727478
143,42,51789,5,0,0:0:0:0:
236,111,52016,1,0,0:0:0:0:
332,123,52244,2,0,L|403:129,1,42.5
296,332,52585,5,0,0:0:0:0:
200,276,52699,2,0,L|158:266,2,42.5
272,232,53011,2,0,L|256:184,1,42.5
255,123,53238,2,0,L|322:122,2,42.5
306,78,53579,6,0,L|363:144,1,85
435,235,54005,2,0,P|415:264|389:290,1,63.75
273,268,54393,1,0,0:0:0:0:
245,258,54507,1,0,0:0:0:0:
226,244,54620,1,0,0:0:0:0:
212,226,54734,1,0,0:0:0:0:
200,204,54848,2,0,B|176:164|172:112|192:76,1,127.5
368,56,55416,6,0,L|392:96,1,42.5
428,168,55643,2,0,L|428:210,1,42.5
420,304,55871,2,0,L|414:346,1,42.5
326,293,56211,2,0,L|276:272,1,42.5
240,256,56439,1,0,0:0:0:0:
194,237,56552,1,0,0:0:0:0:
148,218,56666,1,0,0:0:0:0:
102,196,56779,1,0,0:0:0:0:
58,172,56893,2,0,L|9:147,2,42.5
68,96,57234,6,0,L|108:80,1,42.5
188,80,57461,2,0,L|230:80,1,42.5
320,84,57689,2,0,L|362:90,1,42.5
220,200,58030,5,0,0:0:0:0:
284,220,58153,2,0,L|344:236,2,53.125
261,275,58579,2,0,L|347:303,1,85
89,77,59289,5,0,0:0:0:0:
417,69,60113,1,0,0:0:0:0:
192,236,60283,1,0,0:0:0:0:
442,99,60454,1,0,0:0:0:0:
208,323,60624,5,0,0:0:0:0:
487,138,61107,1,0,0:0:0:0:
45,340,61590,1,0,0:0:0:0:
48,51,61931,1,0,0:0:0:0:
428,260,62755,5,0,0:0:0:0:
184,324,62925,1,0,0:0:0:0:
428,112,63096,1,0,0:0:0:0:
92,232,63266,1,0,0:0:0:0:
364,48,63749,1,0,0:0:0:0:
424,280,64090,5,0,0:0:0:0:
172,324,64261,1,0,0:0:0:0:
388,188,64431,1,0,0:0:0:0:
140,232,64573,1,0,0:0:0:0:
56,56,65425,5,0,0:0:0:0:
340,64,66363,5,0,0:0:0:0:
72,176,66760,1,0,0:0:0:0:
284,156,66903,1,0,0:0:0:0:
56,268,67073,1,0,0:0:0:0:
264,224,67215,1,0,0:0:0:0:
460,288,67727,5,0,0:0:0:0:
188,308,68124,1,0,0:0:0:0:
356,176,68267,1,0,0:0:0:0:
124,280,68437,1,0,0:0:0:0:
240,100,68579,1,0,0:0:0:0:
460,48,69062,5,0,0:0:0:0:
144,112,69516,1,0,0:0:0:0:
444,336,69857,1,0,0:0:0:0:
84,80,70681,5,0,0:0:0:0:
139,83,70795,2,0,L|198:89,2,42.5
284,100,71192,1,0,0:0:0:0:
446,66,71675,5,0,0:0:0:0:
371,317,72187,1,0,0:0:0:0:
50,107,72528,1,0,0:0:0:0:
450,240,73011,1,0,0:0:0:0:
237,53,73522,1,0,0:0:0:0:
68,48,75141,2,0,L|92:68,2,31.875
160,116,75482,2,0,L|184:136,2,31.875
252,184,75823,2,0,L|280:208,2,31.875
404,312,76164,5,0,0:0:0:0:
452,220,76306,1,0,0:0:0:0:
384,112,76477,1,0,0:0:0:0:
416,272,76988,1,0,0:0:0:0:
329,104,77471,1,0,0:0:0:0:
68,48,77783,6,0,L|92:68,2,31.875
160,116,78124,2,0,L|184:136,2,31.875
252,184,78465,2,0,L|280:208,2,31.875
404,312,78806,5,0,0:0:0:0:
452,220,78948,1,0,0:0:0:0:
384,112,79119,1,0,0:0:0:0:
183,131,79630,1,0,0:0:0:0:
325,250,80113,1,0,0:0:0:0:
325,174,80454,2,0,L|297:174,2,28.3333333333333
223,163,80757,2,0,L|195:163,2,28.3333333333333
221,265,81060,2,0,L|260:267,1,28.3333333333333
355,258,81278,5,0,0:0:0:0:
290,321,81439,1,0,0:0:0:0:
205,328,81590,1,0,0:0:0:0:
252,202,81761,1,0,0:0:0:0:
376,80,82272,1,0,0:0:0:0:
152,288,82755,1,0,0:0:0:0:
325,174,83105,6,0,L|297:174,2,28.3333333333333
223,163,83408,2,0,L|195:163,2,28.3333333333333
221,265,83711,2,0,L|260:267,1,28.3333333333333
356,236,83939,5,0,0:0:0:0:
320,152,84090,1,0,0:0:0:0:
233,125,84241,1,0,0:0:0:0:
114,171,84431,1,0,0:0:0:0:
416,300,84923,1,0,0:0:0:0:
124,172,85416,1,0,0:0:0:0:
364,156,85709,6,0,L|365:219,7,63.75
245,157,87073,6,0,L|246:220,5,63.75
154,278,88408,5,0,0:0:0:0:
116,191,88560,1,0,0:0:0:0:
144,99,88711,1,0,0:0:0:0:
381,57,89090,1,0,0:0:0:0:
424,143,89242,1,0,0:0:0:0:
398,235,89393,1,0,0:0:0:0:
204,131,89772,5,0,0:0:0:0:
236,156,89942,1,0,0:0:0:0:
268,180,90113,1,0,0:0:0:0:
296,204,90283,1,0,0:0:0:0:
282,207,91211,5,0,0:0:0:0:
217,135,91363,1,0,0:0:0:0:
124,109,91514,1,0,0:0:0:0:
344,176,91893,1,0,0:0:0:0:
266,84,92045,1,0,0:0:0:0:
153,45,92196,1,0,0:0:0:0:
402,145,92575,5,0,0:0:0:0:
370,248,92726,1,0,0:0:0:0:
282,311,92878,1,0,0:0:0:0:
107,307,93124,2,0,L|107:266,8,31.875
419,60,94014,5,0,0:0:0:0:
266,76,94166,1,0,0:0:0:0:
165,190,94317,1,0,0:0:0:0:
454,172,94696,1,0,0:0:0:0:
360,293,94848,1,0,0:0:0:0:
207,283,94999,1,0,0:0:0:0:
400,192,95416,2,0,L|399:127,3,56.6666666666667
256,192,96363,12,0,98181,0:0:0:0:
