osu file format v14

[General]
AudioFilename: audio.mp3
AudioLeadIn: 0
PreviewTime: 29971
Countdown: 0
SampleSet: Normal
StackLeniency: 0.7
Mode: 0
LetterboxInBreaks: 0
WidescreenStoryboard: 1

[Editor]
DistanceSpacing: 1.6
BeatDivisor: 12
GridSize: 4
TimelineZoom: 3.299999

[Metadata]
Title:Swordsman of a Distant Star
TitleUnicode:Swordsman of a Distant Star
Artist:ZUN
ArtistUnicode:ZUN
Creator:BlackDrake
Version:Insane
Source:東方靈異伝 ~ Highly Responsive to Prayers
Tags:
BeatmapID:1675470
BeatmapSetID:797830

[Difficulty]
HPDrainRate:5
CircleSize:4
OverallDifficulty:7
ApproachRate:8
SliderMultiplier:1.7
SliderTickRate:1

[Events]
//Background and Video events
0,0,"Konngara Resized.jpg",0,0
//Break Periods
//Storyboard Layer 0 (Background)
//Storyboard Layer 1 (Fail)
//Storyboard Layer 2 (Pass)
//Storyboard Layer 3 (Foreground)
//Storyboard Sound Samples

[TimingPoints]
0,454.543906597481,4,1,0,100,1,0
29500,-76.9230769230769,4,1,0,100,0,0
43721,-100,4,1,0,100,0,0
50681,-66.6666666666667,4,1,0,100,0,0
51732,-100,4,1,0,100,0,0

[HitObjects]
380,240,767,6,0,B|352:248|324:312,1,85
208,220,1221,2,0,L|188:264,2,42.5
340,160,1676,6,0,P|326:109|296:88,1,85
156,104,2130,2,0,L|176:148,2,42.5
92,232,2585,6,0,L|39:299,1,85
180,336,3039,1,0,0:0:0:0:
180,336,3153,1,0,0:0:0:0:
180,336,3267,1,0,0:0:0:0:
304,260,3494,5,0,0:0:0:0:
128,280,4090,6,0,P|91:241|92:208,1,85
156,180,4431,2,0,B|176:128|117:80,1,106.25
248,56,4914,5,0,0:0:0:0:
248,56,5028,1,0,0:0:0:0:
248,56,5141,1,0,0:0:0:0:
372,76,5340,6,0,L|310:143,1,85
172,216,5823,1,0,0:0:0:0:
172,216,5936,1,0,0:0:0:0:
172,216,6050,1,0,0:0:0:0:
268,296,6249,6,0,L|260:212,1,85
176,92,6704,1,0,0:0:0:0:
141,83,6818,1,0,0:0:0:0:
109,75,6931,1,0,0:0:0:0:
264,200,7244,5,0,0:0:0:0:
136,36,8153,6,0,B|84:56|68:96,1,85
136,216,8607,1,0,0:0:0:0:
161,239,8721,1,0,0:0:0:0:
193,227,8835,1,0,0:0:0:0:
332,260,9062,6,0,P|376:240|396:204,1,85
252,176,9517,1,0,0:0:0:0:
223,158,9630,1,0,0:0:0:0:
208,128,9744,1,0,0:0:0:0:
340,72,9971,6,0,L|428:92,1,85
460,232,10426,1,0,0:0:0:0:
463,268,10540,1,0,0:0:0:0:
443,296,10654,1,0,0:0:0:0:
300,300,10881,5,0,0:0:0:0:
144,296,11335,6,0,P|172:270|176:224,1,85
128,88,11789,2,0,P|129:135|164:152,1,85
300,184,12243,5,0,0:0:0:0:
300,184,12357,1,0,0:0:0:0:
300,184,12470,1,0,0:0:0:0:
396,292,12698,6,0,P|379:330|343:350,1,85
208,304,13152,1,0,0:0:0:0:
208,304,13266,1,0,0:0:0:0:
208,304,13380,1,0,0:0:0:0:
328,228,13607,6,0,P|331:179|312:144,1,85
180,96,14062,1,0,0:0:0:0:
180,96,14176,1,0,0:0:0:0:
180,96,14289,1,0,0:0:0:0:
260,216,14516,5,0,0:0:0:0:
396,312,15426,6,0,P|420:266|424:225,1,85
300,160,15880,1,0,0:0:0:0:
288,200,15993,1,0,0:0:0:0:
260,232,16107,1,0,0:0:0:0:
140,308,16334,6,0,L|84:232,1,85
212,164,16789,1,0,0:0:0:0:
228,204,16903,1,0,0:0:0:0:
220,244,17016,1,0,0:0:0:0:
336,332,17244,6,0,L|396:264,1,85
348,132,17698,1,0,0:0:0:0:
304,132,17812,1,0,0:0:0:0:
272,104,17926,1,0,0:0:0:0:
216,236,18153,5,0,0:0:0:0:
468,272,18607,6,0,L|437:192,1,85
320,108,19062,2,0,B|344:168|360:208,1,85
372,328,19516,5,0,0:0:0:0:
328,336,19630,1,0,0:0:0:0:
289,321,19744,1,0,0:0:0:0:
172,232,19971,6,0,B|213:188|243:187,1,85
388,184,20426,1,0,0:0:0:0:
388,140,20540,1,0,0:0:0:0:
358,110,20654,1,0,0:0:0:0:
220,72,20880,6,0,B|183:102|173:144|179:146,1,85
316,188,21335,1,0,0:0:0:0:
336,152,21448,1,0,0:0:0:0:
376,136,21562,1,0,0:0:0:0:
344,276,21789,5,0,0:0:0:0:
56,64,22698,2,0,P|104:49|140:64,1,85
276,84,23152,1,0,0:0:0:0:
276,84,23266,1,0,0:0:0:0:
276,84,23380,1,0,0:0:0:0:
388,176,23607,6,0,L|304:159,1,85
188,76,24061,1,0,0:0:0:0:
188,76,24175,1,0,0:0:0:0:
188,76,24289,1,0,0:0:0:0:
304,159,24516,6,0,L|268:236,1,85
128,264,24970,1,0,0:0:0:0:
128,264,25084,1,0,0:0:0:0:
128,264,25198,1,0,0:0:0:0:
268,236,25425,1,0,0:0:0:0:
172,92,25993,5,0,0:0:0:0:
172,92,26107,1,0,0:0:0:0:
172,92,26220,1,0,0:0:0:0:
232,132,26334,2,0,L|156:203,1,85
260,304,26789,1,0,0:0:0:0:
293,326,26903,1,0,0:0:0:0:
333,309,27016,1,0,0:0:0:0:
304,168,27243,6,0,L|377:123,1,85
436,236,27698,1,0,0:0:0:0:
469,262,27811,1,0,0:0:0:0:
433,286,27925,1,0,0:0:0:0:
308,296,28152,6,0,L|215:336,1,85
172,216,28607,1,0,0:0:0:0:
136,192,28720,1,0,0:0:0:0:
172,172,28834,1,0,0:0:0:0:
280,104,29061,1,0,0:0:0:0:
368,152,29971,6,0,P|427:139|478:149,1,110.499994941712
352,260,30426,1,0,0:0:0:0:
316,300,30540,1,0,0:0:0:0:
280,340,30653,1,0,0:0:0:0:
152,232,30880,1,0,0:0:0:0:
300,156,31108,2,0,L|363:153,1,55.2499974708558
220,336,31533,5,0,0:0:0:0:
160,328,31647,1,0,0:0:0:0:
100,316,31761,1,0,0:0:0:0:
152,160,31988,1,0,0:0:0:0:
316,248,32243,1,0,0:0:0:0:
380,228,32356,1,0,0:0:0:0:
444,208,32470,1,0,0:0:0:0:
292,140,32698,1,0,0:0:0:0:
72,192,33011,5,0,0:0:0:0:
160,136,33153,2,0,P|187:115|214:118,2,55.2499974708558
224,188,33494,2,0,L|218:215,2,27.6249987354279
392,180,33835,5,0,0:0:0:0:
464,328,34062,1,0,0:0:0:0:
464,328,34176,1,0,0:0:0:0:
464,328,34289,1,0,0:0:0:0:
300,312,34517,1,0,0:0:0:0:
136,280,34744,2,0,P|148:252|168:232,1,55.2499974708558
332,232,35085,6,0,L|336:177,1,55.2499974708558
324,96,35312,2,0,L|372:69,1,55.2499974708558
208,60,35653,1,0,0:0:0:0:
260,216,35880,1,0,0:0:0:0:
176,240,35994,1,0,0:0:0:0:
140,316,36107,1,0,0:0:0:0:
68,168,36335,1,0,0:0:0:0:
60,328,37244,6,0,P|122:323|167:287,1,110.499994941712
72,156,37699,1,0,0:0:0:0:
142,171,37812,1,0,0:0:0:0:
215,171,37926,1,0,0:0:0:0:
356,84,38153,1,0,0:0:0:0:
352,248,38380,2,0,L|405:221,1,55.2499974708558
236,224,38721,5,0,0:0:0:0:
302,186,38835,1,0,0:0:0:0:
332,116,38949,1,0,0:0:0:0:
252,96,39062,2,0,P|199:123|169:170,1,110.499994941712
184,308,39488,1,0,0:0:0:0:
119,268,39601,1,0,0:0:0:0:
54,225,39715,1,0,0:0:0:0:
92,64,39942,1,0,0:0:0:0:
212,100,40113,6,0,L|258:141,1,55.2499974708558
396,148,40425,2,0,P|374:133|361:102,2,55.2499974708558
264,44,40880,2,0,P|245:93|258:159,1,110.499994941712
308,284,41306,5,0,0:0:0:0:
376,248,41420,1,0,0:0:0:0:
452,252,41534,1,0,0:0:0:0:
372,108,41762,1,0,0:0:0:0:
212,68,41988,2,0,P|190:83|185:110,1,55.2499974708558
104,256,42329,6,0,P|99:284|99:323,1,55.2499974708558
180,332,42556,2,0,P|190:296|187:263,1,69.0624968385698
184,120,42897,1,0,0:0:0:0:
336,56,43124,1,0,0:0:0:0:
410,72,43238,1,0,0:0:0:0:
469,120,43351,1,0,0:0:0:0:
392,268,43579,1,0,0:0:0:0:
192,192,44289,5,0,0:0:0:0:
256,172,44516,1,0,0:0:0:0:
320,148,44744,1,0,0:0:0:0:
384,124,44971,1,0,0:0:0:0:
252,296,45312,2,0,P|228:307|207:303,1,42.5
144,288,45539,1,0,0:0:0:0:
144,288,45653,1,0,0:0:0:0:
144,288,45766,1,0,0:0:0:0:
460,116,46335,5,0,0:0:0:0:
344,204,46562,1,0,0:0:0:0:
244,100,46790,2,0,P|225:91|201:94,1,42.5
128,216,47130,5,0,0:0:0:0:
272,232,47358,1,0,0:0:0:0:
272,232,47472,1,0,0:0:0:0:
272,232,47585,1,0,0:0:0:0:
96,300,48152,5,0,0:0:0:0:
124,160,48379,1,0,0:0:0:0:
244,76,48607,1,0,0:0:0:0:
444,160,48948,2,0,L|421:196,1,42.5
380,256,49175,1,0,0:0:0:0:
380,256,49289,1,0,0:0:0:0:
380,256,49402,1,0,0:0:0:0:
28,328,49970,5,0,0:0:0:0:
112,212,50198,1,0,0:0:0:0:
248,168,50425,2,0,L|268:212,1,42.5
168,36,50757,2,0,P|108:60|48:168,1,191.250007295609
52,236,51221,2,0,B|80:360|200:356|256:336,1,255.000009727478
272,216,51789,5,0,0:0:0:0:
240,92,52016,1,0,0:0:0:0:
140,172,52244,2,0,L|97:168,1,42.5
68,292,52585,5,0,0:0:0:0:
128,308,52699,2,0,L|170:318,2,42.5
116,260,53011,2,0,L|100:212,1,42.5
88,156,53238,2,0,L|105:220,2,42.5
128,108,53579,6,0,P|158:69|191:48,1,85
284,108,54005,2,0,P|268:144|244:160,1,63.75
368,184,54393,2,0,L|376:232,1,42.5
384,288,54621,2,0,L|356:328,1,42.5
296,308,54848,2,0,B|272:268|268:216|288:175,1,127.5
172,256,55416,6,0,L|156:216,1,42.5
120,160,55643,2,0,L|139:122,1,42.5
188,72,55871,2,0,L|170:33,1,42.5
304,40,56211,6,0,L|277:74,1,42.5
280,144,56439,2,0,L|248:176,1,42.5
244,244,56666,2,0,L|211:270,1,42.5
144,272,56893,2,0,L|108:236,2,42.5
184,328,57234,6,0,L|226:332,1,42.5
284,357,57461,2,0,L|314:329,1,42.5
363,284,57689,2,0,L|404:290,1,42.5
356,212,58030,5,0,0:0:0:0:
364,152,58153,2,0,L|312:134,2,53.125
240,120,58579,2,0,P|202:140|185:186,1,85
424,304,59289,5,0,0:0:0:0:
40,48,60113,1,0,0:0:0:0:
92,204,60283,1,0,0:0:0:0:
204,80,60454,1,0,0:0:0:0:
224,244,60624,5,0,0:0:0:0:
388,72,61107,1,0,0:0:0:0:
348,296,61590,1,0,0:0:0:0:
52,144,61931,1,0,0:0:0:0:
448,88,62755,5,0,0:0:0:0:
284,96,62925,1,0,0:0:0:0:
340,232,63096,2,0,L|401:271,1,63.75
216,312,63749,1,0,0:0:0:0:
76,168,64090,1,0,0:0:0:0:
216,80,64261,6,0,L|284:92,1,63.75
380,184,64573,1,0,0:0:0:0:
216,304,65425,5,0,0:0:0:0:
258,191,66363,5,0,0:0:0:0:
80,348,66760,1,0,0:0:0:0:
146,294,66903,1,0,0:0:0:0:
222,227,67073,1,0,0:0:0:0:
284,169,67215,1,0,0:0:0:0:
256,188,67727,5,0,0:0:0:0:
432,36,68124,1,0,0:0:0:0:
366,90,68267,1,0,0:0:0:0:
290,157,68437,1,0,0:0:0:0:
228,215,68579,1,0,0:0:0:0:
85,335,69062,5,0,0:0:0:0:
245,209,69403,1,0,0:0:0:0:
460,43,69857,1,0,0:0:0:0:
100,332,70681,5,0,0:0:0:0:
140,280,70795,2,0,L|195:259,2,42.5
232,260,71192,1,0,0:0:0:0:
428,132,71675,5,0,0:0:0:0:
192,48,72187,1,0,0:0:0:0:
184,212,72528,1,0,0:0:0:0:
404,296,73011,1,0,0:0:0:0:
312,64,73522,1,0,0:0:0:0:
100,224,75141,2,0,L|124:244,2,31.875
184,232,75482,2,0,L|211:217,2,31.875
268,240,75823,2,0,L|296:264,2,31.875
232,316,76164,5,0,0:0:0:0:
300,328,76306,1,0,0:0:0:0:
364,276,76477,1,0,0:0:0:0:
168,124,76988,1,0,0:0:0:0:
356,268,77471,1,0,0:0:0:0:
356,116,77783,6,0,L|380:136,2,31.875
404,184,78124,2,0,L|390:212,2,31.875
380,264,78465,2,0,L|408:288,2,31.875
308,304,78806,5,0,0:0:0:0:
256,260,78948,1,0,0:0:0:0:
308,196,79119,1,0,0:0:0:0:
64,140,79630,1,0,0:0:0:0:
280,52,80113,1,0,0:0:0:0:
284,216,80454,2,0,P|269:221|258:203,2,28.3333333333333
288,144,80757,2,0,P|275:139|260:144,2,28.3333333333333
200,172,81060,2,0,P|183:175|171:170,1,28.3333333333333
136,248,81278,5,0,0:0:0:0:
200,320,81439,1,0,0:0:0:0:
292,312,81590,1,0,0:0:0:0:
368,244,81761,1,0,0:0:0:0:
104,92,82272,1,0,0:0:0:0:
392,88,82755,1,0,0:0:0:0:
284,216,83105,2,0,P|269:221|258:203,2,28.3333333333333
208,164,83408,2,0,P|195:159|180:164,2,28.3333333333333
176,248,83711,2,0,P|159:251|147:246,1,28.3333333333333
176,336,83939,5,0,0:0:0:0:
256,292,84090,1,0,0:0:0:0:
268,204,84241,1,0,0:0:0:0:
220,100,84431,1,0,0:0:0:0:
448,284,84923,1,0,0:0:0:0:
152,260,85416,1,0,0:0:0:0:
308,180,85709,6,0,L|258:218,7,63.75
257,218,87073,6,0,L|256:155,5,63.75
144,132,88408,2,0,L|83:102,2,56.6666666666667
144,132,89090,2,0,L|205:102,2,56.6666666666667
72,188,89772,5,0,0:0:0:0:
104,213,89942,1,0,0:0:0:0:
136,237,90113,1,0,0:0:0:0:
164,261,90283,1,0,0:0:0:0:
296,320,91211,6,0,L|248:288,2,56.6666666666667
296,320,91893,2,0,L|335:278,2,56.6666666666667
260,96,92575,5,0,0:0:0:0:
216,176,92726,1,0,0:0:0:0:
252,260,92878,1,0,0:0:0:0:
372,176,93124,2,0,L|400:147,8,31.875
248,180,94014,5,0,0:0:0:0:
168,136,94166,1,0,0:0:0:0:
84,168,94317,1,0,0:0:0:0:
304,108,94696,1,0,0:0:0:0:
356,180,94848,1,0,0:0:0:0:
316,260,94999,1,0,0:0:0:0:
168,176,95416,2,0,L|113:140,3,56.6666666666667
256,192,96363,12,0,98181,0:0:0:0:
