osu file format v14

[General]
AudioFilename: audio.mp3
AudioLeadIn: 0
PreviewTime: 29971
Countdown: 0
SampleSet: None
StackLeniency: 0.7
Mode: 0
LetterboxInBreaks: 0
WidescreenStoryboard: 1

[Editor]
Bookmarks: 5142
DistanceSpacing: 1.3
BeatDivisor: 12
GridSize: 4
TimelineZoom: 3.299999

[Metadata]
Title:Swordsman of a Distant Star
TitleUnicode:Swordsman of a Distant Star
Artist:ZUN
ArtistUnicode:ZUN
Creator:BlackDrake
Version:Advanced
Source:東方靈異伝 ~ Highly Responsive to Prayers
Tags:
BeatmapID:1675467
BeatmapSetID:797830

[Difficulty]
HPDrainRate:4
CircleSize:3.5
OverallDifficulty:4
ApproachRate:5.5
SliderMultiplier:0.999999999999999
SliderTickRate:3

[Events]
//Background and Video events
0,0,"Konngara Resized.jpg",0,0
//Break Periods
//Storyboard Layer 0 (Background)
//Storyboard Layer 1 (Fail)
//Storyboard Layer 2 (Pass)
//Storyboard Layer 3 (Foreground)
//Storyboard Sound Samples

[TimingPoints]
0,454.543906597481,4,1,0,100,1,0
29500,-80,4,1,0,100,0,0
43721,-100,4,1,0,100,0,0

[HitObjects]
42,154,767,6,0,P|80:84|140:48,1,150
220,40,1676,2,0,P|293:44|366:69,1,150
436,104,2585,2,0,P|436:180|424:252,1,150
356,292,3494,1,0,0:0:0:0:
212,300,4090,5,0,0:0:0:0:
128,284,4318,1,0,0:0:0:0:
92,260,4431,2,0,P|48:200|52:120,1,156.25
112,72,5340,2,0,P|184:44|264:48,1,156.25
328,80,6249,2,0,P|386:130|418:199,1,150
312,208,7244,1,0,0:0:0:0:
88,76,8153,6,0,P|160:48|236:52,1,150
316,68,9062,2,0,P|387:96|440:151,1,150
464,228,9971,2,0,P|432:298|376:349,1,150
292,348,10881,1,0,0:0:0:0:
180,336,11335,5,0,0:0:0:0:
100,304,11562,1,0,0:0:0:0:
48,236,11789,2,0,P|44:155|78:98,1,150
156,60,12698,2,0,P|236:48|296:76,1,150
368,120,13607,2,0,P|423:178|435:243,1,150
424,328,14516,1,0,0:0:0:0:
108,200,15426,1,0,0:0:0:0:
216,200,15653,1,0,0:0:0:0:
164,132,15880,2,0,P|163:108|166:79,1,50
252,92,16335,5,0,0:0:0:0:
336,104,16562,1,0,0:0:0:0:
376,124,16789,2,0,P|402:134|420:146,1,50
448,184,17244,5,0,0:0:0:0:
456,228,17471,1,0,0:0:0:0:
440,268,17698,2,0,P|428:284|401:305,1,50
364,320,18153,1,0,0:0:0:0:
304,252,18607,6,0,B|306:198|326:143|375:126,1,150
408,156,19516,2,0,P|408:184|404:212,1,56.2499999999999
340,260,19971,5,0,0:0:0:0:
340,260,20198,1,0,0:0:0:0:
272,292,20426,2,0,P|252:276|244:252,1,50
188,204,20880,5,0,0:0:0:0:
188,204,21107,1,0,0:0:0:0:
148,140,21335,2,0,P|156:112|164:88,1,50
179,67,21789,1,0,0:0:0:0:
232,56,22698,5,0,0:0:0:0:
314,79,22926,1,0,0:0:0:0:
388,96,23153,2,0,P|386:121|376:148,1,50
336,204,23607,5,0,0:0:0:0:
268,240,23835,1,0,0:0:0:0:
204,280,24062,2,0,P|217:300|221:329,1,50
144,332,24516,5,0,0:0:0:0:
68,332,24744,1,0,0:0:0:0:
44,260,24971,2,0,P|35:234|34:211,1,50
108,212,25425,1,0,0:0:0:0:
208,208,25994,6,0,B|220:188|224:164|220:136,1,74.9999999999999
144,124,26562,1,0,0:0:0:0:
64,92,26789,2,0,P|72:64|80:44,1,50
156,40,27244,5,0,0:0:0:0:
228,56,27471,1,0,0:0:0:0:
296,84,27698,2,0,P|320:108|328:124,1,50
384,172,28153,5,0,0:0:0:0:
396,244,28380,1,0,0:0:0:0:
368,312,28607,2,0,P|344:300|324:284,1,50
287,261,29061,1,0,0:0:0:0:
276,48,29971,5,0,0:0:0:0:
356,64,30198,1,0,0:0:0:0:
300,140,30426,2,0,L|260:188,1,62.4999999999999
196,256,30880,1,0,0:0:0:0:
284,288,31107,1,0,0:0:0:0:
284,288,31221,1,0,0:0:0:0:
412,276,31533,6,0,P|418:239|411:211,1,62.4999999999999
360,136,31988,1,0,0:0:0:0:
272,76,32244,2,0,P|238:87|219:105,1,62.4999999999999
280,176,32698,1,0,0:0:0:0:
392,236,33011,2,0,P|336:292|252:320,1,164.0625
168,292,33835,5,0,0:0:0:0:
100,228,34062,2,0,P|110:195|133:172,1,62.4999999999999
182,116,34517,1,0,0:0:0:0:
253,94,34744,1,0,0:0:0:0:
253,94,34857,1,0,0:0:0:0:
312,92,35085,6,0,P|361:102|397:129,1,93.7499999999999
436,200,35653,1,0,0:0:0:0:
404,276,35880,2,0,P|388:308|364:324,1,62.4999999999999
308,268,36335,1,0,0:0:0:0:
160,36,37244,5,0,0:0:0:0:
248,64,37471,1,0,0:0:0:0:
328,96,37698,2,0,P|324:128|308:152,1,62.4999999999999
284,244,38153,1,0,0:0:0:0:
192,236,38380,1,0,0:0:0:0:
192,236,38494,1,0,0:0:0:0:
156,164,38721,6,0,P|185:120|221:90,1,93.7499999999999
312,68,39289,1,0,0:0:0:0:
388,92,39488,2,0,P|409:113|417:147,1,62.4999999999999
416,224,39942,1,0,0:0:0:0:
352,272,40113,2,0,P|290:296|203:304,1,148.4375
192,232,40880,5,0,0:0:0:0:
112,180,41107,1,0,0:0:0:0:
84,104,41306,2,0,L|140:77,1,62.4999999999999
212,54,41761,2,0,P|261:49|304:60,1,93.7499999999999
368,96,42329,5,0,0:0:0:0:
412,164,42556,2,0,P|448:201|454:242,1,93.7499999999999
369,236,43124,2,0,P|349:264|317:272,1,62.4999999999999
248,261,43579,1,0,0:0:0:0:
84,188,44289,5,0,0:0:0:0:
136,148,44516,1,0,0:0:0:0:
188,104,44744,1,0,0:0:0:0:
240,60,44971,1,0,0:0:0:0:
336,68,45312,2,0,L|434:83,1,99.9999999999999
348,200,46335,5,0,0:0:0:0:
412,244,46562,1,0,0:0:0:0:
344,280,46789,2,0,P|277:294|172:281,1,175
61,215,48153,6,0,P|79:168|117:137,1,99.9999999999999
194,165,48948,2,0,L|242:181,1,50
312,204,49403,1,0,0:0:0:0:
340,275,49971,6,0,B|287:306|220:304,1,125
138,289,50757,2,0,P|100:196|129:70,1,231.25
177,85,52016,5,0,0:0:0:0:
240,100,52244,1,0,0:0:0:0:
240,100,52357,1,0,0:0:0:0:
305,103,52585,2,0,P|400:142|471:231,1,218.75
472,316,53806,5,0,0:0:0:0:
420,296,54005,1,0,0:0:0:0:
376,272,54175,1,0,0:0:0:0:
332,236,54374,2,0,P|281:168|320:88,1,181.25
286,37,55416,6,0,P|229:82|208:128,1,125
144,108,56211,2,0,P|157:205|242:249,1,200
320,252,57234,6,0,P|371:206|390:154,1,125
340,120,58030,1,0,0:0:0:0:
340,120,58153,2,0,P|295:66|223:43,1,143.75
140,123,59289,5,0,0:0:0:0:
335,253,60113,2,0,P|275:265|219:265,1,112.5
108,188,61107,1,0,0:0:0:0:
208,93,61590,1,0,0:0:0:0:
305,95,61931,1,0,0:0:0:0:
327,274,62755,6,0,P|271:274|215:262,1,112.5
114,229,63749,1,0,0:0:0:0:
57,149,64090,2,0,P|113:129|161:129,1,106.25
116,308,65425,5,0,0:0:0:0:
106,63,66363,1,0,0:0:0:0:
217,84,66761,2,0,P|266:92|310:114,1,99.9999999999999
206,218,67727,5,0,0:0:0:0:
319,212,68124,2,0,P|368:204|416:192,1,99.9999999999999
301,116,69062,1,0,0:0:0:0:
173,140,69516,1,0,0:0:0:0:
135,229,69857,1,0,0:0:0:0:
370,237,70681,5,0,0:0:0:0:
332,129,71192,1,0,0:0:0:0:
214,55,71675,1,0,0:0:0:0:
88,131,72187,1,0,0:0:0:0:
121,222,72528,1,0,0:0:0:0:
227,309,73011,1,0,0:0:0:0:
360,249,73522,1,0,0:0:0:0:
72,48,75141,6,0,B|152:48|216:80|280:128,1,225
281,216,76477,1,0,0:0:0:0:
427,220,76988,1,0,0:0:0:0:
362,97,77471,1,0,0:0:0:0:
278,65,77783,6,0,B|201:87|148:135|100:199,1,225
150,272,79119,1,0,0:0:0:0:
295,262,79630,1,0,0:0:0:0:
414,193,80113,1,0,0:0:0:0:
417,95,80454,6,0,P|365:87|317:91,1,99.9999999999999
276,100,81060,2,0,P|188:104|119:78,1,158.333333333333
97,238,82272,1,0,0:0:0:0:
222,294,82755,1,0,0:0:0:0:
210,194,83105,6,0,P|262:186|310:190,1,99.9999999999999
308,260,83711,2,0,P|396:264|460:240,1,158.333333333333
341,114,84923,1,0,0:0:0:0:
205,65,85416,1,0,0:0:0:0:
125,82,85709,6,0,P|131:221|229:279,1,262.5
275,284,87073,2,0,P|379:269|452:229,1,187.5
315,199,88408,6,0,P|299:167|299:131,1,66.6666666666666
380,104,89090,2,0,P|400:136|400:168,1,66.6666666666666
462,252,89772,2,0,P|418:292|362:300,1,112.5
353,177,91211,6,0,P|325:153|293:141,1,66.6666666666666
255,242,91893,2,0,P|223:222|207:194,1,66.6666666666666
315,179,92575,2,0,P|322:145|321:111,1,66.6666666666666
317,43,93124,2,0,P|246:76|201:134,1,150
242,176,94014,6,0,P|272:160|297:135,1,66.6666666666666
400,165,94696,2,0,P|388:201|364:221,1,66.6666666666666
256,175,95416,2,0,L|256:279,1,99.9999999999999
256,192,96363,12,0,98181,0:0:0:0:
